osu file format v14

[General]
AudioFilename: audio.mp3
AudioLeadIn: 0
PreviewTime: 45420
Countdown: 0
SampleSet: Soft
StackLeniency: 0.3
Mode: 0
LetterboxInBreaks: 0
WidescreenStoryboard: 0

[Editor]
Bookmarks: 778,23538,45950,68538,80097,91303,102420,125185,147773,173008
DistanceSpacing: 0.8
BeatDivisor: 4
GridSize: 32
TimelineZoom: 1.2

[Metadata]
Title:In Due Time
TitleUnicode:In Due Time
Artist:Killswitch Engage
ArtistUnicode:Killswitch Engage
Creator:Fenn
Version:Redemption
Source:
Tags:metal metalcore disarm the descent jesse leach streams
BeatmapID:1331078
BeatmapSetID:630525

[Difficulty]
HPDrainRate:6
CircleSize:4.2
OverallDifficulty:8.2
ApproachRate:9.2
SliderMultiplier:1.75
SliderTickRate:2

[Events]
//Background and Video events
0,0,"Killswitch Engage - Disarm The Descent Wallpaper by paulogracioli666 ....jpg",0,0
//Break Periods
//Storyboard Layer 0 (Background)
//Storyboard Layer 1 (Fail)
//Storyboard Layer 2 (Pass)
//Storyboard Layer 3 (Foreground)
//Storyboard Sound Samples

[TimingPoints]
778,352.941176470588,4,1,1,55,1,0
778,-200,4,1,1,55,0,0
1219,-100,4,2,1,55,0,0
1656,352.941176470588,4,2,1,55,1,0
3597,-100,4,1,1,55,0,0
4126,-100,4,2,1,55,0,0
6420,-100,4,1,1,55,0,0
6950,-100,4,2,1,55,0,0
9244,-100,4,1,1,55,0,0
9773,-100,4,2,1,55,0,0
12067,-100,4,1,1,55,0,0
12597,-100,4,2,1,55,0,0
14891,-100,4,1,1,55,0,0
15420,-100,4,2,1,55,0,0
17714,-100,4,1,1,55,0,0
18244,-100,4,2,1,55,0,0
20538,-100,4,1,1,55,0,0
20891,-100,4,1,1,65,0,0
21067,-100,4,2,1,65,0,0
21420,-100,4,3,2,65,0,0
21773,-100,4,3,3,65,0,0
22126,-100,4,1,1,65,0,0
23008,-100,4,1,1,55,0,0
23538,-100,4,1,1,60,0,0
28126,-100,4,2,1,60,0,0
28302,-80,4,2,1,60,0,0
28479,-80,4,2,5,60,0,0
28655,-80,4,2,1,60,0,0
28832,-100,4,2,1,60,0,0
29185,-100,4,1,1,60,0,0
34126,-100,4,2,1,65,0,0
34832,-100,4,1,1,60,0,0
39420,-100,4,2,1,60,0,0
39596,-80,4,2,1,60,0,0
39773,-80,4,2,5,60,0,0
39950,-80,4,2,1,60,0,0
40126,-100,4,2,1,60,0,0
40479,-100,4,1,1,60,0,0
43303,-100,4,2,1,60,0,0
44891,-100,4,2,1,65,0,0
45597,-100,4,3,2,60,0,0
45773,-100,4,3,3,60,0,0
45950,-100,4,1,1,60,0,1
47538,-100,4,2,6,60,0,1
47714,-100,4,2,1,60,0,1
49303,-100,4,2,1,60,0,1
56891,-100,4,3,2,60,0,1
57067,-100,4,3,3,60,0,1
57244,-100,4,1,1,60,0,1
58832,-100,4,2,6,60,0,1
59008,-100,4,2,1,60,0,1
60597,-100,4,2,1,60,0,1
67303,-100,4,1,4,70,0,0
68537,-200,4,1,1,55,0,0
68979,-100,4,2,1,55,0,0
71361,-100,4,1,1,55,0,0
71714,-100,4,2,1,55,0,0
74185,-100,4,1,1,55,0,0
74538,-100,4,2,1,55,0,0
77008,-100,4,1,1,55,0,0
77361,-100,4,2,1,55,0,0
79832,-133.333333333333,4,1,1,55,0,0
80185,-100,4,2,1,55,0,0
84950,-100,4,2,1,65,0,0
85038,-100,4,3,2,65,0,0
85303,-100,4,3,3,65,0,0
85479,-133.333333333333,4,1,1,55,0,0
85832,-100,4,2,1,55,0,0
89979,-100,4,2,1,65,0,0
90332,-100,4,2,1,55,0,0
90508,-100,4,2,1,65,0,0
90950,-100,4,2,1,55,0,0
91038,-100,4,3,2,55,0,0
91126,-100,4,3,3,55,0,0
91303,-100,4,1,1,60,0,0
91655,-100,4,2,1,60,0,0
96066,-80,4,2,1,60,0,0
96244,-80,4,2,5,60,0,0
96420,-80,4,2,1,60,0,0
96597,-100,4,2,1,60,0,0
96950,-100,4,1,1,60,0,0
97303,-100,4,2,1,60,0,0
101361,-100,4,2,1,65,0,0
101714,-100,4,3,2,55,0,0
102067,-100,4,3,3,55,0,0
102420,-100,4,1,1,60,0,1
104008,-100,4,2,6,60,0,1
104185,-100,4,2,1,60,0,1
112655,-100,4,2,1,65,0,1
113185,-100,4,3,2,55,0,1
113361,-100,4,3,3,55,0,1
113714,-125,4,1,1,45,0,0
114244,-125,4,2,1,45,0,0
115126,-125,4,1,1,45,0,0
115655,-125,4,2,1,45,0,0
116537,-100,4,1,1,55,0,0
118832,-100,4,2,1,65,0,0
119361,-125,4,1,1,45,0,0
119891,-125,4,2,1,45,0,0
120773,-125,4,1,1,45,0,0
121303,-125,4,2,1,45,0,0
122185,-100,4,1,1,55,0,0
124655,-100,4,3,2,55,0,0
124832,-100,4,3,3,55,0,0
125185,-125,4,1,1,50,0,0
136479,-111.111111111111,4,1,1,50,0,0
137185,-111.111111111111,4,2,1,50,0,0
140714,-111.111111111111,4,1,1,50,0,0
142832,-111.111111111111,4,2,1,50,0,0
146361,-111.111111111111,4,2,1,65,0,0
146891,-111.111111111111,4,3,2,65,0,0
147420,-111.111111111111,4,3,3,65,0,0
147773,-100,4,1,1,60,0,0
149185,-90.9090909090909,4,2,1,60,0,0
150420,-100,4,2,1,60,0,0
153420,-90.9090909090909,4,1,1,55,0,1
156243,-83.3333333333333,4,2,1,65,0,1
158361,-83.3333333333333,4,1,1,65,0,1
159067,-100,4,1,1,60,0,1
159420,-100,4,2,1,60,0,1
164714,-100,4,1,1,55,0,1
165067,-100,4,2,1,55,0,1
167538,-100,4,2,1,60,0,1
168950,-100,4,2,1,65,0,1
170185,-100,4,1,1,65,0,0
173008,-100,4,1,1,60,0,1
173538,-100,4,2,1,60,0,1
175479,-100,4,3,3,60,0,1
175832,-100,4,2,1,60,0,1
179714,-100,4,2,1,65,0,1
180420,-100,4,3,2,60,0,1
180950,-100,4,3,3,55,0,1
181479,-125,4,1,1,50,0,0
182008,-125,4,2,1,50,0,0
182891,-125,4,1,1,50,0,0
183420,-125,4,2,1,50,0,0
184302,-100,4,1,1,60,0,0
187126,-125,4,1,1,50,0,0
187655,-125,4,2,1,50,0,0
188538,-125,4,1,1,50,0,0
189067,-125,4,2,1,50,0,0
189949,-100,4,1,1,60,0,0
195596,-133.333333333333,4,1,4,70,0,0

[Colours]
Combo1 : 255,128,64
Combo2 : 255,0,0
Combo3 : 255,128,0
Combo4 : 128,64,64

[HitObjects]
125,246,778,6,0,B|153:253|153:253|183:234|221:241,1,87.5,4|0,0:0|0:0,0:0:0:0:
244,242,1219,1,0,0:0:0:0:
277,252,1307,6,0,P|305:266|329:266,1,43.75,6|0,0:0|0:0,0:0:0:0:
289,111,1483,1,0,0:0:0:0:
253,107,1572,1,0,0:0:0:0:
219,117,1656,2,0,P|192:134|180:155,1,43.75,14|0,0:0|0:0,0:0:0:0:
202,316,1832,5,0,0:0:0:0:
236,324,1920,1,0,0:0:0:0:
270,332,2008,1,4,0:0:0:0:
304,340,2096,1,0,0:0:0:0:
338,348,2185,6,0,L|384:339,1,43.75,2|0,0:0|0:0,0:0:0:0:
385,223,2361,1,4,0:0:0:0:
390,188,2450,1,0,0:0:0:0:
396,153,2538,2,0,L|443:144,1,43.75,2|0,0:0|0:0,0:0:0:0:
249,116,2714,5,4,0:0:0:0:
213,123,2802,1,0,0:0:0:0:
185,143,2890,1,0,0:0:0:0:
167,172,2978,1,0,0:0:0:0:
159,206,3067,6,0,L|164:262,1,43.75,14|0,0:0|0:0,0:0:0:0:
304,340,3244,1,0,0:0:0:0:
396,153,3420,6,0,L|401:97,1,43.75,10|0,0:0|0:0,0:0:0:0:
334,15,3597,2,0,B|303:6|303:6|284:20|284:20|259:9|259:9|237:40|201:21,1,131.25,6|0,0:0|0:0,0:0:0:0:
182,29,3950,5,0,0:0:0:0:
189,63,4039,1,0,0:0:0:0:
182,98,4127,2,0,P|167:126|147:140,1,43.75,6|0,0:0|0:0,0:0:0:0:
69,218,4303,5,0,0:0:0:0:
62,252,4392,1,0,0:0:0:0:
69,287,4480,2,0,P|83:315|103:329,1,43.75,14|0,0:0|0:0,0:0:0:0:
264,366,4655,5,0,0:0:0:0:
298,365,4743,1,0,0:0:0:0:
333,364,4831,1,4,0:0:0:0:
368,363,4919,1,0,0:0:0:0:
394,339,5008,6,0,L|374:298,1,43.75,2|0,0:0|0:0,0:0:0:0:
333,111,5185,1,0,0:0:0:0:
294,280,5361,1,2,0:0:0:0:
158,133,5538,1,2,0:0:0:0:
197,302,5714,1,0,0:0:0:0:
396,212,5891,5,10,0:0:0:0:
111,232,6067,1,2,0:0:0:0:
404,232,6244,1,8,0:0:0:0:
197,302,6420,2,0,B|205:358|242:374|242:374|276:337,1,131.25,6|0,0:0|0:0,0:0:0:0:
289,313,6773,5,0,0:0:0:0:
295,278,6861,1,0,0:0:0:0:
300,242,6950,2,0,L|308:193,1,43.75,6|0,0:0|0:0,0:0:0:0:
195,183,7126,5,0,0:0:0:0:
189,148,7214,1,0,0:0:0:0:
184,112,7303,2,0,L|175:63,1,43.75,14|0,0:0|0:0,0:0:0:0:
396,101,7479,5,0,0:0:0:0:
409,133,7567,1,0,0:0:0:0:
413,167,7655,1,4,0:0:0:0:
404,201,7743,1,0,0:0:0:0:
386,230,7832,6,0,L|379:286,1,43.75,2|0,0:0|0:0,0:0:0:0:
276,347,8008,1,4,0:0:0:0:
240,346,8097,1,0,0:0:0:0:
205,344,8185,2,0,L|158:338,1,43.75,2|0,0:0|0:0,0:0:0:0:
75,231,8361,5,4,0:0:0:0:
107,232,8449,1,0,0:0:0:0:
141,226,8537,1,0,0:0:0:0:
172,207,8625,1,0,0:0:0:0:
195,183,8714,6,0,P|213:163|234:152,1,43.75,14|0,0:0|0:0,0:0:0:0:
390,79,8891,1,0,0:0:0:0:
300,239,9067,6,0,P|281:250|267:267,1,43.75,10|0,0:0|0:0,0:0:0:0:
204,362,9244,2,0,B|235:371|235:371|254:357|254:357|279:368|279:368|301:337|337:356,1,131.25,6|0,0:0|0:0,0:0:0:0:
355,354,9597,5,0,0:0:0:0:
368,321,9686,1,0,0:0:0:0:
394,296,9774,2,0,P|422:281|446:281,1,43.75,6|0,0:0|0:0,0:0:0:0:
297,216,9950,5,0,0:0:0:0:
284,183,10039,1,0,0:0:0:0:
258,158,10127,2,0,P|229:143|205:143,1,43.75,14|0,0:0|0:0,0:0:0:0:
78,289,10303,5,0,0:0:0:0:
108,306,10391,1,0,0:0:0:0:
142,308,10479,1,4,0:0:0:0:
174,294,10567,1,0,0:0:0:0:
196,267,10655,6,0,P|208:244|212:222,1,43.75,2|0,0:0|0:0,0:0:0:0:
270,53,10832,1,2,0:0:0:0:
379,216,11008,1,2,0:0:0:0:
372,67,11185,1,2,0:0:0:0:
285,242,11361,1,2,0:0:0:0:
78,289,11538,5,10,0:0:0:0:
306,143,11714,1,2,0:0:0:0:
77,28,11891,1,10,0:0:0:0:
92,68,11979,1,8,0:0:0:0:
109,108,12067,2,0,B|122:123|122:123|140:135|140:135|136:157|136:157|179:190|175:241,1,131.25,6|0,0:0|0:0,0:0:0:0:
186,244,12420,5,0,0:0:0:0:
203,274,12508,1,0,0:0:0:0:
221,303,12597,2,0,L|260:331,1,43.75,6|0,0:0|0:0,0:0:0:0:
406,296,12773,5,0,0:0:0:0:
389,266,12861,1,0,0:0:0:0:
371,237,12950,2,0,L|332:209,1,43.75,14|0,0:0|0:0,0:0:0:0:
125,108,13126,5,0,0:0:0:0:
159,107,13214,1,0,0:0:0:0:
194,107,13302,1,4,0:0:0:0:
229,105,13390,1,0,0:0:0:0:
264,105,13479,6,0,L|311:106,1,43.75,2|0,0:0|0:0,0:0:0:0:
436,11,13655,1,4,0:0:0:0:
455,39,13744,1,0,0:0:0:0:
460,74,13832,2,0,P|455:106|440:125,1,43.75,2|0,0:0|0:0,0:0:0:0:
389,266,14008,5,4,0:0:0:0:
355,267,14096,1,0,0:0:0:0:
320,267,14184,1,0,0:0:0:0:
285,269,14272,1,0,0:0:0:0:
250,269,14361,6,0,L|203:268,1,43.75,10|0,0:0|0:0,0:0:0:0:
74,360,14538,1,0,0:0:0:0:
81,176,14714,6,0,L|84:120,1,43.75,10|0,0:0|0:0,0:0:0:0:
158,56,14891,2,0,B|195:33|230:44|230:44|268:54|316:30,1,131.25,6|0,0:0|0:0,0:0:0:0:
320,37,15244,5,0,0:0:0:0:
313,71,15333,1,0,0:0:0:0:
320,106,15421,2,0,P|335:134|355:148,1,43.75,6|0,0:0|0:0,0:0:0:0:
441,224,15597,5,0,0:0:0:0:
448,258,15686,1,0,0:0:0:0:
441,293,15774,2,0,P|426:321|406:335,1,43.75,14|0,0:0|0:0,0:0:0:0:
206,268,15950,5,0,0:0:0:0:
206,233,16038,1,0,0:0:0:0:
207,198,16126,1,4,0:0:0:0:
208,163,16214,1,0,0:0:0:0:
209,128,16303,6,0,L|210:75,1,43.75,2|0,0:0|0:0,0:0:0:0:
364,264,16479,1,0,0:0:0:0:
199,366,16655,1,2,0:0:0:0:
207,198,16832,1,2,0:0:0:0:
309,362,17008,1,0,0:0:0:0:
324,120,17185,5,10,0:0:0:0:
124,277,17361,1,2,0:0:0:0:
335,138,17538,1,8,0:0:0:0:
309,362,17714,2,0,B|376:372|376:372|364:338|381:297,1,131.25,6|0,0:0|0:0,0:0:0:0:
408,295,18067,5,0,0:0:0:0:
414,260,18155,1,0,0:0:0:0:
419,225,18244,2,0,L|426:175,1,43.75,6|0,0:0|0:0,0:0:0:0:
324,120,18420,5,0,0:0:0:0:
296,97,18508,1,0,0:0:0:0:
268,75,18597,2,0,L|228:43,1,43.75,14|0,0:0|0:0,0:0:0:0:
73,260,18773,5,0,0:0:0:0:
103,277,18861,1,0,0:0:0:0:
137,279,18949,1,4,0:0:0:0:
169,265,19037,1,0,0:0:0:0:
191,238,19125,6,0,P|203:215|207:193,1,43.75,2|0,0:0|0:0,0:0:0:0:
140,60,19303,1,4,0:0:0:0:
108,74,19391,1,0,0:0:0:0:
86,101,19479,2,0,P|74:124|70:146,1,43.75,2|0,0:0|0:0,0:0:0:0:
192,346,19655,5,4,0:0:0:0:
226,345,19743,1,0,0:0:0:0:
261,345,19831,1,0,0:0:0:0:
296,344,19919,1,0,0:0:0:0:
331,344,20008,6,0,L|382:332,1,43.75,10|0,0:0|0:0,0:0:0:0:
308,184,20185,1,0,0:0:0:0:
215,11,20361,6,0,L|213:61,1,43.75,10|0,0:0|0:0,0:0:0:0:
304,83,20538,2,0,B|322:76|322:76|340:65|340:65|359:77|359:77|406:50|452:74,1,131.25,6|0,0:0|0:0,0:0:0:0:
458,73,20891,5,8,0:0:0:0:
467,115,20979,1,8,0:0:0:0:
471,158,21067,1,10,0:0:0:0:
472,201,21155,1,8,0:0:0:0:
469,244,21243,1,8,0:0:0:0:
465,287,21332,1,8,0:0:0:0:
457,321,21420,5,2,0:0:0:0:
423,310,21508,1,0,0:0:0:0:
387,306,21596,1,0,0:0:0:0:
354,311,21684,1,0,0:0:0:0:
339,333,21773,5,0,0:0:0:0:
311,341,21861,1,0,0:0:0:0:
283,345,21949,1,2,0:0:0:0:
256,341,22037,1,0,0:0:0:0:
216,320,22126,5,8,0:0:0:0:
304,83,23008,5,0,0:0:0:0:
216,320,23185,1,10,0:0:0:0:
284,73,23361,1,0,0:0:0:0:
108,182,23538,5,6,0:0:0:0:
353,207,23714,2,0,P|296:219|254:215,1,87.5,0|8,0:0|0:0,0:0:0:0:
128,321,24067,2,0,L|226:319,1,87.5,0|2,0:0|0:0,0:0:0:0:
440,208,24420,2,0,L|342:206,1,87.5,0|10,0:0|0:0,0:0:0:0:
184,52,24773,1,0,0:0:0:0:
184,52,24949,2,0,L|204:147,1,87.5
332,92,25302,1,8,0:0:0:0:
332,92,25479,1,0,0:0:0:0:
411,207,25655,5,0,0:0:0:0:
417,228,25744,1,0,0:0:0:0:
423,249,25832,1,2,0:0:0:0:
281,274,26008,5,10,0:0:0:0:
275,295,26097,1,0,0:0:0:0:
270,316,26185,1,0,0:0:0:0:
108,182,26361,5,2,0:0:0:0:
251,76,26538,2,0,P|254:127|285:166,1,87.5,0|10,0:0|0:0,0:0:0:0:
423,249,26890,1,0,0:0:0:0:
332,96,27067,1,2,0:0:0:0:
332,303,27243,1,0,0:0:0:0:
419,147,27420,1,10,0:0:0:0:
108,182,27596,5,0,0:0:0:0:
108,182,27773,2,0,B|150:200|150:200|200:193,1,87.5
83,314,28126,1,12,0:0:0:0:
169,83,28302,6,0,B|208:90|235:61|235:61|270:94|270:94|305:76|305:76|334:101|377:89,1,218.75
449,187,28832,2,0,P|464:244|449:303,1,87.5,12|0,0:0|0:0,0:0:0:0:
243,363,29185,5,4,0:0:0:0:
119,266,29361,2,0,P|104:209|119:150,1,87.5,0|10,0:0|0:0,0:0:0:0:
236,63,29714,2,0,L|252:162,1,87.5,0|2,0:0|0:0,0:0:0:0:
332,326,30067,2,0,L|348:227,1,87.5,0|10,0:0|0:0,0:0:0:0:
203,271,30420,2,0,P|160:277|119:266,2,87.5,0|2|0,0:0|0:0|0:0,0:0:0:0:
171,163,30949,1,8,0:0:0:0:
171,163,31126,1,2,0:0:0:0:
271,73,31302,5,0,0:0:0:0:
292,67,31391,1,0,0:0:0:0:
313,61,31479,1,0,0:0:0:0:
338,203,31655,5,10,0:0:0:0:
359,209,31744,1,0,0:0:0:0:
380,214,31832,1,0,0:0:0:0:
303,339,32008,5,0,0:0:0:0:
171,263,32185,2,0,L|83:264,1,87.5,0|8,0:0|0:0,0:0:0:0:
169,75,32537,2,0,L|171:170,1,87.5
250,204,32890,2,0,L|337:202,1,87.5,0|8,0:0|0:0,0:0:0:0:
448,193,33243,5,0,0:0:0:0:
293,80,33420,1,4,0:0:0:0:
299,305,33596,1,0,0:0:0:0:
144,192,33773,1,8,0:0:0:0:
293,80,33949,1,0,0:0:0:0:
82,261,34126,5,2,0:0:0:0:
118,284,34214,1,8,0:0:0:0:
161,286,34302,1,10,0:0:0:0:
200,267,34390,1,8,0:0:0:0:
225,231,34479,1,8,0:0:0:0:
261,208,34567,1,8,0:0:0:0:
304,206,34655,1,8,0:0:0:0:
343,225,34743,1,8,0:0:0:0:
373,256,34832,5,6,0:0:0:0:
443,151,35008,2,0,P|435:93|392:47,1,87.5,0|8,0:0|0:0,0:0:0:0:
120,93,35361,2,0,P|166:113|211:113,1,87.5
443,151,35714,2,0,P|393:156|354:179,1,87.5,0|10,0:0|0:0,0:0:0:0:
288,283,36067,1,0,0:0:0:0:
288,283,36243,2,0,L|281:375,1,87.5
153,317,36596,1,10,0:0:0:0:
153,317,36773,1,0,0:0:0:0:
70,199,36949,5,0,0:0:0:0:
64,178,37038,1,0,0:0:0:0:
58,157,37126,1,0,0:0:0:0:
200,132,37302,5,8,0:0:0:0:
206,111,37391,1,0,0:0:0:0:
211,90,37479,1,0,0:0:0:0:
100,19,37655,5,2,0:0:0:0:
173,243,37832,1,0,0:0:0:0:
294,126,38008,1,10,0:0:0:0:
70,199,38185,1,0,0:0:0:0:
172,119,38361,5,2,0:0:0:0:
65,329,38538,1,0,0:0:0:0:
280,306,38714,1,10,0:0:0:0:
70,199,38891,1,2,0:0:0:0:
70,199,39067,2,0,B|109:231|109:231|145:237,1,87.5
305,166,39420,1,12,0:0:0:0:
470,315,39596,6,0,B|431:308|404:337|404:337|369:304|369:304|334:322|334:322|305:297|251:310,1,218.75
149,295,40126,2,0,P|153:252|182:220,1,87.5,12|0,0:0|0:0,0:0:0:0:
373,78,40479,5,4,0:0:0:0:
416,201,40655,2,0,P|361:209|324:199,1,87.5,0|10,0:0|0:0,0:0:0:0:
146,103,41008,2,0,L|54:58,1,87.5,0|2,0:0|0:0,0:0:0:0:
181,220,41361,2,0,L|78:227,1,87.5,0|10,0:0|0:0,0:0:0:0:
254,133,41714,1,0,0:0:0:0:
254,133,41890,2,0,L|346:88,1,87.5,2|0,0:0|0:0,0:0:0:0:
355,221,42243,1,8,0:0:0:0:
355,221,42420,1,2,0:0:0:0:
247,350,42596,5,0,0:0:0:0:
227,356,42685,1,0,0:0:0:0:
206,362,42773,1,2,0:0:0:0:
181,220,42949,5,8,0:0:0:0:
160,214,43038,1,0,0:0:0:0:
139,209,43126,1,0,0:0:0:0:
355,221,43302,5,6,0:0:0:0:
453,48,43479,2,0,P|465:99|456:139,1,87.5,0|12,0:0|0:0,0:0:0:0:
267,147,43832,2,0,B|226:126|226:126|198:85,1,87.5,0|4,0:0|0:0,0:0:0:0:
261,269,44185,2,0,B|302:290|302:290|330:331,1,87.5,0|12,0:0|0:0,0:0:0:0:
153,298,44537,1,0,0:0:0:0:
267,147,44714,1,4,0:0:0:0:
444,220,44890,5,8,0:0:0:0:
399,220,44979,1,8,0:0:0:0:
355,221,45067,1,8,0:0:0:0:
126,125,45243,1,8,0:0:0:0:
393,86,45420,1,8,0:0:0:0:
261,269,45596,1,0,0:0:0:0:
267,147,45773,1,0,0:0:0:0:
96,297,45949,6,0,P|178:306|268:262,1,175,4|0,0:0|0:0,0:0:0:0:
360,172,46479,1,8,0:0:0:0:
376,290,46655,2,0,P|416:317|469:320,1,87.5,0|2,0:0|0:0,0:0:0:0:
360,172,47008,2,0,P|317:178|281:204,1,87.5,0|8,0:0|0:0,0:0:0:0:
96,297,47361,6,0,B|81:244|81:244|94:97,1,175
201,232,47890,1,8,0:0:0:0:
201,232,48067,1,0,0:0:0:0:
290,285,48243,2,0,P|336:296|390:283,1,87.5,2|0,0:0|0:0,0:0:0:0:
381,99,48596,1,8,0:0:0:0:
91,124,48773,2,0,P|193:149|272:133,1,175,2|0,0:0|0:0,0:0:0:0:
381,99,49302,5,12,0:0:0:0:
244,248,49479,1,0,0:0:0:0:
387,122,49655,5,4,0:0:0:0:
323,313,49832,1,0,0:0:0:0:
394,144,50008,5,12,0:0:0:0:
418,345,50185,1,0,0:0:0:0:
133,315,50361,5,6,0:0:0:0:
334,291,50537,1,2,0:0:0:0:
139,290,50714,5,12,0:0:0:0:
309,183,50890,1,2,0:0:0:0:
145,265,51067,5,4,0:0:0:0:
381,99,51243,1,8,0:0:0:0:
381,99,51420,1,10,0:0:0:0:
152,94,51596,6,0,P|132:200|148:276,1,175,2|0,0:0|0:0,0:0:0:0:
274,187,52126,1,8,0:0:0:0:
350,283,52302,2,0,L|456:299,2,87.5
274,187,52832,1,8,0:0:0:0:
402,36,53008,6,0,B|397:100|397:100|418:151|418:151|409:211,1,175,2|0,0:0|0:0,0:0:0:0:
350,283,53537,2,0,P|296:271|251:275,1,87.5,8|0,0:0|0:0,0:0:0:0:
90,325,53890,2,0,P|144:337|189:333,1,87.5
318,184,54243,1,8,0:0:0:0:
193,68,54420,2,0,P|166:161|91:190,1,175,2|0,0:0|0:0,0:0:0:0:
94,88,54949,5,12,0:0:0:0:
139,273,55126,1,0,0:0:0:0:
243,129,55302,5,4,0:0:0:0:
145,293,55479,1,0,0:0:0:0:
336,266,55655,5,12,0:0:0:0:
151,313,55832,1,0,0:0:0:0:
347,154,56008,5,4,0:0:0:0:
249,318,56185,1,0,0:0:0:0:
341,134,56361,5,12,0:0:0:0:
156,181,56538,1,0,0:0:0:0:
366,139,56714,5,8,0:0:0:0:
294,203,56890,1,0,0:0:0:0:
386,232,57067,1,0,0:0:0:0:
138,293,57243,6,0,P|230:315|319:292,1,175,4|0,0:0|0:0,0:0:0:0:
366,139,57773,1,8,0:0:0:0:
251,71,57949,2,0,P|201:84|166:122,2,87.5,0|2|0,0:0|0:0|0:0,0:0:0:0:
356,26,58479,1,8,0:0:0:0:
260,180,58655,6,0,B|260:207|260:207|251:227|251:227|268:246|268:246|246:299|275:369,1,175
436,298,59185,2,0,P|393:290|350:296,1,87.5,8|0,0:0|0:0,0:0:0:0:
170,344,59537,2,0,P|127:351|83:346,1,87.5,2|0,0:0|0:0,0:0:0:0:
266,247,59890,1,8,0:0:0:0:
145,103,60067,2,0,P|115:209|132:285,1,175,2|0,0:0|0:0,0:0:0:0:
250,136,60596,5,12,0:0:0:0:
126,270,60773,1,0,0:0:0:0:
268,147,60949,5,4,0:0:0:0:
144,281,61126,1,0,0:0:0:0:
396,209,61302,5,12,0:0:0:0:
213,216,61479,1,0,0:0:0:0:
400,229,61655,5,6,0:0:0:0:
218,236,61832,1,2,0:0:0:0:
120,301,62008,5,12,0:0:0:0:
302,308,62185,1,2,0:0:0:0:
213,216,62361,5,4,0:0:0:0:
369,113,62537,1,8,0:0:0:0:
369,113,62714,1,10,0:0:0:0:
217,304,62891,6,0,P|262:315|314:301,1,87.5
258,185,63244,2,0,P|212:173|160:187,1,87.5,0|8,0:0|0:0,0:0:0:0:
148,190,63773,1,0,0:0:0:0:
54,269,63950,2,0,P|53:324|79:371,1,87.5,0|8,0:0|0:0,0:0:0:0:
221,298,64302,6,0,B|247:293|247:293|265:280|265:280|287:294|287:294|335:263|409:279,1,175,2|0,0:0|0:0,0:0:0:0:
358,101,64832,2,0,L|349:199,1,87.5,8|0,0:0|0:0,0:0:0:0:
220,297,65185,2,0,L|212:210,1,87.5
218,61,65537,1,8,0:0:0:0:
420,190,65714,2,0,P|368:190|370:260,1,131.25,2|0,0:0|0:0,0:0:0:0:
365,256,66067,5,8,0:0:0:0:
149,205,66244,1,8,0:0:0:0:
295,46,66420,1,0,0:0:0:0:
241,293,66596,5,8,0:0:0:0:
173,85,66773,1,0,0:0:0:0:
387,134,66949,1,0,0:0:0:0:
241,293,67126,5,0,0:0:0:0:
300,24,67302,1,4,0:0:0:0:
87,102,68537,6,0,B|134:95|134:95|183:107,1,87.5,4|0,0:0|0:0,0:0:0:0:
207,114,68979,1,0,0:0:0:0:
239,125,69067,6,0,L|287:121,1,43.75,2|0,0:0|0:0,0:0:0:0:
394,165,69243,1,0,0:0:0:0:
388,199,69332,1,0,0:0:0:0:
382,233,69420,2,0,L|364:282,1,43.75,14|0,0:0|0:0,0:0:0:0:
229,368,69596,5,0,0:0:0:0:
203,344,69684,1,0,0:0:0:0:
189,312,69772,1,0,0:0:0:0:
189,277,69860,1,0,0:0:0:0:
203,245,69949,6,0,L|172:197,1,43.75,2|0,0:0|0:0,0:0:0:0:
57,142,70126,1,4,0:0:0:0:
63,176,70215,1,0,0:0:0:0:
68,209,70303,2,0,L|84:251,1,43.75,2|0,0:0|0:0,0:0:0:0:
275,295,70479,5,0,0:0:0:0:
309,294,70567,1,0,0:0:0:0:
344,294,70655,1,0,0:0:0:0:
379,293,70743,1,0,0:0:0:0:
414,293,70832,6,0,L|398:237,1,43.75,10|0,0:0|0:0,0:0:0:0:
343,97,71008,1,0,0:0:0:0:
88,86,71185,6,0,L|146:88,1,43.75,10|0,0:0|0:0,0:0:0:0:
250,30,71361,2,0,P|218:107|241:157,1,131.25,6|0,0:0|0:0,0:0:0:0:
256,175,71714,5,0,0:0:0:0:
263,209,71803,1,0,0:0:0:0:
256,244,71891,2,0,P|241:272|221:286,1,43.75,2|0,0:0|0:0,0:0:0:0:
62,186,72067,5,0,0:0:0:0:
96,178,72156,1,0,0:0:0:0:
130,185,72244,2,0,P|150:193|166:209,1,43.75,14|0,0:0|0:0,0:0:0:0:
328,312,72420,5,0,0:0:0:0:
358,329,72508,1,0,0:0:0:0:
392,331,72596,1,0,0:0:0:0:
425,319,72684,1,0,0:0:0:0:
448,294,72773,2,0,L|439:244,1,43.75,2|0,0:0|0:0,0:0:0:0:
421,88,72949,5,4,0:0:0:0:
255,187,73126,1,2,0:0:0:0:
446,183,73302,1,2,0:0:0:0:
277,89,73479,1,0,0:0:0:0:
96,210,73655,5,10,0:0:0:0:
256,359,73832,1,2,0:0:0:0:
415,210,74008,1,8,0:0:0:0:
136,46,74185,2,0,B|150:59|150:59|169:70|169:70|167:92|167:92|212:121|213:172,1,131.25,6|0,0:0|0:0,0:0:0:0:
225,174,74537,5,0,0:0:0:0:
249,198,74626,1,0,0:0:0:0:
272,222,74714,2,0,L|304:253,1,43.75,2|0,0:0|0:0,0:0:0:0:
246,337,74890,5,0,0:0:0:0:
279,346,74979,1,0,0:0:0:0:
311,355,75067,2,0,L|353:365,1,43.75,14|0,0:0|0:0,0:0:0:0:
414,245,75243,5,0,0:0:0:0:
415,210,75331,1,0,0:0:0:0:
416,175,75419,1,0,0:0:0:0:
417,140,75507,1,0,0:0:0:0:
418,105,75596,6,0,L|397:60,1,43.75,2|0,0:0|0:0,0:0:0:0:
193,113,75773,1,4,0:0:0:0:
222,132,75862,1,0,0:0:0:0:
255,136,75950,2,0,P|277:136|297:127,1,43.75,2|0,0:0|0:0,0:0:0:0:
412,47,76126,5,0,0:0:0:0:
433,75,76214,1,0,0:0:0:0:
443,108,76302,1,0,0:0:0:0:
441,143,76390,1,0,0:0:0:0:
428,175,76479,6,0,L|412:225,1,43.75,10|0,0:0|0:0,0:0:0:0:
279,346,76655,1,0,0:0:0:0:
97,216,76832,6,0,L|84:175,1,43.75,10|0,0:0|0:0,0:0:0:0:
71,80,77008,2,0,B|102:71|102:71|121:85|121:85|146:74|146:74|168:105|204:86,1,131.25,6|0,0:0|0:0,0:0:0:0:
222,93,77361,5,0,0:0:0:0:
228,127,77450,1,0,0:0:0:0:
245,157,77538,2,0,P|260:173|280:183,1,43.75,2|0,0:0|0:0,0:0:0:0:
395,200,77714,5,0,0:0:0:0:
389,234,77803,1,0,0:0:0:0:
371,265,77891,2,0,P|347:286|323:292,1,43.75,14|0,0:0|0:0,0:0:0:0:
62,266,78067,5,0,0:0:0:0:
96,265,78155,1,0,0:0:0:0:
131,264,78243,1,0,0:0:0:0:
166,263,78331,1,0,0:0:0:0:
200,261,78420,2,0,L|244:257,1,43.75,2|0,0:0|0:0,0:0:0:0:
318,101,78596,5,6,0:0:0:0:
371,265,78773,1,2,0:0:0:0:
235,218,78949,1,2,0:0:0:0:
399,165,79126,1,2,0:0:0:0:
174,89,79302,1,14,0:0:0:0:
208,326,79479,1,2,0:0:0:0:
399,165,79655,5,10,0:0:0:0:
404,207,79743,1,8,0:0:0:0:
386,246,79832,2,0,P|337:291|279:293,1,98.4375037550928,6|0,0:0|0:0,0:0:0:0:
274,290,80185,5,0,0:0:0:0:
250,264,80273,1,0,0:0:0:0:
236,232,80361,1,4,0:0:0:0:
235,197,80449,1,0,0:0:0:0:
247,164,80537,1,0,0:0:0:0:
268,137,80626,1,0,0:0:0:0:
298,119,80714,1,14,0:0:0:0:
332,113,80802,1,0,0:0:0:0:
365,121,80890,1,0,0:0:0:0:
392,142,80979,1,0,0:0:0:0:
410,172,81067,1,6,0:0:0:0:
416,206,81155,1,0,0:0:0:0:
414,240,81243,1,0,0:0:0:0:
420,274,81331,1,0,0:0:0:0:
434,305,81420,6,0,L|458:343,7,43.75,12|0|0|0|6|0|0|0,0:0|0:0|0:0|0:0|0:0|0:0|0:0|0:0,0:0:0:0:
322,265,82126,2,0,L|298:227,7,43.75,12|0|0|0|4|0|0|0,0:0|0:0|0:0|0:0|0:0|0:0|0:0|0:0,0:0:0:0:
144,327,82832,5,14,0:0:0:0:
112,311,82920,1,0,0:0:0:0:
91,283,83008,1,0,0:0:0:0:
84,249,83096,1,0,0:0:0:0:
95,216,83184,1,6,0:0:0:0:
119,191,83273,1,0,0:0:0:0:
152,179,83361,1,0,0:0:0:0:
186,184,83449,1,0,0:0:0:0:
218,196,83537,1,14,0:0:0:0:
252,201,83625,1,0,0:0:0:0:
285,189,83713,1,0,0:0:0:0:
309,164,83802,1,0,0:0:0:0:
320,131,83890,1,6,0:0:0:0:
313,97,83978,1,0,0:0:0:0:
292,69,84066,1,0,0:0:0:0:
260,53,84154,1,0,0:0:0:0:
225,48,84243,6,0,L|166:59,7,43.75,14|0|0|0|6|0|0|0,0:0|0:0|0:0|0:0|0:0|0:0|0:0|0:0,0:0:0:0:
177,109,84949,5,10,0:0:0:0:
216,137,85037,1,0,0:0:0:0:
261,156,85125,1,0,0:0:0:0:
309,164,85213,1,0,0:0:0:0:
356,160,85301,1,2,0:0:0:0:
402,146,85390,1,0,0:0:0:0:
443,121,85479,6,0,B|454:156|454:156|452:188|452:188|432:225,1,98.4375037550928,12|0,0:0|0:0,0:0:0:0:
419,243,85832,5,0,0:0:0:0:
388,261,85920,1,0,0:0:0:0:
355,273,86008,1,4,0:0:0:0:
321,280,86096,1,0,0:0:0:0:
285,278,86184,1,0,0:0:0:0:
252,272,86273,1,0,0:0:0:0:
220,257,86361,6,0,L|174:240,7,43.75,14|0|0|0|6|0|0|0,0:0|0:0|0:0|0:0|0:0|0:0|0:0|0:0,0:0:0:0:
175,206,87067,5,14,0:0:0:0:
206,188,87155,1,0,0:0:0:0:
239,176,87243,1,0,0:0:0:0:
273,169,87331,1,0,0:0:0:0:
308,166,87420,1,6,0:0:0:0:
342,159,87508,1,0,0:0:0:0:
375,147,87596,1,0,0:0:0:0:
406,129,87684,1,0,0:0:0:0:
435,110,87773,5,12,0:0:0:0:
434,136,87861,1,0,0:0:0:0:
435,162,87949,1,0,0:0:0:0:
434,189,88037,1,0,0:0:0:0:
435,215,88125,1,4,0:0:0:0:
434,241,88214,1,0,0:0:0:0:
435,267,88302,1,0,0:0:0:0:
434,294,88390,1,0,0:0:0:0:
431,329,88479,5,14,0:0:0:0:
396,327,88567,1,0,0:0:0:0:
363,315,88655,1,0,0:0:0:0:
334,294,88743,1,0,0:0:0:0:
314,268,88831,1,4,0:0:0:0:
301,234,88920,1,0,0:0:0:0:
299,200,89008,1,2,0:0:0:0:
308,166,89096,1,0,0:0:0:0:
342,160,89185,5,12,0:0:0:0:
356,122,89274,1,0,0:0:0:0:
358,85,89362,1,0,0:0:0:0:
348,47,89450,1,0,0:0:0:0:
317,22,89537,1,6,0:0:0:0:
279,8,89626,1,0,0:0:0:0:
242,6,89714,1,0,0:0:0:0:
204,16,89802,6,0,L|157:34,1,43.75,0|4,0:0|0:0,0:0:0:0:
102,118,89979,2,8,L|149:136,3,43.75
189,227,90332,2,0,L|236:245,1,43.75
318,335,90508,5,8,0:0:0:0:
341,298,90596,1,8,0:0:0:0:
353,256,90684,1,8,0:0:0:0:
351,212,90772,1,8,0:0:0:0:
335,172,90860,1,8,0:0:0:0:
306,138,90949,1,8,0:0:0:0:
272,129,91037,5,0,0:0:0:0:
263,95,91125,1,0,0:0:0:0:
264,60,91213,1,0,0:0:0:0:
277,28,91301,5,4,0:0:0:0:
444,137,91479,2,0,L|442:240,1,87.5,0|12,0:0|0:0,0:0:0:0:
267,255,91832,2,0,L|164:253,1,87.5,0|4,0:0|0:0,0:0:0:0:
99,75,92185,2,0,L|97:162,1,87.5,0|12,0:0|0:0,0:0:0:0:
283,125,92537,1,0,0:0:0:0:
283,125,92714,2,0,P|227:119|178:127,1,87.5,4|0,0:0|0:0,0:0:0:0:
267,255,93067,1,14,0:0:0:0:
267,255,93243,1,0,0:0:0:0:
413,307,93420,5,6,0:0:0:0:
417,285,93508,1,0,0:0:0:0:
421,263,93596,1,0,0:0:0:0:
367,145,93773,5,14,0:0:0:0:
363,123,93861,1,0,0:0:0:0:
359,101,93949,1,2,0:0:0:0:
421,263,94126,5,4,0:0:0:0:
309,347,94302,2,0,B|261:354|261:354|217:347,1,87.5,0|14,0:0|0:0,0:0:0:0:
107,263,94655,1,0,0:0:0:0:
215,150,94832,1,6,0:0:0:0:
309,347,95008,1,0,0:0:0:0:
196,239,95185,1,14,0:0:0:0:
359,101,95361,5,2,0:0:0:0:
359,101,95537,2,0,P|369:157|359:208,1,87.5,4|2,0:0|0:0,0:0:0:0:
224,320,95890,1,14,0:0:0:0:
177,80,96067,6,0,B|174:113|212:141|212:141|156:169|156:169|194:198|196:249,1,218.75
293,204,96596,1,10,0:0:0:0:
95,248,96773,1,0,0:0:0:0:
348,313,96949,5,6,0:0:0:0:
142,353,97126,2,0,L|233:351,1,87.5,0|12,0:0|0:0,0:0:0:0:
457,235,97479,2,0,L|366:233,1,87.5,0|6,0:0|0:0,0:0:0:0:
213,191,97832,2,0,L|122:193,1,87.5,0|12,0:0|0:0,0:0:0:0:
299,79,98185,1,0,0:0:0:0:
298,78,98361,2,0,P|310:119|306:163,1,87.5,6|0,0:0|0:0,0:0:0:0:
175,70,98714,1,14,0:0:0:0:
175,70,98890,1,0,0:0:0:0:
88,147,99067,5,6,0:0:0:0:
84,169,99155,1,0,0:0:0:0:
80,191,99243,1,0,0:0:0:0:
134,309,99420,5,14,0:0:0:0:
138,331,99508,1,0,0:0:0:0:
142,353,99596,1,0,0:0:0:0:
218,203,99773,5,6,0:0:0:0:
317,305,99949,2,0,P|363:313|407:306,1,87.5,0|12,0:0|0:0,0:0:0:0:
441,172,100302,2,0,P|449:126|442:82,1,87.5,0|6,0:0|0:0,0:0:0:0:
273,127,100655,2,0,P|315:134|359:129,1,87.5,0|12,0:0|0:0,0:0:0:0:
321,32,101008,1,0,0:0:0:0:
218,203,101185,1,6,0:0:0:0:
95,333,101361,5,8,0:0:0:0:
138,331,101449,1,8,0:0:0:0:
181,329,101537,1,8,0:0:0:0:
407,260,101714,5,0,0:0:0:0:
385,259,101802,1,0,0:0:0:0:
364,258,101890,1,0,0:0:0:0:
323,150,102067,1,0,0:0:0:0:
218,203,102243,1,0,0:0:0:0:
425,66,102420,6,0,P|446:159|420:242,1,175,4|0,0:0|0:0,0:0:0:0:
323,150,102949,1,8,0:0:0:0:
328,256,103126,2,0,P|336:304|381:340,1,87.5,0|2,0:0|0:0,0:0:0:0:
323,150,103479,2,0,P|275:158|239:203,1,87.5,0|8,0:0|0:0,0:0:0:0:
179,322,103832,6,0,P|106:345|114:269,1,175
205,197,104361,1,8,0:0:0:0:
259,338,104537,1,0,0:0:0:0:
305,179,104714,1,2,0:0:0:0:
359,320,104890,1,0,0:0:0:0:
162,283,105067,1,8,0:0:0:0:
236,104,105243,2,0,B|289:83|289:83|410:92,1,175,2|0,0:0|0:0,0:0:0:0:
361,0,105773,5,12,0:0:0:0:
435,177,105949,1,0,0:0:0:0:
434,73,106126,5,4,0:0:0:0:
360,250,106302,1,0,0:0:0:0:
287,177,106479,5,12,0:0:0:0:
361,354,106655,1,0,0:0:0:0:
183,324,106832,5,6,0:0:0:0:
360,250,107008,1,2,0:0:0:0:
110,251,107185,5,12,0:0:0:0:
287,177,107361,1,2,0:0:0:0:
277,321,107537,5,4,0:0:0:0:
158,119,107714,1,8,0:0:0:0:
158,119,107890,1,10,0:0:0:0:
361,59,108067,6,0,B|362:85|362:85|372:105|372:105|356:125|356:125|381:177|355:248,1,175,2|0,0:0|0:0,0:0:0:0:
277,321,108597,2,0,L|251:217,1,87.5,8|0,0:0|0:0,0:0:0:0:
74,300,108950,2,0,P|116:310|160:304,1,87.5
363,223,109302,1,8,0:0:0:0:
220,14,109479,6,0,L|254:186,1,175,2|0,0:0|0:0,0:0:0:0:
425,127,110008,2,0,P|374:123|327:133,1,87.5,8|0,0:0|0:0,0:0:0:0:
152,184,110361,2,0,P|101:188|54:178,1,87.5
232,73,110714,1,8,0:0:0:0:
284,268,110890,2,0,B|304:315|363:343|363:343|370:296|326:256,1,175,2|0,0:0|0:0,0:0:0:0:
340,180,111420,5,14,0:0:0:0:
149,205,111596,1,0,0:0:0:0:
349,282,111773,5,6,0:0:0:0:
158,307,111949,1,0,0:0:0:0:
340,180,112126,5,14,0:0:0:0:
149,205,112302,1,0,0:0:0:0:
261,356,112479,1,6,0:0:0:0:
230,88,112655,5,8,0:0:0:0:
87,264,112832,1,10,0:0:0:0:
413,225,113008,1,8,0:0:0:0:
230,88,113185,5,2,0:0:0:0:
243,174,113361,1,2,0:0:0:0:
257,260,113537,1,0,0:0:0:0:
411,320,113714,6,0,P|422:280|412:213,1,105,6|0,0:0|0:0,0:0:0:0:
389,198,114067,2,0,L|405:130,1,70,8|4,0:0|0:0,0:0:0:0:
336,266,114420,1,0,0:0:0:0:
461,250,114596,1,14,0:0:0:0:
389,198,114773,1,0,0:0:0:0:
336,266,114949,1,8,0:0:0:0:
58,264,115126,6,0,P|98:253|165:263,1,105,6|0,0:0|0:0,0:0:0:0:
180,286,115479,2,0,L|248:270,1,70,8|4,0:0|0:0,0:0:0:0:
112,339,115832,1,0,0:0:0:0:
128,214,116008,1,14,0:0:0:0:
180,286,116185,1,0,0:0:0:0:
112,339,116361,1,8,0:0:0:0:
178,142,116537,6,0,B|225:126|272:138|272:138|315:149|367:134,1,175,6|0,0:0|0:0,0:0:0:0:
435,210,117067,5,0,0:0:0:0:
434,231,117155,1,0,0:0:0:0:
433,252,117243,1,0,0:0:0:0:
348,226,117420,5,8,0:0:0:0:
347,247,117508,1,0,0:0:0:0:
346,268,117596,1,0,0:0:0:0:
261,243,117773,5,0,0:0:0:0:
260,264,117861,1,0,0:0:0:0:
259,285,117949,1,0,0:0:0:0:
175,258,118126,5,2,0:0:0:0:
174,279,118214,1,0,0:0:0:0:
173,300,118302,1,2,0:0:0:0:
89,274,118479,5,0,0:0:0:0:
88,295,118567,1,0,0:0:0:0:
87,316,118655,1,2,0:0:0:0:
265,157,118832,5,8,0:0:0:0:
263,200,118920,1,8,0:0:0:0:
261,243,119008,1,10,0:0:0:0:
270,32,119185,1,8,0:0:0:0:
154,108,119361,6,0,P|143:148|153:215,1,105,6|0,0:0|0:0,0:0:0:0:
176,230,119714,2,0,L|160:298,1,70,8|4,0:0|0:0,0:0:0:0:
229,162,120067,1,0,0:0:0:0:
104,178,120243,1,14,0:0:0:0:
176,230,120420,1,0,0:0:0:0:
229,162,120596,1,8,0:0:0:0:
350,314,120773,6,0,P|361:274|351:207,1,105,6|0,0:0|0:0,0:0:0:0:
328,192,121126,2,0,L|344:124,1,70,8|4,0:0|0:0,0:0:0:0:
275,260,121479,1,0,0:0:0:0:
400,244,121655,1,14,0:0:0:0:
328,192,121832,1,0,0:0:0:0:
275,260,122008,1,8,0:0:0:0:
67,205,122185,6,0,B|107:233|119:278|119:278|135:232|177:202,1,175,6|0,0:0|0:0,0:0:0:0:
121,132,122714,5,0,0:0:0:0:
122,111,122802,1,0,0:0:0:0:
123,90,122890,1,0,0:0:0:0:
208,116,123067,5,8,0:0:0:0:
209,95,123155,1,0,0:0:0:0:
210,74,123243,1,0,0:0:0:0:
295,99,123420,5,0,0:0:0:0:
296,78,123508,1,0,0:0:0:0:
297,57,123596,1,0,0:0:0:0:
394,97,123773,5,0,0:0:0:0:
410,127,123861,1,0,0:0:0:0:
415,162,123949,1,8,0:0:0:0:
409,196,124037,1,8,0:0:0:0:
392,226,124125,1,8,0:0:0:0:
226,283,124302,5,8,0:0:0:0:
423,324,124479,1,8,0:0:0:0:
312,363,124655,1,0,0:0:0:0:
327,160,124832,1,0,0:0:0:0:
226,283,125008,1,0,0:0:0:0:
157,120,125185,5,4,0:0:0:0:
157,120,125273,1,0,0:0:0:0:
157,120,125361,1,0,0:0:0:0:
75,182,125537,2,0,P|72:232|87:258,1,70
394,97,126596,5,8,0:0:0:0:
326,269,127303,5,0,0:0:0:0:
326,269,127391,1,0,0:0:0:0:
326,269,127479,1,0,0:0:0:0:
165,321,127655,2,0,L|235:321,1,70
206,144,129420,5,12,0:0:0:0:
206,144,129508,1,0,0:0:0:0:
206,144,129596,1,0,0:0:0:0:
304,226,129773,1,0,0:0:0:0:
304,226,129949,1,0,0:0:0:0:
86,188,130126,5,12,0:0:0:0:
86,188,130214,1,0,0:0:0:0:
86,188,130302,1,0,0:0:0:0:
206,144,130479,1,0,0:0:0:0:
206,144,130655,1,0,0:0:0:0:
181,332,130832,5,4,0:0:0:0:
181,332,130920,1,0,0:0:0:0:
181,332,131008,1,0,0:0:0:0:
274,360,131185,2,0,B|358:360,1,70
113,72,132243,5,8,0:0:0:0:
386,116,132949,5,0,0:0:0:0:
386,116,133037,1,0,0:0:0:0:
386,116,133125,1,0,0:0:0:0:
307,181,133302,2,0,P|320:228|308:262,1,70
140,73,135067,5,12,0:0:0:0:
140,73,135155,1,0,0:0:0:0:
140,73,135243,1,0,0:0:0:0:
87,235,135420,1,0,0:0:0:0:
87,235,135596,1,0,0:0:0:0:
339,225,135773,5,12,0:0:0:0:
339,225,135861,1,0,0:0:0:0:
339,225,135949,1,0,0:0:0:0:
177,172,136126,1,0,0:0:0:0:
177,172,136302,1,0,0:0:0:0:
315,296,136479,6,0,P|337:261|336:217,1,78.7499975967408,4|0,0:0|0:0,0:0:0:0:
287,111,136832,1,2,0:0:0:0:
336,280,137008,2,0,P|350:241|339:198,1,78.7499975967408,0|6,0:0|0:0,0:0:0:0:
267,106,137361,1,0,0:0:0:0:
168,265,137537,6,0,P|207:259|237:234,1,78.7499975967408,2|0,0:0|0:0,0:0:0:0:
284,75,137890,1,14,0:0:0:0:
186,282,138067,2,0,P|222:267|246:237,1,78.7499975967408,2|0,0:0|0:0,0:0:0:0:
259,71,138420,1,2,0:0:0:0:
342,205,138597,5,4,0:0:0:0:
342,205,138685,1,0,0:0:0:0:
342,205,138773,1,0,0:0:0:0:
233,73,138949,2,0,P|200:94|183:129,1,78.7499975967408
327,287,139302,6,0,L|405:286,1,78.7499975967408,4|0,0:0|0:0,0:0:0:0:
369,148,139655,1,2,0:0:0:0:
335,317,139832,2,0,L|413:316,1,78.7499975967408,0|6,0:0|0:0,0:0:0:0:
377,178,140185,1,0,0:0:0:0:
343,347,140361,2,0,L|421:346,1,78.7499975967408,2|0,0:0|0:0,0:0:0:0:
371,116,140714,5,14,0:0:0:0:
371,116,140802,1,0,0:0:0:0:
371,116,140890,1,0,0:0:0:0:
183,129,141067,1,2,0:0:0:0:
183,129,141243,1,2,0:0:0:0:
141,268,141420,5,12,0:0:0:0:
141,268,141508,1,0,0:0:0:0:
141,268,141596,1,2,0:0:0:0:
329,255,141773,1,0,0:0:0:0:
329,255,141949,1,2,0:0:0:0:
82,219,142126,6,0,P|104:252|140:267,1,78.7499975967408,4|0,0:0|0:0,0:0:0:0:
244,210,142479,1,2,0:0:0:0:
101,242,142655,2,0,P|130:269|180:274,1,78.7499975967408,0|6,0:0|0:0,0:0:0:0:
258,198,143008,1,0,0:0:0:0:
354,296,143185,6,0,P|381:266|386:216,1,78.7499975967408,2|0,0:0|0:0,0:0:0:0:
336,81,143537,1,14,0:0:0:0:
373,273,143714,2,0,P|394:238|388:188,1,78.7499975967408,0|2,0:0|0:0,0:0:0:0:
311,66,144066,1,2,0:0:0:0:
463,101,144244,5,4,0:0:0:0:
463,101,144332,1,0,0:0:0:0:
463,101,144420,1,0,0:0:0:0:
283,58,144596,2,0,P|269:96|285:143,1,78.7499975967408
463,101,144949,6,0,L|384:100,1,78.7499975967408,4|0,0:0|0:0,0:0:0:0:
176,99,145302,1,2,0:0:0:0:
49,221,145479,2,0,L|127:221,1,78.7499975967408,0|6,0:0|0:0,0:0:0:0:
336,223,145832,1,0,0:0:0:0:
463,348,146008,2,0,L|384:347,1,78.7499975967408,2|0,0:0|0:0,0:0:0:0:
176,99,146361,6,8,L|203:183,1,78.7499975967408,10|8,0:0|0:0,0:0:0:0:
200,173,146626,1,8,0:0:0:0:
200,173,146714,1,8,0:0:0:0:
118,209,146890,5,0,0:0:0:0:
82,220,146978,1,0,0:0:0:0:
56,250,147066,1,2,0:0:0:0:
47,287,147154,1,0,0:0:0:0:
57,325,147242,1,0,0:0:0:0:
84,353,147331,1,0,0:0:0:0:
121,366,147419,1,0,0:0:0:0:
160,360,147507,1,0,0:0:0:0:
190,336,147595,1,0,0:0:0:0:
206,301,147684,1,0,0:0:0:0:
204,262,147773,6,0,B|239:287|279:275|279:275|307:320|307:320|344:277|344:277|386:294|426:278,1,262.5,14|0,0:0|0:0,0:0:0:0:
316,172,148479,1,8,0:0:0:0:
111,129,148655,2,0,P|139:186|55:185,1,175
179,37,149185,6,0,B|210:73|210:73|232:28|232:28|257:80|257:80|280:35|280:35|305:87|305:87|327:41|327:41|352:93|352:93|375:48|375:48|400:100|400:100|422:55|422:55|445:66|458:92,1,577.500017623902,8|0,0:0|0:0,0:0:0:0:
462,224,150420,5,0,0:0:0:0:
462,224,150508,1,0,0:0:0:0:
462,224,150596,2,0,L|455:317,2,87.5,8|0|0,0:0|0:0|0:0,0:0:0:0:
397,123,151126,2,0,L|304:116,1,87.5,0|8,0:0|0:0,0:0:0:0:
184,103,151479,1,0,0:0:0:0:
184,103,151655,1,0,0:0:0:0:
55,227,151832,6,0,P|115:214|178:223,1,87.5,0|8,0:0|0:0,0:0:0:0:
222,229,152185,2,0,B|245:250|248:285|248:285|306:279|306:279|303:323|303:323|338:331|363:366,1,218.75
382,356,152714,1,8,0:0:0:0:
382,356,152802,2,0,P|387:263|412:213,1,131.25
399,67,153243,5,0,0:0:0:0:
399,67,153332,1,0,0:0:0:0:
399,67,153420,6,0,L|342:69,1,48.1250014686585,12|0,0:0|0:0,0:0:0:0:
375,171,153596,2,0,L|318:173,1,48.1250014686585
229,84,153773,2,0,L|172:86,1,48.1250014686585
205,188,153949,2,0,L|148:190,1,48.1250014686585
71,311,154126,6,0,L|128:309,1,48.1250014686585,8|0,0:0|0:0,0:0:0:0:
239,284,154302,2,0,L|296:282,1,48.1250014686585
423,172,154479,2,0,L|366:170,1,48.1250014686585
254,144,154655,2,0,L|197:142,1,48.1250014686585
104,88,154832,6,0,L|102:145,1,48.1250014686585,8|0,0:0|0:0,0:0:0:0:
205,191,155008,2,0,L|207:134,1,48.1250014686585
302,216,155185,2,0,L|300:273,1,48.1250014686585
403,319,155361,2,0,L|405:262,1,48.1250014686585
418,69,155537,6,0,L|417:118,1,48.1250014686585,8|0,0:0|0:0,0:0:0:0:
283,90,155714,2,0,L|281:138,1,48.1250014686585
233,247,155890,2,0,L|234:295,1,48.1250014686585
368,267,156067,2,0,L|369:315,1,48.1250014686585
111,321,156243,6,0,L|59:322,1,52.4999983978272,8|0,0:0|0:0,0:0:0:0:
233,247,156420,2,0,L|285:246,1,52.4999983978272
383,130,156596,2,0,L|382:78,1,52.4999983978272
467,256,156773,2,0,L|468:308,1,52.4999983978272
285,245,156949,6,0,L|233:246,1,52.4999983978272,8|0,0:0|0:0,0:0:0:0:
50,158,157126,2,0,L|102:157,1,52.4999983978272
240,91,157302,2,0,L|292:90,1,52.4999983978272
475,178,157479,2,0,L|423:179,1,52.4999983978272
171,217,157655,6,0,L|119:218,1,52.4999983978272,8|0,0:0|0:0,0:0:0:0:
240,109,157832,2,0,L|239:57,1,52.4999983978272
319,211,158008,2,0,L|371:210,1,52.4999983978272
246,316,158185,2,0,L|247:368,1,52.4999983978272
137,218,158361,6,0,L|189:217,1,52.4999983978272,12|0,0:0|0:0,0:0:0:0:
239,75,158538,2,0,L|240:127,1,52.4999983978272
353,210,158714,2,0,L|301:211,1,52.4999983978272,12|0,0:0|0:0,0:0:0:0:
247,350,158891,2,0,L|246:298,1,52.4999983978272
240,127,159067,5,12,0:0:0:0:
258,99,159155,1,0,0:0:0:0:
286,78,159243,1,0,0:0:0:0:
321,65,159331,1,0,0:0:0:0:
356,64,159419,1,4,0:0:0:0:
390,70,159508,1,0,0:0:0:0:
420,83,159596,1,0,0:0:0:0:
447,106,159684,1,0,0:0:0:0:
465,136,159773,6,0,L|476:191,7,43.75,12|0|0|0|4|0|0|0,0:0|0:0|0:0|0:0|0:0|0:0|0:0|0:0,0:0:0:0:
435,292,160479,5,12,0:0:0:0:
417,320,160567,1,0,0:0:0:0:
389,341,160655,1,0,0:0:0:0:
354,354,160743,1,0,0:0:0:0:
319,355,160831,1,4,0:0:0:0:
285,349,160920,1,0,0:0:0:0:
255,336,161008,1,0,0:0:0:0:
228,313,161096,1,0,0:0:0:0:
207,273,161185,5,12,0:0:0:0:
223,243,161273,1,0,0:0:0:0:
241,212,161361,1,0,0:0:0:0:
260,183,161449,1,0,0:0:0:0:
277,152,161537,1,4,0:0:0:0:
295,122,161626,1,0,0:0:0:0:
313,92,161714,1,0,0:0:0:0:
331,62,161802,1,0,0:0:0:0:
332,18,161890,5,12,0:0:0:0:
298,10,161978,1,0,0:0:0:0:
264,17,162066,1,0,0:0:0:0:
235,37,162154,1,0,0:0:0:0:
218,66,162242,1,4,0:0:0:0:
211,100,162331,1,0,0:0:0:0:
220,134,162419,1,0,0:0:0:0:
241,162,162507,1,0,0:0:0:0:
269,183,162596,1,12,0:0:0:0:
290,211,162684,1,0,0:0:0:0:
299,245,162772,1,0,0:0:0:0:
292,279,162861,1,0,0:0:0:0:
275,308,162949,1,4,0:0:0:0:
246,328,163037,1,0,0:0:0:0:
212,335,163125,1,0,0:0:0:0:
178,327,163213,1,0,0:0:0:0:
147,309,163302,6,0,L|120:270,7,43.75,12|0|0|0|4|0|0|0,0:0|0:0|0:0|0:0|0:0|0:0|0:0|0:0,0:0:0:0:
71,183,164008,2,0,L|98:144,7,43.75,12|0|0|0|4|0|0|0,0:0|0:0|0:0|0:0|0:0|0:0|0:0|0:0,0:0:0:0:
181,201,164714,6,0,L|281:197,1,87.5,12|0,0:0|0:0,0:0:0:0:
385,137,165067,1,4,0:0:0:0:
184,216,165243,2,0,L|281:191,1,87.5,0|12,0:0|0:0,0:0:0:0:
370,111,165596,1,0,0:0:0:0:
116,65,165773,6,0,L|201:87,1,87.5,4|0,0:0|0:0,0:0:0:0:
334,200,166126,1,12,0:0:0:0:
145,39,166302,2,0,L|224:77,1,87.5,0|4,0:0|0:0,0:0:0:0:
326,229,166655,1,0,0:0:0:0:
116,65,166832,2,0,L|201:87,1,87.5,12|0,0:0|0:0,0:0:0:0:
418,178,167185,2,0,L|333:199,1,87.5,4|0,0:0|0:0,0:0:0:0:
102,237,167537,5,12,0:0:0:0:
79,275,167625,1,0,0:0:0:0:
90,318,167713,1,0,0:0:0:0:
127,343,167801,1,0,0:0:0:0:
171,337,167889,1,4,0:0:0:0:
199,301,167978,1,0,0:0:0:0:
203,254,168067,1,0,0:0:0:0:
231,218,168156,1,0,0:0:0:0:
276,211,168244,1,12,0:0:0:0:
313,237,168332,1,0,0:0:0:0:
330,280,168420,1,0,0:0:0:0:
366,305,168508,1,0,0:0:0:0:
411,298,168596,1,4,0:0:0:0:
439,262,168685,1,0,0:0:0:0:
447,214,168773,1,0,0:0:0:0:
419,178,168862,1,0,0:0:0:0:
373,166,168949,5,8,0:0:0:0:
274,362,169126,1,0,0:0:0:0:
177,166,169302,1,8,0:0:0:0:
274,362,169479,1,0,0:0:0:0:
276,113,169655,5,8,0:0:0:0:
277,69,169743,1,8,0:0:0:0:
278,24,169832,1,8,0:0:0:0:
88,69,170008,1,8,0:0:0:0:
132,300,170185,6,0,B|185:327|241:307|241:307|273:361|273:361|307:304|307:304|370:324|445:282,1,350,4|0,0:0|0:0,0:0:0:0:
174,51,173008,6,0,P|149:139|174:224,1,175,4|0,0:0|0:0,0:0:0:0:
348,148,173537,5,12,0:0:0:0:
211,297,173714,1,0,0:0:0:0:
269,83,173890,5,4,0:0:0:0:
205,274,174067,1,0,0:0:0:0:
174,51,174243,5,12,0:0:0:0:
198,252,174420,1,0,0:0:0:0:
71,68,174596,5,6,0:0:0:0:
192,230,174773,1,2,0:0:0:0:
174,51,174949,5,12,0:0:0:0:
198,252,175126,1,2,0:0:0:0:
269,83,175302,5,12,0:0:0:0:
38,219,175479,1,0,0:0:0:0:
38,219,175655,1,2,0:0:0:0:
114,341,175832,6,0,B|200:356|200:356|298:336,1,175,2|0,0:0|0:0,0:0:0:0:
361,240,176361,1,8,0:0:0:0:
435,134,176537,2,0,L|446:32,2,87.5
361,240,177067,1,8,0:0:0:0:
222,107,177243,6,0,B|227:171|227:171|206:222|206:222|215:282,1,175,2|0,0:0|0:0,0:0:0:0:
114,341,177773,2,0,P|96:293|99:247,1,87.5,8|0,0:0|0:0,0:0:0:0:
361,240,178126,2,0,P|378:192|375:146,1,87.5
222,69,178479,1,8,0:0:0:0:
211,243,178655,2,0,L|223:52,1,175,2|0,0:0|0:0,0:0:0:0:
107,147,179185,5,14,0:0:0:0:
330,184,179361,1,0,0:0:0:0:
265,327,179537,1,6,0:0:0:0:
226,132,179714,5,8,0:0:0:0:
226,132,179802,1,8,0:0:0:0:
226,132,179890,1,10,0:0:0:0:
332,40,180067,1,8,0:0:0:0:
332,40,180243,1,10,0:0:0:0:
330,184,180420,5,0,0:0:0:0:
250,239,180596,1,2,0:0:0:0:
339,277,180773,1,0,0:0:0:0:
213,103,180949,1,2,0:0:0:0:
208,119,181125,1,2,0:0:0:0:
203,135,181302,1,0,0:0:0:0:
167,287,181479,6,0,P|203:323|253:334,1,105,6|0,0:0|0:0,0:0:0:0:
282,330,181832,2,0,L|254:255,1,70,8|4,0:0|0:0,0:0:0:0:
167,287,182185,1,0,0:0:0:0:
282,330,182361,1,14,0:0:0:0:
375,256,182537,1,0,0:0:0:0:
167,287,182714,1,8,0:0:0:0:
344,48,182891,6,0,P|308:84|297:134,1,105,4|0,0:0|0:0,0:0:0:0:
301,163,183244,2,0,L|376:135,1,70,8|4,0:0|0:0,0:0:0:0:
344,48,183597,1,0,0:0:0:0:
301,163,183773,1,14,0:0:0:0:
375,256,183949,1,0,0:0:0:0:
344,48,184126,1,8,0:0:0:0:
170,114,184302,6,0,B|154:161|166:208|166:208|177:251|162:303,1,175,6|0,0:0|0:0,0:0:0:0:
77,228,184832,5,0,0:0:0:0:
78,249,184920,1,0,0:0:0:0:
79,270,185008,1,0,0:0:0:0:
251,261,185185,5,8,0:0:0:0:
252,282,185273,1,0,0:0:0:0:
253,303,185361,1,0,0:0:0:0:
164,244,185537,5,0,0:0:0:0:
165,265,185625,1,0,0:0:0:0:
166,286,185713,1,0,0:0:0:0:
337,276,185891,5,2,0:0:0:0:
338,297,185979,1,0,0:0:0:0:
339,318,186067,1,2,0:0:0:0:
251,261,186244,5,0,0:0:0:0:
252,282,186332,1,0,0:0:0:0:
253,303,186420,1,2,0:0:0:0:
256,118,186596,5,8,0:0:0:0:
213,116,186684,1,8,0:0:0:0:
170,114,186772,1,8,0:0:0:0:
381,123,186949,1,10,0:0:0:0:
149,279,187126,6,0,P|189:290|256:280,1,105,6|0,0:0|0:0,0:0:0:0:
271,256,187479,2,0,L|339:271,1,70,8|4,0:0|0:0,0:0:0:0:
203,200,187832,1,0,0:0:0:0:
221,336,188008,1,14,0:0:0:0:
339,272,188185,1,0,0:0:0:0:
203,200,188361,1,8,0:0:0:0:
54,75,188538,6,0,P|94:63|161:74,1,105,6|0,0:0|0:0,0:0:0:0:
176,98,188891,2,0,L|244:82,1,70,8|4,0:0|0:0,0:0:0:0:
108,154,189244,1,0,0:0:0:0:
126,18,189420,1,14,0:0:0:0:
244,82,189597,1,0,0:0:0:0:
108,154,189773,1,8,0:0:0:0:
339,272,189950,6,0,P|399:201|339:164,1,175,6|0,0:0|0:0,0:0:0:0:
260,185,190479,5,0,0:0:0:0:
259,206,190567,1,0,0:0:0:0:
258,227,190655,1,0,0:0:0:0:
158,171,190832,5,8,0:0:0:0:
159,150,190920,1,0,0:0:0:0:
160,129,191008,1,0,0:0:0:0:
58,181,191185,5,0,0:0:0:0:
57,202,191273,1,0,0:0:0:0:
56,223,191361,1,0,0:0:0:0:
154,308,191538,5,0,0:0:0:0:
155,287,191626,1,0,0:0:0:0:
156,266,191714,1,8,0:0:0:0:
260,185,191891,5,0,0:0:0:0:
259,206,191979,1,0,0:0:0:0:
258,227,192067,1,0,0:0:0:0:
391,171,192243,5,10,0:0:0:0:
393,128,192331,1,8,0:0:0:0:
395,85,192419,1,8,0:0:0:0:
386,297,192596,1,8,0:0:0:0:
258,227,192773,6,0,B|191:214|181:132|181:132|165:213|96:233,1,262.5,6|0,0:0|0:0,0:0:0:0:
212,93,195067,5,8,0:0:0:0:
188,328,195243,1,8,0:0:0:0:
404,231,195420,1,8,0:0:0:0:
212,93,195596,6,0,B|190:184|274:272|274:272|331:161|263:74,1,393.750015020371,4|0,0:0|0:0,0:0:0:0:
