osu file format v14

[General]
AudioFilename: KillerBlood-The Black Case.mp3
AudioLeadIn: 0
PreviewTime: 82531
Countdown: 0
SampleSet: Normal
StackLeniency: 0.4
Mode: 0
LetterboxInBreaks: 0
WidescreenStoryboard: 1

[Editor]
Bookmarks: 85121
DistanceSpacing: 1.3
BeatDivisor: 4
GridSize: 4
TimelineZoom: 2.4

[Metadata]
Title:The Black Case
TitleUnicode:The Black Case
Artist:KillerBlood
ArtistUnicode:KillerBlood
Creator:Naotoshi
Version:Level 3
Source:Cytus
Tags:rhythm game mobile trick box davided
BeatmapID:791118
BeatmapSetID:359748

[Difficulty]
HPDrainRate:4.5
CircleSize:4
OverallDifficulty:6
ApproachRate:7.5
SliderMultiplier:1.6
SliderTickRate:1

[Events]
//Background and Video events
0,0,"black case.jpg",0,0
//Break Periods
2,30516,35644
//Storyboard Layer 0 (Background)
//Storyboard Layer 1 (Fail)
//Storyboard Layer 2 (Pass)
//Storyboard Layer 3 (Foreground)
//Storyboard Sound Samples

[TimingPoints]
1087,384.595384615385,4,1,0,100,1,0
1087,-100,4,1,0,70,0,0
82621,-100,4,1,0,75,0,1
95120,-100,4,1,0,70,0,0
99735,-83.3333333333333,4,2,0,5,0,0

[Colours]
Combo1 : 128,0,0
Combo2 : 213,208,208
Combo3 : 92,92,92

[HitObjects]
64,176,1087,6,0,P|120:184|152:176,1,80
208,148,1471,2,0,P|252:142|292:152,1,80
384,184,1856,1,0,0:0:0:0:
388,216,1952,1,0,0:0:0:0:
368,240,2048,2,0,P|332:280|320:312,1,80
244,232,2433,1,0,0:0:0:0:
188,320,2625,2,0,P|136:328|8:320,1,160
108,252,3202,5,0,0:0:0:0:
208,192,3394,2,0,B|292:212|292:212|376:192,1,160
416,104,3971,2,0,P|348:100|312:108,1,80
240,40,4356,1,0,0:0:0:0:
164,140,4548,2,0,P|160:192|168:224,1,80
236,292,4932,1,0,0:0:0:0:
244,320,5317,5,0,0:0:0:0:
144,284,5509,1,0,0:0:0:0:
220,212,5702,2,0,P|292:216|316:232,1,80
400,128,6086,1,0,0:0:0:0:
292,60,6279,2,0,P|232:52|200:56,1,80
120,8,6663,2,0,P|120:88|136:112,1,80
196,156,7048,6,0,P|224:196|236:236,1,80
188,320,7432,1,0,0:0:0:0:
124,236,7625,1,0,0:0:0:0:
112,132,7817,2,0,P|144:84|180:72,1,80
264,100,8202,5,0,0:0:0:0:
336,176,8394,1,0,0:0:0:0:
320,280,8586,1,0,0:0:0:0:
224,320,8778,2,0,P|112:312|44:332,1,160
60,220,9355,1,0,0:0:0:0:
8,128,9548,2,0,P|16:72|8:32,1,80
108,88,9932,1,0,0:0:0:0:
204,132,10124,6,0,P|264:136|296:132,1,80
388,124,10509,1,0,0:0:0:0:
336,32,10701,2,0,P|276:36|228:28,1,80
160,76,11086,1,0,0:0:0:0:
160,100,11471,5,0,0:0:0:0:
168,204,11663,1,0,0:0:0:0:
248,136,11855,2,0,P|316:116|352:120,1,80
316,220,12240,1,0,0:0:0:0:
256,304,12432,2,0,P|176:312|144:304,1,80
116,228,12817,2,0,P|196:220|224:228,1,80
296,232,13201,6,0,P|288:160|260:132,1,80
196,104,13586,1,0,0:0:0:0:
292,68,13778,1,0,0:0:0:0:
384,120,13970,2,0,P|404:180|404:220,2,80
352,24,14547,1,0,0:0:0:0:
352,12,14643,1,0,0:0:0:0:
352,4,14740,1,0,0:0:0:0:
332,108,14932,6,0,P|256:100|156:116,1,160
176,216,15509,2,0,B|256:200|256:200|352:216,1,160
408,288,16086,1,0,0:0:0:0:
420,184,16278,1,0,0:0:0:0:
228,108,16663,6,0,P|200:184|232:292,1,160
308,300,17240,6,0,L|332:352,2,40
212,260,17624,1,0,0:0:0:0:
108,276,17816,1,0,0:0:0:0:
100,172,18009,6,0,P|176:144|208:144,1,80
228,56,18393,2,0,P|312:76|332:88,1,80
408,64,18778,2,0,P|412:128|408:160,1,80
472,228,19162,1,0,0:0:0:0:
368,224,19355,6,0,P|316:216|268:224,1,80
208,152,19739,1,0,0:0:0:0:
116,204,19932,1,0,0:0:0:0:
88,104,20124,1,0,0:0:0:0:
164,32,20316,2,0,P|216:32|256:48,1,80
320,112,20701,2,0,P|384:124|408:124,1,80
376,24,21085,5,0,0:0:0:0:
276,52,21278,1,0,0:0:0:0:
244,152,21470,2,0,P|212:208|180:224,1,80
96,220,21855,1,0,0:0:0:0:
144,128,22047,1,0,0:0:0:0:
64,64,22239,1,0,0:0:0:0:
144,24,22432,6,0,P|196:64|224:96,1,80
220,176,22816,1,0,0:0:0:0:
228,280,23008,2,0,P|288:320|316:320,1,80
392,288,23393,2,0,P|428:240|424:188,1,80
388,124,23778,2,0,L|376:72,2,40
356,216,24162,6,0,P|304:248|256:256,1,80
200,312,24547,2,0,P|140:276|128:252,1,80
52,204,24931,2,0,P|76:148|92:128,1,80
188,160,25316,1,0,0:0:0:0:
248,244,25508,6,0,P|308:252|340:248,1,80
396,172,25893,1,0,0:0:0:0:
320,100,26085,2,0,P|260:96|224:104,1,80
168,176,26470,2,0,P|160:236|168:264,1,80
268,248,26854,2,0,P|273:208|264:169,1,80
216,80,27239,6,0,P|148:72|112:84,1,80
44,120,27624,2,0,P|44:56|56:20,1,80
140,88,28008,1,0,0:0:0:0:
180,184,28200,1,0,0:0:0:0:
272,232,28393,1,0,0:0:0:0:
376,212,28585,2,0,P|408:144|404:104,1,80
304,132,28970,1,0,0:0:0:0:
228,216,29162,6,0,P|156:260|128:260,1,80
112,168,29547,2,0,P|184:124|208:124,1,80
280,136,29931,2,0,L|320:176,2,40
380,108,30316,1,0,0:0:0:0:
400,100,36469,6,0,P|296:124|136:96,1,240
84,172,37238,1,0,0:0:0:0:
72,196,37815,6,0,P|92:264|92:288,1,80
188,232,38200,2,0,P|248:228|296:236,1,80
344,304,38585,1,0,0:0:0:0:
412,228,38777,1,0,0:0:0:0:
348,148,38969,2,0,P|296:120|272:96,2,80
328,252,39546,6,0,P|224:268|80:248,1,240
116,148,40315,1,0,0:0:0:0:
128,136,40892,6,0,P|204:108|228:108,1,80
200,212,41277,2,0,P|204:260|220:300,1,80
312,328,41661,1,0,0:0:0:0:
392,260,41854,1,0,0:0:0:0:
368,160,42046,2,0,P|328:144|284:144,1,80
240,136,42334,1,0,0:0:0:0:
188,140,42431,6,0,P|132:144|92:136,1,80
152,48,42815,1,0,0:0:0:0:
256,52,43007,2,0,P|316:104|328:136,1,80
296,204,43392,2,0,P|300:260|320:296,1,80
400,224,43777,1,0,0:0:0:0:
344,136,43969,2,0,P|288:124|244:132,2,80
432,80,44546,6,0,P|452:148|448:180,1,80
400,248,44930,1,0,0:0:0:0:
328,172,45123,1,0,0:0:0:0:
256,248,45315,1,0,0:0:0:0:
232,148,45507,2,0,P|260:100|288:72,2,80
184,240,46084,6,0,P|116:252|92:248,1,80
92,148,46469,2,0,P|160:136|184:140,1,80
264,184,46853,1,0,0:0:0:0:
344,252,47046,2,0,P|408:276|424:276,2,80
280,184,47623,6,0,P|220:180|168:188,1,80
112,240,48007,2,0,P|96:184|104:148,1,80
164,80,48392,1,0,0:0:0:0:
268,92,48584,2,0,P|324:96|368:84,2,80
200,172,49161,5,0,0:0:0:0:
252,260,49353,1,0,0:0:0:0:
316,176,49546,2,0,P|388:172|420:180,1,80
356,268,49930,1,0,0:0:0:0:
252,260,50122,2,0,P|200:248|168:248,2,80
344,308,50699,5,0,0:0:0:0:
420,236,50892,1,0,0:0:0:0:
416,132,51084,1,0,0:0:0:0:
340,60,51276,1,0,0:0:0:0:
288,148,51468,1,0,0:0:0:0:
224,68,51661,2,0,P|152:60|136:64,2,80
312,12,52238,6,0,P|342:68|348:96,1,80,0|0,0:0|0:0,3:0:0:0:
372,184,52622,2,0,P|364:244|368:280,1,80
464,228,53007,1,0,0:0:0:0:
436,128,53199,6,0,P|384:104|332:108,1,80
272,156,53584,2,0,P|200:168|168:160,1,80
92,140,53968,1,0,0:0:0:0:
168,68,54161,2,0,L|140:28,2,40
264,108,54545,5,0,0:0:0:0:
284,124,54641,1,0,0:0:0:0:
312,140,54738,1,0,0:0:0:0:
336,156,54834,1,0,0:0:0:0:
360,172,54930,6,0,B|336:240|336:240|284:268|248:228,1,160
192,152,55507,1,0,0:0:0:0:
216,52,55699,2,0,P|276:36|328:52,1,80
392,68,56084,1,0,0:0:0:0:
444,156,56276,6,0,P|360:164|332:156,1,80
280,224,56661,1,0,0:0:0:0:
180,204,56853,2,0,P|116:208|88:204,1,80
136,108,57237,1,0,0:0:0:0:
120,116,57622,6,0,P|188:124|216:112,1,80
280,56,58007,2,0,P|300:112|296:156,1,80
236,224,58391,1,0,0:0:0:0:
340,200,58584,2,0,P|360:256|360:304,1,80
296,356,58968,1,0,0:0:0:0:
208,300,59160,1,0,0:0:0:0:
112,256,59353,6,0,P|144:220|192:192,1,80
268,172,59737,1,0,0:0:0:0:
220,80,59930,1,0,0:0:0:0:
320,48,60122,2,0,P|392:44|416:48,1,80
476,116,60506,5,0,0:0:0:0:
436,212,60699,1,0,0:0:0:0:
336,236,60891,1,0,0:0:0:0:
288,144,61083,2,0,P|248:192|272:308,1,160
352,324,61660,1,0,0:0:0:0:
452,288,61853,2,0,P|488:244|496:200,1,80
460,124,62237,1,0,0:0:0:0:
400,208,62429,6,0,P|312:212|288:208,1,80
220,168,62814,1,0,0:0:0:0:
152,248,63006,2,0,P|84:256|52:248,1,80
64,152,63391,2,0,P|132:144|168:152,1,80
232,200,63776,5,0,0:0:0:0:
336,208,63968,1,0,0:0:0:0:
388,116,64160,2,0,P|444:88|472:84,1,80
464,188,64545,1,0,0:0:0:0:
428,284,64737,2,0,P|356:300|332:296,1,80
280,220,65122,2,0,P|352:204|376:208,1,80
440,264,65506,5,0,0:0:0:0:
452,160,65699,1,0,0:0:0:0:
388,80,65891,1,0,0:0:0:0:
284,68,66083,1,0,0:0:0:0:
336,156,66275,2,0,P|256:164|236:156,1,90
176,108,66660,1,0,0:0:0:0:
164,212,66852,1,0,0:0:0:0:
164,228,66949,1,0,0:0:0:0:
164,244,67045,5,0,0:0:0:0:
268,236,67237,2,0,P|356:256|448:224,1,160
436,136,67814,2,0,P|348:116|256:148,1,160
200,68,68391,1,0,0:0:0:0:
228,168,68583,1,0,0:0:0:0:
232,192,68968,6,0,P|140:188|216:260,1,240
248,292,69641,1,0,0:0:0:0:
288,324,69737,1,0,0:0:0:0:
388,348,69929,2,0,P|440:340|480:348,1,80
472,240,70314,6,0,P|468:192|468:136,1,80
492,60,70698,2,0,P|412:72|392:84,1,80
324,128,71083,2,0,P|280:131|244:128,1,80
140,112,71467,2,0,P|152:191|172:212,1,80
212,252,71852,5,0,0:0:0:0:
316,248,72044,1,0,0:0:0:0:
268,340,72237,1,0,0:0:0:0:
372,336,72429,2,0,P|424:332|456:336,2,80
268,340,73006,2,0,P|200:344|168:340,1,80
88,368,73390,6,0,P|88:304|108:264,1,80
52,196,73775,2,0,P|136:196|160:212,1,80
228,160,74160,2,0,P|232:216|216:260,1,80
288,324,74544,1,0,0:0:0:0:
364,252,74737,2,0,P|416:181|432:176,1,80
468,272,75121,1,0,0:0:0:0:
380,328,75313,5,0,0:0:0:0:
276,320,75506,1,0,0:0:0:0:
212,240,75698,1,0,0:0:0:0:
220,136,75890,1,0,0:0:0:0:
316,92,76083,1,0,0:0:0:0:
324,96,76179,1,0,0:0:0:0:
332,100,76275,1,0,0:0:0:0:
340,104,76371,1,0,0:0:0:0:
348,112,76467,6,0,P|332:172|316:200,1,80
220,196,76852,2,0,P|248:256|272:288,1,80
332,340,77236,2,0,P|354:301|360:264,1,80
404,172,77621,2,0,P|348:168|296:180,1,80
224,204,78006,5,0,0:0:0:0:
128,164,78198,1,0,0:0:0:0:
192,84,78390,1,0,0:0:0:0:
96,44,78582,2,0,P|44:44|12:48,2,80
196,96,79159,2,0,P|256:100|296:96,1,80
364,44,79544,5,0,0:0:0:0:
368,148,79736,1,0,0:0:0:0:
436,224,79929,2,0,P|384:248|332:248,1,80
280,188,80313,2,0,P|224:180|180:188,1,80
132,260,80698,1,0,0:0:0:0:
116,156,80890,2,0,P|156:112|184:96,2,80
208,224,81467,6,0,L|296:224,1,80
368,288,81852,1,0,0:0:0:0:
440,216,82044,1,0,0:0:0:0:
364,148,82236,2,0,L|368:108,2,40
272,196,82621,5,0,0:0:0:0:
208,120,82813,1,0,0:0:0:0:
176,220,83005,2,0,P|216:280|244:292,1,80
312,332,83390,5,0,0:0:0:0:
408,296,83582,1,0,0:0:0:0:
412,192,83775,2,0,P|356:208|316:236,1,80
240,184,84159,5,0,0:0:0:0:
136,172,84351,1,0,0:0:0:0:
184,264,84544,1,0,0:0:0:0:
80,256,84736,2,0,P|52:220|40:160,1,80
92,96,85121,2,0,P|120:132|132:192,1,80
168,260,85505,1,0,0:0:0:0:
216,168,85697,5,0,0:0:0:0:
276,252,85890,1,0,0:0:0:0:
236,348,86082,2,0,P|308:356|352:344,1,95.9999970703126
396,300,86467,1,0,0:0:0:0:
356,204,86659,1,0,0:0:0:0:
460,220,86851,1,0,0:0:0:0:
400,136,87044,2,0,P|356:124|300:144,1,80
232,180,87428,5,0,3:0:0:0:
176,92,87620,1,0,3:0:0:0:
128,184,87813,1,0,3:0:0:0:
184,272,88005,1,0,3:0:0:0:
284,252,88197,1,0,3:0:0:0:
328,160,88390,1,0,3:0:0:0:
336,148,88486,1,0,0:0:0:0:
344,136,88582,1,0,0:0:0:0:
352,124,88678,1,0,0:0:0:0:
360,112,88774,5,0,0:0:0:0:
260,88,88967,1,0,0:0:0:0:
340,24,89159,2,0,P|408:36|440:60,1,80
420,144,89543,5,0,0:0:0:0:
436,248,89736,1,0,0:0:0:0:
496,164,89928,2,0,P|484:100|432:68,1,95.9999970703126
384,60,90313,5,0,0:0:0:0:
328,148,90505,1,0,0:0:0:0:
240,92,90697,1,0,0:0:0:0:
228,196,90890,2,0,P|272:248|304:256,1,80
364,312,91274,2,0,P|377:269|360:212,1,80
324,140,91659,1,0,0:0:0:0:
232,188,91851,5,0,0:0:0:0:
176,100,92043,1,0,0:0:0:0:
112,180,92236,2,0,P|120:236|140:268,1,80
232,280,92620,2,0,P|296:276|336:284,1,80
412,252,93005,1,0,0:0:0:0:
372,156,93197,2,0,P|368:96|376:56,1,80
276,120,93582,5,0,0:0:0:0:
192,180,93774,2,0,P|132:224|100:232,1,80
212,284,94159,2,0,L|252:308,2,40
56,328,94543,1,0,0:0:0:0:
144,176,94735,1,0,0:0:0:0:
164,188,95120,5,0,0:0:0:0:
256,192,95216,12,0,99735,0:0:0:0:
