osu file format v14

[General]
AudioFilename: KillerBlood - Something Spicy.mp3
AudioLeadIn: 0
PreviewTime: 3253
Countdown: 0
SampleSet: Soft
StackLeniency: 0.2
Mode: 0
LetterboxInBreaks: 0
WidescreenStoryboard: 0

[Editor]
Bookmarks: 14003,24670,46003,56670,70003,91337
DistanceSpacing: 2.3
BeatDivisor: 1
GridSize: 32
TimelineZoom: 1.6

[Metadata]
Title:Something Spicy
TitleUnicode:辣物
Artist:KillerBlood
ArtistUnicode:KillerBlood
Creator:My Angel Azusa
Version:Pata-Mon's Insane
Source:
Tags:sahuang xinely pata-mon thzz
BeatmapID:1224537
BeatmapSetID:569320

[Difficulty]
HPDrainRate:6
CircleSize:4
OverallDifficulty:7.5
ApproachRate:9
SliderMultiplier:1.6
SliderTickRate:1

[Events]
//Background and Video events
0,0,"spicy.jpg",0,0
//Break Periods
//Storyboard Layer 0 (Background)
//Storyboard Layer 1 (Fail)
//Storyboard Layer 2 (Pass)
//Storyboard Layer 3 (Foreground)
//Storyboard Sound Samples

[TimingPoints]
2004,333.333333333333,4,2,1,55,1,0
3337,-125,4,2,1,65,0,0
3503,-125,4,2,0,75,0,0
14003,-166.666666666667,4,2,1,75,0,0
24003,-125,4,2,0,75,0,0
68670,-125,4,2,0,5,0,0
68837,-100,4,2,0,55,0,0
69670,-100,4,2,0,65,0,0
70003,-100,4,2,0,75,0,1
91337,-125,4,2,0,75,0,0

[Colours]
Combo1 : 5,187,207
Combo2 : 44,47,65
Combo3 : 177,175,184
Combo4 : 240,240,0

[HitObjects]
269,339,2003,5,0,3:0:0:0:
256,192,2337,5,0,3:0:0:0:
243,45,2670,5,0,3:0:0:0:
122,129,2837,1,8,0:3:0:0:
256,192,3003,1,4,0:3:0:0:
390,255,3170,1,4,0:3:0:0:
269,339,3337,1,2,0:0:0:0:
390,255,3503,5,2,0:0:0:0:
394,259,3587,1,0,0:0:0:0:
398,263,3670,1,2,0:0:0:0:
419,117,3837,1,0,0:0:0:0:
305,211,4003,2,0,P|292:257|312:326,2,64,2|0|0,1:2|0:0|0:0,0:0:0:0:
512,169,4503,5,2,0:0:0:0:
512,169,4837,2,0,P|510:200|499:230,1,64,2|0,0:0|0:0,0:0:0:0:
448,36,5170,1,2,0:0:0:0:
342,187,5337,2,0,L|405:178,1,64,2|0,1:2|0:0,0:0:0:0:
325,333,5670,2,0,L|397:304,1,64,2|0,0:0|0:0,0:0:0:0:
196,183,6003,6,0,P|197:209|207:245,1,64,2|0,0:0|0:0,0:0:0:0:
252,304,6253,1,0,0:0:0:0:
256,308,6337,1,0,0:0:0:0:
342,187,6503,1,0,0:0:0:0:
101,142,6670,1,2,1:2:0:0:
195,324,6837,2,0,P|227:321|256:308,1,64
101,142,7170,5,2,0:0:0:0:
207,245,7503,5,2,0:0:0:0:
243,103,7837,6,0,P|239:69|217:20,1,64,2|0,0:0|1:0,0:0:0:0:
207,245,8170,1,2,0:0:0:0:
328,151,8337,2,0,P|336:118|332:65,1,64,0|0,1:0|0:0,0:0:0:0:
149,157,8670,5,2,0:0:0:0:
292,230,8837,1,2,0:0:0:0:
296,234,8920,1,0,0:0:0:0:
300,238,9003,1,2,0:0:0:0:
243,103,9170,1,2,0:0:0:0:
239,99,9253,1,0,0:0:0:0:
235,95,9337,2,0,P|211:71|158:52,1,64,2|0,1:2|0:0,0:0:0:0:
149,157,9670,1,2,0:0:0:0:
331,139,9837,5,2,0:0:0:0:
331,139,10170,2,0,P|332:175|322:226,1,64,2|0,0:0|0:0,0:0:0:0:
149,157,10503,1,2,0:0:0:0:
287,54,10670,2,0,P|318:48|350:46,1,64,2|0,1:2|0:0,0:0:0:0:
246,251,11003,2,0,P|214:249|182:243,1,64,2|0,0:0|0:0,0:0:0:0:
388,213,11337,6,0,P|393:253|386:296,1,64,2|0,0:0|0:0,0:0:0:0:
360,344,11587,1,0,0:0:0:0:
356,348,11670,1,0,0:0:0:0:
246,251,11837,1,0,0:0:0:0:
362,110,12003,2,0,L|426:110,1,64,2|0,1:2|0:0,0:0:0:0:
302,152,12253,2,0,L|238:152,1,64,2|0,0:0|0:0,0:0:0:0:
362,110,12503,6,0,P|359:198|297:225,1,128,2|2,0:0|0:0,0:0:0:0:
172,301,13003,2,0,P|175:270|187:240,1,64,0|2,0:0|0:0,0:0:0:0:
287,91,13337,2,0,P|290:122|302:152,1,64,2|0,1:2|0:0,0:0:0:0:
362,110,13587,1,2,0:0:0:0:
366,106,13670,2,0,P|363:75|351:45,1,64,0|0,1:0|0:0,0:0:0:0:
248,209,14003,6,0,B|287:230|287:230|411:213,1,143.999995605469,2|0,0:0|0:0,0:0:0:0:
197,111,14670,2,0,P|166:135|141:180,2,47.9999985351563,0|0|0,1:0|0:0|0:0,0:0:0:0:
145,251,15170,2,0,P|75:212|52:120,1,95.9999970703126,2|0,0:0|0:0,0:0:0:0:
248,209,15670,2,0,P|254:237|251:285,1,47.9999985351563,2|0,0:0|0:0,0:0:0:0:
160,142,16003,2,0,P|230:100|300:112,1,95.9999970703126,0|0,1:0|0:0,0:0:0:0:
165,286,16670,6,0,L|160:142,1,143.999995605469,2|0,0:0|0:0,0:0:0:0:
228,6,17337,2,0,L|227:54,2,47.9999985351563,0|0|0,1:0|0:0|0:0,0:0:0:0:
67,139,17837,2,0,P|114:151|160:142,1,95.9999970703126,2|0,0:0|0:0,0:0:0:0:
275,54,18337,2,0,L|227:54,1,47.9999985351563,2|0,0:0|0:0,0:0:0:0:
378,94,18670,5,0,1:0:0:0:
275,54,18837,1,0,3:0:0:0:
395,203,19003,5,0,1:0:0:0:
378,94,19170,1,0,3:0:0:0:
309,272,19337,6,0,P|375:269|395:203,1,143.999995605469,2|0,0:0|0:0,0:0:0:0:
271,120,20003,2,0,P|280:144|292:163,2,47.9999985351563,0|0|0,1:0|0:0|0:0,0:0:0:0:
395,203,20503,2,0,P|455:173|487:112,1,95.9999970703126,2|0,0:0|0:0,0:0:0:0:
271,120,21003,2,0,P|280:144|292:163,1,47.9999985351563,2|0,0:0|0:0,0:0:0:0:
417,293,21337,2,0,P|416:244|395:203,1,95.9999970703126,0|0,1:0|0:0,0:0:0:0:
417,293,22003,6,0,B|427:243|395:203|395:203|414:115,1,143.999995605469,2|0,0:0|0:0,0:0:0:0:
309,272,22670,2,0,B|290:360,2,47.9999985351563,0|0|0,1:0|0:0|0:0,0:0:0:0:
405,156,23170,2,0,B|425:62,2,95.9999970703126,2|2|2,0:0|0:0|0:0,0:0:0:0:
212,164,24003,5,0,1:0:0:0:
311,213,24170,1,8,0:3:0:0:
405,156,24336,1,4,0:3:0:0:
504,205,24503,1,2,0:0:0:0:
508,209,24587,1,0,0:0:0:0:
512,213,24670,6,0,L|509:299,1,64,6|0,0:0|0:0,0:0:0:0:
459,331,24920,1,0,0:0:0:0:
455,335,25003,2,0,L|371:327,1,64,2|0,0:0|0:0,0:0:0:0:
319,345,25253,1,0,0:0:0:0:
315,341,25337,1,2,1:2:0:0:
300,195,25503,2,0,P|304:174|327:148,1,32
381,147,25670,2,0,P|397:160|408:193,1,32,2|0,0:0|0:0,0:0:0:0:
382,241,25837,2,0,P|361:248|327:241,1,32,2|0,0:0|0:0,0:0:0:0:
232,229,26003,6,0,P|192:237|152:261,1,64,2|0,0:0|0:0,0:0:0:0:
116,297,26253,1,0,0:0:0:0:
112,301,26337,1,2,0:0:0:0:
245,360,26503,2,0,L|299:356,1,32
350,369,26670,2,0,P|397:355|403:261,1,128,2|2,1:2|0:0,0:0:0:0:
300,195,27170,1,0,0:0:0:0:
296,191,27253,1,0,0:0:0:0:
292,187,27337,6,0,L|298:79,1,64,2|0,0:0|0:0,0:0:0:0:
299,49,27587,1,0,0:0:0:0:
303,45,27670,1,2,0:0:0:0:
159,9,27837,2,0,L|108:13,1,32
59,39,28003,2,0,L|53:147,1,64,2|0,1:2|0:0,0:0:0:0:
9,161,28253,1,0,0:0:0:0:
13,165,28337,2,0,L|16:219,1,32,2|0,0:0|0:0,0:0:0:0:
68,247,28503,2,0,L|65:301,1,32,2|0,0:0|0:0,0:0:0:0:
12,368,28670,6,0,P|52:355|102:355,1,64,2|0,0:0|0:0,0:0:0:0:
146,368,28920,1,0,0:0:0:0:
150,372,29003,1,2,0:0:0:0:
249,263,29170,2,0,L|242:215,1,32
232,158,29337,1,2,1:2:0:0:
471,331,29670,2,0,L|460:259,1,64,2|0,1:2|0:0,0:0:0:0:
449,194,29920,1,0,0:0:0:0:
453,190,30003,6,0,P|480:151|474:109,1,64,2|0,0:0|0:0,0:0:0:0:
453,67,30253,1,0,0:0:0:0:
449,63,30337,1,2,0:0:0:0:
313,8,30503,2,0,L|264:16,1,32
218,51,30670,2,0,P|176:49|131:35,1,64,2|0,1:2|0:0,0:0:0:0:
89,10,30920,1,0,0:0:0:0:
85,14,31003,2,0,L|79:67,1,32,2|0,0:0|0:0,0:0:0:0:
119,110,31170,2,0,L|113:163,1,32,2|0,0:0|0:0,0:0:0:0:
105,215,31337,5,2,0:0:0:0:
249,238,31503,2,0,L|255:185,1,32
263,133,31670,1,2,0:0:0:0:
393,261,31837,2,0,L|399:208,1,32
407,156,32004,1,2,1:2:0:0:
119,110,32337,1,2,0:0:0:0:
263,133,32503,1,2,0:0:0:0:
407,156,32670,6,0,P|419:113|419:70,1,64,2|0,0:0|0:0,0:0:0:0:
362,15,32920,2,0,P|350:58|350:101,1,64,2|0,0:0|0:0,0:0:0:0:
407,156,33170,1,2,0:0:0:0:
362,15,33337,1,2,1:2:0:0:
407,156,33670,5,2,0:0:0:0:
362,15,33837,1,2,0:0:0:0:
263,123,34003,5,2,0:0:0:0:
407,156,34170,1,0,0:0:0:0:
411,152,34253,1,0,0:0:0:0:
415,148,34337,2,0,L|401:55,1,64,2|0,0:0|0:0,0:0:0:0:
263,123,34670,2,0,P|259:178|278:266,1,128,2|0,1:2|1:0,0:0:0:0:
140,315,35170,1,0,0:0:0:0:
136,319,35253,1,0,0:0:0:0:
132,323,35337,6,0,L|48:321,1,64,6|0,0:0|0:0,0:0:0:0:
4,359,35587,1,0,0:0:0:0:
0,363,35670,1,2,0:0:0:0:
198,381,35837,2,0,L|206:321,1,32
189,277,36003,2,0,L|183:191,1,64,2|0,1:2|0:0,0:0:0:0:
149,147,36253,1,0,0:0:0:0:
145,143,36337,2,0,L|91:147,1,32,2|0,0:0|0:0,0:0:0:0:
60,196,36503,2,0,L|6:192,1,32,2|0,0:0|0:0,0:0:0:0:
7,89,36670,6,0,L|82:83,1,64,2|0,0:0|0:0,0:0:0:0:
113,145,36920,1,0,0:0:0:0:
117,149,37003,1,2,0:0:0:0:
264,141,37170,2,0,L|318:137,1,32
349,87,37337,2,0,P|401:84|459:136,1,128,2|2,1:2|0:0,0:0:0:0:
296,139,37837,2,0,L|242:143,1,32
204,30,38003,6,0,L|208:116,1,64,2|0,0:0|0:0,0:0:0:0:
264,141,38253,1,0,0:0:0:0:
268,145,38337,2,0,L|264:231,1,64,2|0,0:0|0:0,0:0:0:0:
214,263,38587,1,0,0:0:0:0:
210,267,38670,1,2,1:2:0:0:
46,215,38837,2,0,L|68:192,1,32
131,230,39003,2,0,L|158:213,1,32,2|0,0:0|0:0,0:0:0:0:
210,267,39170,2,0,L|240:258,1,32,2|0,0:0|0:0,0:0:0:0:
318,181,39337,6,0,P|310:223|321:261,1,64,2|0,0:0|0:0,0:0:0:0:
372,290,39587,1,0,0:0:0:0:
376,294,39670,2,0,P|416:279|443:251,1,64,2|0,0:0|0:0,0:0:0:0:
449,192,39920,1,0,0:0:0:0:
445,188,40003,2,0,P|412:160|374:150,1,64,2|0,1:2|0:0,0:0:0:0:
195,170,40337,2,0,P|228:198|266:208,1,64,2|0,1:2|0:0,0:0:0:0:
318,181,40587,1,0,0:0:0:0:
322,177,40670,5,2,0:0:0:0:
151,109,40837,1,0,0:0:0:0:
147,105,40920,1,0,0:0:0:0:
143,101,41003,1,2,0:0:0:0:
317,42,41170,1,0,0:0:0:0:
321,38,41253,1,0,0:0:0:0:
325,34,41336,1,2,1:2:0:0:
143,101,41503,1,0,0:0:0:0:
139,97,41587,1,0,0:0:0:0:
135,93,41670,2,0,L|183:102,1,32,2|0,0:0|0:0,0:0:0:0:
239,114,41837,2,0,L|287:123,1,32,2|0,0:0|0:0,0:0:0:0:
343,135,42003,5,2,0:0:0:0:
201,199,42170,2,0,L|190:168,1,32
166,99,42337,1,2,0:0:0:0:
343,135,42503,2,0,L|332:104,1,32
308,35,42670,1,2,1:2:0:0:
24,163,43003,1,2,0:0:0:0:
166,99,43170,1,2,0:0:0:0:
308,35,43337,6,0,P|353:25|423:25,1,96,2|0,0:0|0:0,0:0:0:0:
512,86,43670,2,0,P|470:85|433:75,1,64,2|0,0:0|0:0,0:0:0:0:
245,40,44003,2,0,P|277:34|309:35,1,64,2|0,1:2|0:0,0:0:0:0:
285,181,44337,1,2,0:0:0:0:
142,146,44503,1,2,0:0:0:0:
285,181,44670,5,2,0:0:0:0:
142,146,45003,5,2,0:0:0:0:
285,181,45337,6,0,L|285:309,1,128,0|0,1:0|1:0,0:0:0:0:
285,309,46003,6,0,P|337:305|392:292,1,96,2|0,0:0|0:0,0:0:0:0:
447,265,46337,2,0,P|449:321|417:360,1,64,2|0,0:0|0:0,0:0:0:0:
383,132,46670,2,0,P|462:118|586:215,1,128,2|0,1:2|0:0,0:0:0:0:
447,265,47170,1,2,0:0:0:0:
250,196,47337,5,2,0:0:0:0:
372,379,47587,1,0,0:0:0:0:
376,375,47670,2,0,L|369:303,1,64,2|0,0:0|0:0,0:0:0:0:
250,196,48003,1,2,1:2:0:0:
250,196,48337,1,2,0:0:0:0:
360,99,48503,1,2,0:0:0:0:
164,105,48670,6,0,P|118:104|53:80,1,96,2|0,0:0|0:0,0:0:0:0:
222,60,49003,2,0,P|233:130|206:165,1,64,2|0,0:0|0:0,0:0:0:0:
199,303,49337,2,0,P|187:240|186:177,1,128,2|0,1:2|0:0,0:0:0:0:
320,115,49837,1,2,0:0:0:0:
164,105,50003,5,2,0:0:0:0:
317,264,50253,1,0,0:0:0:0:
321,260,50337,2,0,L|322:196,1,64,2|0,0:0|0:0,0:0:0:0:
164,105,50670,2,0,L|163:169,1,64,2|0,1:2|0:0,0:0:0:0:
378,108,51003,2,0,L|379:44,1,64,2|0,1:2|0:0,0:0:0:0:
322,196,51337,6,0,P|367:212|436:195,1,64,2|0,0:0|0:0,0:0:0:0:
451,183,51587,2,0,P|478:138|475:69,1,64,2|0,0:0|0:0,0:0:0:0:
468,54,51837,2,0,P|459:42|433:19,1,32,2|0,0:0|0:0,0:0:0:0:
378,108,52003,2,0,P|341:106|314:105,1,64,2|0,1:2|0:0,0:0:0:0:
246,136,52253,1,0,0:0:0:0:
242,140,52337,1,2,0:0:0:0:
110,76,52503,1,2,0:0:0:0:
314,105,52670,6,0,P|293:202|213:215,2,128,2|2|2,0:0|0:0|1:2,0:0:0:0:
314,105,53670,2,0,P|345:106|377:107,1,64,2|0,0:0|0:0,0:0:0:0:
275,213,54003,6,0,P|225:218|163:208,1,96,2|0,0:0|0:0,0:0:0:0:
112,182,54337,2,0,L|31:197,1,64,2|0,0:0|0:0,0:0:0:0:
164,359,54670,2,0,P|227:366|290:359,1,128,2|0,1:2|0:0,0:0:0:0:
420,289,55337,5,2,0:0:0:0:
390,144,55670,5,2,0:0:0:0:
420,289,56003,6,0,P|440:234|439:168,1,96,2|0,1:2|0:0,0:0:0:0:
390,144,56337,2,0,P|382:110|385:55,1,64,2|0,1:2|0:0,0:0:0:0:
284,204,56670,6,0,P|223:204|172:186,1,96,6|0,0:0|0:0,0:0:0:0:
133,147,57003,2,0,L|49:151,1,64,2|0,0:0|0:0,0:0:0:0:
250,57,57337,2,0,P|317:65|390:62,1,128,2|0,1:2|0:0,0:0:0:0:
512,3,57837,1,2,0:0:0:0:
409,207,58003,5,2,0:0:0:0:
194,153,58253,1,0,0:0:0:0:
198,149,58337,2,0,P|235:138|281:138,1,64,2|0,0:0|0:0,0:0:0:0:
409,207,58670,1,2,1:2:0:0:
409,207,59003,1,2,0:0:0:0:
260,136,59170,1,2,0:0:0:0:
471,168,59337,6,0,P|471:104|456:52,1,96,2|0,0:0|0:0,0:0:0:0:
409,207,59670,2,0,P|399:252|400:291,1,64,2|0,0:0|0:0,0:0:0:0:
464,73,60003,2,0,P|395:77|307:69,1,128,2|0,1:2|0:0,0:0:0:0:
195,27,60503,1,2,0:0:0:0:
272,206,60670,5,2,0:0:0:0:
57,152,60920,1,0,0:0:0:0:
61,148,61003,2,0,P|98:137|144:137,1,64,2|0,0:0|0:0,0:0:0:0:
272,206,61337,2,0,L|266:284,1,64,2|0,1:2|0:0,0:0:0:0:
205,78,61670,2,0,L|211:156,1,64,2|0,1:2|0:0,0:0:0:0:
231,341,62003,5,2,0:0:0:0:
395,193,62253,1,0,0:0:0:0:
399,189,62337,2,0,L|399:125,1,64,2|0,0:0|0:0,0:0:0:0:
334,288,62670,1,2,1:2:0:0:
498,140,62920,1,0,0:0:0:0:
502,136,63004,2,0,L|502:72,1,64,2|0,0:0|0:0,0:0:0:0:
321,170,63337,5,2,0:0:0:0:
399,125,63503,1,0,3:0:0:0:
321,80,63670,1,2,0:0:0:0:
399,35,63837,1,0,3:0:0:0:
243,125,64003,5,2,1:2:0:0:
399,125,64170,1,0,3:0:0:0:
243,35,64337,1,2,0:0:0:0:
399,35,64503,1,0,3:0:0:0:
165,80,64670,6,0,P|152:142|151:206,1,128,2|0,0:0|0:0,0:0:0:0:
320,263,65170,1,0,0:0:0:0:
324,259,65253,1,0,0:0:0:0:
328,255,65337,2,0,P|326:191|314:128,1,128,2|0,1:2|0:0,0:0:0:0:
151,207,65837,1,2,0:0:0:0:
281,361,66003,6,0,P|349:369|399:347,2,64,2|0|0,0:0|0:0|0:0,0:0:0:0:
151,207,66503,2,0,P|119:207|88:215,2,64,2|0|0,0:0|1:0|0:0,0:0:0:0:
223,224,66920,1,0,3:0:0:0:
227,228,67003,1,0,3:0:0:0:
136,321,67170,1,0,3:0:0:0:
215,109,67337,5,6,0:0:0:0:
256,192,67420,12,0,68670,0:0:0:0:
135,170,68837,5,0,1:0:0:0:
283,170,69003,1,0,1:0:0:0:
163,257,69170,1,0,1:0:0:0:
209,116,69337,1,0,1:0:0:0:
255,257,69503,1,8,0:3:0:0:
259,261,69587,1,8,0:3:0:0:
263,265,69670,6,0,L|316:254,1,40,2|0,0:0|0:0,0:0:0:0:
209,116,69837,2,0,L|156:127,1,40,2|0,0:0|0:0,0:0:0:0:
331,138,70003,5,6,0:0:0:0:
212,38,70170,2,0,L|106:60,1,80,2|0,0:0|0:0,0:0:0:0:
206,194,70503,1,2,0:0:0:0:
286,70,70670,1,2,1:2:0:0:
117,158,70837,2,0,P|111:200|139:266,1,80,2|0,0:0|0:0,0:0:0:0:
235,337,71170,1,2,0:0:0:0:
286,187,71337,6,0,L|207:194,1,80,2|0,0:0|0:0,0:0:0:0:
62,342,71670,2,0,L|141:335,1,80,2|0,0:0|0:0,0:0:0:0:
126,140,72003,1,2,1:2:0:0:
120,236,72170,1,0,0:0:0:0:
228,378,72337,1,2,0:0:0:0:
222,282,72504,1,0,0:0:0:0:
351,130,72670,5,2,0:0:0:0:
301,270,72837,2,0,P|263:280|223:282,1,80,2|0,0:0|0:0,0:0:0:0:
242,147,73170,1,2,0:0:0:0:
392,217,73337,1,2,1:2:0:0:
297,350,73503,2,0,P|297:314|305:237,1,80,2|0,0:0|0:0,0:0:0:0:
351,130,73837,1,2,0:0:0:0:
468,232,74003,6,0,P|423:231|392:217,1,80,2|0,0:0|0:0,0:0:0:0:
406,51,74337,2,0,P|491:52|522:78,1,80,2|0,0:0|0:0,0:0:0:0:
351,130,74670,1,2,1:2:0:0:
310,43,74837,1,0,0:0:0:0:
447,138,75003,1,2,0:0:0:0:
392,217,75170,1,0,0:0:0:0:
255,122,75337,5,2,0:0:0:0:
200,201,75503,1,2,0:0:0:0:
196,205,75587,1,0,0:0:0:0:
192,209,75670,1,2,0:0:0:0:
248,287,75837,1,0,0:0:0:0:
392,217,76003,1,2,1:2:0:0:
288,96,76170,2,0,P|292:148|308:211,1,80,2|0,0:0|0:0,0:0:0:0:
470,128,76503,5,2,0:0:0:0:
470,128,76837,1,2,0:0:0:0:
474,132,76920,1,0,0:0:0:0:
478,136,77003,1,2,0:0:0:0:
352,33,77170,1,0,0:0:0:0:
452,229,77337,1,2,1:2:0:0:
326,126,77503,2,0,L|246:131,1,80,2|0,0:0|0:0,0:0:0:0:
452,229,77837,6,0,P|459:150|456:64,1,160,2|0,0:0|0:0,0:0:0:0:
246,131,78337,2,0,L|326:126,1,80,2|0,0:0|0:0,0:0:0:0:
152,109,78670,1,2,1:2:0:0:
180,201,78837,1,0,0:0:0:0:
218,39,79003,1,2,0:0:0:0:
124,17,79170,1,0,0:0:0:0:
86,179,79337,5,2,0:0:0:0:
246,131,79503,1,2,1:2:0:0:
58,87,79670,1,2,1:2:0:0:
114,271,79837,2,0,P|216:290|249:268,1,80,2|0,1:2|1:0,0:0:0:0:
246,131,80170,1,2,0:0:0:0:
180,201,80337,1,2,0:0:0:0:
187,297,80503,1,2,0:0:0:0:
246,131,80670,5,6,0:0:0:0:
359,224,80837,2,0,P|343:283|311:322,1,80,2|0,0:0|0:0,0:0:0:0:
180,201,81170,1,2,0:0:0:0:
312,61,81337,1,2,1:2:0:0:
259,198,81503,2,0,P|223:203|148:194,1,80,2|0,0:0|0:0,0:0:0:0:
343,151,81837,1,2,0:0:0:0:
264,295,82003,6,0,P|226:299|150:296,1,80,2|0,0:0|0:0,0:0:0:0:
343,151,82337,2,0,P|381:147|457:150,1,80,2|0,0:0|0:0,0:0:0:0:
259,198,82670,1,2,1:2:0:0:
261,102,82837,1,0,0:0:0:0:
423,147,83003,1,2,0:0:0:0:
421,243,83170,1,0,0:0:0:0:
261,102,83337,5,2,0:0:0:0:
426,68,83503,2,0,P|428:119|423:147,1,80,2|0,0:0|0:0,0:0:0:0:
302,265,83837,1,2,0:0:0:0:
261,102,84003,1,2,1:2:0:0:
423,147,84170,2,0,P|462:209|471:257,1,80,2|0,0:0|0:0,0:0:0:0:
376,359,84503,1,2,0:0:0:0:
223,257,84670,6,0,P|263:258|303:265,1,80,2|0,0:0|0:0,0:0:0:0:
423,147,85003,2,0,P|383:146|343:139,1,80,2|0,0:0|0:0,0:0:0:0:
198,87,85337,1,2,1:2:0:0:
290,60,85503,1,0,0:0:0:0:
286,215,85670,1,2,0:0:0:0:
195,183,85837,1,0,0:0:0:0:
344,139,86003,5,2,0:0:0:0:
286,215,86170,1,2,0:0:0:0:
290,219,86253,1,0,0:0:0:0:
294,223,86337,1,2,0:0:0:0:
290,60,86503,1,0,0:0:0:0:
195,183,86670,1,2,1:2:0:0:
198,87,86837,2,0,P|185:32|160:-6,1,80,2|0,0:0|0:0,0:0:0:0:
195,183,87170,5,2,0:0:0:0:
195,183,87503,1,2,0:0:0:0:
191,187,87587,1,0,0:0:0:0:
187,191,87670,1,2,0:0:0:0:
318,223,87837,1,0,0:0:0:0:
205,117,88003,2,0,P|188:144|194:208,1,80,2|0,1:2|0:0,0:0:0:0:
244,244,88253,2,0,P|275:245|328:208,1,80,2|0,1:2|0:0,0:0:0:0:
335,147,88503,2,0,P|320:118|261:91,1,80,2|0,1:2|0:0,0:0:0:0:
244,244,88837,5,2,1:2:0:0:
335,147,89003,1,2,0:0:0:0:
205,117,89170,2,0,P|188:144|194:208,1,80,2|0,0:0|1:0,0:0:0:0:
335,147,89503,1,2,0:0:0:0:
244,244,89669,1,2,0:0:0:0:
374,274,89836,2,0,P|391:247|385:183,1,80,2|0,0:0|0:0,0:0:0:0:
280,94,90170,5,2,1:2:0:0:
244,244,90337,1,2,1:2:0:0:
392,200,90503,1,2,1:2:0:0:
305,179,90670,1,2,1:2:0:0:
244,244,90837,6,0,P|272:262|303:268,1,40,2|0,0:0|0:0,0:0:0:0:
392,200,91003,2,0,P|394:174|381:132,1,40,2|0,0:0|0:0,0:0:0:0:
280,94,91170,2,0,P|248:111|229:133,1,40,2|0,0:0|0:0,0:0:0:0:
305,179,91337,5,2,0:0:0:0:
378,52,91503,1,2,0:0:0:0:
374,48,91587,1,0,0:0:0:0:
370,44,91670,1,2,0:0:0:0:
245,113,91837,1,0,0:0:0:0:
466,94,92003,2,0,P|472:67|472:7,2,64,2|0|0,1:2|0:0|0:0,0:0:0:0:
245,113,92503,5,2,0:0:0:0:
245,113,92837,2,0,P|246:144|253:176,1,64,2|0,0:0|0:0,0:0:0:0:
359,31,93170,1,2,0:0:0:0:
169,56,93337,2,0,P|163:83|163:143,1,64,2|0,1:2|0:0,0:0:0:0:
346,187,93670,2,0,P|344:155|337:123,1,64,2|0,0:0|0:0,0:0:0:0:
218,278,94003,5,2,0:0:0:0:
346,187,94170,1,2,0:0:0:0:
350,191,94253,1,0,0:0:0:0:
354,195,94337,1,2,0:0:0:0:
312,335,94503,1,0,0:0:0:0:
260,138,94670,2,0,P|294:104|330:90,1,64,2|0,1:2|0:0,0:0:0:0:
412,275,95003,1,0,0:0:0:0:
218,278,95170,5,2,0:0:0:0:
218,278,95503,2,0,L|231:352,1,64,2|0,0:0|0:0,0:0:0:0:
271,140,95837,1,2,0:0:0:0:
80,225,96003,5,2,1:2:0:0:
218,278,96170,1,0,3:0:0:0:
133,87,96336,5,2,1:2:0:0:
80,225,96503,1,0,3:0:0:0:
271,140,96670,5,2,0:0:0:0:
133,87,96837,6,0,L|154:134,1,32
176,184,97003,1,2,0:0:0:0:
283,39,97170,6,0,L|252:80,1,32
220,124,97337,1,2,1:2:0:0:
399,144,97503,6,0,L|347:138,1,32
293,132,97670,1,2,0:0:0:0:
365,297,97837,6,0,L|344:249,1,32
322,200,98003,1,2,0:0:0:0:
176,184,98170,6,0,L|124:178,1,32,2|0,0:0|0:0,0:0:0:0:
220,124,98337,2,0,L|199:76,1,32,2|0,0:0|0:0,0:0:0:0:
293,132,98503,2,0,L|324:91,1,32,2|0,0:0|0:0,0:0:0:0:
322,200,98670,5,0,1:2:0:0:
176,184,98837,1,0,0:0:0:0:
306,346,99003,1,2,0:0:0:0:
160,330,99170,1,0,0:0:0:0:
322,200,99337,6,0,P|314:133|285:86,1,96,2|0,0:0|0:0,0:0:0:0:
274,255,99670,2,0,P|339:271|381:243,1,64,2|0,0:0|0:0,0:0:0:0:
176,184,100003,2,0,L|112:191,2,64,2|0|0,1:2|0:0|0:0,0:0:0:0:
365,115,100503,6,0,L|301:108,1,64,2|0,0:0|0:0,0:0:0:0:
112,39,100837,2,0,L|176:32,1,64,2|0,0:0|0:0,0:0:0:0:
301,108,101170,1,2,0:0:0:0:
112,39,101337,5,2,1:2:0:0:
169,174,101503,1,2,1:2:0:0:
301,108,101670,1,2,1:2:0:0:
358,243,101837,1,2,0:0:0:0:
