osu file format v14

[General]
AudioFilename: KillerBlood - Something Spicy.mp3
AudioLeadIn: 0
PreviewTime: 3253
Countdown: 0
SampleSet: Soft
StackLeniency: 0.6
Mode: 0
LetterboxInBreaks: 0
WidescreenStoryboard: 0

[Editor]
Bookmarks: 101837
DistanceSpacing: 1.2
BeatDivisor: 4
GridSize: 4
TimelineZoom: 1.5

[Metadata]
Title:Something Spicy
TitleUnicode:辣物
Artist:KillerBlood
ArtistUnicode:KillerBlood
Creator:My Angel Azusa
Version:Nely's Hard
Source:
Tags:sahuang xinely pata-mon thzz
BeatmapID:1224903
BeatmapSetID:569320

[Difficulty]
HPDrainRate:5
CircleSize:3.6
OverallDifficulty:6
ApproachRate:7.8
SliderMultiplier:1.3
SliderTickRate:1

[Events]
//Background and Video events
0,0,"spicy.jpg",0,0
//Break Periods
//Storyboard Layer 0 (Background)
//Storyboard Layer 1 (Fail)
//Storyboard Layer 2 (Pass)
//Storyboard Layer 3 (Foreground)
//Storyboard Sound Samples

[TimingPoints]
2004,333.333333333333,4,2,1,50,1,0
24670,-100,4,2,1,55,0,0
46003,-100,4,2,1,60,0,0
68503,-100,4,2,1,5,0,0
68837,-100,4,2,1,85,0,0
70003,-86.9565217391304,4,2,1,70,0,1
80003,-100,4,2,1,70,0,0
80670,-86.9565217391304,4,2,1,70,0,1
91337,-100,4,2,1,60,0,0
100837,-100,4,2,1,70,0,0
101837,-100,4,2,22,70,0,0

[Colours]
Combo1 : 113,142,121
Combo2 : 40,43,60
Combo3 : 165,163,173
Combo4 : 169,152,137

[HitObjects]
444,112,2003,5,0,3:0:0:0:
500,228,2337,1,0,3:0:0:0:
428,336,2670,1,0,3:0:0:0:
376,260,2837,2,0,L|372:184,2,65,8|4|4,0:3|0:3|0:3,0:0:0:0:
320,332,3337,6,0,P|252:356|172:336,1,130,6|0,0:0|3:0,0:0:0:0:
116,304,3837,1,0,0:0:0:0:
124,216,4003,2,0,L|120:132,1,65,8|0,0:0|0:0,0:0:0:0:
180,80,4337,1,0,3:0:0:0:
248,180,4503,6,0,B|312:200|312:200|372:156,1,130,2|2,0:0|0:0,0:0:0:0:
432,100,5003,2,0,L|424:12,1,65,0|2,0:0|0:0,0:0:0:0:
336,36,5337,1,8,0:0:0:0:
244,40,5503,1,0,0:0:0:0:
152,44,5670,2,0,L|157:108,1,65,0|0,3:0|0:0,0:0:0:0:
220,176,6003,6,0,P|164:148|76:176,1,130,2|0,0:0|3:0,0:0:0:0:
28,216,6503,1,0,0:0:0:0:
100,272,6670,2,0,L|96:352,1,65,8|0,0:0|0:0,0:0:0:0:
272,292,7170,6,0,P|332:320|412:304,1,130,2|2,0:0|0:0,0:0:0:0:
448,240,7670,1,0,0:0:0:0:
424,152,7837,2,0,P|392:128|344:116,1,65,2|0,0:0|1:0,0:0:0:0:
284,92,8170,1,0,0:0:0:0:
212,148,8337,2,0,L|124:148,1,65,8|0,0:0|0:0,0:0:0:0:
56,160,8670,5,6,0:0:0:0:
92,244,8837,2,0,L|84:284,2,32.5,0|0|0,0:0|0:0|3:0,0:0:0:0:
180,228,9170,1,0,0:0:0:0:
180,228,9253,1,0,0:0:0:0:
180,228,9337,2,0,L|260:228,1,65,8|0,0:0|0:0,0:0:0:0:
324,276,9670,1,0,3:0:0:0:
372,200,9837,6,0,P|388:132|358:70,1,130,2|2,0:0|0:0,0:0:0:0:
276,56,10337,1,0,3:0:0:0:
200,108,10503,1,2,0:0:0:0:
250,186,10670,2,0,L|300:144,2,65,8|0|8,0:0|0:0|0:0,0:0:0:0:
160,188,11170,1,0,0:0:0:0:
28,140,11337,6,0,P|15:169|18:201,1,65,2|0,0:0|0:0,0:0:0:0:
88,264,11670,2,0,P|100:293|98:325,1,65,2|0,0:0|0:0,0:0:0:0:
180,360,12003,2,0,P|224:372|284:352,2,97.5,8|2|2,0:0|0:0|0:0,0:0:0:0:
168,180,12837,5,2,0:0:0:0:
168,180,13003,2,0,L|180:96,1,65,0|2,0:0|0:0,0:0:0:0:
264,140,13337,2,0,L|276:56,1,65,8|0,0:0|0:0,0:0:0:0:
360,56,13670,2,0,L|364:24,2,32.5,8|0|0,0:0|0:0|0:0,0:0:0:0:
360,160,14003,6,0,L|357:224,1,65,6|0,0:0|0:0,0:0:0:0:
416,296,14337,1,0,3:0:0:0:
480,232,14503,1,2,0:0:0:0:
360,160,14670,1,8,0:0:0:0:
360,160,14837,2,0,L|357:224,1,65,0|0,0:0|3:0,0:0:0:0:
332,300,15170,1,2,0:0:0:0:
272,232,15337,5,0,0:0:0:0:
208,296,15503,1,0,0:0:0:0:
104,280,15670,2,0,L|96:204,1,65,2|0,0:0|0:0,0:0:0:0:
116,108,16003,1,8,0:0:0:0:
116,108,16170,2,0,L|100:16,2,65,0|0|0,0:0|3:0|0:0,0:0:0:0:
184,168,16670,5,2,0:0:0:0:
248,104,16837,2,0,L|264:64,2,32.5,0|0|0,0:0|0:0|3:0,0:0:0:0:
184,168,17170,2,0,L|188:256,1,65,0|8,0:0|0:0,0:0:0:0:
252,296,17503,2,0,L|256:384,1,65,0|2,0:0|3:0,0:0:0:0:
380,360,17837,6,0,B|416:344|448:308|448:308|444:244|384:196,1,195,2|2,0:0|3:0,0:0:0:0:
200,48,18670,1,8,0:0:0:0:
424,72,19003,1,8,0:0:0:0:
212,144,19337,6,0,L|228:236,1,65,6|0,0:0|0:0,0:0:0:0:
244,296,19670,1,2,3:0:0:0:
308,360,19837,1,0,0:0:0:0:
376,292,20003,2,0,L|456:288,1,65,8|0,0:0|0:0,0:0:0:0:
440,196,20337,2,0,L|375:192,1,65,2|2,3:0|0:0,0:0:0:0:
292,156,20670,6,0,P|288:128|304:88,2,65,0|0|2,0:0|0:0|0:0,0:0:0:0:
232,224,21170,1,0,0:0:0:0:
156,176,21337,2,0,L|84:156,2,65,8|0|0,0:0|0:0|3:0,0:0:0:0:
156,268,21837,1,0,0:0:0:0:
224,328,22003,6,0,L|292:328,1,65,2|0,0:0|0:0,0:0:0:0:
380,304,22337,2,0,L|448:304,1,65,2|0,3:0|0:0,0:0:0:0:
492,228,22670,2,0,P|496:196|484:160,2,65,8|0|2,0:0|0:0|3:0,0:0:0:0:
384,216,23170,6,2,L|189:200,1,195
120,36,24003,1,8,0:0:0:0:
192,100,24170,1,8,0:3:0:0:
240,20,24337,1,4,0:3:0:0:
320,56,24503,5,0,0:0:0:0:
320,56,24587,1,0,0:0:0:0:
320,56,24670,2,0,L|332:216,1,130,6|0,0:0|3:0,0:0:0:0:
228,336,25337,2,0,L|218:206,1,130,8|0,0:0|3:0,0:0:0:0:
200,120,25837,1,2,0:0:0:0:
236,36,26003,5,2,0:0:0:0:
300,104,26170,2,0,L|304:144,2,32.5,0|0|2,0:0|0:0|0:0,0:0:0:0:
360,36,26503,2,0,L|356:3,2,32.5,0|0|8,0:0|0:0|0:0,0:0:0:0:
424,208,27003,1,0,3:0:0:0:
384,292,27170,6,0,L|392:336,2,32.5,0|0|2,0:0|0:0|0:0,0:0:0:0:
320,228,27503,2,0,L|312:172,2,32.5,0|0|0,0:0|0:0|3:0,0:0:0:0:
232,200,27837,2,0,L|228:152,2,32.5,0|0|8,0:0|0:0|0:0,0:0:0:0:
152,244,28170,1,0,0:0:0:0:
80,300,28337,2,0,L|8:296,1,65,0|2,3:0|0:0,0:0:0:0:
12,204,28670,6,0,L|0:52,1,130,2|2,0:0|0:0,0:0:0:0:
76,24,29170,1,0,0:0:0:0:
76,24,29337,2,0,L|224:16,1,130,8|8,0:0|3:2,0:0:0:0:
292,60,29837,6,0,L|308:100,2,32.5,0|0|2,0:0|0:0|0:0,0:0:0:0:
216,112,30170,2,0,L|232:152,2,32.5,0|0|0,0:0|0:0|3:0,0:0:0:0:
140,156,30503,2,0,L|156:196,2,32.5,0|0|8,0:0|0:0|0:0,0:0:0:0:
52,128,30837,1,0,0:0:0:0:
16,212,31003,2,0,L|28:288,1,65,0|2,3:0|0:0,0:0:0:0:
88,344,31337,6,0,P|156:324|240:348,1,130,2|2,0:0|0:0,0:0:0:0:
304,348,31837,2,0,L|300:388,2,32.5,0|0|8,0:0|0:0|0:0,0:0:0:0:
268,152,32337,1,0,3:0:0:0:
340,208,32503,1,0,0:0:0:0:
388,132,32670,6,0,L|504:128,2,97.5,2|0|2,0:0|0:0|0:0,0:0:0:0:
316,72,33337,2,0,P|256:64|176:108,1,130,8|0,0:0|3:0,0:0:0:0:
124,152,33837,1,2,0:0:0:0:
168,232,34003,5,2,0:0:0:0:
240,176,34170,2,0,L|280:188,2,32.5,0|0|2,0:0|0:0|0:0,0:0:0:0:
168,232,34503,1,0,0:0:0:0:
184,320,34670,2,0,B|260:296|260:296|336:324,1,130,8|8,0:0|3:2,0:0:0:0:
388,356,35170,5,0,0:0:0:0:
388,356,35253,1,0,0:0:0:0:
388,356,35337,2,0,B|404:288|404:288|396:212,1,130,6|0,0:0|3:0,0:0:0:0:
372,140,35837,1,0,0:0:0:0:
288,172,36003,2,0,L|294:236,1,65,8|0,0:0|0:0,0:0:0:0:
204,228,36337,2,0,L|212:312,1,65,0|2,3:0|0:0,0:0:0:0:
264,368,36670,5,2,0:0:0:0:
340,320,36837,2,0,L|388:332,2,32.5,0|0|2,0:0|0:0|0:0,0:0:0:0:
380,236,37170,2,0,L|428:248,2,32.5,0|0|8,0:0|0:0|0:0,0:0:0:0:
204,228,37670,1,0,3:0:0:0:
204,136,37837,5,0,0:0:0:0:
204,136,38003,2,0,L|360:136,1,130,2|0,0:0|3:0,0:0:0:0:
424,124,38503,2,0,L|448:84,2,32.5,0|0|8,0:0|0:0|0:0,0:0:0:0:
384,208,38837,1,0,0:0:0:0:
432,284,39003,2,0,L|432:360,1,65,0|2,3:0|0:0,0:0:0:0:
340,352,39337,6,0,L|196:356,1,130,2|2,0:0|0:0,0:0:0:0:
120,352,39837,2,0,L|84:340,2,32.5,0|0|8,0:0|0:0|0:0,0:0:0:0:
184,180,40337,1,8,0:0:0:0:
200,92,40503,5,0,0:0:0:0:
200,92,40670,2,0,L|332:104,1,130,2|0,0:0|3:0,0:0:0:0:
420,112,41170,2,0,L|452:114,2,32.5,0|0|8,0:0|0:0|0:0,0:0:0:0:
360,180,41503,2,0,L|327:182,2,32.5,0|0|0,0:0|0:0|3:0,0:0:0:0:
436,232,41837,1,0,0:0:0:0:
352,264,42003,6,0,L|345:328,1,65,2|0,0:0|0:0,0:0:0:0:
252,332,42337,2,0,L|245:267,1,65,2|0,0:0|0:0,0:0:0:0:
236,176,42670,1,10,0:0:0:0:
236,176,43003,2,0,L|308:168,1,65,0|0,3:0|0:0,0:0:0:0:
404,152,43337,6,0,P|432:96|400:24,1,130,2|0,0:0|0:0,0:0:0:0:
320,24,43837,1,2,0:0:0:0:
248,112,44003,2,0,P|239:143|235:175,1,65,8|0,0:0|0:0,0:0:0:0:
184,252,44337,2,0,L|108:244,1,65,0|2,0:0|0:0,0:0:0:0:
80,328,44670,2,0,L|216:340,1,130,2|2,0:0|0:0,0:0:0:0:
392,344,45337,5,8,0:0:0:0:
468,180,45670,1,8,3:2:0:0:
288,144,46003,6,0,P|232:128|184:136,2,97.5,6|0|0,0:0|0:0|0:0,0:0:0:0:
296,236,46670,2,0,L|296:384,1,130,8|0,0:0|3:0,0:0:0:0:
208,344,47170,1,2,0:0:0:0:
120,364,47337,6,0,L|120:234,1,130,0|2,0:0|0:0,0:0:0:0:
104,144,47837,1,0,0:0:0:0:
136,60,48003,1,8,0:0:0:0:
136,60,48337,2,0,L|200:56,1,65,2|0,3:0|0:0,0:0:0:0:
292,52,48670,6,0,P|312:100|296:160,1,97.5,2|0,0:0|0:0,0:0:0:0:
276,164,49003,2,0,L|192:164,1,65,2|0,0:0|0:0,0:0:0:0:
288,264,49337,2,0,L|352:264,1,65,8|0,0:0|0:0,0:0:0:0:
428,316,49670,1,2,3:0:0:0:
456,228,49837,1,2,0:0:0:0:
416,124,50003,6,0,P|368:115|319:119,1,97.5,2|0,0:0|0:0,0:0:0:0:
288,136,50337,2,0,L|296:220,2,65,2|0|8,0:0|0:0|0:0,0:0:0:0:
144,28,51003,1,8,3:2:0:0:
104,112,51170,1,0,0:0:0:0:
132,200,51337,6,0,L|140:324,2,97.5,2|0|0,0:0|0:0|0:0,0:0:0:0:
192,132,52003,1,8,0:0:0:0:
248,204,52170,2,0,L|252:240,2,32.5,0|0|0,0:0|0:0|3:0,0:0:0:0:
308,136,52503,1,0,0:0:0:0:
252,64,52670,6,0,P|180:44|120:76,1,130,2|2,0:0|0:0,0:0:0:0:
348,224,53337,2,0,P|420:244|480:212,1,130,8|2,0:0|0:0,0:0:0:0:
492,136,53837,1,0,0:0:0:0:
448,56,54003,6,0,P|392:48|336:72,1,97.5,2|0,0:0|0:0,0:0:0:0:
320,88,54337,1,0,0:0:0:0:
320,88,54503,1,0,0:0:0:0:
404,136,54670,2,0,L|404:268,1,130,8|2,0:0|3:0,0:0:0:0:
244,356,55337,5,2,0:0:0:0:
124,220,55670,1,2,0:0:0:0:
304,118,56003,2,0,L|304:216,1,97.5,8|0,0:0|0:0,0:0:0:0:
288,240,56337,2,0,P|240:260|200:264,1,65,8|4,3:2|0:3,0:0:0:0:
124,220,56670,6,0,P|132:162|160:90,1,130,6|0,0:0|3:0,0:0:0:0:
220,32,57170,1,0,0:0:0:0:
280,100,57337,2,0,B|348:116|348:116|420:100,1,130,8|0,0:0|3:0,0:0:0:0:
472,40,57837,1,2,0:0:0:0:
500,128,58003,6,0,L|503:225,1,97.5,2|0,0:0|0:0,0:0:0:0:
504,256,58337,2,0,P|464:284|424:292,1,65,2|0,0:0|0:0,0:0:0:0:
316,300,58670,1,8,0:0:0:0:
316,300,59003,2,0,L|316:235,1,65,0|0,3:0|0:0,0:0:0:0:
356,144,59337,6,0,P|304:136|248:160,1,97.5,2|0,0:0|0:0,0:0:0:0:
232,160,59670,2,0,P|220:128|220:76,1,65,0|0,3:0|0:0,0:0:0:0:
284,36,60003,2,0,L|424:36,1,130,8|2,0:0|3:0,0:0:0:0:
492,88,60503,1,2,0:0:0:0:
464,176,60670,6,0,P|440:216|384:236,1,97.5,2|0,0:0|0:0,0:0:0:0:
364,232,61003,2,0,L|400:308,1,65,2|0,0:0|0:0,0:0:0:0:
436,372,61337,1,8,0:0:0:0:
464,176,61670,2,0,L|420:120,1,65,8|0,3:2|0:0,0:0:0:0:
332,116,62003,6,0,L|188:148,1,130,6|0,0:0|0:0,0:0:0:0:
116,160,62503,1,0,0:0:0:0:
168,236,62670,2,0,L|252:352,1,130,8|2,0:0|0:0,0:0:0:0:
392,236,63337,6,0,L|376:148,1,65,2|0,0:0|0:0,0:0:0:0:
304,220,63670,2,0,L|288:132,1,65,2|0,0:0|0:0,0:0:0:0:
180,156,64003,2,0,L|168:219,1,65,8|0,0:0|0:0,0:0:0:0:
92,172,64336,2,0,L|80:235,1,65,0|0,3:0|0:0,0:0:0:0:
8,292,64670,6,0,P|60:280|144:312,1,130,2|0,0:0|3:0,0:0:0:0:
220,324,65170,2,0,L|256:316,2,32.5,0|0|8,0:0|0:0|0:0,0:0:0:0:
172,148,65670,1,0,3:0:0:0:
348,156,66003,6,0,L|436:168,1,65,2|0,0:0|0:0,0:0:0:0:
504,176,66337,2,0,P|512:144|508:84,2,65,2|0|8,0:0|0:0|0:0,0:0:0:0:
444,244,66837,2,0,L|396:260,2,32.5,0|8|0,0:0|0:0|3:0,0:0:0:0:
496,320,67170,1,8,0:0:0:0:
408,348,67337,5,14,0:0:0:0:
256,192,67420,12,0,68503,0:0:0:0:
256,208,68837,6,0,L|256:300,1,65,8|8,3:2|3:2,0:0:0:0:
324,336,69170,2,0,P|356:332|396:308,1,65,8|8,3:2|3:2,0:0:0:0:
456,260,69503,1,8,0:3:0:0:
472,172,69670,2,0,L|472:100,1,65,4|0,0:3|0:0,0:0:0:0:
440,20,70003,6,0,P|376:20|264:24,1,149.500002851486,6|0,0:0|3:0,0:0:0:0:
204,44,70503,1,0,0:0:0:0:
208,132,70670,2,0,L|208:212,1,74.7500014257431,8|0,0:0|0:0,0:0:0:0:
208,296,71003,2,0,L|300:296,1,74.7500014257431,0|2,3:0|0:0,0:0:0:0:
372,296,71337,6,0,P|406:233|375:169,1,149.500002851486,2|0,0:0|3:0,0:0:0:0:
313,105,71837,1,2,0:0:0:0:
375,169,72003,2,0,P|399:129|403:77,1,74.7500014257431,8|0,0:0|0:0,0:0:0:0:
221,101,72337,2,0,P|229:137|250:168,1,74.7500014257431,0|2,3:0|0:0,0:0:0:0:
317,229,72670,6,0,B|253:197|253:197|161:253,1,149.500002851486,2|0,0:0|3:0,0:0:0:0:
116,296,73170,1,2,0:0:0:0:
64,224,73337,2,0,L|56:124,1,74.7500014257431,8|0,0:0|0:0,0:0:0:0:
153,93,73670,2,0,L|148:168,1,74.7500014257431,0|2,3:0|0:0,0:0:0:0:
244,92,74003,6,0,L|228:12,2,74.7500014257431,2|0|0,0:0|0:0|3:0,0:0:0:0:
332,72,74503,1,2,0:0:0:0:
420,52,74670,2,0,L|422:126,1,74.7500014257431,8|0,0:0|0:0,0:0:0:0:
472,200,75003,2,0,P|436:216|392:212,1,74.7500014257431,0|0,3:0|0:0,0:0:0:0:
312,220,75337,5,2,0:0:0:0:
228,244,75503,1,0,0:0:0:0:
228,244,75587,1,0,0:0:0:0:
228,244,75670,2,0,L|148:240,1,74.7500014257431,0|2,3:0|0:0,0:0:0:0:
64,240,76003,1,8,0:0:0:0:
104,160,76170,1,0,3:0:0:0:
256,324,76503,6,0,P|324:300|360:300,1,74.7500014257431,2|0,3:2|0:0,0:0:0:0:
416,308,76837,1,0,0:0:0:0:
416,308,76920,1,0,0:0:0:0:
416,308,77003,2,0,L|412:208,1,74.7500014257431,0|2,3:0|0:0,0:0:0:0:
384,148,77337,1,8,0:0:0:0:
424,68,77503,1,0,3:0:0:0:
320,220,77837,6,0,P|260:224|184:176,1,149.500002851486,6|2,0:2|0:0,0:0:0:0:
128,112,78337,2,0,L|131:37,1,74.7500014257431,0|2,3:0|0:0,0:0:0:0:
228,112,78670,2,0,L|231:37,1,74.7500014257431,8|0,0:0|0:0,0:0:0:0:
324,120,79003,2,0,L|327:45,1,74.7500014257431,0|0,3:0|0:0,0:0:0:0:
416,48,79337,5,2,0:0:0:0:
488,112,79503,1,8,0:0:0:0:
492,208,79670,1,8,0:0:0:0:
432,284,79837,1,8,0:0:0:0:
352,244,80003,6,0,L|352:156,1,65,8|8,0:0|0:3,0:0:0:0:
416,113,80337,2,0,L|416:25,1,65,4|4,0:3|0:3,0:0:0:0:
327,45,80670,5,6,0:0:0:0:
240,44,80837,1,0,0:0:0:0:
240,44,80920,1,0,0:0:0:0:
240,44,81003,2,0,L|240:136,1,74.7500014257431,0|2,3:0|0:0,0:0:0:0:
244,208,81337,1,8,0:0:0:0:
312,268,81503,1,0,0:0:0:0:
376,204,81670,2,0,L|460:204,1,74.7500014257431,0|2,3:0|0:0,0:0:0:0:
480,312,82003,6,0,L|396:312,1,74.7500014257431,2|0,0:0|0:0,0:0:0:0:
316,312,82337,2,0,P|276:304|236:292,1,74.7500014257431,0|2,3:0|0:0,0:0:0:0:
168,252,82670,1,8,0:0:0:0:
188,164,82837,1,0,0:0:0:0:
152,80,83003,2,0,L|77:80,1,74.7500014257431,0|2,3:0|0:0,0:0:0:0:
24,152,83337,5,2,0:0:0:0:
16,240,83504,1,0,0:0:0:0:
16,240,83587,1,0,0:0:0:0:
16,240,83670,2,0,L|20:336,1,74.7500014257431,2|2,3:0|0:0,0:0:0:0:
96,364,84004,1,8,0:0:0:0:
184,360,84170,2,0,L|268:360,1,74.7500014257431,0|2,0:0|3:0,0:0:0:0:
348,360,84503,1,0,0:0:0:0:
460,332,84670,6,0,P|468:300|460:248,1,74.7500014257431,2|0,0:0|0:0,0:0:0:0:
388,212,85003,2,0,P|380:244|388:296,1,74.7500014257431,2|0,3:0|0:0,0:0:0:0:
296,292,85337,1,8,0:0:0:0:
208,280,85504,1,0,0:0:0:0:
160,204,85670,2,0,P|154:169|160:124,1,74.7500014257431,2|0,3:2|0:0,0:0:0:0:
216,60,86003,5,2,0:0:0:0:
296,104,86170,2,0,L|348:88,2,37.3750007128716,0|0|0,0:0|0:0|3:0,0:0:0:0:
252,184,86503,1,0,0:0:0:0:
332,228,86670,2,0,L|328:304,1,74.7500014257431,8|0,0:0|0:0,0:0:0:0:
324,324,87170,6,0,P|244:344|168:304,1,149.500002851486,2|2,0:0|0:0,0:0:0:0:
120,256,87670,1,0,3:0:0:0:
160,176,87837,1,2,0:0:0:0:
252,184,88003,2,0,L|232:72,2,112.125002138615,8|6|6,0:0|0:0|3:2,0:0:0:0:
332,344,88837,6,0,L|428:324,1,74.7500014257431,8|2,0:0|0:0,0:0:0:0:
492,312,89170,1,2,0:0:0:0:
488,224,89337,1,8,0:0:0:0:
476,136,89503,2,0,L|468:60,1,74.7500014257431,0|8,0:0|0:0,0:0:0:0:
380,112,89837,6,0,P|288:124|228:160,1,149.500002851486,0|8,3:0|0:0,0:0:0:0:
148,152,90337,1,8,0:0:0:0:
56,152,90503,1,8,0:0:0:0:
56,244,90670,1,8,3:2:0:0:
148,244,90837,2,0,L|196:244,2,37.3750007128716,8|8|8,0:3|0:3|0:3,0:0:0:0:
56,244,91170,1,4,0:3:0:0:
56,244,91253,1,4,0:3:0:0:
56,244,91337,6,0,L|56:114,1,130,6|0,0:0|3:0,0:0:0:0:
84,28,91837,1,0,3:0:0:0:
168,60,92003,2,0,L|252:60,2,65,8|0|2,0:0|3:0|0:0,0:0:0:0:
136,164,92503,6,0,L|280:164,1,130,2|2,0:0|0:0,0:0:0:0:
356,164,93003,2,0,P|361:129|348:76,1,65,0|2,3:0|0:0,0:0:0:0:
266,164,93337,2,0,P|260:198|274:252,1,65,8|0,0:0|0:0,0:0:0:0:
192,284,93670,2,0,L|112:284,1,65,0|0,3:0|0:0,0:0:0:0:
44,324,94003,5,2,0:0:0:0:
52,232,94170,2,0,L|48:180,2,32.5,0|0|0,0:0|0:0|3:0,0:0:0:0:
44,324,94503,1,0,0:0:0:0:
144,369,94670,2,0,L|144:304,2,65,8|0|2,0:0|0:0|3:0,0:0:0:0:
248,372,95170,6,0,L|248:212,1,130,2|2,0:0|0:0,0:0:0:0:
248,152,95670,2,0,P|248:124|242:87,1,65,0|2,3:0|0:0,0:0:0:0:
140,168,96003,2,0,P|140:196|145:232,1,65,8|2,0:0|0:0,0:0:0:0:
253,306,96337,2,0,P|253:278|247:241,1,65,8|2,0:0|0:0,0:0:0:0:
160,320,96670,5,6,0:0:0:0:
80,288,96837,2,0,L|47:291,2,32.5,0|0|0,0:0|0:0|3:0,0:0:0:0:
145,232,97170,2,0,L|177:235,2,32.5,0|0|8,0:0|0:0|0:0,0:0:0:0:
64,192,97503,2,0,L|31:195,2,32.5,0|0|0,0:0|0:0|3:0,0:0:0:0:
136,136,97837,2,0,L|168:132,2,32.5,2|0|0,0:0|0:0|0:0,0:0:0:0:
56,92,98170,5,2,0:0:0:0:
136,48,98337,2,0,L|220:40,1,65,0|0,3:0|0:0,0:0:0:0:
292,48,98670,1,8,0:0:0:0:
260,132,98837,2,0,L|260:197,2,65,0|0|0,0:0|3:0|3:0,0:0:0:0:
372,152,99337,6,0,L|372:288,1,130,6|0,0:0|3:0,0:0:0:0:
304,340,99837,1,2,0:0:0:0:
240,280,100003,2,0,P|200:268|120:312,1,130,8|0,0:0|3:0,0:0:0:0:
56,364,100503,1,2,0:0:0:0:
48,180,100837,6,0,L|24:116,2,65,8|8|2,0:0|0:0|0:0,0:0:0:0:
136,200,101337,2,0,L|180:196,2,32.5,8|8|8,0:0|0:0|0:0,0:0:0:0:
72,264,101670,1,0,1:0:0:0:
112,120,101837,5,6,1:3:0:0:
