osu file format v14

[General]
AudioFilename: KillerBlood - Something Spicy.mp3
AudioLeadIn: 0
PreviewTime: 3253
Countdown: 0
SampleSet: Soft
StackLeniency: 0.6
Mode: 0
LetterboxInBreaks: 0
WidescreenStoryboard: 0

[Editor]
Bookmarks: 101837
DistanceSpacing: 1
BeatDivisor: 2
GridSize: 16
TimelineZoom: 1.5

[Metadata]
Title:Something Spicy
TitleUnicode:辣物
Artist:KillerBlood
ArtistUnicode:KillerBlood
Creator:My Angel Azusa
Version:Easy
Source:
Tags:sahuang xinely pata-mon thzz
BeatmapID:1207823
BeatmapSetID:569320

[Difficulty]
HPDrainRate:2
CircleSize:2.8
OverallDifficulty:2
ApproachRate:3
SliderMultiplier:0.85
SliderTickRate:1

[Events]
//Background and Video events
0,0,"spicy.jpg",0,0
//Break Periods
//Storyboard Layer 0 (Background)
//Storyboard Layer 1 (Fail)
//Storyboard Layer 2 (Pass)
//Storyboard Layer 3 (Foreground)
//Storyboard Sound Samples

[TimingPoints]
2004,333.333333333333,4,2,1,70,1,0
24670,-100,4,2,1,60,0,0
46003,-100,4,2,1,70,0,0
68503,-100,4,2,1,5,0,0
68837,-100,4,2,1,90,0,0
70003,-100,4,2,1,80,0,1
80003,-100,4,2,1,80,0,0
80670,-100,4,2,1,80,0,1
91337,-100,4,2,1,70,0,0
100837,-100,4,2,1,80,0,0
101837,-100,4,2,22,80,0,0

[Colours]
Combo1 : 5,187,207
Combo2 : 44,47,65
Combo3 : 177,175,184
Combo4 : 240,240,0

[HitObjects]
98,59,3337,6,0,B|138:135|75:147|115:226,1,170,6|8,0:0|0:0,0:0:0:0:
197,319,4503,2,0,L|332:320,1,127.5,2|0,0:0|0:0,0:0:0:0:
408,305,5337,2,0,P|413:253|403:209,1,85,8|0,0:0|3:0,0:0:0:0:
340,168,6003,6,0,B|315:111|343:40|343:40|279:56,1,170,2|8,0:0|0:0,0:0:0:0:
178,36,7170,2,0,L|71:29,1,85,2|2,0:0|0:0,0:0:0:0:
67,111,7837,2,0,L|151:116,1,85,10|2,0:0|0:0,0:0:0:0:
259,184,8670,6,0,L|266:281,2,85,6|0|8,0:0|3:0|0:0,0:0:0:0:
146,244,9837,2,0,P|92:275|85:366,1,127.5,2|0,0:0|3:0,0:0:0:0:
159,328,10670,2,0,L|253:330,1,85,8|8,0:0|0:0,0:0:0:0:
329,329,11337,5,2,0:0:0:0:
481,254,12003,2,0,L|480:177,2,63.75,8|2|2,0:0|0:0|0:0,0:0:0:0:
125,113,14003,6,0,L|218:99,1,85,6|0,0:0|3:0,0:0:0:0:
282,143,14670,2,0,L|296:236,1,85,8|0,0:0|3:0,0:0:0:0:
237,290,15337,2,0,L|144:304,1,85,2|2,0:0|0:0,0:0:0:0:
80,260,16003,2,0,L|66:167,1,85,8|0,0:0|3:0,0:0:0:0:
125,113,16670,6,0,L|218:99,1,85,2|0,0:0|3:0,0:0:0:0:
281,54,17337,1,8,0:0:0:0:
390,120,17837,2,0,B|411:178|411:178|408:243,1,127.5,2|2,0:0|3:0,0:0:0:0:
348,304,18670,1,8,0:0:0:0:
271,266,19003,1,8,0:0:0:0:
200,314,19337,6,0,P|159:324|118:316,1,85,6|2,0:0|3:0,0:0:0:0:
53,262,20003,2,0,P|43:220|50:179,1,85,8|2,0:0|3:0,0:0:0:0:
120,131,20670,2,0,P|161:121|202:128,1,85,2|2,0:0|0:0,0:0:0:0:
268,183,21337,2,0,P|277:224|270:265,1,85,8|0,0:0|3:0,0:0:0:0:
200,314,22003,6,0,P|159:324|118:316,2,85,2|2|8,0:0|3:0|0:0,0:0:0:0:
310,377,23170,2,0,P|371:348|393:287,1,127.5,2|2,0:0|0:0,0:0:0:0:
412,212,24003,2,0,P|403:156|369:118,1,85,8|8,0:0|0:3,0:0:0:0:
305,157,24670,6,0,L|215:155,1,85,6|0,0:0|3:0,0:0:0:0:
165,91,25337,2,0,L|75:93,1,85,8|0,0:0|3:0,0:0:0:0:
15,147,26003,2,0,P|8:210|108:304,1,170,2|8,0:0|0:0,0:0:0:0:
237,312,27337,6,0,L|334:299,1,85,2|0,0:0|3:0,0:0:0:0:
397,338,28003,2,0,L|494:351,1,85,8|0,0:0|3:0,0:0:0:0:
505,267,28670,2,0,P|510:221|491:177,2,85,2|2|8,0:0|0:0|0:0,0:0:0:0:
427,232,29670,1,8,3:2:0:0:
350,268,30003,6,0,P|307:268|254:243,1,85,2|0,0:0|3:0,0:0:0:0:
216,185,30670,2,0,P|173:185|120:210,1,85,8|0,0:0|3:0,0:0:0:0:
82,267,31337,2,0,L|99:359,2,85,2|2|10,0:0|0:0|0:0,0:0:0:0:
9,222,32337,1,0,3:0:0:0:
29,139,32670,6,0,P|75:77|185:57,1,170,2|8,0:0|0:0,0:0:0:0:
239,87,33670,1,0,3:0:0:0:
262,168,34003,2,0,P|303:181|354:169,2,85,2|2|8,0:0|0:0|0:0,0:0:0:0:
239,87,35003,1,8,3:2:0:0:
277,14,35337,6,0,L|369:15,1,85,6|0,0:0|3:0,0:0:0:0:
433,61,36003,2,0,P|444:102|438:155,1,85,8|0,0:0|3:0,0:0:0:0:
388,211,36670,2,0,B|367:249|367:249|386:376,1,170,2|8,0:0|0:0,0:0:0:0:
279,245,38003,6,0,L|292:334,1,85,2|0,0:0|3:0,0:0:0:0:
206,326,38670,2,0,L|193:241,1,85,8|0,0:0|3:0,0:0:0:0:
108,239,39337,2,0,L|120:323,2,85,2|2|8,0:0|0:0|0:0,0:0:0:0:
61,167,40337,1,8,0:0:0:0:
75,83,40670,6,0,P|118:70|175:67,1,85,2|0,0:0|3:0,0:0:0:0:
213,130,41337,2,0,P|256:143|313:146,1,85,8|0,0:0|3:0,0:0:0:0:
349,80,42003,2,0,L|461:77,2,85,2|2|10,0:0|0:0|0:0,0:0:0:0:
295,146,43003,1,0,3:0:0:0:
379,159,43337,6,0,P|415:199|322:230,2,170,2|8|2,0:0|0:0|0:0,0:0:0:0:
295,146,45003,1,2,0:0:0:0:
241,212,45337,2,0,L|257:312,1,85,8|8,0:0|3:2,0:0:0:0:
194,356,46003,6,0,B|153:368|153:368|111:361,2,85,6|0|8,0:0|0:0|0:0,0:0:0:0:
350,289,47337,2,0,B|391:277|391:277|432:283,2,85,2|2|8,0:0|0:0|0:0,0:0:0:0:
276,332,48337,1,2,3:0:0:0:
217,270,48670,6,0,L|216:175,2,85,2|0|8,0:0|0:0|0:0,0:0:0:0:
334,146,50003,2,0,L|333:51,2,85,2|2|8,0:0|0:0|0:0,0:0:0:0:
304,225,51003,1,8,3:2:0:0:
388,213,51337,6,0,P|453:264|397:337,2,170,2|8|2,0:0|0:0|0:0,0:0:0:0:
304,225,53003,1,2,0:0:0:0:
242,165,53337,2,0,L|253:74,1,85,8|2,0:0|0:0,0:0:0:0:
192,20,54003,6,0,B|106:22|106:22|33:64,1,170,2|8,0:0|0:0,0:0:0:0:
76,137,55003,1,2,3:0:0:0:
23,204,55337,2,0,L|35:294,1,85,2|2,0:0|0:0,0:0:0:0:
105,333,56003,2,0,L|195:321,1,85,8|8,0:0|3:2,0:0:0:0:
274,321,56670,6,0,L|358:332,2,85,6|0|8,0:0|3:0|0:0,0:0:0:0:
366,178,58003,2,0,L|450:166,2,85,2|2|8,0:0|0:0|0:0,0:0:0:0:
282,160,59003,1,0,3:0:0:0:
208,116,59337,6,0,P|214:73|200:27,2,85,2|0|8,0:0|3:0|0:0,0:0:0:0:
60,199,60670,2,0,P|54:242|68:288,2,85,2|2|8,0:0|0:0|0:0,0:0:0:0:
134,158,61670,1,8,3:2:0:0:
209,196,62003,6,0,L|204:289,1,85,6|0,0:0|0:0,0:0:0:0:
288,292,62670,2,0,L|292:207,1,85,8|0,0:0|3:0,0:0:0:0:
358,153,63337,2,0,L|451:158,1,85,2|2,0:0|0:0,0:0:0:0:
454,74,64003,2,0,L|369:69,1,85,8|0,0:0|3:0,0:0:0:0:
290,101,64670,6,0,B|210:67|204:136|109:93,2,170,2|8|2,0:0|0:0|0:0,0:0:0:0:
387,240,66670,1,8,0:0:0:0:
335,307,67003,2,0,L|337:366,2,42.5,0|8|14,3:0|0:0|0:0,0:0:0:0:
256,192,67503,12,2,68837,0:0:0:0:
308,347,70003,6,0,P|267:360|197:353,1,85,12|0,0:0|3:0,0:0:0:0:
154,313,70670,2,0,P|156:269|147:215,1,85,8|0,0:0|3:0,0:0:0:0:
88,169,71337,2,0,L|-13:163,2,85,2|0|8,0:0|3:0|0:0,0:0:0:0:
148,109,72337,1,0,3:0:0:0:
215,162,72670,6,0,P|267:174|304:169,1,85,2|0,0:0|3:0,0:0:0:0:
367,120,73337,2,0,P|419:108|456:113,1,85,8|0,0:0|3:0,0:0:0:0:
499,180,74003,2,0,P|517:225|456:324,1,170,2|8,0:0|0:0,0:0:0:0:
385,280,75003,1,0,3:0:0:0:
324,339,75337,6,0,L|220:334,1,85,2|0,0:0|3:0,0:0:0:0:
164,295,76003,2,0,L|94:301,1,42.5,8|0,0:0|3:0,0:0:0:0:
50,251,76503,2,0,B|40:189|40:189|48:124,1,127.5,2|2,3:2|0:0,0:0:0:0:
109,65,77337,2,0,L|176:71,1,42.5,8|0,0:0|3:0,0:0:0:0:
233,89,77837,6,0,P|284:104|380:77,1,127.5,6|0,0:2|3:0,0:0:0:0:
431,52,78670,1,8,0:0:0:0:
487,115,79003,1,0,3:0:0:0:
461,196,79337,2,0,P|436:268|365:240,2,170,2|8|6,0:0|0:0|0:0,0:0:0:0:
487,115,81003,5,0,3:0:0:0:
431,52,81337,2,0,L|333:54,1,85,8|0,0:0|3:0,0:0:0:0:
271,93,82003,2,0,P|261:56|283:-8,2,85,2|0|8,0:0|3:0|0:0,0:0:0:0:
342,138,83003,1,0,3:0:0:0:
301,212,83337,6,0,P|249:200|212:205,1,85,2|2,0:0|3:0,0:0:0:0:
155,261,84003,2,0,P|103:273|66:268,1,85,8|2,0:0|3:0,0:0:0:0:
20,202,84670,2,0,B|51:144|23:79|23:79|79:56,1,170,2|8,0:0|0:0,0:0:0:0:
134,107,85670,1,2,3:2:0:0:
197,50,86003,6,0,L|301:55,1,85,2|0,0:0|3:0,0:0:0:0:
358,89,86670,2,0,L|428:83,1,42.5,8|0,0:0|0:0,0:0:0:0:
464,140,87170,2,0,B|474:202|474:202|466:267,1,127.5,6|0,0:0|3:0,0:0:0:0:
396,315,88003,2,0,P|351:329|320:321,2,63.75,8|6|6,0:0|0:0|3:2,0:0:0:0:
351,242,88837,6,0,P|313:225|262:231,1,85,8|2,0:0|0:0,0:0:0:0:
186,242,89503,2,0,L|184:176,2,42.5,0|8|0,0:0|0:0|3:0,0:0:0:0:
212,322,90170,2,0,P|149:317|103:243,1,127.5,8|8,0:0|3:2,0:0:0:0:
82,190,91003,1,8,0:3:0:0:
142,128,91337,6,0,B|221:107|221:107|234:119|234:119|316:99,1,170,6|8,0:0|0:0,0:0:0:0:
428,124,92503,2,0,L|438:270,1,127.5,2|0,0:0|3:0,0:0:0:0:
391,323,93337,2,0,P|346:307|302:307,1,85,8|0,0:0|3:0,0:0:0:0:
228,331,94003,6,0,P|160:345|156:259,1,170,2|8,0:0|0:0,0:0:0:0:
207,149,95170,2,0,L|52:167,1,127.5,2|0,0:0|3:0,0:0:0:0:
0,142,96003,2,0,P|-1:78|18:50,1,85,8|8,0:0|0:0,0:0:0:0:
93,41,96670,6,0,L|207:28,1,85,6|0,0:0|3:0,0:0:0:0:
253,70,97337,2,0,L|367:57,1,85,8|0,0:0|3:0,0:0:0:0:
410,103,98003,2,0,L|423:217,1,85,2|0,0:0|3:0,0:0:0:0:
369,256,98670,2,0,L|382:370,1,85,8|0,0:0|3:0,0:0:0:0:
294,350,99337,6,0,B|175:331|175:331|111:350,2,170,6|8|0,0:0|0:0|3:0,0:0:0:0:
228,192,101337,2,0,L|75:167,1,127.5,8|6,0:0|1:3,0:0:0:0:
