osu file format v14

[General]
AudioFilename: KillerBlood - Something Spicy.mp3
AudioLeadIn: 0
PreviewTime: 3253
Countdown: 0
SampleSet: Soft
StackLeniency: 0.6
Mode: 0
LetterboxInBreaks: 0
WidescreenStoryboard: 0

[Editor]
Bookmarks: 101837
DistanceSpacing: 1
BeatDivisor: 2
GridSize: 16
TimelineZoom: 1.5

[Metadata]
Title:Something Spicy
TitleUnicode:辣物
Artist:KillerBlood
ArtistUnicode:KillerBlood
Creator:My Angel Azusa
Version:Normal
Source:
Tags:sahuang xinely pata-mon thzz
BeatmapID:1207825
BeatmapSetID:569320

[Difficulty]
HPDrainRate:4
CircleSize:3.5
OverallDifficulty:4.5
ApproachRate:5.5
SliderMultiplier:1.1
SliderTickRate:1

[Events]
//Background and Video events
0,0,"spicy.jpg",0,0
//Break Periods
//Storyboard Layer 0 (Background)
//Storyboard Layer 1 (Fail)
//Storyboard Layer 2 (Pass)
//Storyboard Layer 3 (Foreground)
//Storyboard Sound Samples

[TimingPoints]
2004,333.333333333333,4,2,1,70,1,0
24670,-100,4,2,1,60,0,0
46003,-100,4,2,1,70,0,0
68503,-100,4,2,1,5,0,0
68837,-100,4,2,1,90,0,0
70003,-100,4,2,1,80,0,1
80003,-100,4,2,1,80,0,0
80670,-100,4,2,1,80,0,1
91337,-100,4,2,1,70,0,0
100837,-100,4,2,1,80,0,0
101837,-100,4,2,22,80,0,0

[Colours]
Combo1 : 5,187,207
Combo2 : 44,47,65
Combo3 : 177,175,184
Combo4 : 240,240,0

[HitObjects]
126,94,3337,6,0,L|126:204,1,110,6|0,0:0|3:0,0:0:0:0:
141,301,4003,2,0,L|82:308,2,55,8|0|0,0:0|0:0|3:0,0:0:0:0:
183,326,4503,2,0,P|236:348|303:336,1,110,2|2,0:0|0:0,0:0:0:0:
329,316,5003,1,0,0:0:0:0:
419,275,5337,2,0,L|493:279,2,55,8|0|0,0:0|0:0|3:0,0:0:0:0:
362,194,6003,6,0,P|301:203|263:245,2,110,2|0|8,0:0|3:0|0:0,0:0:0:0:
411,199,6837,1,0,0:0:0:0:
389,102,7170,2,0,L|509:88,2,110,2|2|2,0:0|0:0|0:0,0:0:0:0:
345,78,8003,2,0,L|272:90,1,55,8|2,0:0|0:0,0:0:0:0:
246,110,8337,2,0,L|173:98,1,55,8|0,0:0|0:0,0:0:0:0:
144,117,8670,5,6,0:0:0:0:
70,183,9003,1,0,3:0:0:0:
89,280,9337,2,0,L|216:291,1,110,8|0,0:0|3:0,0:0:0:0:
225,331,9837,2,0,P|258:274|340:271,1,110,2|2,0:0|0:0,0:0:0:0:
346,263,10337,1,0,3:0:0:0:
446,272,10670,2,0,L|460:208,1,55,8|0,0:0|0:0,0:0:0:0:
460,168,11003,2,0,L|448:87,1,55,8|0,0:0|0:0,0:0:0:0:
420,75,11337,6,0,L|286:82,1,110,2|0,0:0|3:0,0:0:0:0:
262,69,11837,1,0,0:0:0:0:
262,69,12003,2,0,P|235:50|184:51,2,82.5,8|2|2,0:0|0:0|0:0,0:0:0:0:
262,69,13337,5,8,0:0:0:0:
199,145,13670,1,8,0:0:0:0:
296,162,14003,6,0,L|410:157,1,110,6|0,0:0|3:0,0:0:0:0:
453,244,14670,2,0,L|343:248,1,110,8|0,0:0|3:0,0:0:0:0:
293,250,15170,1,2,0:0:0:0:
293,250,15337,2,0,P|310:305|289:352,1,110,0|2,0:0|0:0,0:0:0:0:
191,346,16003,2,0,P|174:291|195:244,1,110,8|0,0:0|3:0,0:0:0:0:
221,203,16503,1,0,0:0:0:0:
221,203,16670,6,0,L|67:222,2,110,2|0|8,0:0|3:0|0:0,0:0:0:0:
278,122,17670,1,2,3:0:0:0:
278,122,17837,2,0,B|260:70|282:27|282:27|360:16,1,165,2|2,0:0|3:0,0:0:0:0:
435,66,18670,2,0,L|444:136,1,55,8|0,0:0|0:0,0:0:0:0:
426,167,19003,2,0,L|417:237,1,55,8|0,0:0|0:0,0:0:0:0:
445,263,19337,6,0,L|329:268,1,110,6|2,0:0|3:0,0:0:0:0:
251,320,20003,2,0,L|135:325,1,110,8|2,0:0|3:0,0:0:0:0:
91,319,20503,1,2,0:0:0:0:
91,319,20670,2,0,P|110:263|98:204,1,110,0|2,0:0|0:0,0:0:0:0:
27,148,21337,2,0,P|8:92|20:33,1,110,8|0,0:0|3:0,0:0:0:0:
58,17,21837,1,0,0:0:0:0:
58,17,22003,6,0,L|181:13,2,110,2|2|8,0:0|3:0|0:0,0:0:0:0:
107,103,23003,1,2,3:0:0:0:
107,103,23170,2,0,P|157:137|276:99,1,165,2|2,0:0|0:0,0:0:0:0:
343,75,24003,2,0,L|351:149,1,55,8|8,0:0|0:3,0:0:0:0:
353,179,24337,1,4,0:3:0:0:
267,223,24670,6,0,L|145:237,1,110,6|0,0:0|3:0,0:0:0:0:
199,325,25337,2,0,L|308:312,1,110,8|0,0:0|3:0,0:0:0:0:
388,253,26003,1,2,0:0:0:0:
468,310,26337,1,2,0:0:0:0:
477,211,26670,1,8,0:0:0:0:
477,211,27337,6,0,L|493:79,1,110,2|0,0:0|3:0,0:0:0:0:
426,26,28003,2,0,L|294:10,1,110,8|0,0:0|3:0,0:0:0:0:
225,51,28670,1,2,0:0:0:0:
304,109,29003,1,2,0:0:0:0:
214,151,29337,1,8,0:0:0:0:
134,91,29670,1,8,3:2:0:0:
127,189,30003,6,0,L|148:317,1,110,2|0,0:0|3:0,0:0:0:0:
230,346,30670,2,0,L|358:325,1,110,8|0,0:0|3:0,0:0:0:0:
422,276,31337,2,0,P|436:219|424:167,1,110,2|2,0:0|0:0,0:0:0:0:
360,95,32003,1,8,0:0:0:0:
262,111,32337,2,0,L|173:118,1,55,0|0,3:0|0:0,0:0:0:0:
157,117,32670,6,0,L|53:102,2,82.5,2|0|2,0:0|0:0|0:0,0:0:0:0:
182,159,33337,1,8,0:0:0:0:
114,230,33670,2,0,L|121:307,1,55,0|2,3:0|0:0,0:0:0:0:
126,333,34003,2,0,P|77:353|18:342,2,110,2|2|8,0:0|0:0|0:0,0:0:0:0:
199,266,35003,1,8,3:2:0:0:
238,175,35337,6,0,L|360:161,1,110,6|0,0:0|3:0,0:0:0:0:
319,67,36004,2,0,L|210:80,1,110,8|0,0:0|3:0,0:0:0:0:
124,131,36670,1,2,0:0:0:0:
44,74,37004,1,2,0:0:0:0:
35,173,37337,1,8,0:0:0:0:
35,173,38004,6,0,L|19:305,1,110,2|0,0:0|3:0,0:0:0:0:
86,358,38670,2,0,L|218:374,1,110,8|0,0:0|3:0,0:0:0:0:
287,333,39337,1,2,0:0:0:0:
208,275,39670,1,2,0:0:0:0:
298,233,40004,1,8,0:0:0:0:
378,293,40337,1,8,0:0:0:0:
385,195,40670,6,0,L|364:67,1,110,2|0,0:0|3:0,0:0:0:0:
282,38,41337,2,0,L|154:59,1,110,8|0,0:0|3:0,0:0:0:0:
90,108,42004,2,0,P|76:165|88:217,1,110,2|2,0:0|0:0,0:0:0:0:
152,289,42670,1,10,0:0:0:0:
250,273,43004,2,0,L|339:266,1,55,0|0,3:0|0:0,0:0:0:0:
350,286,43337,6,0,P|415:297|484:285,1,110,2|0,0:0|3:0,0:0:0:0:
498,263,43837,1,2,0:0:0:0:
498,263,44003,2,0,L|497:192,1,55,8|0,0:0|0:0,0:0:0:0:
470,167,44337,2,0,L|396:159,1,55,0|2,3:0|0:0,0:0:0:0:
367,146,44670,2,0,P|387:97|376:38,2,110,2|2|8,0:0|0:0|0:0,0:0:0:0:
288,85,45670,1,8,3:2:0:0:
196,121,46003,6,0,L|58:123,2,110,6|0|8,0:0|3:0|0:0,0:0:0:0:
262,194,47003,2,0,L|271:267,1,55,0|2,3:0|0:0,0:0:0:0:
290,293,47337,2,0,L|428:295,2,110,0|2|8,0:0|0:0|0:0,0:0:0:0:
198,331,48337,2,0,P|175:340|144:341,1,55,2|0,3:0|0:0,0:0:0:0:
98,323,48670,6,0,B|83:269|83:269|100:208,2,110,2|0|8,0:0|3:0|0:0,0:0:0:0:
198,331,49670,2,0,L|267:335,1,55,2|2,3:0|0:0,0:0:0:0:
302,330,50003,2,0,B|353:315|353:315|407:330,2,110,2|2|8,0:0|0:0|0:0,0:0:0:0:
246,247,51003,2,0,L|310:226,1,55,8|0,3:2|0:0,0:0:0:0:
348,226,51337,6,0,P|392:243|437:234,2,82.5,2|0|0,0:0|0:0|0:0,0:0:0:0:
356,177,52003,2,0,L|343:50,1,110,8|0,0:0|3:0,0:0:0:0:
305,37,52503,1,0,0:0:0:0:
305,37,52670,2,0,L|196:48,2,110,2|2|8,0:0|0:0|0:0,0:0:0:0:
258,124,53670,2,0,L|186:131,1,55,2|0,0:0|0:0,0:0:0:0:
153,133,54003,6,0,P|135:186|143:247,1,110,2|0,0:0|0:0,0:0:0:0:
181,266,54503,1,0,0:0:0:0:
181,266,54670,2,0,P|199:319|191:380,1,110,8|2,0:0|3:0,0:0:0:0:
281,325,55337,1,2,0:0:0:0:
369,369,55670,1,2,0:0:0:0:
365,270,56003,2,0,L|364:138,1,110,8|8,0:0|3:2,0:0:0:0:
338,117,56503,1,4,0:3:0:0:
338,117,56670,6,0,P|392:139|450:141,2,110,6|0|8,0:0|3:0|0:0,0:0:0:0:
261,54,57670,2,0,L|201:61,1,55,0|2,3:0|0:0,0:0:0:0:
157,69,58003,2,0,P|103:91|45:93,2,110,2|2|8,0:0|0:0|0:0,0:0:0:0:
187,163,59003,2,0,L|191:226,1,55,0|0,3:0|0:0,0:0:0:0:
178,266,59337,6,0,P|158:322|172:377,2,110,2|0|8,0:0|3:0|0:0,0:0:0:0:
255,327,60337,2,0,L|333:315,1,55,2|2,3:0|0:0,0:0:0:0:
347,287,60670,2,0,P|367:231|353:176,2,110,2|2|8,0:0|0:0|0:0,0:0:0:0:
268,225,61670,2,0,L|205:235,1,55,8|0,3:2|0:0,0:0:0:0:
164,230,62003,6,0,L|48:218,1,110,6|0,0:0|0:0,0:0:0:0:
42,123,62670,2,0,L|151:134,1,110,8|0,0:0|3:0,0:0:0:0:
238,86,63337,2,0,P|300:68|368:80,1,110,2|2,0:0|0:0,0:0:0:0:
387,96,63837,1,0,0:0:0:0:
387,96,64003,2,0,L|393:160,1,55,8|0,0:0|0:0,0:0:0:0:
361,189,64337,2,0,L|355:253,1,55,0|0,3:0|0:0,0:0:0:0:
347,292,64670,6,0,P|362:350|427:270,2,220,2|8|2,0:0|0:0|0:0,0:0:0:0:
347,292,66670,2,0,L|248:301,1,55,8|0,0:0|0:0,0:0:0:0:
250,270,67003,2,0,L|151:261,1,55,0|8,3:0|0:0,0:0:0:0:
147,280,67337,5,14,0:0:0:0:
256,192,67503,12,8,69337,3:2:0:0:
303,19,70003,6,0,L|184:31,1,110,6|0,0:0|3:0,0:0:0:0:
149,53,70503,1,0,0:0:0:0:
149,53,70670,2,0,L|151:136,1,55,8|0,0:0|0:0,0:0:0:0:
200,193,71170,1,2,0:0:0:0:
200,193,71337,2,0,P|216:245|198:306,1,110,2|0,0:0|3:0,0:0:0:0:
170,334,71837,1,2,0:0:0:0:
170,334,72003,2,0,L|97:340,2,55,8|0|0,0:0|0:0|3:0,0:0:0:0:
219,341,72503,1,2,0:0:0:0:
268,348,72670,6,0,P|336:359|390:354,1,110,2|0,0:0|3:0,0:0:0:0:
419,331,73170,1,2,0:0:0:0:
419,331,73337,2,0,L|429:270,1,55,8|0,0:0|0:0,0:0:0:0:
472,187,73837,1,2,0:0:0:0:
472,187,74003,2,0,L|337:199,1,110,2|0,0:0|3:0,0:0:0:0:
315,181,74503,1,2,0:0:0:0:
315,181,74670,2,0,P|319:155|318:123,2,55,8|0|0,0:0|0:0|3:0,0:0:0:0:
293,225,75170,1,0,0:0:0:0:
255,257,75337,6,0,P|202:275|122:263,2,110,2|0|8,0:0|3:0|0:0,0:0:0:0:
293,225,76170,1,0,3:0:0:0:
246,137,76503,2,0,L|99:147,1,110,2|0,3:2|0:0,0:0:0:0:
96,114,77003,1,0,3:0:0:0:
35,192,77337,2,0,L|47:254,1,55,8|0,0:0|3:0,0:0:0:0:
103,330,77837,6,0,L|212:322,1,110,6|2,0:2|0:0,0:0:0:0:
260,336,78337,2,0,P|285:343|327:345,1,55,0|2,3:0|0:0,0:0:0:0:
351,313,78670,2,0,P|376:306|413:287,1,55,8|0,0:0|0:0,0:0:0:0:
402,244,79003,2,0,P|420:225|443:190,1,55,0|0,3:0|0:0,0:0:0:0:
468,162,79337,2,0,L|328:168,1,110,2|8,0:0|0:0,0:0:0:0:
325,128,79837,1,8,0:0:0:0:
304,83,80003,2,0,L|238:94,1,55,8|8,0:0|0:3,0:0:0:0:
208,64,80337,2,0,L|142:53,1,55,4|4,0:3|0:3,0:0:0:0:
107,72,80670,6,0,L|108:207,1,110,6|0,0:0|3:0,0:0:0:0:
95,230,81170,1,2,0:0:0:0:
95,230,81337,2,0,L|178:228,1,55,8|0,0:0|0:0,0:0:0:0:
212,305,81837,1,2,0:0:0:0:
212,305,82004,2,0,P|264:289|325:307,1,110,2|0,0:0|3:0,0:0:0:0:
361,324,82504,1,2,0:0:0:0:
361,324,82670,2,0,L|367:397,2,55,8|0|0,0:0|0:0|3:0,0:0:0:0:
396,289,83170,1,2,0:0:0:0:
408,241,83337,6,0,L|414:119,1,110,2|2,0:0|3:0,0:0:0:0:
399,83,83837,1,2,0:0:0:0:
399,83,84004,2,0,L|338:73,1,55,8|0,0:0|0:0,0:0:0:0:
256,29,84504,1,0,0:0:0:0:
256,29,84670,2,0,L|268:164,1,110,2|2,0:0|3:0,0:0:0:0:
262,188,85170,1,0,0:0:0:0:
262,188,85337,2,0,P|288:184|320:185,2,55,8|0|2,0:0|0:0|3:2,0:0:0:0:
219,213,85837,1,0,0:0:0:0:
188,254,86003,6,0,P|170:307|182:387,2,110,2|0|8,0:0|3:0|0:0,0:0:0:0:
172,206,86837,1,0,3:0:0:0:
75,184,87170,2,0,L|78:55,1,110,2|2,0:0|0:0,0:0:0:0:
75,24,87670,1,0,3:0:0:0:
172,40,88003,2,0,L|262:50,2,82.5,8|6|6,0:0|0:0|3:2,0:0:0:0:
185,138,88837,5,8,0:0:0:0:
185,138,89004,2,0,P|210:131|252:129,1,55,2|2,0:0|0:0,0:0:0:0:
276,161,89337,2,0,P|301:168|338:187,1,55,8|0,0:0|0:0,0:0:0:0:
327,230,89670,2,0,P|345:249|368:284,1,55,8|0,0:0|3:0,0:0:0:0:
396,365,90170,2,0,P|369:359|341:359,1,55,8|8,0:0|0:0,0:0:0:0:
295,340,90503,1,8,0:0:0:0:
295,340,90670,2,0,L|171:358,1,110,8|8,3:2|0:3,0:0:0:0:
123,276,91337,6,0,L|14:261,2,110,6|0|8,0:0|3:0|0:0,0:0:0:0:
211,230,92337,1,2,0:0:0:0:
211,230,92503,2,0,L|217:96,1,110,2|2,0:0|0:0,0:0:0:0:
192,76,93003,2,0,L|257:69,1,55,0|2,3:0|0:0,0:0:0:0:
295,80,93337,1,8,0:0:0:0:
387,46,93670,1,0,3:0:0:0:
468,101,94003,6,0,P|493:155|486:206,2,110,2|0|8,0:0|3:0|0:0,0:0:0:0:
395,168,95003,1,2,3:0:0:0:
395,168,95170,2,0,L|396:305,1,110,2|2,0:0|0:0,0:0:0:0:
388,327,95670,2,0,L|332:340,1,55,0|2,3:0|0:0,0:0:0:0:
288,321,96003,1,8,0:0:0:0:
192,349,96337,1,8,0:0:0:0:
104,302,96670,6,0,L|96:173,1,110,6|0,0:0|3:0,0:0:0:0:
96,142,97170,1,0,0:0:0:0:
96,142,97337,2,0,L|225:134,1,110,8|0,0:0|3:0,0:0:0:0:
242,168,97837,1,2,0:0:0:0:
242,168,98003,2,0,L|371:176,2,110,0|0|8,0:0|3:0|0:0,0:0:0:0:
290,81,99003,2,0,L|358:85,1,55,0|0,3:0|3:0,0:0:0:0:
382,51,99337,6,0,P|437:14|491:17,1,110,6|0,0:0|3:0,0:0:0:0:
458,110,100003,2,0,P|495:165|492:219,1,110,8|0,0:0|3:0,0:0:0:0:
475,252,100503,1,2,0:0:0:0:
365,236,100837,2,0,L|345:314,2,55,8|8|2,0:0|0:0|0:0,0:0:0:0:
349,189,101337,2,0,L|329:111,2,55,8|8|0,0:0|0:0|1:0,0:0:0:0:
314,223,101837,5,6,1:3:0:0:
