osu file format v14

[General]
AudioFilename: KillerBlood - Run Lads Run.mp3
AudioLeadIn: 0
PreviewTime: 50648
Countdown: 0
SampleSet: Normal
StackLeniency: 0.7
Mode: 1
LetterboxInBreaks: 0
WidescreenStoryboard: 0

[Editor]
DistanceSpacing: 1
BeatDivisor: 4
GridSize: 32
TimelineZoom: 2.999999

[Metadata]
Title:Run Lads Run
TitleUnicode:Run Lads Run
Artist:KillerBlood
ArtistUnicode:KillerBlood
Creator:Nwolf
Version:Futsuu
Source:Deemo
Tags:rayark Shattered Memories moose piano
BeatmapID:1477610
BeatmapSetID:571334

[Difficulty]
HPDrainRate:6
CircleSize:4
OverallDifficulty:4
ApproachRate:10
SliderMultiplier:1.4
SliderTickRate:1

[Events]
//Background and Video events
0,0,"Run_Lads_Run.jpg",0,0
//Break Periods
//Storyboard Layer 0 (Background)
//Storyboard Layer 1 (Fail)
//Storyboard Layer 2 (Pass)
//Storyboard Layer 3 (Foreground)
//Storyboard Sound Samples

[TimingPoints]
1148,375,4,1,0,60,1,0
40148,-100,4,1,0,60,0,1
50648,-100,4,1,0,60,0,0
50741,-100,4,1,0,30,0,0
52054,-100,4,1,0,60,0,0
76148,375,4,1,0,60,1,8
76160,387.096774193548,4,1,0,55,1,0
76547,400,4,1,0,50,1,8
76947,428.571428571429,4,1,0,45,1,8
77375,461.538461538462,4,1,0,40,1,8
77836,500,4,1,0,37,1,0
78336,500,4,1,0,33,1,8
78836,521.739130434783,4,1,0,30,1,8
79879,521.739130434783,4,1,0,30,1,0
80922,508.474576271186,4,1,0,30,1,8
81938,508.474576271186,4,1,0,30,1,0
82955,480,4,1,0,30,1,8
83915,480,4,1,0,30,1,0
84875,461.538461538462,4,1,0,30,1,8
85798,461.538461538462,4,1,0,30,1,0
86721,451.127819548872,4,1,0,30,1,8
87623,451.127819548872,4,1,0,32,1,0
88525,434.782608695652,4,1,0,32,1,8
89394,434.782608695652,4,1,0,34,1,0
90264,422.535211267606,4,1,0,34,1,8
91109,422.535211267606,4,1,0,36,1,0
91954,405.405405405405,4,1,0,36,1,8
92764,405.405405405405,4,1,0,38,1,0
93575,394.736842105263,4,1,0,38,1,8
94364,394.736842105263,4,1,0,42,1,0
95153,387.096774193548,4,1,0,42,1,8
95927,387.096774193548,4,1,0,46,1,0
96701,382.165605095541,4,1,0,46,1,8
97465,382.165605095541,4,1,0,50,1,0
99758,377.358490566038,4,1,0,50,1,8
100512,377.358490566038,4,1,0,50,1,0
101267,370.37037037037,4,1,0,50,1,8
102007,370.37037037037,4,1,0,50,1,0
102748,363.636363636364,4,1,0,50,1,8
103475,363.636363636364,4,1,0,50,1,0
104202,357.142857142857,4,1,0,50,1,8
104916,357.142857142857,4,1,0,50,1,0
106344,333.333333333333,4,1,0,60,1,0
109010,324.324324324324,4,1,0,60,1,0
111604,320.855614973262,4,1,0,60,1,0
114170,312.5,4,1,0,60,1,0
116670,307.692307692308,4,1,0,75,1,1
119131,300,4,1,0,75,1,1
121531,292.682926829268,4,1,0,75,1,1
125043,289.855072463768,4,1,0,75,1,1
126202,288.906009244992,4,1,0,75,1,1
128224,-100,4,1,0,75,0,0

[HitObjects]
224,160,1148,5,0,0:0:0:0:
224,160,1523,1,0,0:0:0:0:
224,160,1898,1,0,0:0:0:0:
224,160,2273,1,0,0:0:0:0:
224,160,2648,1,0,0:0:0:0:
288,160,3585,1,8,0:0:0:0:
288,160,3773,1,8,0:0:0:0:
224,160,3960,1,0,0:0:0:0:
288,160,4148,1,8,0:0:0:0:
288,160,4523,1,8,0:0:0:0:
224,160,4710,1,0,0:0:0:0:
288,160,4898,1,8,0:0:0:0:
288,160,5273,1,8,0:0:0:0:
288,160,5460,1,8,0:0:0:0:
224,160,5648,1,0,0:0:0:0:
288,160,6023,1,8,0:0:0:0:
288,160,6585,1,8,0:0:0:0:
224,160,6773,1,0,0:0:0:0:
288,160,6960,1,8,0:0:0:0:
224,160,7148,1,0,0:0:0:0:
288,160,7523,1,8,0:0:0:0:
224,160,7710,1,0,0:0:0:0:
288,160,7898,1,8,0:0:0:0:
288,160,8273,1,8,0:0:0:0:
224,160,8648,1,0,0:0:0:0:
224,160,9585,1,0,0:0:0:0:
288,160,9773,1,8,0:0:0:0:
288,160,9960,1,8,0:0:0:0:
224,160,10148,1,0,0:0:0:0:
224,160,10523,1,0,0:0:0:0:
288,160,10898,1,8,0:0:0:0:
288,160,11273,1,8,0:0:0:0:
224,160,11648,1,0,0:0:0:0:
288,160,12023,1,8,0:0:0:0:
288,160,12398,1,8,0:0:0:0:
224,160,13148,1,0,0:0:0:0:
288,160,13523,1,8,0:0:0:0:
288,160,13710,1,8,0:0:0:0:
224,160,13898,1,0,0:0:0:0:
224,160,14273,1,0,0:0:0:0:
288,160,14648,1,8,0:0:0:0:
288,160,15585,1,8,0:0:0:0:
288,160,15773,1,8,0:0:0:0:
224,160,15960,1,0,0:0:0:0:
288,160,16148,1,8,0:0:0:0:
288,160,16523,1,8,0:0:0:0:
224,160,16710,1,0,0:0:0:0:
288,160,16898,1,8,0:0:0:0:
288,160,17273,1,8,0:0:0:0:
288,160,17460,1,8,0:0:0:0:
224,160,17648,1,0,0:0:0:0:
288,160,18023,1,8,0:0:0:0:
288,160,18585,1,8,0:0:0:0:
224,160,18773,1,0,0:0:0:0:
288,160,18960,1,8,0:0:0:0:
224,160,19148,1,0,0:0:0:0:
288,160,19523,1,8,0:0:0:0:
224,160,19710,1,0,0:0:0:0:
288,160,19898,1,8,0:0:0:0:
288,160,20273,1,8,0:0:0:0:
224,160,20648,1,0,0:0:0:0:
288,160,21585,1,8,0:0:0:0:
288,160,21773,1,8,0:0:0:0:
288,160,21960,1,8,0:0:0:0:
224,160,22148,1,0,0:0:0:0:
288,160,22523,1,8,0:0:0:0:
288,160,22898,1,8,0:0:0:0:
224,160,23273,1,0,0:0:0:0:
288,160,23648,1,8,0:0:0:0:
224,160,24023,1,0,0:0:0:0:
288,160,24398,1,8,0:0:0:0:
224,160,25148,1,0,0:0:0:0:
288,160,25523,1,8,0:0:0:0:
288,160,25710,1,8,0:0:0:0:
224,160,25898,1,0,0:0:0:0:
224,160,26273,1,0,0:0:0:0:
288,160,26648,1,8,0:0:0:0:
288,160,27585,1,8,0:0:0:0:
224,160,27773,1,0,0:0:0:0:
224,160,27960,1,0,0:0:0:0:
288,224,28148,5,12,0:0:0:0:
224,160,28523,1,0,0:0:0:0:
288,160,28710,1,8,0:0:0:0:
224,160,28898,1,0,0:0:0:0:
288,160,29273,1,8,0:0:0:0:
224,160,29460,1,0,0:0:0:0:
288,160,29648,1,8,0:0:0:0:
224,160,30023,1,0,0:0:0:0:
288,160,30398,1,8,0:0:0:0:
288,160,31148,1,8,0:0:0:0:
224,160,31335,1,0,0:0:0:0:
224,160,31523,1,0,0:0:0:0:
224,160,31898,1,0,0:0:0:0:
288,160,32085,1,8,0:0:0:0:
288,160,32273,1,8,0:0:0:0:
224,160,32648,1,0,0:0:0:0:
288,160,32835,1,8,0:0:0:0:
224,160,33023,1,0,0:0:0:0:
288,160,33398,1,8,0:0:0:0:
288,160,34148,1,8,0:0:0:0:
288,160,34523,1,8,0:0:0:0:
288,160,34710,1,8,0:0:0:0:
224,160,34898,1,0,0:0:0:0:
288,160,35273,1,8,0:0:0:0:
224,160,35648,1,0,0:0:0:0:
224,160,36023,1,0,0:0:0:0:
288,160,36210,1,8,0:0:0:0:
288,160,36398,1,8,0:0:0:0:
224,160,36773,1,0,0:0:0:0:
288,160,37148,1,8,0:0:0:0:
288,160,37710,1,8,0:0:0:0:
224,160,37898,1,0,0:0:0:0:
288,160,38085,1,8,0:0:0:0:
224,160,38273,1,0,0:0:0:0:
288,160,38648,1,8,0:0:0:0:
224,160,39210,1,0,0:0:0:0:
288,160,39398,1,8,0:0:0:0:
224,160,39773,1,0,0:0:0:0:
288,224,40148,1,12,0:0:0:0:
288,224,40523,1,12,0:0:0:0:
224,224,40898,1,4,0:0:0:0:
224,224,41273,1,4,0:0:0:0:
288,224,41648,1,12,0:0:0:0:
224,224,42023,1,4,0:0:0:0:
288,224,42398,1,12,0:0:0:0:
288,224,43148,1,12,0:0:0:0:
224,224,43523,1,4,0:0:0:0:
288,224,43898,1,12,0:0:0:0:
288,224,44273,1,12,0:0:0:0:
224,224,44648,1,4,0:0:0:0:
288,224,45023,1,12,0:0:0:0:
224,224,45398,1,4,0:0:0:0:
288,160,45960,1,8,0:0:0:0:
288,160,46148,1,8,0:0:0:0:
224,160,46523,1,0,0:0:0:0:
288,160,46710,1,8,0:0:0:0:
224,160,46898,1,0,0:0:0:0:
288,160,47460,1,8,0:0:0:0:
288,160,47648,1,8,0:0:0:0:
224,160,48023,1,0,0:0:0:0:
288,160,48210,1,8,0:0:0:0:
224,160,48398,1,0,0:0:0:0:
224,160,48773,1,0,0:0:0:0:
288,160,48960,1,8,0:0:0:0:
288,160,49148,1,8,0:0:0:0:
288,160,49710,1,8,0:0:0:0:
288,160,49898,1,8,0:0:0:0:
288,160,50085,1,8,0:0:0:0:
288,160,50273,1,8,0:0:0:0:
288,160,50648,1,8,0:0:0:0:
288,160,52148,5,8,0:0:0:0:
288,160,52335,1,8,0:0:0:0:
288,160,52523,1,8,0:0:0:0:
288,160,52898,1,8,0:0:0:0:
288,160,53085,1,8,0:0:0:0:
288,160,53273,1,8,0:0:0:0:
288,160,53648,1,8,0:0:0:0:
288,160,53835,1,8,0:0:0:0:
224,160,54023,1,0,0:0:0:0:
224,160,54210,1,0,0:0:0:0:
288,160,54398,1,8,0:0:0:0:
224,160,55148,1,0,0:0:0:0:
224,160,55335,1,0,0:0:0:0:
224,160,55523,1,0,0:0:0:0:
224,160,55898,1,0,0:0:0:0:
224,160,56085,1,0,0:0:0:0:
224,160,56273,1,0,0:0:0:0:
288,160,56648,1,8,0:0:0:0:
288,160,56835,1,8,0:0:0:0:
224,160,57023,1,0,0:0:0:0:
224,160,57210,1,0,0:0:0:0:
288,160,57398,1,8,0:0:0:0:
288,160,58148,1,8,0:0:0:0:
224,160,58335,1,0,0:0:0:0:
288,160,58523,1,8,0:0:0:0:
224,160,58898,1,0,0:0:0:0:
288,160,59085,1,8,0:0:0:0:
224,160,59273,1,0,0:0:0:0:
288,160,59648,1,8,0:0:0:0:
224,160,59835,1,0,0:0:0:0:
288,160,60023,1,8,0:0:0:0:
224,160,60210,1,0,0:0:0:0:
288,160,60398,1,8,0:0:0:0:
224,160,61148,1,0,0:0:0:0:
288,160,61335,1,8,0:0:0:0:
288,160,61523,1,8,0:0:0:0:
224,160,61898,1,0,0:0:0:0:
288,160,62085,1,8,0:0:0:0:
224,160,62273,1,0,0:0:0:0:
288,160,62648,1,8,0:0:0:0:
288,160,62835,1,8,0:0:0:0:
224,160,63023,1,0,0:0:0:0:
224,160,63210,1,0,0:0:0:0:
288,160,63398,1,8,0:0:0:0:
224,160,64148,1,0,0:0:0:0:
224,160,64523,1,0,0:0:0:0:
288,160,64710,1,8,0:0:0:0:
224,160,64898,1,0,0:0:0:0:
224,160,65273,1,0,0:0:0:0:
288,160,65648,1,8,0:0:0:0:
288,160,66023,1,8,0:0:0:0:
224,160,66210,1,0,0:0:0:0:
288,160,66398,1,8,0:0:0:0:
288,160,66773,1,8,0:0:0:0:
224,160,67148,1,0,0:0:0:0:
224,160,67523,1,0,0:0:0:0:
288,160,67710,1,8,0:0:0:0:
224,160,67898,1,0,0:0:0:0:
224,160,68273,1,0,0:0:0:0:
288,160,68648,1,8,0:0:0:0:
288,160,69023,1,8,0:0:0:0:
224,160,69210,1,0,0:0:0:0:
288,160,69398,1,8,0:0:0:0:
288,160,69773,1,8,0:0:0:0:
224,224,70148,1,4,0:0:0:0:
288,160,70898,1,8,0:0:0:0:
288,160,71085,1,8,0:0:0:0:
224,160,71273,1,0,0:0:0:0:
288,224,71648,1,12,0:0:0:0:
224,160,72398,1,0,0:0:0:0:
224,160,72585,1,0,0:0:0:0:
288,160,72773,1,8,0:0:0:0:
224,224,73148,1,4,0:0:0:0:
288,160,73523,1,8,0:0:0:0:
224,224,73898,1,4,0:0:0:0:
224,160,74273,1,0,0:0:0:0:
288,224,74648,1,12,0:0:0:0:
224,160,75023,1,0,0:0:0:0:
288,224,75398,1,12,0:0:0:0:
288,224,75773,1,12,0:0:0:0:
224,160,76160,5,0,0:0:0:0:
224,160,76947,1,0,0:0:0:0:
224,160,77836,1,0,0:0:0:0:
288,160,79879,1,8,0:0:0:0:
288,160,80401,1,8,0:0:0:0:
224,160,80922,1,0,0:0:0:0:
288,160,81430,1,8,0:0:0:0:
224,160,81938,1,0,0:0:0:0:
224,160,82447,1,0,0:0:0:0:
224,160,83915,1,0,0:0:0:0:
224,160,84395,1,0,0:0:0:0:
288,160,84875,1,8,0:0:0:0:
288,160,85336,1,8,0:0:0:0:
224,160,85798,1,0,0:0:0:0:
288,160,86946,1,8,0:0:0:0:
288,160,87172,1,8,0:0:0:0:
288,160,87397,1,8,0:0:0:0:
224,160,87623,1,0,0:0:0:0:
224,160,88074,1,0,0:0:0:0:
288,160,88525,1,8,0:0:0:0:
288,160,88959,1,8,0:0:0:0:
224,160,89394,1,0,0:0:0:0:
288,160,89829,1,8,0:0:0:0:
288,160,90264,1,8,0:0:0:0:
224,160,91109,1,0,0:0:0:0:
224,160,91531,1,0,0:0:0:0:
288,160,91954,1,8,0:0:0:0:
224,160,92359,1,0,0:0:0:0:
288,160,92764,1,8,0:0:0:0:
288,160,93772,1,8,0:0:0:0:
288,160,93969,1,8,0:0:0:0:
224,160,94167,1,0,0:0:0:0:
288,160,94364,5,8,0:0:0:0:
288,160,94759,1,8,0:0:0:0:
288,160,94956,1,8,0:0:0:0:
224,160,95153,1,0,0:0:0:0:
288,160,95540,1,8,0:0:0:0:
224,160,95733,1,0,0:0:0:0:
224,160,95927,1,0,0:0:0:0:
224,160,96314,1,0,0:0:0:0:
288,160,96892,1,8,0:0:0:0:
224,160,97083,1,0,0:0:0:0:
288,160,97274,1,8,0:0:0:0:
224,160,97465,1,0,0:0:0:0:
288,160,97847,1,8,0:0:0:0:
224,160,98038,1,0,0:0:0:0:
288,160,98229,1,8,0:0:0:0:
288,160,98611,1,8,0:0:0:0:
224,160,98993,1,0,0:0:0:0:
288,160,99946,1,8,0:0:0:0:
288,160,100135,1,8,0:0:0:0:
288,160,100324,1,8,0:0:0:0:
224,160,100512,1,0,0:0:0:0:
224,160,100890,1,0,0:0:0:0:
288,160,101267,1,8,0:0:0:0:
288,160,101637,1,8,0:0:0:0:
224,160,102007,1,0,0:0:0:0:
288,160,102378,1,8,0:0:0:0:
288,160,102748,1,8,0:0:0:0:
224,160,103111,1,0,0:0:0:0:
288,160,103293,1,8,0:0:0:0:
224,160,103475,1,0,0:0:0:0:
288,160,103838,1,8,0:0:0:0:
288,160,104020,1,8,0:0:0:0:
224,160,104202,1,0,0:0:0:0:
288,160,104559,1,8,0:0:0:0:
224,160,104916,1,0,0:0:0:0:
288,160,105808,5,8,0:0:0:0:
224,160,105987,1,0,0:0:0:0:
224,160,106166,1,0,0:0:0:0:
288,160,106344,1,8,0:0:0:0:
224,160,106677,1,0,0:0:0:0:
288,160,106844,1,8,0:0:0:0:
224,160,107010,1,0,0:0:0:0:
288,160,107344,1,8,0:0:0:0:
224,160,107510,1,0,0:0:0:0:
288,160,107677,1,8,0:0:0:0:
224,160,108010,1,0,0:0:0:0:
288,160,108344,1,8,0:0:0:0:
288,160,109010,1,8,0:0:0:0:
224,160,109172,1,0,0:0:0:0:
224,160,109334,1,0,0:0:0:0:
224,160,109658,1,0,0:0:0:0:
288,160,109820,1,8,0:0:0:0:
288,160,109982,1,8,0:0:0:0:
224,160,110307,1,0,0:0:0:0:
288,160,110469,1,8,0:0:0:0:
224,160,110631,1,0,0:0:0:0:
288,160,110955,1,8,0:0:0:0:
288,160,111604,1,8,0:0:0:0:
288,160,111924,1,8,0:0:0:0:
288,160,112085,1,8,0:0:0:0:
224,160,112245,1,0,0:0:0:0:
288,160,112566,1,8,0:0:0:0:
224,160,112887,1,0,0:0:0:0:
224,160,113208,1,0,0:0:0:0:
288,160,113368,1,8,0:0:0:0:
288,160,113529,1,8,0:0:0:0:
224,160,113849,1,0,0:0:0:0:
288,160,114170,1,8,0:0:0:0:
288,160,114638,1,8,0:0:0:0:
288,160,114795,1,8,0:0:0:0:
288,160,114951,1,8,0:0:0:0:
224,160,115107,1,0,0:0:0:0:
288,160,115420,1,8,0:0:0:0:
224,160,116045,1,0,0:0:0:0:
288,224,116670,5,12,0:0:0:0:
224,224,116977,1,4,0:0:0:0:
288,224,117285,1,12,0:0:0:0:
224,224,117593,1,4,0:0:0:0:
288,224,117900,1,12,0:0:0:0:
224,224,118208,1,4,0:0:0:0:
288,224,118516,1,12,0:0:0:0:
288,224,119131,1,12,0:0:0:0:
288,224,119431,1,12,0:0:0:0:
224,224,119731,1,4,0:0:0:0:
224,224,120031,1,4,0:0:0:0:
288,224,120331,1,12,0:0:0:0:
224,224,120631,1,4,0:0:0:0:
288,224,120931,1,12,0:0:0:0:
224,160,121531,1,0,0:0:0:0:
288,160,121823,1,8,0:0:0:0:
288,160,121970,1,8,0:0:0:0:
288,160,122116,1,8,0:0:0:0:
288,160,122701,1,8,0:0:0:0:
224,160,122994,1,0,0:0:0:0:
224,160,123140,1,0,0:0:0:0:
224,160,123287,1,0,0:0:0:0:
288,160,123579,1,8,0:0:0:0:
224,160,123872,1,0,0:0:0:0:
288,160,124311,1,8,0:0:0:0:
288,160,124457,1,8,0:0:0:0:
224,160,124750,1,0,0:0:0:0:
288,160,125043,1,8,0:0:0:0:
288,160,125477,1,8,0:0:0:0:
288,160,125622,1,8,0:0:0:0:
224,160,125912,1,0,0:0:0:0:
288,160,126202,1,8,0:0:0:0:
288,160,126490,1,8,0:0:0:0:
288,160,126779,1,8,0:0:0:0:
288,160,126924,1,8,0:0:0:0:
288,160,127068,1,8,0:0:0:0:
288,160,127357,1,8,0:0:0:0:
224,160,127502,1,0,0:0:0:0:
288,160,127646,1,8,0:0:0:0:
224,224,127935,1,4,0:0:0:0:
288,224,128224,1,12,0:0:0:0:
