osu file format v14

[General]
AudioFilename: KillerBlood - Run Lads Run.mp3
AudioLeadIn: 0
PreviewTime: 50648
Countdown: 0
SampleSet: Normal
StackLeniency: 0.7
Mode: 1
LetterboxInBreaks: 0
WidescreenStoryboard: 0

[Editor]
DistanceSpacing: 1
BeatDivisor: 4
GridSize: 32
TimelineZoom: 2.999999

[Metadata]
Title:Run Lads Run
TitleUnicode:Run Lads Run
Artist:KillerBlood
ArtistUnicode:KillerBlood
Creator:Nwolf
Version:Oni
Source:Deemo
Tags:rayark Shattered Memories moose piano
BeatmapID:1227621
BeatmapSetID:571334

[Difficulty]
HPDrainRate:6
CircleSize:4
OverallDifficulty:6
ApproachRate:10
SliderMultiplier:1.4
SliderTickRate:1

[Events]
//Background and Video events
0,0,"Run_Lads_Run.jpg",0,0
//Break Periods
//Storyboard Layer 0 (Background)
//Storyboard Layer 1 (Fail)
//Storyboard Layer 2 (Pass)
//Storyboard Layer 3 (Foreground)
//Storyboard Sound Samples

[TimingPoints]
1148,375,4,1,0,60,1,0
39491,-94.3396226415094,4,1,0,60,0,0
39679,-89.2857142857143,4,1,0,60,0,0
39866,-84.7457627118644,4,1,0,60,0,0
40148,-80,4,1,0,60,0,1
45773,-89.2857142857143,4,1,0,60,0,1
50648,-89.2857142857143,4,1,0,60,0,0
50741,-94.3396226415094,4,1,0,30,0,0
52054,-100,4,1,0,60,0,0
76148,375,4,1,0,60,1,8
76160,387.096774193548,4,1,0,55,1,0
76547,400,4,1,0,50,1,8
76947,428.571428571429,4,1,0,45,1,8
77161,-103.092783505155,4,1,0,45,0,0
77268,-105.263157894737,4,1,0,45,0,0
77375,461.538461538462,4,1,0,40,1,8
77836,500,4,1,0,37,1,0
78336,500,4,1,0,33,1,8
78836,521.739130434783,4,1,0,30,1,8
79879,521.739130434783,4,1,0,60,1,0
80922,508.474576271186,4,1,0,60,1,8
81938,508.474576271186,4,1,0,60,1,0
82955,480,4,1,0,60,1,8
83915,480,4,1,0,60,1,0
84875,461.538461538462,4,1,0,60,1,8
85798,461.538461538462,4,1,0,60,1,0
86721,451.127819548872,4,1,0,60,1,8
87623,451.127819548872,4,1,0,32,1,0
88525,434.782608695652,4,1,0,32,1,8
89394,434.782608695652,4,1,0,34,1,0
90264,422.535211267606,4,1,0,34,1,8
91109,422.535211267606,4,1,0,36,1,0
91848,-98.8142292490118,4,1,0,36,0,8
91954,405.405405405405,4,1,0,36,1,8
92764,405.405405405405,4,1,0,38,1,0
93575,394.736842105263,4,1,0,38,1,8
94364,394.736842105263,4,1,0,42,1,0
95153,387.096774193548,4,1,0,42,1,8
95927,387.096774193548,4,1,0,46,1,0
96701,382.165605095541,4,1,0,46,1,8
97465,382.165605095541,4,1,0,50,1,0
99663,-99.009900990099,4,1,0,50,0,8
99758,377.358490566038,4,1,0,50,1,8
100512,377.358490566038,4,1,0,50,1,0
101267,370.37037037037,4,1,0,50,1,8
102007,370.37037037037,4,1,0,50,1,0
102748,363.636363636364,4,1,0,50,1,8
103475,363.636363636364,4,1,0,50,1,0
104202,357.142857142857,4,1,0,50,1,8
104916,357.142857142857,4,1,0,50,1,0
106344,333.333333333333,4,1,0,60,1,0
109010,324.324324324324,4,1,0,60,1,0
111604,320.855614973262,4,1,0,60,1,0
114170,312.5,4,1,0,60,1,0
116670,307.692307692308,4,1,0,75,1,1
116670,-90.9090909090909,4,1,0,75,0,1
119131,300,4,1,0,75,1,1
119131,-90.9090909090909,4,1,0,75,0,1
121081,-95.2380952380952,4,1,0,75,0,1
121306,-100,4,1,0,75,0,1
121381,-98.0392156862745,4,1,0,75,0,1
121531,292.682926829268,4,1,0,75,1,1
125043,289.855072463768,4,1,0,75,1,1
126202,288.906009244992,4,1,0,75,1,1
128224,-100,4,1,0,75,0,0

[HitObjects]
224,160,1148,5,0,0:0:0:0:
224,160,1523,1,0,0:0:0:0:
288,160,1710,1,8,0:0:0:0:
224,160,1898,1,0,0:0:0:0:
288,160,2085,1,8,0:0:0:0:
288,160,2179,1,8,0:0:0:0:
224,160,2273,1,0,0:0:0:0:
288,160,2460,1,8,0:0:0:0:
224,160,2648,1,0,0:0:0:0:
224,160,3023,1,0,0:0:0:0:
288,160,3210,1,8,0:0:0:0:
224,160,3398,1,0,0:0:0:0:
288,160,3585,1,8,0:0:0:0:
224,160,3679,1,0,0:0:0:0:
288,160,3773,1,8,0:0:0:0:
224,160,3960,1,0,0:0:0:0:
288,160,4148,1,8,0:0:0:0:
288,160,4523,1,8,0:0:0:0:
224,160,4710,1,0,0:0:0:0:
288,160,4898,1,8,0:0:0:0:
288,160,5273,1,8,0:0:0:0:
288,160,5460,1,8,0:0:0:0:
224,160,5648,1,0,0:0:0:0:
288,160,5835,1,8,0:0:0:0:
224,160,6023,1,0,0:0:0:0:
224,160,6398,1,0,0:0:0:0:
288,160,6585,1,8,0:0:0:0:
288,160,6679,1,8,0:0:0:0:
224,160,6773,1,0,0:0:0:0:
288,160,6960,1,8,0:0:0:0:
224,160,7148,1,0,0:0:0:0:
224,160,7523,1,0,0:0:0:0:
224,160,7710,1,0,0:0:0:0:
224,160,7804,1,0,0:0:0:0:
288,160,7898,1,8,0:0:0:0:
224,160,8085,1,0,0:0:0:0:
288,160,8273,1,8,0:0:0:0:
224,160,8648,1,0,0:0:0:0:
224,160,9023,1,0,0:0:0:0:
224,160,9398,1,0,0:0:0:0:
288,160,9585,1,8,0:0:0:0:
288,160,9679,1,8,0:0:0:0:
224,160,9773,1,0,0:0:0:0:
288,160,9960,1,8,0:0:0:0:
224,160,10148,1,0,0:0:0:0:
288,160,10335,1,8,0:0:0:0:
224,160,10523,1,0,0:0:0:0:
288,160,10710,1,8,0:0:0:0:
224,160,10898,1,0,0:0:0:0:
224,160,11085,1,0,0:0:0:0:
288,160,11273,1,8,0:0:0:0:
288,160,11460,1,8,0:0:0:0:
224,160,11648,1,0,0:0:0:0:
288,160,11835,1,8,0:0:0:0:
224,160,12023,1,0,0:0:0:0:
288,160,12210,1,8,0:0:0:0:
288,160,12398,1,8,0:0:0:0:
288,160,12585,1,8,0:0:0:0:
288,160,12679,1,8,0:0:0:0:
224,160,12773,1,0,0:0:0:0:
288,160,12960,1,8,0:0:0:0:
224,160,13148,1,0,0:0:0:0:
224,160,13523,1,0,0:0:0:0:
288,160,13804,1,8,0:0:0:0:
224,160,13898,1,0,0:0:0:0:
288,160,14085,1,8,0:0:0:0:
288,160,14179,1,8,0:0:0:0:
224,160,14273,1,0,0:0:0:0:
288,160,14460,1,8,0:0:0:0:
224,160,14648,1,0,0:0:0:0:
288,160,14835,1,8,0:0:0:0:
224,160,15023,1,0,0:0:0:0:
224,160,15210,1,0,0:0:0:0:
224,160,15398,1,0,0:0:0:0:
288,160,15585,1,8,0:0:0:0:
288,224,15773,1,12,0:0:0:0:
224,160,15960,1,0,0:0:0:0:
288,160,16148,1,8,0:0:0:0:
288,160,16523,1,8,0:0:0:0:
224,160,16710,1,0,0:0:0:0:
288,160,16898,1,8,0:0:0:0:
288,160,17273,1,8,0:0:0:0:
288,160,17460,1,8,0:0:0:0:
224,160,17648,1,0,0:0:0:0:
288,160,17835,1,8,0:0:0:0:
224,160,18023,1,0,0:0:0:0:
224,160,18398,1,0,0:0:0:0:
288,224,18585,1,12,0:0:0:0:
224,224,18773,1,4,0:0:0:0:
288,224,18960,1,12,0:0:0:0:
224,224,19148,1,4,0:0:0:0:
288,160,19523,1,8,0:0:0:0:
224,160,19710,1,0,0:0:0:0:
224,160,19804,1,0,0:0:0:0:
288,160,19898,1,8,0:0:0:0:
224,160,20085,1,0,0:0:0:0:
288,160,20273,1,8,0:0:0:0:
288,160,20648,1,8,0:0:0:0:
224,160,20835,1,0,0:0:0:0:
288,160,21023,1,8,0:0:0:0:
224,160,21116,1,0,0:0:0:0:
288,160,21304,1,8,0:0:0:0:
224,160,21398,1,0,0:0:0:0:
288,160,21585,1,8,0:0:0:0:
288,160,21679,1,8,0:0:0:0:
224,160,21773,1,0,0:0:0:0:
288,160,21960,1,8,0:0:0:0:
224,160,22148,1,0,0:0:0:0:
224,160,22335,1,0,0:0:0:0:
288,160,22523,1,8,0:0:0:0:
224,160,22710,1,0,0:0:0:0:
288,160,22898,1,8,0:0:0:0:
288,160,23085,1,8,0:0:0:0:
288,160,23179,1,8,0:0:0:0:
224,160,23273,1,0,0:0:0:0:
224,160,23460,1,0,0:0:0:0:
288,160,23648,1,8,0:0:0:0:
224,160,23835,1,0,0:0:0:0:
288,160,24023,1,8,0:0:0:0:
288,160,24210,1,8,0:0:0:0:
224,160,24398,1,0,0:0:0:0:
288,160,24585,1,8,0:0:0:0:
288,160,24679,1,8,0:0:0:0:
224,160,24773,1,0,0:0:0:0:
288,160,24960,1,8,0:0:0:0:
224,160,25148,1,0,0:0:0:0:
224,160,25523,1,0,0:0:0:0:
288,160,25804,1,8,0:0:0:0:
224,160,25898,1,0,0:0:0:0:
288,160,26085,1,8,0:0:0:0:
288,160,26179,1,8,0:0:0:0:
224,160,26273,1,0,0:0:0:0:
288,160,26460,1,8,0:0:0:0:
224,160,26648,1,0,0:0:0:0:
224,160,26835,1,0,0:0:0:0:
224,160,26929,1,0,0:0:0:0:
224,160,27023,1,0,0:0:0:0:
288,160,27210,1,8,0:0:0:0:
288,160,27304,1,8,0:0:0:0:
288,160,27398,1,8,0:0:0:0:
224,160,27773,1,0,0:0:0:0:
288,160,27960,1,8,0:0:0:0:
288,224,28148,5,12,0:0:0:0:
288,160,28335,1,8,0:0:0:0:
224,160,28523,1,0,0:0:0:0:
288,160,28710,1,8,0:0:0:0:
224,160,28898,1,0,0:0:0:0:
288,160,29085,1,8,0:0:0:0:
288,160,29179,1,8,0:0:0:0:
288,160,29273,1,8,0:0:0:0:
224,160,29460,1,0,0:0:0:0:
288,160,29648,1,8,0:0:0:0:
288,160,29835,1,8,0:0:0:0:
224,160,30023,1,0,0:0:0:0:
288,160,30210,1,8,0:0:0:0:
288,160,30398,1,8,0:0:0:0:
288,160,30679,1,8,0:0:0:0:
224,160,30773,1,0,0:0:0:0:
288,160,30960,1,8,0:0:0:0:
224,160,31148,1,0,0:0:0:0:
288,160,31335,1,8,0:0:0:0:
224,160,31523,1,0,0:0:0:0:
224,160,31710,1,0,0:0:0:0:
288,160,31898,1,8,0:0:0:0:
224,160,32085,1,0,0:0:0:0:
224,160,32179,1,0,0:0:0:0:
288,160,32273,1,8,0:0:0:0:
288,160,32460,1,8,0:0:0:0:
288,160,32648,1,0,0:0:0:0:
288,160,32835,1,8,0:0:0:0:
288,160,33023,1,8,0:0:0:0:
224,160,33210,1,0,0:0:0:0:
288,160,33398,1,8,0:0:0:0:
288,160,33679,1,8,0:0:0:0:
224,160,33773,1,0,0:0:0:0:
224,160,33960,1,0,0:0:0:0:
288,160,34148,1,8,0:0:0:0:
224,160,34335,1,0,0:0:0:0:
224,160,34523,1,0,0:0:0:0:
288,160,34710,1,8,0:0:0:0:
224,160,34898,1,0,0:0:0:0:
288,160,35085,1,8,0:0:0:0:
288,160,35273,1,8,0:0:0:0:
224,160,35460,1,0,0:0:0:0:
288,160,35648,1,8,0:0:0:0:
288,160,35835,1,8,0:0:0:0:
224,160,36023,1,0,0:0:0:0:
288,160,36210,1,8,0:0:0:0:
288,160,36304,1,8,0:0:0:0:
288,160,36398,1,8,0:0:0:0:
288,160,36679,1,8,0:0:0:0:
224,160,36773,1,0,0:0:0:0:
288,160,36960,1,8,0:0:0:0:
224,160,37148,1,0,0:0:0:0:
224,160,37523,1,0,0:0:0:0:
288,160,37710,1,8,0:0:0:0:
224,160,37898,1,0,0:0:0:0:
288,160,38085,1,8,0:0:0:0:
288,160,38179,1,8,0:0:0:0:
224,160,38273,1,0,0:0:0:0:
288,160,38460,1,8,0:0:0:0:
288,160,38648,1,8,0:0:0:0:
224,160,38835,1,0,0:0:0:0:
288,160,38929,1,8,0:0:0:0:
224,160,39023,1,0,0:0:0:0:
288,160,39210,1,8,0:0:0:0:
224,160,39304,1,0,0:0:0:0:
288,160,39398,1,8,0:0:0:0:
288,160,39585,1,8,0:0:0:0:
224,160,39773,1,0,0:0:0:0:
288,160,39960,1,8,0:0:0:0:
288,224,40148,1,12,0:0:0:0:
288,160,40335,1,8,0:0:0:0:
224,224,40523,1,4,0:0:0:0:
224,160,40710,1,0,0:0:0:0:
288,224,40898,1,12,0:0:0:0:
288,160,41085,1,8,0:0:0:0:
224,224,41273,1,4,0:0:0:0:
224,160,41460,1,0,0:0:0:0:
288,224,41648,1,12,0:0:0:0:
224,160,41835,1,0,0:0:0:0:
224,224,42023,1,4,0:0:0:0:
224,160,42210,1,0,0:0:0:0:
288,224,42398,1,12,0:0:0:0:
288,160,42679,1,8,0:0:0:0:
224,160,42960,1,0,0:0:0:0:
288,224,43148,1,12,0:0:0:0:
224,160,43335,1,0,0:0:0:0:
224,224,43523,1,4,0:0:0:0:
224,160,43710,1,0,0:0:0:0:
288,224,43898,1,12,0:0:0:0:
288,160,44085,1,8,0:0:0:0:
224,224,44273,1,4,0:0:0:0:
224,160,44460,1,0,0:0:0:0:
288,224,44648,1,12,0:0:0:0:
288,160,44835,1,8,0:0:0:0:
224,224,45023,1,4,0:0:0:0:
224,160,45210,1,0,0:0:0:0:
288,224,45398,1,12,0:0:0:0:
288,160,45679,1,8,0:0:0:0:
224,160,45960,1,0,0:0:0:0:
224,160,46054,1,0,0:0:0:0:
288,160,46148,1,8,0:0:0:0:
288,160,46429,1,8,0:0:0:0:
224,160,46523,1,0,0:0:0:0:
288,160,46710,1,8,0:0:0:0:
224,160,46898,1,0,0:0:0:0:
288,160,47179,1,8,0:0:0:0:
224,160,47460,1,0,0:0:0:0:
288,160,47554,1,0,0:0:0:0:
288,160,47648,1,8,0:0:0:0:
288,160,47929,1,8,0:0:0:0:
288,160,48023,1,8,0:0:0:0:
224,160,48210,1,0,0:0:0:0:
288,160,48398,1,8,0:0:0:0:
288,160,48585,1,8,0:0:0:0:
224,160,48773,1,0,0:0:0:0:
288,160,48960,1,8,0:0:0:0:
288,160,49148,1,8,0:0:0:0:
224,160,49429,1,0,0:0:0:0:
224,160,49523,1,0,0:0:0:0:
288,160,49710,1,8,0:0:0:0:
288,160,49898,1,8,0:0:0:0:
288,160,50085,1,8,0:0:0:0:
288,160,50273,1,8,0:0:0:0:
224,160,50460,1,0,0:0:0:0:
288,160,50648,1,8,0:0:0:0:
32,32,50835,2,0,L|256:32,2,222.600000339661
288,160,52148,5,8,0:0:0:0:
288,160,52241,1,8,0:0:0:0:
224,160,52335,1,0,0:0:0:0:
224,160,52429,1,0,0:0:0:0:
288,160,52523,1,8,0:0:0:0:
224,160,52710,1,0,0:0:0:0:
224,160,52804,1,0,0:0:0:0:
288,160,52898,1,8,0:0:0:0:
224,160,53085,1,0,0:0:0:0:
288,160,53273,1,8,0:0:0:0:
288,160,53366,1,8,0:0:0:0:
224,160,53460,1,0,0:0:0:0:
224,160,53648,1,0,0:0:0:0:
224,160,53741,1,0,0:0:0:0:
224,160,53835,1,0,0:0:0:0:
224,160,54023,1,0,0:0:0:0:
224,160,54116,1,0,0:0:0:0:
288,160,54210,1,8,0:0:0:0:
224,160,54398,1,0,0:0:0:0:
288,160,54491,1,8,0:0:0:0:
288,160,54585,1,8,0:0:0:0:
288,160,54773,1,8,0:0:0:0:
288,160,54866,1,8,0:0:0:0:
288,160,54960,1,8,0:0:0:0:
288,160,55148,1,8,0:0:0:0:
224,160,55241,1,0,0:0:0:0:
288,160,55335,1,8,0:0:0:0:
224,160,55429,1,0,0:0:0:0:
288,160,55523,1,8,0:0:0:0:
288,160,55710,1,8,0:0:0:0:
224,160,55804,1,0,0:0:0:0:
288,160,55898,1,8,0:0:0:0:
288,160,56085,1,8,0:0:0:0:
288,160,56179,1,8,0:0:0:0:
224,160,56273,1,0,0:0:0:0:
288,160,56460,1,0,0:0:0:0:
288,160,56648,1,8,0:0:0:0:
288,160,56741,1,8,0:0:0:0:
224,160,56835,1,0,0:0:0:0:
288,160,57023,1,8,0:0:0:0:
288,160,57116,1,8,0:0:0:0:
224,160,57210,1,0,0:0:0:0:
288,160,57398,1,8,0:0:0:0:
288,160,57491,1,8,0:0:0:0:
224,160,57585,1,0,0:0:0:0:
224,160,57679,1,0,0:0:0:0:
288,160,57773,1,8,0:0:0:0:
224,160,57960,1,0,0:0:0:0:
224,160,58054,1,0,0:0:0:0:
288,160,58148,1,8,0:0:0:0:
288,160,58523,1,8,0:0:0:0:
224,160,58616,1,0,0:0:0:0:
224,160,58710,1,0,0:0:0:0:
224,160,58804,1,0,0:0:0:0:
288,160,58898,1,8,0:0:0:0:
224,160,59085,1,0,0:0:0:0:
224,160,59179,1,0,0:0:0:0:
288,160,59273,1,8,0:0:0:0:
288,160,59366,1,8,0:0:0:0:
224,160,59460,1,0,0:0:0:0:
288,160,59648,1,8,0:0:0:0:
288,160,59741,1,8,0:0:0:0:
224,160,59835,1,0,0:0:0:0:
224,160,59929,1,0,0:0:0:0:
288,160,60023,1,8,0:0:0:0:
288,160,60116,1,8,0:0:0:0:
224,160,60210,1,0,0:0:0:0:
224,160,60398,1,0,0:0:0:0:
224,160,60491,1,0,0:0:0:0:
224,160,60585,1,0,0:0:0:0:
224,160,60679,1,0,0:0:0:0:
288,160,60773,1,8,0:0:0:0:
288,160,60866,1,8,0:0:0:0:
288,160,60960,1,8,0:0:0:0:
224,160,61148,1,0,0:0:0:0:
224,160,61241,1,0,0:0:0:0:
288,160,61335,1,8,0:0:0:0:
288,160,61429,1,8,0:0:0:0:
288,160,61523,1,8,0:0:0:0:
288,160,61616,1,8,0:0:0:0:
224,160,61710,1,0,0:0:0:0:
224,160,61898,1,0,0:0:0:0:
224,160,61991,1,0,0:0:0:0:
288,160,62085,1,8,0:0:0:0:
288,160,62179,1,8,0:0:0:0:
224,160,62273,1,0,0:0:0:0:
224,160,62366,1,0,0:0:0:0:
224,160,62460,1,0,0:0:0:0:
288,160,62648,1,8,0:0:0:0:
224,160,62741,1,0,0:0:0:0:
288,160,62835,1,8,0:0:0:0:
288,160,62929,1,8,0:0:0:0:
224,160,63023,1,0,0:0:0:0:
288,160,63210,1,8,0:0:0:0:
288,160,63304,1,8,0:0:0:0:
224,160,63398,1,0,0:0:0:0:
288,160,63585,1,8,0:0:0:0:
224,160,63773,1,0,0:0:0:0:
224,160,64148,1,0,0:0:0:0:
288,160,64335,1,8,0:0:0:0:
288,160,64429,1,8,0:0:0:0:
224,160,64523,1,0,0:0:0:0:
224,160,64616,1,0,0:0:0:0:
288,160,64710,1,8,0:0:0:0:
224,160,64898,1,0,0:0:0:0:
288,160,64991,1,8,0:0:0:0:
288,160,65180,1,8,0:0:0:0:
224,160,65273,1,0,0:0:0:0:
288,160,65460,1,8,0:0:0:0:
288,160,65554,1,8,0:0:0:0:
224,160,65648,1,0,0:0:0:0:
288,160,65835,1,8,0:0:0:0:
288,160,65929,1,8,0:0:0:0:
224,160,66023,1,0,0:0:0:0:
224,160,66116,1,0,0:0:0:0:
288,160,66210,1,8,0:0:0:0:
224,160,66398,1,0,0:0:0:0:
288,160,66491,1,8,0:0:0:0:
288,160,66679,1,8,0:0:0:0:
224,160,66773,1,0,0:0:0:0:
224,160,67054,1,0,0:0:0:0:
288,160,67148,1,8,0:0:0:0:
224,160,67335,1,0,0:0:0:0:
288,160,67429,1,8,0:0:0:0:
224,160,67523,1,0,0:0:0:0:
224,160,67616,1,0,0:0:0:0:
288,160,67710,1,8,0:0:0:0:
224,160,67898,1,0,0:0:0:0:
288,160,67991,1,8,0:0:0:0:
288,160,68179,1,8,0:0:0:0:
224,160,68273,1,0,0:0:0:0:
288,160,68460,1,8,0:0:0:0:
288,160,68554,1,8,0:0:0:0:
224,160,68648,1,0,0:0:0:0:
288,160,68835,1,8,0:0:0:0:
288,160,68929,1,8,0:0:0:0:
224,160,69023,1,0,0:0:0:0:
224,160,69116,1,0,0:0:0:0:
288,160,69210,1,8,0:0:0:0:
224,160,69398,1,0,0:0:0:0:
288,160,69491,1,8,0:0:0:0:
288,160,69679,1,8,0:0:0:0:
224,160,69773,1,0,0:0:0:0:
288,160,69960,1,8,0:0:0:0:
224,224,70148,1,4,0:0:0:0:
224,160,70523,1,0,0:0:0:0:
224,160,70616,1,0,0:0:0:0:
288,160,70710,1,8,0:0:0:0:
288,160,70804,1,8,0:0:0:0:
224,160,70898,1,0,0:0:0:0:
288,160,71085,1,8,0:0:0:0:
288,160,71179,1,8,0:0:0:0:
224,160,71273,1,0,0:0:0:0:
224,160,71366,1,0,0:0:0:0:
288,160,71460,1,8,0:0:0:0:
288,224,71648,1,12,0:0:0:0:
288,160,72023,1,8,0:0:0:0:
288,160,72116,1,8,0:0:0:0:
224,160,72210,1,0,0:0:0:0:
224,160,72304,1,0,0:0:0:0:
288,160,72398,1,8,0:0:0:0:
224,160,72585,1,0,0:0:0:0:
224,160,72679,1,0,0:0:0:0:
288,160,72773,1,8,0:0:0:0:
288,160,72866,1,8,0:0:0:0:
224,160,72960,1,0,0:0:0:0:
288,224,73148,1,12,0:0:0:0:
224,160,73335,1,0,0:0:0:0:
224,160,73429,1,0,0:0:0:0:
288,160,73523,1,8,0:0:0:0:
288,160,73710,1,8,0:0:0:0:
224,224,73898,1,4,0:0:0:0:
288,160,74085,1,8,0:0:0:0:
288,160,74179,1,8,0:0:0:0:
224,160,74273,1,0,0:0:0:0:
224,160,74460,1,0,0:0:0:0:
288,224,74648,1,12,0:0:0:0:
224,160,74835,1,0,0:0:0:0:
224,160,74929,1,0,0:0:0:0:
288,160,75023,1,8,0:0:0:0:
288,160,75116,1,8,0:0:0:0:
224,160,75210,1,0,0:0:0:0:
288,224,75398,1,12,0:0:0:0:
224,224,75585,1,4,0:0:0:0:
288,224,75773,1,12,0:0:0:0:
224,160,76160,5,0,0:0:0:0:
224,160,76547,1,0,0:0:0:0:
224,160,76947,1,0,0:0:0:0:
224,160,77375,1,0,0:0:0:0:
224,160,77836,1,0,0:0:0:0:
224,160,78336,1,0,0:0:0:0:
224,160,78836,1,0,0:0:0:0:
224,160,79357,1,0,0:0:0:0:
288,160,79879,1,8,0:0:0:0:
224,160,80401,1,0,0:0:0:0:
288,160,80662,1,8,0:0:0:0:
224,160,80922,1,0,0:0:0:0:
224,160,81430,1,0,0:0:0:0:
288,160,81684,1,8,0:0:0:0:
224,160,81938,1,0,0:0:0:0:
288,160,82193,1,8,0:0:0:0:
288,160,82447,1,8,0:0:0:0:
288,160,83195,1,8,0:0:0:0:
224,160,83435,1,0,0:0:0:0:
288,160,83675,1,8,0:0:0:0:
288,160,83915,1,8,0:0:0:0:
288,160,84395,1,8,0:0:0:0:
224,160,84635,1,0,0:0:0:0:
288,160,84875,1,8,0:0:0:0:
288,160,85336,1,8,0:0:0:0:
224,160,85798,1,0,0:0:0:0:
224,160,86946,1,0,0:0:0:0:
288,160,87172,1,8,0:0:0:0:
288,160,87397,1,8,0:0:0:0:
224,160,87623,1,0,0:0:0:0:
224,160,87848,1,0,0:0:0:0:
288,160,88074,1,8,0:0:0:0:
224,160,88299,1,0,0:0:0:0:
288,160,88525,1,8,0:0:0:0:
224,160,88742,1,0,0:0:0:0:
224,160,88851,1,0,0:0:0:0:
288,160,88959,1,8,0:0:0:0:
288,160,89177,1,8,0:0:0:0:
224,160,89394,1,0,0:0:0:0:
224,160,89611,1,0,0:0:0:0:
288,160,89829,1,8,0:0:0:0:
224,160,90046,1,0,0:0:0:0:
288,160,90264,1,8,0:0:0:0:
288,160,90475,1,8,0:0:0:0:
288,160,90580,1,8,0:0:0:0:
224,160,90686,1,0,0:0:0:0:
288,160,90897,1,8,0:0:0:0:
224,160,91109,1,0,0:0:0:0:
224,160,91531,1,0,0:0:0:0:
288,160,91848,1,8,0:0:0:0:
224,160,91954,1,0,0:0:0:0:
288,160,92156,1,8,0:0:0:0:
288,160,92258,1,8,0:0:0:0:
224,160,92359,1,0,0:0:0:0:
288,160,92562,1,8,0:0:0:0:
224,160,92764,1,0,0:0:0:0:
288,160,92967,1,8,0:0:0:0:
224,160,93170,1,0,0:0:0:0:
224,160,93372,1,0,0:0:0:0:
224,160,93575,1,0,0:0:0:0:
288,160,93772,1,8,0:0:0:0:
288,224,93969,1,12,0:0:0:0:
224,160,94167,1,0,0:0:0:0:
288,160,94364,5,8,0:0:0:0:
288,160,94759,1,8,0:0:0:0:
224,160,94956,1,0,0:0:0:0:
288,160,95153,1,8,0:0:0:0:
288,160,95540,1,8,0:0:0:0:
288,160,95733,1,8,0:0:0:0:
224,160,95927,1,0,0:0:0:0:
288,160,96120,1,8,0:0:0:0:
224,160,96314,1,0,0:0:0:0:
224,160,96701,1,0,0:0:0:0:
288,224,96892,1,12,0:0:0:0:
288,224,97083,1,12,0:0:0:0:
288,224,97274,1,12,0:0:0:0:
224,224,97465,1,4,0:0:0:0:
288,160,97847,1,8,0:0:0:0:
224,160,98038,1,0,0:0:0:0:
224,160,98133,1,0,0:0:0:0:
288,160,98229,1,8,0:0:0:0:
224,160,98420,1,0,0:0:0:0:
288,160,98611,1,8,0:0:0:0:
288,160,98802,1,8,0:0:0:0:
224,160,98993,1,0,0:0:0:0:
288,160,99184,1,8,0:0:0:0:
224,160,99376,1,0,0:0:0:0:
288,160,99662,1,8,0:0:0:0:
224,160,99758,1,0,0:0:0:0:
288,160,99946,1,8,0:0:0:0:
288,160,100041,1,8,0:0:0:0:
224,160,100135,1,0,0:0:0:0:
288,160,100324,1,8,0:0:0:0:
224,160,100512,1,0,0:0:0:0:
288,160,100701,1,8,0:0:0:0:
224,160,100890,1,0,0:0:0:0:
224,160,100984,1,0,0:0:0:0:
288,160,101078,1,8,0:0:0:0:
288,160,101267,1,8,0:0:0:0:
224,160,101452,1,0,0:0:0:0:
288,160,101637,1,8,0:0:0:0:
288,160,101729,1,8,0:0:0:0:
224,160,101822,1,0,0:0:0:0:
288,160,102007,1,8,0:0:0:0:
224,160,102192,1,0,0:0:0:0:
288,160,102378,1,8,0:0:0:0:
288,160,102470,1,8,0:0:0:0:
288,160,102563,1,8,0:0:0:0:
224,160,102748,1,0,0:0:0:0:
288,160,102929,1,8,0:0:0:0:
288,160,103020,1,8,0:0:0:0:
224,160,103111,1,0,0:0:0:0:
288,160,103293,1,8,0:0:0:0:
224,160,103475,1,0,0:0:0:0:
288,160,103838,1,8,0:0:0:0:
288,160,104111,1,8,0:0:0:0:
224,160,104202,1,0,0:0:0:0:
288,160,104380,1,8,0:0:0:0:
224,160,104559,1,0,0:0:0:0:
224,160,104737,1,0,0:0:0:0:
288,160,104916,1,8,0:0:0:0:
288,160,105094,1,8,0:0:0:0:
288,160,105184,1,8,0:0:0:0:
224,160,105273,1,0,0:0:0:0:
224,160,105452,1,0,0:0:0:0:
224,160,105541,1,0,0:0:0:0:
288,160,105630,1,8,0:0:0:0:
224,224,105809,1,4,0:0:0:0:
224,224,105987,1,4,0:0:0:0:
288,224,106166,1,12,0:0:0:0:
288,224,106344,1,12,0:0:0:0:
288,160,106510,1,8,0:0:0:0:
224,160,106677,1,0,0:0:0:0:
288,160,106844,1,8,0:0:0:0:
224,160,107010,1,0,0:0:0:0:
288,160,107177,1,8,0:0:0:0:
288,160,107344,1,8,0:0:0:0:
224,160,107510,1,0,0:0:0:0:
288,160,107677,1,8,0:0:0:0:
288,160,107844,1,8,0:0:0:0:
224,160,108010,1,0,0:0:0:0:
224,160,108177,1,0,0:0:0:0:
288,160,108344,1,8,0:0:0:0:
288,160,108594,1,8,0:0:0:0:
288,160,108844,1,8,0:0:0:0:
224,160,109010,1,0,0:0:0:0:
288,160,109172,1,8,0:0:0:0:
224,160,109334,1,0,0:0:0:0:
224,160,109496,1,0,0:0:0:0:
288,160,109658,1,8,0:0:0:0:
224,160,109820,1,0,0:0:0:0:
288,160,109982,1,8,0:0:0:0:
288,160,110145,1,8,0:0:0:0:
224,160,110307,1,0,0:0:0:0:
288,160,110469,1,8,0:0:0:0:
288,160,110631,1,8,0:0:0:0:
224,160,110793,1,0,0:0:0:0:
288,160,110955,1,8,0:0:0:0:
288,160,111198,1,8,0:0:0:0:
224,160,111442,1,0,0:0:0:0:
288,160,111604,1,8,0:0:0:0:
224,160,111764,1,0,0:0:0:0:
224,160,111924,1,0,0:0:0:0:
288,160,112085,1,8,0:0:0:0:
224,160,112245,1,0,0:0:0:0:
288,160,112406,1,8,0:0:0:0:
288,160,112566,1,8,0:0:0:0:
224,160,112726,1,0,0:0:0:0:
288,160,112887,1,8,0:0:0:0:
288,160,113047,1,8,0:0:0:0:
224,160,113208,1,0,0:0:0:0:
288,160,113368,1,8,0:0:0:0:
288,160,113448,1,8,0:0:0:0:
288,160,113529,1,8,0:0:0:0:
288,160,113769,1,8,0:0:0:0:
288,160,114010,1,8,0:0:0:0:
224,160,114170,1,0,0:0:0:0:
224,160,114482,1,0,0:0:0:0:
288,160,114638,1,8,0:0:0:0:
288,160,114716,1,8,0:0:0:0:
224,160,114795,1,0,0:0:0:0:
288,160,114951,1,8,0:0:0:0:
224,160,115107,1,0,0:0:0:0:
288,160,115263,1,8,0:0:0:0:
224,160,115420,1,0,0:0:0:0:
288,160,115576,1,8,0:0:0:0:
288,160,115654,1,8,0:0:0:0:
224,160,115732,1,0,0:0:0:0:
288,160,115888,1,8,0:0:0:0:
224,160,115966,1,0,0:0:0:0:
288,160,116045,1,8,0:0:0:0:
224,160,116201,1,0,0:0:0:0:
224,160,116279,1,0,0:0:0:0:
288,160,116357,1,8,0:0:0:0:
288,224,116670,5,12,0:0:0:0:
288,160,116823,1,8,0:0:0:0:
224,224,116977,1,4,0:0:0:0:
224,160,117131,1,0,0:0:0:0:
288,224,117285,1,12,0:0:0:0:
224,160,117439,1,0,0:0:0:0:
224,224,117593,1,4,0:0:0:0:
224,160,117746,1,0,0:0:0:0:
288,224,117900,1,12,0:0:0:0:
288,160,118054,1,8,0:0:0:0:
224,224,118208,1,4,0:0:0:0:
288,160,118362,1,8,0:0:0:0:
288,224,118516,1,12,0:0:0:0:
288,160,118746,1,8,0:0:0:0:
224,160,118977,1,0,0:0:0:0:
288,224,119131,1,12,0:0:0:0:
224,160,119281,1,0,0:0:0:0:
224,224,119431,1,4,0:0:0:0:
224,160,119581,1,0,0:0:0:0:
288,224,119731,1,12,0:0:0:0:
288,160,119881,1,8,0:0:0:0:
224,224,120031,1,4,0:0:0:0:
288,160,120181,1,8,0:0:0:0:
224,224,120331,1,4,0:0:0:0:
288,160,120481,1,8,0:0:0:0:
224,224,120631,1,4,0:0:0:0:
224,160,120781,1,0,0:0:0:0:
288,224,120931,1,12,0:0:0:0:
288,160,121156,1,8,0:0:0:0:
288,160,121381,1,8,0:0:0:0:
288,160,121456,1,8,0:0:0:0:
224,160,121531,1,0,0:0:0:0:
288,160,121677,1,8,0:0:0:0:
224,160,121750,1,0,0:0:0:0:
288,160,121823,1,8,0:0:0:0:
224,160,121970,1,0,0:0:0:0:
224,160,122043,1,0,0:0:0:0:
288,160,122116,1,8,0:0:0:0:
288,160,122262,1,8,0:0:0:0:
288,160,122409,1,8,0:0:0:0:
288,160,122555,1,8,0:0:0:0:
288,160,122628,1,8,0:0:0:0:
288,160,122701,1,8,0:0:0:0:
288,160,122921,1,8,0:0:0:0:
224,160,122994,1,0,0:0:0:0:
288,160,123140,1,8,0:0:0:0:
224,160,123213,1,0,0:0:0:0:
288,160,123287,1,8,0:0:0:0:
224,160,123433,1,0,0:0:0:0:
224,160,123506,1,0,0:0:0:0:
288,160,123579,1,8,0:0:0:0:
288,160,123726,1,8,0:0:0:0:
288,160,123799,1,8,0:0:0:0:
224,160,123872,1,0,0:0:0:0:
288,160,124091,1,8,0:0:0:0:
288,160,124311,1,8,0:0:0:0:
288,160,124457,1,8,0:0:0:0:
288,160,124604,1,8,0:0:0:0:
224,160,124750,1,0,0:0:0:0:
224,160,124896,1,0,0:0:0:0:
288,224,125043,1,12,0:0:0:0:
288,160,125260,1,8,0:0:0:0:
288,160,125477,1,8,0:0:0:0:
288,160,125622,1,8,0:0:0:0:
288,160,125767,1,8,0:0:0:0:
224,160,125912,1,0,0:0:0:0:
224,160,125985,1,0,0:0:0:0:
224,160,126057,1,0,0:0:0:0:
288,160,126202,1,8,0:0:0:0:
224,160,126346,1,0,0:0:0:0:
224,160,126418,1,0,0:0:0:0:
288,160,126490,1,8,0:0:0:0:
224,160,126635,1,0,0:0:0:0:
288,160,126779,1,8,0:0:0:0:
288,160,126924,1,8,0:0:0:0:
224,160,126996,1,0,0:0:0:0:
288,160,127068,1,8,0:0:0:0:
288,160,127213,1,8,0:0:0:0:
224,224,127357,1,4,0:0:0:0:
288,224,127502,1,12,0:0:0:0:
224,224,127646,1,4,0:0:0:0:
288,224,127790,1,12,0:0:0:0:
224,224,127935,1,4,0:0:0:0:
288,224,128224,1,12,0:0:0:0:
