osu file format v14

[General]
AudioFilename: KillerBlood - Run Lads Run.mp3
AudioLeadIn: 0
PreviewTime: -1
Countdown: 0
SampleSet: Normal
StackLeniency: 0.7
Mode: 3
LetterboxInBreaks: 0
SpecialStyle: 0
WidescreenStoryboard: 1

[Editor]
DistanceSpacing: 1.1
BeatDivisor: 4
GridSize: 8
TimelineZoom: 1.7

[Metadata]
Title:Run Lads Run
TitleUnicode:Run Lads Run
Artist:KillerBlood
ArtistUnicode:KillerBlood
Creator:MadBricktree
Version:Lv 9
Source:
Tags:
BeatmapID:1774419
BeatmapSetID:848557

[Difficulty]
HPDrainRate:9
CircleSize:4
OverallDifficulty:9
ApproachRate:5
SliderMultiplier:1.4
SliderTickRate:1

[Events]
//Background and Video events
0,0,"bg.jpg",0,0
//Break Periods
//Storyboard Layer 0 (Background)
//Storyboard Layer 1 (Fail)
//Storyboard Layer 2 (Pass)
//Storyboard Layer 3 (Foreground)
//Storyboard Sound Samples

[TimingPoints]
1130,375,4,1,0,5,1,0
76142,387.096774193548,4,1,0,5,1,0
76142,-97.0873786407767,4,1,0,5,0,0
76529,400,4,1,0,5,1,8
76529,-93.4579439252336,4,1,0,5,0,8
76929,428.571428571429,4,1,0,5,1,8
76929,-87.719298245614,4,1,0,5,0,8
77357,461.538461538462,4,1,0,5,1,8
77357,-81.3008130081301,4,1,0,5,0,8
77818,500,4,1,0,5,1,0
77818,-75.187969924812,4,1,0,5,0,0
78818,521.739130434783,4,1,0,5,1,8
78818,-71.9424460431655,4,1,0,5,0,8
80904,508.474576271186,4,1,0,5,1,8
80904,-73.5294117647059,4,1,0,5,0,8
82937,480,4,1,0,5,1,8
82937,-78.125,4,1,0,5,0,8
84857,461.538461538462,4,1,0,5,1,8
84857,-81.3008130081301,4,1,0,5,0,8
86703,451.127819548872,4,1,0,5,1,8
86703,-83.3333333333333,4,1,0,5,0,8
88507,434.782608695652,4,1,0,5,1,8
88507,-86.2068965517241,4,1,0,5,0,8
90246,422.535211267606,4,1,0,5,1,8
90246,-88.495575221239,4,1,0,5,0,8
91936,405.405405405405,4,1,0,5,1,8
91936,-92.5925925925926,4,1,0,5,0,8
93557,394.736842105263,4,1,0,5,1,8
93557,-95.2380952380952,4,1,0,5,0,8
95135,387.096774193548,4,1,0,5,1,8
95135,-97.0873786407767,4,1,0,5,0,8
96683,382.165605095541,4,1,0,5,1,8
96683,-98.0392156862745,4,1,0,5,0,8
99740,377.358490566038,4,1,0,5,1,8
99740,-99.009900990099,4,1,0,5,0,8
101249,370.37037037037,4,1,0,5,1,8
101249,-101.010101010101,4,1,0,5,0,8
102730,363.636363636364,4,1,0,5,1,8
102730,-103.092783505155,4,1,0,5,0,8
104184,357.142857142857,4,1,0,5,1,8
104184,-105.263157894737,4,1,0,5,0,8
106326,333.333333333333,4,1,0,5,1,0
106326,-112.359550561798,4,1,0,5,0,0
108992,324.324324324324,4,1,0,5,1,0
108992,-116.279069767442,4,1,0,5,0,0
111586,320.855614973262,4,1,0,5,1,0
111586,-116.279069767442,4,1,0,5,0,0
114152,312.5,4,1,0,5,1,0
114152,-120.481927710843,4,1,0,5,0,0
116652,307.692307692308,4,1,0,5,1,0
116652,-121.951219512195,4,1,0,5,0,0
119113,300,4,1,0,5,1,0
119113,-125,4,1,0,5,0,0
121513,292.682926829268,4,1,0,5,1,0
121513,-128.205128205128,4,1,0,5,0,0
125025,289.855072463768,4,1,0,5,1,0
125025,-129.87012987013,4,1,0,5,0,0

[HitObjects]
320,192,1130,5,0,0:0:0:0:
64,192,1130,1,0,0:0:0:0:
448,192,1317,1,0,0:0:0:0:
64,192,1505,1,0,0:0:0:0:
192,192,1505,1,0,0:0:0:0:
448,192,1692,1,0,0:0:0:0:
320,192,1880,1,0,0:0:0:0:
192,192,1880,1,0,0:0:0:0:
448,192,2067,1,0,0:0:0:0:
448,192,2161,1,0,0:0:0:0:
64,192,2255,1,0,0:0:0:0:
320,192,2255,1,0,0:0:0:0:
448,192,2442,1,0,0:0:0:0:
192,192,2630,1,0,0:0:0:0:
320,192,2630,1,0,0:0:0:0:
448,192,2817,1,0,0:0:0:0:
64,192,3005,1,0,0:0:0:0:
192,192,3005,1,0,0:0:0:0:
448,192,3192,1,0,0:0:0:0:
64,192,3380,1,0,0:0:0:0:
320,192,3380,1,0,0:0:0:0:
448,192,3567,1,0,0:0:0:0:
192,192,3567,1,0,0:0:0:0:
448,192,3661,1,0,0:0:0:0:
64,192,3755,1,0,0:0:0:0:
320,192,3755,1,0,0:0:0:0:
192,192,3755,1,0,0:0:0:0:
320,192,3942,1,0,0:0:0:0:
448,192,3942,1,0,0:0:0:0:
192,192,4130,1,0,0:0:0:0:
64,192,4130,1,0,0:0:0:0:
448,192,4153,1,0,0:0:0:0:
320,192,4317,1,0,0:0:0:0:
64,192,4505,1,0,0:0:0:0:
448,192,4505,1,0,0:0:0:0:
192,192,4505,1,0,0:0:0:0:
320,192,4692,1,0,0:0:0:0:
64,192,4692,1,0,0:0:0:0:
192,192,4880,1,0,0:0:0:0:
320,192,4880,1,0,0:0:0:0:
448,192,4880,1,0,0:0:0:0:
320,192,5067,1,0,0:0:0:0:
320,192,5161,1,0,0:0:0:0:
192,192,5255,1,0,0:0:0:0:
64,192,5255,1,0,0:0:0:0:
448,192,5255,1,0,0:0:0:0:
64,192,5442,1,0,0:0:0:0:
320,192,5442,1,0,0:0:0:0:
192,192,5630,1,0,0:0:0:0:
64,192,5630,1,0,0:0:0:0:
448,192,5630,1,0,0:0:0:0:
192,192,5817,1,0,0:0:0:0:
320,192,5817,1,0,0:0:0:0:
64,192,6005,1,0,0:0:0:0:
320,192,6005,1,0,0:0:0:0:
448,192,6005,1,0,0:0:0:0:
192,192,6192,1,0,0:0:0:0:
64,192,6380,1,0,0:0:0:0:
448,192,6380,1,0,0:0:0:0:
320,192,6567,1,0,0:0:0:0:
192,192,6567,1,0,0:0:0:0:
320,192,6661,1,0,0:0:0:0:
448,192,6755,1,0,0:0:0:0:
64,192,6755,1,0,0:0:0:0:
192,192,6755,1,0,0:0:0:0:
320,192,6942,1,0,0:0:0:0:
64,192,6942,1,0,0:0:0:0:
192,192,7130,1,0,0:0:0:0:
320,192,7130,1,0,0:0:0:0:
448,192,7130,1,0,0:0:0:0:
64,192,7317,1,0,0:0:0:0:
64,192,7505,1,0,0:0:0:0:
192,192,7505,1,0,0:0:0:0:
448,192,7505,1,0,0:0:0:0:
64,192,7692,1,0,0:0:0:0:
192,192,7880,1,0,0:0:0:0:
320,192,7903,1,0,0:0:0:0:
448,192,7926,1,0,0:0:0:0:
320,192,8067,1,0,0:0:0:0:
320,192,8161,1,0,0:0:0:0:
64,192,8255,1,0,0:0:0:0:
192,192,8278,1,0,0:0:0:0:
320,192,8301,1,0,0:0:0:0:
192,192,8442,1,0,0:0:0:0:
64,192,8630,1,0,0:0:0:0:
192,192,8630,1,0,0:0:0:0:
448,192,8630,1,0,0:0:0:0:
320,192,8817,1,0,0:0:0:0:
64,192,9005,1,0,0:0:0:0:
448,192,9005,1,0,0:0:0:0:
320,192,9192,1,0,0:0:0:0:
192,192,9380,1,0,0:0:0:0:
448,192,9380,1,0,0:0:0:0:
320,192,9567,1,0,0:0:0:0:
64,192,9567,1,0,0:0:0:0:
320,192,9661,1,0,0:0:0:0:
192,192,9755,1,0,0:0:0:0:
448,192,9755,1,0,0:0:0:0:
64,192,9755,1,0,0:0:0:0:
192,192,9942,1,0,0:0:0:0:
320,192,9942,1,0,0:0:0:0:
64,192,10130,1,0,0:0:0:0:
192,192,10130,1,0,0:0:0:0:
448,192,10130,1,0,0:0:0:0:
64,192,10317,1,0,0:0:0:0:
64,192,10505,1,0,0:0:0:0:
192,192,10505,1,0,0:0:0:0:
320,192,10505,1,0,0:0:0:0:
192,192,10692,1,0,0:0:0:0:
192,192,10880,1,0,0:0:0:0:
320,192,10880,1,0,0:0:0:0:
448,192,10880,1,0,0:0:0:0:
320,192,11067,1,0,0:0:0:0:
320,192,11161,1,0,0:0:0:0:
192,192,11255,1,0,0:0:0:0:
64,192,11255,1,0,0:0:0:0:
448,192,11255,1,0,0:0:0:0:
448,192,11442,1,0,0:0:0:0:
64,192,11630,1,0,0:0:0:0:
320,192,11630,1,0,0:0:0:0:
448,192,11630,1,0,0:0:0:0:
64,192,11817,1,0,0:0:0:0:
64,192,12005,1,0,0:0:0:0:
320,192,12005,1,0,0:0:0:0:
192,192,12005,1,0,0:0:0:0:
320,192,12192,1,0,0:0:0:0:
192,192,12380,1,0,0:0:0:0:
320,192,12380,1,0,0:0:0:0:
448,192,12380,1,0,0:0:0:0:
64,192,12567,1,0,0:0:0:0:
448,192,12567,1,0,0:0:0:0:
448,192,12661,1,0,0:0:0:0:
64,192,12755,1,0,0:0:0:0:
320,192,12755,1,0,0:0:0:0:
192,192,12755,1,0,0:0:0:0:
192,192,12942,1,0,0:0:0:0:
448,192,12942,1,0,0:0:0:0:
64,192,13130,1,0,0:0:0:0:
320,192,13130,1,0,0:0:0:0:
448,192,13130,1,0,0:0:0:0:
320,192,13317,1,0,0:0:0:0:
320,192,13505,1,0,0:0:0:0:
448,192,13505,1,0,0:0:0:0:
64,192,13505,1,0,0:0:0:0:
192,192,13692,1,0,0:0:0:0:
448,192,13786,1,0,0:0:0:0:
320,192,13880,1,0,0:0:0:0:
64,192,13880,1,0,0:0:0:0:
192,192,13880,1,0,0:0:0:0:
320,192,14067,1,0,0:0:0:0:
320,192,14161,1,0,0:0:0:0:
64,192,14255,1,0,0:0:0:0:
192,192,14255,1,0,0:0:0:0:
448,192,14255,1,0,0:0:0:0:
64,192,14442,1,0,0:0:0:0:
192,192,14630,1,0,0:0:0:0:
448,192,14630,1,0,0:0:0:0:
320,192,14630,1,0,0:0:0:0:
320,192,14817,1,0,0:0:0:0:
192,192,15005,1,0,0:0:0:0:
64,192,15005,1,0,0:0:0:0:
448,192,15192,1,0,0:0:0:0:
192,192,15380,1,0,0:0:0:0:
320,192,15380,1,0,0:0:0:0:
448,192,15380,1,0,0:0:0:0:
64,192,15567,1,0,0:0:0:0:
320,192,15567,1,0,0:0:0:0:
64,192,15755,1,0,0:0:0:0:
192,192,15755,1,0,0:0:0:0:
320,192,15755,1,0,0:0:0:0:
448,192,15755,1,0,0:0:0:0:
192,192,15942,1,0,0:0:0:0:
448,192,15942,1,0,0:0:0:0:
320,192,16130,1,0,0:0:0:0:
64,192,16130,1,0,0:0:0:0:
448,192,16153,1,0,0:0:0:0:
320,192,16317,1,0,0:0:0:0:
192,192,16505,1,0,0:0:0:0:
64,192,16505,1,0,0:0:0:0:
448,192,16505,1,0,0:0:0:0:
192,192,16692,1,0,0:0:0:0:
320,192,16692,1,0,0:0:0:0:
64,192,16880,1,0,0:0:0:0:
320,192,16880,1,0,0:0:0:0:
448,192,16880,1,0,0:0:0:0:
448,192,17067,1,0,0:0:0:0:
448,192,17161,1,0,0:0:0:0:
320,192,17255,1,0,0:0:0:0:
192,192,17255,1,0,0:0:0:0:
64,192,17255,1,0,0:0:0:0:
448,192,17442,1,0,0:0:0:0:
192,192,17442,1,0,0:0:0:0:
320,192,17630,1,0,0:0:0:0:
448,192,17630,1,0,0:0:0:0:
64,192,17630,1,0,0:0:0:0:
192,192,17817,1,0,0:0:0:0:
64,192,17817,1,0,0:0:0:0:
448,192,18005,1,0,0:0:0:0:
320,192,18005,1,0,0:0:0:0:
192,192,18005,1,0,0:0:0:0:
64,192,18192,1,0,0:0:0:0:
64,192,18380,1,0,0:0:0:0:
320,192,18380,1,0,0:0:0:0:
448,192,18567,1,0,0:0:0:0:
192,192,18567,1,0,0:0:0:0:
320,192,18567,1,0,0:0:0:0:
448,192,18661,1,0,0:0:0:0:
320,192,18755,1,0,0:0:0:0:
64,192,18755,1,0,0:0:0:0:
192,192,18755,1,0,0:0:0:0:
64,192,18942,1,0,0:0:0:0:
448,192,18942,1,0,0:0:0:0:
192,192,18942,1,0,0:0:0:0:
64,192,19130,1,0,0:0:0:0:
320,192,19130,1,0,0:0:0:0:
448,192,19130,1,0,0:0:0:0:
192,192,19130,1,0,0:0:0:0:
320,192,19317,1,0,0:0:0:0:
64,192,19505,1,0,0:0:0:0:
192,192,19505,1,0,0:0:0:0:
448,192,19505,1,0,0:0:0:0:
192,192,19692,1,0,0:0:0:0:
192,192,19880,1,0,0:0:0:0:
320,192,19903,1,0,0:0:0:0:
448,192,19926,1,0,0:0:0:0:
320,192,20067,1,0,0:0:0:0:
320,192,20161,1,0,0:0:0:0:
64,192,20255,1,0,0:0:0:0:
192,192,20278,1,0,0:0:0:0:
320,192,20301,1,0,0:0:0:0:
192,192,20442,1,0,0:0:0:0:
64,192,20630,1,0,0:0:0:0:
320,192,20630,1,0,0:0:0:0:
448,192,20630,1,0,0:0:0:0:
192,192,20630,1,0,0:0:0:0:
320,192,20817,1,0,0:0:0:0:
64,192,21005,1,0,0:0:0:0:
448,192,21005,1,0,0:0:0:0:
320,192,21005,1,0,0:0:0:0:
192,192,21192,1,0,0:0:0:0:
448,192,21286,1,0,0:0:0:0:
320,192,21380,1,0,0:0:0:0:
192,192,21380,1,0,0:0:0:0:
64,192,21380,1,0,0:0:0:0:
320,192,21567,1,0,0:0:0:0:
64,192,21567,1,0,0:0:0:0:
320,192,21661,1,0,0:0:0:0:
192,192,21755,1,0,0:0:0:0:
448,192,21755,1,0,0:0:0:0:
64,192,21755,1,0,0:0:0:0:
192,192,21942,1,0,0:0:0:0:
320,192,21942,1,0,0:0:0:0:
64,192,22130,1,0,0:0:0:0:
192,192,22130,1,0,0:0:0:0:
320,192,22130,1,0,0:0:0:0:
448,192,22130,1,0,0:0:0:0:
64,192,22317,1,0,0:0:0:0:
64,192,22505,1,0,0:0:0:0:
192,192,22505,1,0,0:0:0:0:
320,192,22505,1,0,0:0:0:0:
448,192,22505,1,0,0:0:0:0:
192,192,22692,1,0,0:0:0:0:
64,192,22880,1,0,0:0:0:0:
192,192,22880,1,0,0:0:0:0:
448,192,22880,1,0,0:0:0:0:
320,192,22880,1,0,0:0:0:0:
320,192,23067,1,0,0:0:0:0:
320,192,23161,1,0,0:0:0:0:
64,192,23255,1,0,0:0:0:0:
192,192,23255,1,0,0:0:0:0:
448,192,23255,1,0,0:0:0:0:
448,192,23442,1,0,0:0:0:0:
64,192,23630,1,0,0:0:0:0:
192,192,23630,1,0,0:0:0:0:
448,192,23630,1,0,0:0:0:0:
320,192,23630,1,0,0:0:0:0:
192,192,23817,1,0,0:0:0:0:
64,192,24005,1,0,0:0:0:0:
192,192,24005,1,0,0:0:0:0:
320,192,24005,1,0,0:0:0:0:
448,192,24005,1,0,0:0:0:0:
320,192,24192,1,0,0:0:0:0:
192,192,24380,1,0,0:0:0:0:
64,192,24380,1,0,0:0:0:0:
448,192,24380,1,0,0:0:0:0:
448,192,24567,1,0,0:0:0:0:
192,192,24567,1,0,0:0:0:0:
448,192,24661,1,0,0:0:0:0:
320,192,24755,1,0,0:0:0:0:
192,192,24755,1,0,0:0:0:0:
64,192,24755,1,0,0:0:0:0:
64,192,24942,1,0,0:0:0:0:
320,192,24942,1,0,0:0:0:0:
192,192,25130,1,0,0:0:0:0:
320,192,25130,1,0,0:0:0:0:
448,192,25130,1,0,0:0:0:0:
64,192,25130,1,0,0:0:0:0:
448,192,25317,1,0,0:0:0:0:
64,192,25505,1,0,0:0:0:0:
192,192,25505,1,0,0:0:0:0:
320,192,25505,1,0,0:0:0:0:
64,192,25692,1,0,0:0:0:0:
448,192,25786,1,0,0:0:0:0:
320,192,25880,1,0,0:0:0:0:
192,192,25880,1,0,0:0:0:0:
64,192,25880,1,0,0:0:0:0:
320,192,26067,1,0,0:0:0:0:
448,192,26067,1,0,0:0:0:0:
64,192,26255,1,0,0:0:0:0:
192,192,26255,1,0,0:0:0:0:
448,192,26255,1,0,0:0:0:0:
320,192,26255,1,0,0:0:0:0:
192,192,26442,1,0,0:0:0:0:
64,192,26630,1,0,0:0:0:0:
320,192,26630,1,0,0:0:0:0:
448,192,26817,1,0,0:0:0:0:
320,192,26817,1,0,0:0:0:0:
192,192,26911,1,0,0:0:0:0:
64,192,27005,1,0,0:0:0:0:
320,192,27005,1,0,0:0:0:0:
448,192,27005,1,0,0:0:0:0:
192,192,27192,1,0,0:0:0:0:
64,192,27192,1,0,0:0:0:0:
320,192,27286,1,0,0:0:0:0:
448,192,27380,1,0,0:0:0:0:
64,192,27380,1,0,0:0:0:0:
192,192,27380,1,0,0:0:0:0:
192,192,27567,1,0,0:0:0:0:
320,192,27567,1,0,0:0:0:0:
448,192,27567,1,0,0:0:0:0:
192,192,27755,1,0,0:0:0:0:
320,192,27755,1,0,0:0:0:0:
448,192,27755,1,0,0:0:0:0:
64,192,27755,1,0,0:0:0:0:
320,192,27942,1,0,0:0:0:0:
448,192,27942,1,0,0:0:0:0:
320,192,28130,1,0,0:0:0:0:
192,192,28130,1,0,0:0:0:0:
64,192,28130,1,0,0:0:0:0:
64,192,28317,1,0,0:0:0:0:
448,192,28317,1,0,0:0:0:0:
192,192,28505,1,0,0:0:0:0:
448,192,28505,1,0,0:0:0:0:
320,192,28505,1,0,0:0:0:0:
64,192,28692,1,0,0:0:0:0:
320,192,28692,1,0,0:0:0:0:
64,192,28880,1,0,0:0:0:0:
448,192,28880,1,0,0:0:0:0:
320,192,28880,1,0,0:0:0:0:
192,192,29067,1,0,0:0:0:0:
448,192,29067,1,0,0:0:0:0:
448,192,29161,1,0,0:0:0:0:
64,192,29255,1,0,0:0:0:0:
192,192,29255,1,0,0:0:0:0:
320,192,29255,1,0,0:0:0:0:
64,192,29442,1,0,0:0:0:0:
320,192,29442,1,0,0:0:0:0:
192,192,29630,1,0,0:0:0:0:
448,192,29630,1,0,0:0:0:0:
64,192,29630,1,0,0:0:0:0:
192,192,29817,1,0,0:0:0:0:
320,192,29817,1,0,0:0:0:0:
64,192,30005,1,0,0:0:0:0:
448,192,30005,1,0,0:0:0:0:
192,192,30005,1,0,0:0:0:0:
320,192,30192,1,0,0:0:0:0:
448,192,30192,1,0,0:0:0:0:
320,192,30380,1,0,0:0:0:0:
192,192,30380,1,0,0:0:0:0:
64,192,30380,1,0,0:0:0:0:
448,192,30567,1,0,0:0:0:0:
448,192,30661,1,0,0:0:0:0:
192,192,30661,1,0,0:0:0:0:
320,192,30755,1,0,0:0:0:0:
64,192,30755,1,0,0:0:0:0:
192,192,30942,1,0,0:0:0:0:
320,192,30942,1,0,0:0:0:0:
64,192,31130,1,0,0:0:0:0:
448,192,31130,1,0,0:0:0:0:
320,192,31130,1,0,0:0:0:0:
64,192,31317,1,0,0:0:0:0:
192,192,31317,1,0,0:0:0:0:
192,192,31505,1,0,0:0:0:0:
320,192,31505,1,0,0:0:0:0:
448,192,31505,1,0,0:0:0:0:
192,192,31692,1,0,0:0:0:0:
320,192,31692,1,0,0:0:0:0:
64,192,31880,1,0,0:0:0:0:
320,192,31880,1,0,0:0:0:0:
448,192,31880,1,0,0:0:0:0:
448,192,32067,1,0,0:0:0:0:
64,192,32067,1,0,0:0:0:0:
448,192,32161,1,0,0:0:0:0:
64,192,32255,1,0,0:0:0:0:
192,192,32255,1,0,0:0:0:0:
320,192,32255,1,0,0:0:0:0:
192,192,32442,1,0,0:0:0:0:
320,192,32442,1,0,0:0:0:0:
192,192,32630,1,0,0:0:0:0:
64,192,32630,1,0,0:0:0:0:
448,192,32630,1,0,0:0:0:0:
64,192,32817,1,0,0:0:0:0:
320,192,32817,1,0,0:0:0:0:
192,192,33005,1,0,0:0:0:0:
320,192,33005,1,0,0:0:0:0:
448,192,33005,1,0,0:0:0:0:
192,192,33192,1,0,0:0:0:0:
448,192,33192,1,0,0:0:0:0:
320,192,33380,1,0,0:0:0:0:
64,192,33380,1,0,0:0:0:0:
448,192,33380,1,0,0:0:0:0:
320,192,33567,1,0,0:0:0:0:
320,192,33661,1,0,0:0:0:0:
448,192,33661,1,0,0:0:0:0:
192,192,33755,1,0,0:0:0:0:
64,192,33755,1,0,0:0:0:0:
64,192,33942,1,0,0:0:0:0:
320,192,33942,1,0,0:0:0:0:
320,192,34130,1,0,0:0:0:0:
192,192,34130,1,0,0:0:0:0:
448,192,34130,1,0,0:0:0:0:
64,192,34317,1,0,0:0:0:0:
192,192,34317,1,0,0:0:0:0:
64,192,34505,1,0,0:0:0:0:
448,192,34505,1,0,0:0:0:0:
320,192,34505,1,0,0:0:0:0:
192,192,34692,1,0,0:0:0:0:
320,192,34692,1,0,0:0:0:0:
64,192,34880,1,0,0:0:0:0:
320,192,34880,1,0,0:0:0:0:
448,192,35067,1,0,0:0:0:0:
192,192,35067,1,0,0:0:0:0:
448,192,35161,1,0,0:0:0:0:
192,192,35255,1,0,0:0:0:0:
320,192,35255,1,0,0:0:0:0:
64,192,35255,1,0,0:0:0:0:
64,192,35442,1,0,0:0:0:0:
320,192,35442,1,0,0:0:0:0:
192,192,35630,1,0,0:0:0:0:
320,192,35630,1,0,0:0:0:0:
448,192,35630,1,0,0:0:0:0:
64,192,35817,1,0,0:0:0:0:
192,192,35817,1,0,0:0:0:0:
320,192,36005,1,0,0:0:0:0:
448,192,36005,1,0,0:0:0:0:
64,192,36005,1,0,0:0:0:0:
192,192,36192,1,0,0:0:0:0:
448,192,36192,1,0,0:0:0:0:
320,192,36286,1,0,0:0:0:0:
448,192,36380,1,0,0:0:0:0:
64,192,36380,1,0,0:0:0:0:
192,192,36380,1,0,0:0:0:0:
320,192,36567,1,0,0:0:0:0:
320,192,36661,1,0,0:0:0:0:
64,192,36661,1,0,0:0:0:0:
192,192,36755,1,0,0:0:0:0:
448,192,36755,1,0,0:0:0:0:
64,192,36942,1,0,0:0:0:0:
192,192,36942,1,0,0:0:0:0:
320,192,36942,1,0,0:0:0:0:
64,192,37130,1,0,0:0:0:0:
320,192,37130,1,0,0:0:0:0:
448,192,37130,1,0,0:0:0:0:
192,192,37130,1,0,0:0:0:0:
320,192,37317,1,0,0:0:0:0:
64,192,37505,1,0,0:0:0:0:
192,192,37505,1,0,0:0:0:0:
448,192,37692,1,0,0:0:0:0:
64,192,37692,1,0,0:0:0:0:
64,192,37880,1,0,0:0:0:0:
448,192,37880,1,0,0:0:0:0:
320,192,37880,1,0,0:0:0:0:
320,192,38067,1,0,0:0:0:0:
192,192,38067,1,0,0:0:0:0:
320,192,38161,1,0,0:0:0:0:
192,192,38255,1,0,0:0:0:0:
448,192,38255,1,0,0:0:0:0:
64,192,38255,1,0,0:0:0:0:
320,192,38442,1,0,0:0:0:0:
448,192,38442,1,0,0:0:0:0:
192,192,38630,1,0,0:0:0:0:
64,192,38630,1,0,0:0:0:0:
448,192,38630,1,0,0:0:0:0:
320,192,38630,1,0,0:0:0:0:
192,192,38817,1,0,0:0:0:0:
64,192,38911,1,0,0:0:0:0:
192,192,39005,1,0,0:0:0:0:
320,192,39005,1,0,0:0:0:0:
448,192,39005,1,0,0:0:0:0:
64,192,39192,1,0,0:0:0:0:
448,192,39192,1,0,0:0:0:0:
320,192,39286,1,0,0:0:0:0:
192,192,39286,1,0,0:0:0:0:
64,192,39380,1,0,0:0:0:0:
448,192,39380,1,0,0:0:0:0:
64,192,39567,1,0,0:0:0:0:
192,192,39567,1,0,0:0:0:0:
320,192,39567,1,0,0:0:0:0:
320,192,39661,1,0,0:0:0:0:
192,192,39755,1,0,0:0:0:0:
448,192,39755,1,0,0:0:0:0:
64,192,39755,1,0,0:0:0:0:
192,192,39942,1,0,0:0:0:0:
320,192,39942,1,0,0:0:0:0:
448,192,39942,1,0,0:0:0:0:
64,192,40130,1,0,0:0:0:0:
192,192,40130,1,0,0:0:0:0:
448,192,40130,1,0,0:0:0:0:
320,192,40130,1,0,0:0:0:0:
64,192,40317,1,0,0:0:0:0:
320,192,40317,1,0,0:0:0:0:
192,192,40505,1,0,0:0:0:0:
64,192,40505,1,0,0:0:0:0:
320,192,40505,1,0,0:0:0:0:
448,192,40505,1,0,0:0:0:0:
192,192,40692,1,0,0:0:0:0:
448,192,40692,1,0,0:0:0:0:
64,192,40880,1,0,0:0:0:0:
192,192,40880,1,0,0:0:0:0:
320,192,40880,1,0,0:0:0:0:
448,192,40880,1,0,0:0:0:0:
192,192,41067,1,0,0:0:0:0:
320,192,41067,1,0,0:0:0:0:
320,192,41161,1,0,0:0:0:0:
64,192,41255,1,0,0:0:0:0:
192,192,41255,1,0,0:0:0:0:
448,192,41255,1,0,0:0:0:0:
64,192,41442,1,0,0:0:0:0:
320,192,41442,1,0,0:0:0:0:
64,192,41630,1,0,0:0:0:0:
192,192,41630,1,0,0:0:0:0:
320,192,41630,1,0,0:0:0:0:
448,192,41630,1,0,0:0:0:0:
192,192,41817,1,0,0:0:0:0:
320,192,41817,1,0,0:0:0:0:
64,192,42005,1,0,0:0:0:0:
192,192,42005,1,0,0:0:0:0:
320,192,42005,1,0,0:0:0:0:
448,192,42005,1,0,0:0:0:0:
192,192,42192,1,0,0:0:0:0:
448,192,42192,1,0,0:0:0:0:
64,192,42380,1,0,0:0:0:0:
320,192,42380,1,0,0:0:0:0:
192,192,42380,1,0,0:0:0:0:
448,192,42380,1,0,0:0:0:0:
320,192,42567,1,0,0:0:0:0:
320,192,42661,1,0,0:0:0:0:
192,192,42661,1,0,0:0:0:0:
64,192,42755,1,0,0:0:0:0:
448,192,42755,1,0,0:0:0:0:
64,192,42942,1,0,0:0:0:0:
320,192,42942,1,0,0:0:0:0:
64,192,43130,1,0,0:0:0:0:
192,192,43130,1,0,0:0:0:0:
320,192,43130,1,0,0:0:0:0:
448,192,43130,1,0,0:0:0:0:
64,192,43317,1,0,0:0:0:0:
192,192,43317,1,0,0:0:0:0:
64,192,43505,1,0,0:0:0:0:
192,192,43505,1,0,0:0:0:0:
320,192,43505,1,0,0:0:0:0:
448,192,43505,1,0,0:0:0:0:
192,192,43692,1,0,0:0:0:0:
320,192,43692,1,0,0:0:0:0:
64,192,43880,1,0,0:0:0:0:
192,192,43880,1,0,0:0:0:0:
320,192,43880,1,0,0:0:0:0:
448,192,43880,1,0,0:0:0:0:
320,192,44067,1,0,0:0:0:0:
448,192,44067,1,0,0:0:0:0:
320,192,44161,1,0,0:0:0:0:
64,192,44255,1,0,0:0:0:0:
192,192,44255,1,0,0:0:0:0:
448,192,44255,1,0,0:0:0:0:
192,192,44442,1,0,0:0:0:0:
320,192,44442,1,0,0:0:0:0:
64,192,44630,1,0,0:0:0:0:
320,192,44630,1,0,0:0:0:0:
448,192,44630,1,0,0:0:0:0:
192,192,44630,1,0,0:0:0:0:
64,192,44817,1,0,0:0:0:0:
320,192,44817,1,0,0:0:0:0:
64,192,45005,1,0,0:0:0:0:
192,192,45005,1,0,0:0:0:0:
320,192,45005,1,0,0:0:0:0:
448,192,45005,1,0,0:0:0:0:
64,192,45192,1,0,0:0:0:0:
448,192,45192,1,0,0:0:0:0:
64,192,45380,1,0,0:0:0:0:
192,192,45380,1,0,0:0:0:0:
320,192,45380,1,0,0:0:0:0:
448,192,45380,1,0,0:0:0:0:
192,192,45567,1,0,0:0:0:0:
448,192,45567,1,0,0:0:0:0:
320,192,45661,1,0,0:0:0:0:
192,192,45661,1,0,0:0:0:0:
64,192,45755,1,0,0:0:0:0:
448,192,45755,1,0,0:0:0:0:
64,192,45942,1,0,0:0:0:0:
320,192,45942,1,0,0:0:0:0:
192,192,46036,1,0,0:0:0:0:
320,192,46130,1,0,0:0:0:0:
448,192,46130,1,0,0:0:0:0:
64,192,46130,1,0,0:0:0:0:
192,192,46317,1,0,0:0:0:0:
320,192,46411,1,0,0:0:0:0:
64,192,46505,1,0,0:0:0:0:
192,192,46505,1,0,0:0:0:0:
448,192,46505,1,0,0:0:0:0:
64,192,46692,1,0,0:0:0:0:
320,192,46692,1,0,0:0:0:0:
64,192,46880,1,0,0:0:0:0:
192,192,46880,1,0,0:0:0:0:
448,192,46880,1,0,0:0:0:0:
320,192,46880,1,0,0:0:0:0:
192,192,47067,1,0,0:0:0:0:
448,192,47067,1,0,0:0:0:0:
192,192,47161,1,0,0:0:0:0:
64,192,47255,1,0,0:0:0:0:
192,192,47278,1,0,0:0:0:0:
320,192,47301,1,0,0:0:0:0:
448,192,47325,1,0,0:0:0:0:
64,192,47442,1,0,0:0:0:0:
320,192,47442,1,0,0:0:0:0:
192,192,47536,1,0,0:0:0:0:
64,192,47630,1,0,0:0:0:0:
320,192,47630,1,0,0:0:0:0:
448,192,47630,1,0,0:0:0:0:
192,192,47817,1,0,0:0:0:0:
320,192,47911,1,0,0:0:0:0:
448,192,47911,1,0,0:0:0:0:
192,192,48005,1,0,0:0:0:0:
64,192,48005,1,0,0:0:0:0:
448,192,48192,1,0,0:0:0:0:
320,192,48192,1,0,0:0:0:0:
64,192,48192,1,0,0:0:0:0:
64,192,48380,1,0,0:0:0:0:
192,192,48380,1,0,0:0:0:0:
320,192,48380,1,0,0:0:0:0:
448,192,48380,1,0,0:0:0:0:
320,192,48567,1,0,0:0:0:0:
192,192,48567,1,0,0:0:0:0:
320,192,48661,1,0,0:0:0:0:
64,192,48661,1,0,0:0:0:0:
192,192,48755,1,0,0:0:0:0:
448,192,48755,1,0,0:0:0:0:
64,192,48942,1,0,0:0:0:0:
320,192,48942,1,0,0:0:0:0:
192,192,48942,1,0,0:0:0:0:
64,192,49130,1,0,0:0:0:0:
320,192,49130,1,0,0:0:0:0:
192,192,49130,1,0,0:0:0:0:
448,192,49130,1,0,0:0:0:0:
448,192,49317,1,0,0:0:0:0:
320,192,49411,1,0,0:0:0:0:
192,192,49411,1,0,0:0:0:0:
448,192,49505,1,0,0:0:0:0:
64,192,49505,1,0,0:0:0:0:
320,192,49692,1,0,0:0:0:0:
192,192,49692,1,0,0:0:0:0:
64,192,49692,1,0,0:0:0:0:
320,192,49880,1,0,0:0:0:0:
64,192,49880,1,0,0:0:0:0:
192,192,49880,1,0,0:0:0:0:
448,192,49880,1,0,0:0:0:0:
320,192,50067,1,0,0:0:0:0:
192,192,50067,1,0,0:0:0:0:
448,192,50067,1,0,0:0:0:0:
192,192,50161,1,0,0:0:0:0:
320,192,50255,1,0,0:0:0:0:
64,192,50255,1,0,0:0:0:0:
448,192,50255,1,0,0:0:0:0:
192,192,50442,1,0,0:0:0:0:
64,192,50442,1,0,0:0:0:0:
64,192,50630,1,0,0:0:0:0:
192,192,50630,1,0,0:0:0:0:
320,192,50630,1,0,0:0:0:0:
448,192,50630,1,0,0:0:0:0:
64,192,50817,1,0,0:0:0:0:
64,192,50911,1,0,0:0:0:0:
64,192,51005,1,0,0:0:0:0:
192,192,51098,1,0,0:0:0:0:
320,192,51192,1,0,0:0:0:0:
192,192,51286,1,0,0:0:0:0:
320,192,51380,1,0,0:0:0:0:
448,192,51567,1,0,0:0:0:0:
192,192,51661,1,0,0:0:0:0:
448,192,51755,1,0,0:0:0:0:
320,192,51848,1,0,0:0:0:0:
192,192,51942,1,0,0:0:0:0:
64,192,52036,1,0,0:0:0:0:
448,192,52130,1,0,0:0:0:0:
192,192,52130,1,0,0:0:0:0:
320,192,52223,1,0,0:0:0:0:
448,192,52317,1,0,0:0:0:0:
64,192,52317,1,0,0:0:0:0:
192,192,52411,1,0,0:0:0:0:
64,192,52505,1,0,0:0:0:0:
320,192,52505,1,0,0:0:0:0:
192,192,52598,1,0,0:0:0:0:
448,192,52692,1,0,0:0:0:0:
320,192,52692,1,0,0:0:0:0:
64,192,52786,1,0,0:0:0:0:
192,192,52880,1,0,0:0:0:0:
448,192,52880,1,0,0:0:0:0:
320,192,52973,1,0,0:0:0:0:
192,192,53067,1,0,0:0:0:0:
64,192,53067,1,0,0:0:0:0:
320,192,53161,1,0,0:0:0:0:
64,192,53161,1,0,0:0:0:0:
192,192,53255,1,0,0:0:0:0:
448,192,53255,1,0,0:0:0:0:
64,192,53348,1,0,0:0:0:0:
448,192,53442,1,0,0:0:0:0:
320,192,53442,1,0,0:0:0:0:
192,192,53536,1,0,0:0:0:0:
64,192,53630,1,0,0:0:0:0:
320,192,53630,1,0,0:0:0:0:
192,192,53723,1,0,0:0:0:0:
64,192,53817,1,0,0:0:0:0:
448,192,53817,1,0,0:0:0:0:
320,192,53911,1,0,0:0:0:0:
192,192,54005,1,0,0:0:0:0:
448,192,54005,1,0,0:0:0:0:
320,192,54098,1,0,0:0:0:0:
448,192,54192,1,0,0:0:0:0:
192,192,54192,1,0,0:0:0:0:
64,192,54286,1,0,0:0:0:0:
320,192,54380,1,0,0:0:0:0:
192,192,54380,1,0,0:0:0:0:
64,192,54473,1,0,0:0:0:0:
448,192,54567,1,0,0:0:0:0:
320,192,54567,1,0,0:0:0:0:
192,192,54661,1,0,0:0:0:0:
448,192,54661,1,0,0:0:0:0:
320,192,54755,1,0,0:0:0:0:
64,192,54755,1,0,0:0:0:0:
448,192,54848,1,0,0:0:0:0:
64,192,54942,1,0,0:0:0:0:
192,192,54942,1,0,0:0:0:0:
320,192,55036,1,0,0:0:0:0:
448,192,55130,1,0,0:0:0:0:
64,192,55130,1,0,0:0:0:0:
192,192,55223,1,0,0:0:0:0:
448,192,55317,1,0,0:0:0:0:
320,192,55317,1,0,0:0:0:0:
192,192,55411,1,0,0:0:0:0:
448,192,55505,1,0,0:0:0:0:
64,192,55505,1,0,0:0:0:0:
192,192,55598,1,0,0:0:0:0:
448,192,55692,1,0,0:0:0:0:
320,192,55692,1,0,0:0:0:0:
192,192,55786,1,0,0:0:0:0:
320,192,55880,1,0,0:0:0:0:
64,192,55880,1,0,0:0:0:0:
448,192,55973,1,0,0:0:0:0:
320,192,56067,1,0,0:0:0:0:
64,192,56067,1,0,0:0:0:0:
192,192,56161,1,0,0:0:0:0:
64,192,56161,1,0,0:0:0:0:
448,192,56255,1,0,0:0:0:0:
320,192,56255,1,0,0:0:0:0:
64,192,56348,1,0,0:0:0:0:
192,192,56442,1,0,0:0:0:0:
448,192,56442,1,0,0:0:0:0:
320,192,56536,1,0,0:0:0:0:
192,192,56630,1,0,0:0:0:0:
64,192,56630,1,0,0:0:0:0:
320,192,56723,1,0,0:0:0:0:
448,192,56817,1,0,0:0:0:0:
64,192,56817,1,0,0:0:0:0:
320,192,56911,1,0,0:0:0:0:
192,192,57005,1,0,0:0:0:0:
64,192,57005,1,0,0:0:0:0:
320,192,57098,1,0,0:0:0:0:
448,192,57192,1,0,0:0:0:0:
192,192,57192,1,0,0:0:0:0:
320,192,57286,1,0,0:0:0:0:
192,192,57380,1,0,0:0:0:0:
448,192,57380,1,0,0:0:0:0:
64,192,57473,1,0,0:0:0:0:
448,192,57567,1,0,0:0:0:0:
320,192,57567,1,0,0:0:0:0:
64,192,57661,1,0,0:0:0:0:
320,192,57661,1,0,0:0:0:0:
192,192,57755,1,0,0:0:0:0:
448,192,57755,1,0,0:0:0:0:
320,192,57848,1,0,0:0:0:0:
192,192,57942,1,0,0:0:0:0:
64,192,57942,1,0,0:0:0:0:
448,192,58036,1,0,0:0:0:0:
320,192,58130,1,0,0:0:0:0:
64,192,58130,1,0,0:0:0:0:
320,192,58317,1,0,0:0:0:0:
64,192,58317,1,0,0:0:0:0:
192,192,58411,1,0,0:0:0:0:
448,192,58505,1,0,0:0:0:0:
320,192,58505,1,0,0:0:0:0:
64,192,58598,1,0,0:0:0:0:
448,192,58692,1,0,0:0:0:0:
192,192,58692,1,0,0:0:0:0:
320,192,58786,1,0,0:0:0:0:
448,192,58880,1,0,0:0:0:0:
192,192,58880,1,0,0:0:0:0:
320,192,58973,1,0,0:0:0:0:
192,192,59067,1,0,0:0:0:0:
64,192,59067,1,0,0:0:0:0:
192,192,59161,1,0,0:0:0:0:
64,192,59255,1,0,0:0:0:0:
448,192,59255,1,0,0:0:0:0:
320,192,59348,1,0,0:0:0:0:
64,192,59442,1,0,0:0:0:0:
192,192,59442,1,0,0:0:0:0:
320,192,59536,1,0,0:0:0:0:
192,192,59630,1,0,0:0:0:0:
448,192,59630,1,0,0:0:0:0:
64,192,59723,1,0,0:0:0:0:
320,192,59817,1,0,0:0:0:0:
448,192,59817,1,0,0:0:0:0:
192,192,59911,1,0,0:0:0:0:
320,192,60005,1,0,0:0:0:0:
64,192,60005,1,0,0:0:0:0:
192,192,60098,1,0,0:0:0:0:
64,192,60192,1,0,0:0:0:0:
448,192,60192,1,0,0:0:0:0:
320,192,60286,1,0,0:0:0:0:
448,192,60380,1,0,0:0:0:0:
192,192,60380,1,0,0:0:0:0:
320,192,60473,1,0,0:0:0:0:
192,192,60567,1,0,0:0:0:0:
64,192,60567,1,0,0:0:0:0:
320,192,60661,1,0,0:0:0:0:
64,192,60661,1,0,0:0:0:0:
448,192,60755,1,0,0:0:0:0:
192,192,60755,1,0,0:0:0:0:
320,192,60848,1,0,0:0:0:0:
64,192,60942,1,0,0:0:0:0:
448,192,60942,1,0,0:0:0:0:
192,192,61036,1,0,0:0:0:0:
320,192,61130,1,0,0:0:0:0:
448,192,61130,1,0,0:0:0:0:
192,192,61223,1,0,0:0:0:0:
320,192,61317,1,0,0:0:0:0:
64,192,61317,1,0,0:0:0:0:
192,192,61411,1,0,0:0:0:0:
320,192,61505,1,0,0:0:0:0:
448,192,61505,1,0,0:0:0:0:
192,192,61598,1,0,0:0:0:0:
64,192,61692,1,0,0:0:0:0:
448,192,61692,1,0,0:0:0:0:
320,192,61786,1,0,0:0:0:0:
448,192,61880,1,0,0:0:0:0:
192,192,61880,1,0,0:0:0:0:
320,192,61973,1,0,0:0:0:0:
192,192,62067,1,0,0:0:0:0:
64,192,62067,1,0,0:0:0:0:
320,192,62161,1,0,0:0:0:0:
192,192,62161,1,0,0:0:0:0:
448,192,62255,1,0,0:0:0:0:
64,192,62255,1,0,0:0:0:0:
192,192,62348,1,0,0:0:0:0:
320,192,62442,1,0,0:0:0:0:
448,192,62442,1,0,0:0:0:0:
192,192,62536,1,0,0:0:0:0:
64,192,62630,1,0,0:0:0:0:
448,192,62630,1,0,0:0:0:0:
320,192,62723,1,0,0:0:0:0:
192,192,62817,1,0,0:0:0:0:
448,192,62817,1,0,0:0:0:0:
320,192,62911,1,0,0:0:0:0:
192,192,63005,1,0,0:0:0:0:
64,192,63005,1,0,0:0:0:0:
320,192,63098,1,0,0:0:0:0:
64,192,63192,1,0,0:0:0:0:
448,192,63192,1,0,0:0:0:0:
192,192,63286,1,0,0:0:0:0:
64,192,63380,1,0,0:0:0:0:
320,192,63380,1,0,0:0:0:0:
448,192,63473,1,0,0:0:0:0:
320,192,63567,1,0,0:0:0:0:
192,192,63567,1,0,0:0:0:0:
64,192,63661,1,0,0:0:0:0:
320,192,63661,1,0,0:0:0:0:
448,192,63755,1,0,0:0:0:0:
192,192,63755,1,0,0:0:0:0:
320,192,63848,1,0,0:0:0:0:
448,192,63942,1,0,0:0:0:0:
64,192,63942,1,0,0:0:0:0:
192,192,64036,1,0,0:0:0:0:
320,192,64130,1,0,0:0:0:0:
448,192,64130,1,0,0:0:0:0:
64,192,64223,1,0,0:0:0:0:
320,192,64317,1,0,0:0:0:0:
192,192,64317,1,0,0:0:0:0:
448,192,64411,1,0,0:0:0:0:
64,192,64411,1,0,0:0:0:0:
320,192,64505,1,0,0:0:0:0:
192,192,64505,1,0,0:0:0:0:
448,192,64598,1,0,0:0:0:0:
192,192,64692,1,0,0:0:0:0:
64,192,64692,1,0,0:0:0:0:
320,192,64786,1,0,0:0:0:0:
64,192,64880,1,0,0:0:0:0:
448,192,64880,1,0,0:0:0:0:
320,192,64973,1,0,0:0:0:0:
192,192,64973,1,0,0:0:0:0:
64,192,65067,1,0,0:0:0:0:
448,192,65067,1,0,0:0:0:0:
448,192,65161,1,0,0:0:0:0:
320,192,65161,1,0,0:0:0:0:
192,192,65255,1,0,0:0:0:0:
64,192,65255,1,0,0:0:0:0:
448,192,65348,1,0,0:0:0:0:
192,192,65442,1,0,0:0:0:0:
320,192,65442,1,0,0:0:0:0:
64,192,65536,1,0,0:0:0:0:
448,192,65536,1,0,0:0:0:0:
192,192,65630,1,0,0:0:0:0:
320,192,65630,1,0,0:0:0:0:
64,192,65723,1,0,0:0:0:0:
320,192,65817,1,0,0:0:0:0:
448,192,65817,1,0,0:0:0:0:
64,192,65911,1,0,0:0:0:0:
192,192,65911,1,0,0:0:0:0:
320,192,66005,1,0,0:0:0:0:
448,192,66005,1,0,0:0:0:0:
192,192,66098,1,0,0:0:0:0:
448,192,66192,1,0,0:0:0:0:
64,192,66192,1,0,0:0:0:0:
320,192,66286,1,0,0:0:0:0:
192,192,66380,1,0,0:0:0:0:
64,192,66380,1,0,0:0:0:0:
320,192,66473,1,0,0:0:0:0:
448,192,66473,1,0,0:0:0:0:
192,192,66567,1,0,0:0:0:0:
64,192,66567,1,0,0:0:0:0:
320,192,66661,1,0,0:0:0:0:
192,192,66661,1,0,0:0:0:0:
448,192,66755,1,0,0:0:0:0:
64,192,66755,1,0,0:0:0:0:
192,192,66848,1,0,0:0:0:0:
448,192,66942,1,0,0:0:0:0:
320,192,66942,1,0,0:0:0:0:
192,192,67036,1,0,0:0:0:0:
64,192,67036,1,0,0:0:0:0:
320,192,67130,1,0,0:0:0:0:
448,192,67130,1,0,0:0:0:0:
64,192,67223,1,0,0:0:0:0:
320,192,67317,1,0,0:0:0:0:
192,192,67317,1,0,0:0:0:0:
64,192,67411,1,0,0:0:0:0:
448,192,67411,1,0,0:0:0:0:
320,192,67505,1,0,0:0:0:0:
192,192,67505,1,0,0:0:0:0:
64,192,67598,1,0,0:0:0:0:
320,192,67692,1,0,0:0:0:0:
448,192,67692,1,0,0:0:0:0:
64,192,67786,1,0,0:0:0:0:
192,192,67880,1,0,0:0:0:0:
448,192,67880,1,0,0:0:0:0:
320,192,67973,1,0,0:0:0:0:
64,192,67973,1,0,0:0:0:0:
192,192,68067,1,0,0:0:0:0:
448,192,68067,1,0,0:0:0:0:
320,192,68161,1,0,0:0:0:0:
448,192,68161,1,0,0:0:0:0:
192,192,68255,1,0,0:0:0:0:
64,192,68255,1,0,0:0:0:0:
320,192,68348,1,0,0:0:0:0:
448,192,68442,1,0,0:0:0:0:
64,192,68442,1,0,0:0:0:0:
192,192,68536,1,0,0:0:0:0:
320,192,68536,1,0,0:0:0:0:
64,192,68630,1,0,0:0:0:0:
448,192,68630,1,0,0:0:0:0:
192,192,68723,1,0,0:0:0:0:
320,192,68817,1,0,0:0:0:0:
448,192,68817,1,0,0:0:0:0:
192,192,68911,1,0,0:0:0:0:
64,192,68911,1,0,0:0:0:0:
320,192,69005,1,0,0:0:0:0:
448,192,69005,1,0,0:0:0:0:
192,192,69098,1,0,0:0:0:0:
64,192,69192,1,0,0:0:0:0:
320,192,69192,1,0,0:0:0:0:
192,192,69286,1,0,0:0:0:0:
64,192,69380,1,0,0:0:0:0:
448,192,69380,1,0,0:0:0:0:
192,192,69473,1,0,0:0:0:0:
320,192,69473,1,0,0:0:0:0:
448,192,69567,1,0,0:0:0:0:
64,192,69567,1,0,0:0:0:0:
320,192,69661,1,0,0:0:0:0:
64,192,69661,1,0,0:0:0:0:
192,192,69755,1,0,0:0:0:0:
448,192,69755,1,0,0:0:0:0:
320,192,69848,1,0,0:0:0:0:
64,192,69942,1,0,0:0:0:0:
192,192,69942,1,0,0:0:0:0:
448,192,70036,1,0,0:0:0:0:
64,192,70130,1,0,0:0:0:0:
192,192,70130,1,0,0:0:0:0:
320,192,70130,1,0,0:0:0:0:
320,192,70223,1,0,0:0:0:0:
64,192,70317,1,0,0:0:0:0:
448,192,70317,1,0,0:0:0:0:
192,192,70411,1,0,0:0:0:0:
320,192,70411,1,0,0:0:0:0:
64,192,70505,1,0,0:0:0:0:
448,192,70505,1,0,0:0:0:0:
192,192,70598,1,0,0:0:0:0:
320,192,70692,1,0,0:0:0:0:
448,192,70692,1,0,0:0:0:0:
192,192,70786,1,0,0:0:0:0:
64,192,70880,1,0,0:0:0:0:
320,192,70880,1,0,0:0:0:0:
448,192,70973,1,0,0:0:0:0:
192,192,71067,1,0,0:0:0:0:
320,192,71067,1,0,0:0:0:0:
64,192,71161,1,0,0:0:0:0:
192,192,71255,1,0,0:0:0:0:
448,192,71255,1,0,0:0:0:0:
320,192,71348,1,0,0:0:0:0:
448,192,71442,1,0,0:0:0:0:
64,192,71442,1,0,0:0:0:0:
192,192,71536,1,0,0:0:0:0:
448,192,71630,1,0,0:0:0:0:
320,192,71630,1,0,0:0:0:0:
64,192,71630,1,0,0:0:0:0:
448,192,71723,1,0,0:0:0:0:
320,192,71817,1,0,0:0:0:0:
64,192,71817,1,0,0:0:0:0:
192,192,71911,1,0,0:0:0:0:
64,192,72005,1,0,0:0:0:0:
448,192,72005,1,0,0:0:0:0:
320,192,72098,1,0,0:0:0:0:
192,192,72192,1,0,0:0:0:0:
448,192,72192,1,0,0:0:0:0:
64,192,72286,1,0,0:0:0:0:
192,192,72380,1,0,0:0:0:0:
320,192,72380,1,0,0:0:0:0:
448,192,72473,1,0,0:0:0:0:
192,192,72567,1,0,0:0:0:0:
64,192,72567,1,0,0:0:0:0:
320,192,72567,1,0,0:0:0:0:
448,192,72661,1,0,0:0:0:0:
320,192,72661,1,0,0:0:0:0:
64,192,72755,1,0,0:0:0:0:
192,192,72755,1,0,0:0:0:0:
320,192,72848,1,0,0:0:0:0:
448,192,72942,1,0,0:0:0:0:
64,192,72942,1,0,0:0:0:0:
320,192,73036,1,0,0:0:0:0:
320,192,73130,1,0,0:0:0:0:
448,192,73130,1,0,0:0:0:0:
64,192,73130,1,0,0:0:0:0:
192,192,73130,1,0,0:0:0:0:
192,192,73223,1,0,0:0:0:0:
320,192,73317,1,0,0:0:0:0:
448,192,73411,1,0,0:0:0:0:
64,192,73505,1,0,0:0:0:0:
320,192,73598,1,0,0:0:0:0:
192,192,73692,1,0,0:0:0:0:
448,192,73692,1,0,0:0:0:0:
64,192,73786,1,0,0:0:0:0:
64,192,73880,1,0,0:0:0:0:
192,192,73880,1,0,0:0:0:0:
320,192,73880,1,0,0:0:0:0:
448,192,73880,1,0,0:0:0:0:
320,192,73973,1,0,0:0:0:0:
192,192,74067,1,0,0:0:0:0:
448,192,74067,1,0,0:0:0:0:
320,192,74161,1,0,0:0:0:0:
448,192,74161,1,0,0:0:0:0:
64,192,74255,1,0,0:0:0:0:
192,192,74348,1,0,0:0:0:0:
448,192,74442,1,0,0:0:0:0:
64,192,74442,1,0,0:0:0:0:
320,192,74536,1,0,0:0:0:0:
64,192,74630,1,0,0:0:0:0:
320,192,74630,1,0,0:0:0:0:
448,192,74630,1,0,0:0:0:0:
192,192,74630,1,0,0:0:0:0:
64,192,74723,1,0,0:0:0:0:
192,192,74817,1,0,0:0:0:0:
320,192,74911,1,0,0:0:0:0:
448,192,75005,1,0,0:0:0:0:
320,192,75098,1,0,0:0:0:0:
192,192,75192,1,0,0:0:0:0:
64,192,75192,1,0,0:0:0:0:
320,192,75286,1,0,0:0:0:0:
448,192,75380,1,0,0:0:0:0:
64,192,75380,1,0,0:0:0:0:
320,192,75380,1,0,0:0:0:0:
64,192,75567,1,0,0:0:0:0:
192,192,75567,1,0,0:0:0:0:
448,192,75567,1,0,0:0:0:0:
64,192,75755,1,0,0:0:0:0:
320,192,75755,1,0,0:0:0:0:
448,192,75755,1,0,0:0:0:0:
192,192,75942,1,0,0:0:0:0:
320,192,75942,1,0,0:0:0:0:
64,192,76142,1,0,0:0:0:0:
448,192,76335,1,0,0:0:0:0:
192,192,76529,1,0,0:0:0:0:
448,192,76729,1,0,0:0:0:0:
64,192,76929,1,0,0:0:0:0:
448,192,77143,1,0,0:0:0:0:
448,192,77250,1,0,0:0:0:0:
192,192,77357,1,0,0:0:0:0:
448,192,77587,1,0,0:0:0:0:
64,192,77818,1,0,0:0:0:0:
448,192,78068,1,0,0:0:0:0:
192,192,78318,1,0,0:0:0:0:
448,192,78568,1,0,0:0:0:0:
64,192,78818,1,0,0:0:0:0:
448,192,79078,1,0,0:0:0:0:
320,192,79078,1,0,0:0:0:0:
448,192,79209,1,0,0:0:0:0:
192,192,79339,1,0,0:0:0:0:
64,192,79339,1,0,0:0:0:0:
448,192,79600,1,0,0:0:0:0:
192,192,79600,1,0,0:0:0:0:
64,192,79861,1,0,0:0:0:0:
192,192,79861,1,0,0:0:0:0:
320,192,79893,1,0,0:0:0:0:
448,192,80121,1,0,0:0:0:0:
64,192,80382,1,0,0:0:0:0:
320,192,80382,1,0,0:0:0:0:
64,192,80643,1,0,0:0:0:0:
448,192,80643,1,0,0:0:0:0:
192,192,80904,1,0,0:0:0:0:
320,192,80904,1,0,0:0:0:0:
448,192,81158,1,0,0:0:0:0:
448,192,81285,1,0,0:0:0:0:
320,192,81412,1,0,0:0:0:0:
64,192,81412,1,0,0:0:0:0:
448,192,81666,1,0,0:0:0:0:
64,192,81666,1,0,0:0:0:0:
192,192,81920,1,0,0:0:0:0:
320,192,81920,1,0,0:0:0:0:
64,192,82174,1,0,0:0:0:0:
448,192,82174,1,0,0:0:0:0:
64,192,82428,1,0,0:0:0:0:
320,192,82428,1,0,0:0:0:0:
448,192,82682,1,0,0:0:0:0:
64,192,82937,1,0,0:0:0:0:
448,192,83177,1,0,0:0:0:0:
192,192,83177,1,0,0:0:0:0:
448,192,83297,1,0,0:0:0:0:
64,192,83417,1,0,0:0:0:0:
320,192,83417,1,0,0:0:0:0:
448,192,83657,1,0,0:0:0:0:
192,192,83657,1,0,0:0:0:0:
192,192,83897,1,0,0:0:0:0:
320,192,83897,1,0,0:0:0:0:
448,192,84137,1,0,0:0:0:0:
64,192,84377,1,0,0:0:0:0:
192,192,84377,1,0,0:0:0:0:
448,192,84617,1,0,0:0:0:0:
192,192,84617,1,0,0:0:0:0:
64,192,84857,1,0,0:0:0:0:
320,192,84857,1,0,0:0:0:0:
192,192,84885,1,0,0:0:0:0:
448,192,85087,1,0,0:0:0:0:
448,192,85203,1,0,0:0:0:0:
64,192,85318,1,0,0:0:0:0:
320,192,85318,1,0,0:0:0:0:
192,192,85347,1,0,0:0:0:0:
448,192,85549,1,0,0:0:0:0:
64,192,85780,1,0,0:0:0:0:
192,192,85780,1,0,0:0:0:0:
320,192,85780,1,0,0:0:0:0:
320,192,86010,1,0,0:0:0:0:
64,192,86241,1,0,0:0:0:0:
320,192,86472,1,0,0:0:0:0:
192,192,86703,1,0,0:0:0:0:
64,192,86703,1,0,0:0:0:0:
320,192,86928,1,0,0:0:0:0:
64,192,86928,1,0,0:0:0:0:
320,192,87041,1,0,0:0:0:0:
192,192,87154,1,0,0:0:0:0:
448,192,87154,1,0,0:0:0:0:
64,192,87379,1,0,0:0:0:0:
320,192,87379,1,0,0:0:0:0:
192,192,87605,1,0,0:0:0:0:
64,192,87605,1,0,0:0:0:0:
448,192,87830,1,0,0:0:0:0:
192,192,87830,1,0,0:0:0:0:
320,192,88056,1,0,0:0:0:0:
64,192,88056,1,0,0:0:0:0:
64,192,88281,1,0,0:0:0:0:
192,192,88281,1,0,0:0:0:0:
448,192,88507,1,0,0:0:0:0:
320,192,88507,1,0,0:0:0:0:
192,192,88724,1,0,0:0:0:0:
320,192,88724,1,0,0:0:0:0:
192,192,88833,1,0,0:0:0:0:
64,192,88941,1,0,0:0:0:0:
448,192,88941,1,0,0:0:0:0:
192,192,89159,1,0,0:0:0:0:
64,192,89159,1,0,0:0:0:0:
448,192,89376,1,0,0:0:0:0:
192,192,89376,1,0,0:0:0:0:
320,192,89593,1,0,0:0:0:0:
448,192,89811,1,0,0:0:0:0:
64,192,89811,1,0,0:0:0:0:
320,192,90028,1,0,0:0:0:0:
192,192,90246,1,0,0:0:0:0:
448,192,90246,1,0,0:0:0:0:
320,192,90457,1,0,0:0:0:0:
64,192,90457,1,0,0:0:0:0:
320,192,90562,1,0,0:0:0:0:
192,192,90668,1,0,0:0:0:0:
64,192,90668,1,0,0:0:0:0:
320,192,90879,1,0,0:0:0:0:
192,192,90879,1,0,0:0:0:0:
64,192,91091,1,0,0:0:0:0:
448,192,91091,1,0,0:0:0:0:
320,192,91302,1,0,0:0:0:0:
192,192,91513,1,0,0:0:0:0:
448,192,91513,1,0,0:0:0:0:
320,192,91724,1,0,0:0:0:0:
192,192,91830,1,0,0:0:0:0:
64,192,91936,1,0,0:0:0:0:
448,192,91936,1,0,0:0:0:0:
320,192,92138,1,0,0:0:0:0:
320,192,92240,1,0,0:0:0:0:
192,192,92341,1,0,0:0:0:0:
64,192,92341,1,0,0:0:0:0:
320,192,92544,1,0,0:0:0:0:
320,192,92746,1,0,0:0:0:0:
192,192,92746,1,0,0:0:0:0:
448,192,92949,1,0,0:0:0:0:
64,192,93152,1,0,0:0:0:0:
320,192,93354,1,0,0:0:0:0:
64,192,93557,1,0,0:0:0:0:
192,192,93557,1,0,0:0:0:0:
448,192,93557,1,0,0:0:0:0:
448,192,93754,1,0,0:0:0:0:
192,192,93927,1,0,0:0:0:0:
320,192,93951,1,0,0:0:0:0:
448,192,93976,1,0,0:0:0:0:
192,192,94149,1,0,0:0:0:0:
320,192,94346,1,0,0:0:0:0:
64,192,94346,1,0,0:0:0:0:
448,192,94371,1,0,0:0:0:0:
320,192,94543,1,0,0:0:0:0:
448,192,94741,1,0,0:0:0:0:
192,192,94741,1,0,0:0:0:0:
64,192,94741,1,0,0:0:0:0:
320,192,94938,1,0,0:0:0:0:
192,192,94938,1,0,0:0:0:0:
64,192,95135,1,0,0:0:0:0:
448,192,95135,1,0,0:0:0:0:
320,192,95135,1,0,0:0:0:0:
448,192,95328,1,0,0:0:0:0:
448,192,95425,1,0,0:0:0:0:
64,192,95522,1,0,0:0:0:0:
192,192,95522,1,0,0:0:0:0:
320,192,95522,1,0,0:0:0:0:
64,192,95715,1,0,0:0:0:0:
320,192,95715,1,0,0:0:0:0:
192,192,95909,1,0,0:0:0:0:
448,192,95909,1,0,0:0:0:0:
64,192,95909,1,0,0:0:0:0:
192,192,96102,1,0,0:0:0:0:
320,192,96102,1,0,0:0:0:0:
448,192,96296,1,0,0:0:0:0:
320,192,96296,1,0,0:0:0:0:
64,192,96296,1,0,0:0:0:0:
448,192,96489,1,0,0:0:0:0:
64,192,96683,1,0,0:0:0:0:
192,192,96683,1,0,0:0:0:0:
448,192,96874,1,0,0:0:0:0:
192,192,96874,1,0,0:0:0:0:
320,192,96874,1,0,0:0:0:0:
448,192,96969,1,0,0:0:0:0:
320,192,97065,1,0,0:0:0:0:
64,192,97065,1,0,0:0:0:0:
192,192,97065,1,0,0:0:0:0:
448,192,97256,1,0,0:0:0:0:
320,192,97256,1,0,0:0:0:0:
64,192,97256,1,0,0:0:0:0:
448,192,97447,1,0,0:0:0:0:
320,192,97447,1,0,0:0:0:0:
192,192,97447,1,0,0:0:0:0:
64,192,97447,1,0,0:0:0:0:
192,192,97638,1,0,0:0:0:0:
64,192,97829,1,0,0:0:0:0:
320,192,97829,1,0,0:0:0:0:
448,192,97829,1,0,0:0:0:0:
192,192,98020,1,0,0:0:0:0:
192,192,98211,1,0,0:0:0:0:
320,192,98235,1,0,0:0:0:0:
448,192,98259,1,0,0:0:0:0:
320,192,98402,1,0,0:0:0:0:
320,192,98498,1,0,0:0:0:0:
64,192,98593,1,0,0:0:0:0:
192,192,98617,1,0,0:0:0:0:
320,192,98641,1,0,0:0:0:0:
192,192,98784,1,0,0:0:0:0:
64,192,98975,1,0,0:0:0:0:
320,192,98975,1,0,0:0:0:0:
448,192,98975,1,0,0:0:0:0:
192,192,98975,1,0,0:0:0:0:
320,192,99167,1,0,0:0:0:0:
64,192,99358,1,0,0:0:0:0:
448,192,99358,1,0,0:0:0:0:
320,192,99358,1,0,0:0:0:0:
192,192,99549,1,0,0:0:0:0:
448,192,99644,1,0,0:0:0:0:
320,192,99740,1,0,0:0:0:0:
192,192,99740,1,0,0:0:0:0:
64,192,99740,1,0,0:0:0:0:
320,192,99928,1,0,0:0:0:0:
64,192,99928,1,0,0:0:0:0:
320,192,100023,1,0,0:0:0:0:
448,192,100117,1,0,0:0:0:0:
64,192,100117,1,0,0:0:0:0:
192,192,100117,1,0,0:0:0:0:
192,192,100306,1,0,0:0:0:0:
320,192,100306,1,0,0:0:0:0:
64,192,100494,1,0,0:0:0:0:
192,192,100494,1,0,0:0:0:0:
320,192,100494,1,0,0:0:0:0:
448,192,100494,1,0,0:0:0:0:
64,192,100683,1,0,0:0:0:0:
64,192,100872,1,0,0:0:0:0:
192,192,100872,1,0,0:0:0:0:
320,192,100872,1,0,0:0:0:0:
448,192,100872,1,0,0:0:0:0:
192,192,101060,1,0,0:0:0:0:
64,192,101249,1,0,0:0:0:0:
192,192,101249,1,0,0:0:0:0:
448,192,101249,1,0,0:0:0:0:
320,192,101249,1,0,0:0:0:0:
320,192,101434,1,0,0:0:0:0:
320,192,101526,1,0,0:0:0:0:
64,192,101619,1,0,0:0:0:0:
192,192,101619,1,0,0:0:0:0:
448,192,101619,1,0,0:0:0:0:
448,192,101804,1,0,0:0:0:0:
64,192,101989,1,0,0:0:0:0:
192,192,101989,1,0,0:0:0:0:
448,192,101989,1,0,0:0:0:0:
320,192,101989,1,0,0:0:0:0:
192,192,102174,1,0,0:0:0:0:
64,192,102360,1,0,0:0:0:0:
192,192,102360,1,0,0:0:0:0:
320,192,102360,1,0,0:0:0:0:
448,192,102360,1,0,0:0:0:0:
320,192,102545,1,0,0:0:0:0:
448,192,102730,1,0,0:0:0:0:
192,192,102730,1,0,0:0:0:0:
64,192,102730,1,0,0:0:0:0:
192,192,102911,1,0,0:0:0:0:
448,192,102911,1,0,0:0:0:0:
448,192,103002,1,0,0:0:0:0:
320,192,103093,1,0,0:0:0:0:
192,192,103093,1,0,0:0:0:0:
64,192,103093,1,0,0:0:0:0:
448,192,103275,1,0,0:0:0:0:
64,192,103275,1,0,0:0:0:0:
192,192,103457,1,0,0:0:0:0:
320,192,103457,1,0,0:0:0:0:
448,192,103457,1,0,0:0:0:0:
64,192,103457,1,0,0:0:0:0:
320,192,103639,1,0,0:0:0:0:
64,192,103820,1,0,0:0:0:0:
192,192,103820,1,0,0:0:0:0:
320,192,103820,1,0,0:0:0:0:
192,192,104002,1,0,0:0:0:0:
448,192,104093,1,0,0:0:0:0:
320,192,104184,1,0,0:0:0:0:
192,192,104184,1,0,0:0:0:0:
64,192,104184,1,0,0:0:0:0:
320,192,104362,1,0,0:0:0:0:
448,192,104362,1,0,0:0:0:0:
320,192,104451,1,0,0:0:0:0:
64,192,104541,1,0,0:0:0:0:
192,192,104541,1,0,0:0:0:0:
448,192,104541,1,0,0:0:0:0:
192,192,104719,1,0,0:0:0:0:
64,192,104898,1,0,0:0:0:0:
320,192,104898,1,0,0:0:0:0:
320,192,105076,1,0,0:0:0:0:
448,192,105076,1,0,0:0:0:0:
192,192,105166,1,0,0:0:0:0:
64,192,105255,1,0,0:0:0:0:
320,192,105255,1,0,0:0:0:0:
448,192,105255,1,0,0:0:0:0:
192,192,105434,1,0,0:0:0:0:
64,192,105434,1,0,0:0:0:0:
320,192,105523,1,0,0:0:0:0:
448,192,105612,1,0,0:0:0:0:
64,192,105612,1,0,0:0:0:0:
192,192,105612,1,0,0:0:0:0:
192,192,105791,1,0,0:0:0:0:
320,192,105791,1,0,0:0:0:0:
448,192,105791,1,0,0:0:0:0:
192,192,105969,1,0,0:0:0:0:
320,192,105969,1,0,0:0:0:0:
448,192,105969,1,0,0:0:0:0:
64,192,105969,1,0,0:0:0:0:
320,192,106148,1,0,0:0:0:0:
448,192,106148,1,0,0:0:0:0:
192,192,106207,1,0,0:0:0:0:
448,192,106267,1,0,0:0:0:0:
320,192,106326,1,0,0:0:0:0:
192,192,106326,1,0,0:0:0:0:
64,192,106326,1,0,0:0:0:0:
64,192,106492,1,0,0:0:0:0:
448,192,106492,1,0,0:0:0:0:
192,192,106659,1,0,0:0:0:0:
448,192,106659,1,0,0:0:0:0:
320,192,106659,1,0,0:0:0:0:
320,192,106826,1,0,0:0:0:0:
64,192,106826,1,0,0:0:0:0:
64,192,106992,1,0,0:0:0:0:
448,192,106992,1,0,0:0:0:0:
320,192,106992,1,0,0:0:0:0:
192,192,107159,1,0,0:0:0:0:
448,192,107159,1,0,0:0:0:0:
448,192,107242,1,0,0:0:0:0:
64,192,107326,1,0,0:0:0:0:
192,192,107326,1,0,0:0:0:0:
320,192,107326,1,0,0:0:0:0:
320,192,107492,1,0,0:0:0:0:
64,192,107492,1,0,0:0:0:0:
192,192,107659,1,0,0:0:0:0:
448,192,107659,1,0,0:0:0:0:
64,192,107659,1,0,0:0:0:0:
192,192,107826,1,0,0:0:0:0:
320,192,107826,1,0,0:0:0:0:
64,192,107992,1,0,0:0:0:0:
192,192,107992,1,0,0:0:0:0:
448,192,107992,1,0,0:0:0:0:
320,192,108159,1,0,0:0:0:0:
448,192,108159,1,0,0:0:0:0:
320,192,108326,1,0,0:0:0:0:
192,192,108326,1,0,0:0:0:0:
64,192,108326,1,0,0:0:0:0:
448,192,108492,1,0,0:0:0:0:
448,192,108576,1,0,0:0:0:0:
192,192,108576,1,0,0:0:0:0:
320,192,108659,1,0,0:0:0:0:
64,192,108659,1,0,0:0:0:0:
192,192,108826,1,0,0:0:0:0:
320,192,108826,1,0,0:0:0:0:
64,192,108992,1,0,0:0:0:0:
448,192,108992,1,0,0:0:0:0:
320,192,108992,1,0,0:0:0:0:
64,192,109154,1,0,0:0:0:0:
192,192,109154,1,0,0:0:0:0:
192,192,109316,1,0,0:0:0:0:
320,192,109316,1,0,0:0:0:0:
448,192,109316,1,0,0:0:0:0:
192,192,109478,1,0,0:0:0:0:
320,192,109478,1,0,0:0:0:0:
64,192,109640,1,0,0:0:0:0:
320,192,109640,1,0,0:0:0:0:
448,192,109640,1,0,0:0:0:0:
448,192,109802,1,0,0:0:0:0:
64,192,109802,1,0,0:0:0:0:
448,192,109883,1,0,0:0:0:0:
64,192,109964,1,0,0:0:0:0:
192,192,109964,1,0,0:0:0:0:
320,192,109964,1,0,0:0:0:0:
192,192,110127,1,0,0:0:0:0:
320,192,110127,1,0,0:0:0:0:
192,192,110289,1,0,0:0:0:0:
64,192,110289,1,0,0:0:0:0:
448,192,110289,1,0,0:0:0:0:
320,192,110451,1,0,0:0:0:0:
64,192,110451,1,0,0:0:0:0:
192,192,110613,1,0,0:0:0:0:
320,192,110613,1,0,0:0:0:0:
448,192,110613,1,0,0:0:0:0:
192,192,110775,1,0,0:0:0:0:
448,192,110775,1,0,0:0:0:0:
320,192,110937,1,0,0:0:0:0:
64,192,110937,1,0,0:0:0:0:
448,192,110937,1,0,0:0:0:0:
320,192,111100,1,0,0:0:0:0:
320,192,111181,1,0,0:0:0:0:
448,192,111181,1,0,0:0:0:0:
192,192,111262,1,0,0:0:0:0:
64,192,111262,1,0,0:0:0:0:
320,192,111424,1,0,0:0:0:0:
64,192,111424,1,0,0:0:0:0:
192,192,111586,1,0,0:0:0:0:
320,192,111586,1,0,0:0:0:0:
448,192,111586,1,0,0:0:0:0:
64,192,111746,1,0,0:0:0:0:
192,192,111746,1,0,0:0:0:0:
320,192,111826,1,0,0:0:0:0:
64,192,111906,1,0,0:0:0:0:
448,192,111906,1,0,0:0:0:0:
192,192,111906,1,0,0:0:0:0:
64,192,112067,1,0,0:0:0:0:
320,192,112067,1,0,0:0:0:0:
320,192,112227,1,0,0:0:0:0:
192,192,112227,1,0,0:0:0:0:
64,192,112307,1,0,0:0:0:0:
448,192,112388,1,0,0:0:0:0:
192,192,112388,1,0,0:0:0:0:
448,192,112468,1,0,0:0:0:0:
192,192,112548,1,0,0:0:0:0:
320,192,112548,1,0,0:0:0:0:
64,192,112548,1,0,0:0:0:0:
64,192,112708,1,0,0:0:0:0:
320,192,112708,1,0,0:0:0:0:
192,192,112869,1,0,0:0:0:0:
320,192,112869,1,0,0:0:0:0:
448,192,112869,1,0,0:0:0:0:
64,192,113029,1,0,0:0:0:0:
448,192,113029,1,0,0:0:0:0:
320,192,113110,1,0,0:0:0:0:
448,192,113190,1,0,0:0:0:0:
64,192,113190,1,0,0:0:0:0:
192,192,113190,1,0,0:0:0:0:
64,192,113350,1,0,0:0:0:0:
192,192,113350,1,0,0:0:0:0:
320,192,113430,1,0,0:0:0:0:
448,192,113511,1,0,0:0:0:0:
64,192,113511,1,0,0:0:0:0:
192,192,113511,1,0,0:0:0:0:
320,192,113671,1,0,0:0:0:0:
320,192,113751,1,0,0:0:0:0:
64,192,113751,1,0,0:0:0:0:
192,192,113831,1,0,0:0:0:0:
448,192,113831,1,0,0:0:0:0:
64,192,113992,1,0,0:0:0:0:
192,192,113992,1,0,0:0:0:0:
320,192,113992,1,0,0:0:0:0:
64,192,114152,1,0,0:0:0:0:
320,192,114152,1,0,0:0:0:0:
448,192,114152,1,0,0:0:0:0:
192,192,114152,1,0,0:0:0:0:
320,192,114308,1,0,0:0:0:0:
64,192,114386,1,0,0:0:0:0:
192,192,114464,1,0,0:0:0:0:
448,192,114464,1,0,0:0:0:0:
64,192,114620,1,0,0:0:0:0:
320,192,114620,1,0,0:0:0:0:
192,192,114698,1,0,0:0:0:0:
320,192,114777,1,0,0:0:0:0:
64,192,114777,1,0,0:0:0:0:
448,192,114855,1,0,0:0:0:0:
192,192,114933,1,0,0:0:0:0:
320,192,114933,1,0,0:0:0:0:
320,192,115011,1,0,0:0:0:0:
64,192,115089,1,0,0:0:0:0:
192,192,115089,1,0,0:0:0:0:
448,192,115089,1,0,0:0:0:0:
192,192,115245,1,0,0:0:0:0:
320,192,115245,1,0,0:0:0:0:
64,192,115402,1,0,0:0:0:0:
320,192,115402,1,0,0:0:0:0:
448,192,115402,1,0,0:0:0:0:
192,192,115558,1,0,0:0:0:0:
448,192,115558,1,0,0:0:0:0:
320,192,115636,1,0,0:0:0:0:
192,192,115714,1,0,0:0:0:0:
64,192,115714,1,0,0:0:0:0:
320,192,115792,1,0,0:0:0:0:
448,192,115870,1,0,0:0:0:0:
64,192,115870,1,0,0:0:0:0:
192,192,115948,1,0,0:0:0:0:
320,192,115948,1,0,0:0:0:0:
64,192,116027,1,0,0:0:0:0:
448,192,116027,1,0,0:0:0:0:
192,192,116105,1,0,0:0:0:0:
320,192,116183,1,0,0:0:0:0:
448,192,116183,1,0,0:0:0:0:
64,192,116261,1,0,0:0:0:0:
192,192,116339,1,0,0:0:0:0:
320,192,116339,1,0,0:0:0:0:
448,192,116359,1,0,0:0:0:0:
64,192,116417,1,0,0:0:0:0:
192,192,116437,1,0,0:0:0:0:
320,192,116495,1,0,0:0:0:0:
64,192,116515,1,0,0:0:0:0:
192,192,116573,1,0,0:0:0:0:
448,192,116593,1,0,0:0:0:0:
320,192,116652,1,0,0:0:0:0:
64,192,116652,1,0,0:0:0:0:
192,192,116805,1,0,0:0:0:0:
320,192,116805,1,0,0:0:0:0:
192,192,116959,1,0,0:0:0:0:
64,192,116959,1,0,0:0:0:0:
448,192,116959,1,0,0:0:0:0:
64,192,117113,1,0,0:0:0:0:
320,192,117113,1,0,0:0:0:0:
192,192,117267,1,0,0:0:0:0:
320,192,117267,1,0,0:0:0:0:
448,192,117267,1,0,0:0:0:0:
64,192,117267,1,0,0:0:0:0:
192,192,117421,1,0,0:0:0:0:
448,192,117421,1,0,0:0:0:0:
320,192,117575,1,0,0:0:0:0:
192,192,117575,1,0,0:0:0:0:
64,192,117575,1,0,0:0:0:0:
64,192,117728,1,0,0:0:0:0:
320,192,117728,1,0,0:0:0:0:
64,192,117882,1,0,0:0:0:0:
192,192,117882,1,0,0:0:0:0:
320,192,117882,1,0,0:0:0:0:
448,192,117882,1,0,0:0:0:0:
320,192,118036,1,0,0:0:0:0:
448,192,118036,1,0,0:0:0:0:
64,192,118190,1,0,0:0:0:0:
448,192,118190,1,0,0:0:0:0:
192,192,118190,1,0,0:0:0:0:
64,192,118344,1,0,0:0:0:0:
320,192,118344,1,0,0:0:0:0:
192,192,118498,1,0,0:0:0:0:
320,192,118498,1,0,0:0:0:0:
448,192,118498,1,0,0:0:0:0:
64,192,118498,1,0,0:0:0:0:
448,192,118652,1,0,0:0:0:0:
192,192,118652,1,0,0:0:0:0:
192,192,118728,1,0,0:0:0:0:
320,192,118805,1,0,0:0:0:0:
64,192,118805,1,0,0:0:0:0:
448,192,118805,1,0,0:0:0:0:
64,192,118959,1,0,0:0:0:0:
192,192,118959,1,0,0:0:0:0:
64,192,119113,1,0,0:0:0:0:
192,192,119113,1,0,0:0:0:0:
320,192,119113,1,0,0:0:0:0:
448,192,119113,1,0,0:0:0:0:
192,192,119263,1,0,0:0:0:0:
320,192,119263,1,0,0:0:0:0:
448,192,119413,1,0,0:0:0:0:
192,192,119413,1,0,0:0:0:0:
64,192,119413,1,0,0:0:0:0:
448,192,119563,1,0,0:0:0:0:
320,192,119563,1,0,0:0:0:0:
64,192,119713,1,0,0:0:0:0:
192,192,119713,1,0,0:0:0:0:
448,192,119713,1,0,0:0:0:0:
320,192,119713,1,0,0:0:0:0:
64,192,119863,1,0,0:0:0:0:
320,192,119863,1,0,0:0:0:0:
192,192,120013,1,0,0:0:0:0:
448,192,120013,1,0,0:0:0:0:
320,192,120013,1,0,0:0:0:0:
64,192,120163,1,0,0:0:0:0:
192,192,120163,1,0,0:0:0:0:
64,192,120313,1,0,0:0:0:0:
192,192,120313,1,0,0:0:0:0:
320,192,120313,1,0,0:0:0:0:
448,192,120313,1,0,0:0:0:0:
64,192,120463,1,0,0:0:0:0:
320,192,120463,1,0,0:0:0:0:
192,192,120613,1,0,0:0:0:0:
320,192,120613,1,0,0:0:0:0:
448,192,120613,1,0,0:0:0:0:
192,192,120763,1,0,0:0:0:0:
448,192,120763,1,0,0:0:0:0:
192,192,120913,1,0,0:0:0:0:
320,192,120913,1,0,0:0:0:0:
448,192,120913,1,0,0:0:0:0:
64,192,120913,1,0,0:0:0:0:
320,192,121063,1,0,0:0:0:0:
320,192,121138,1,0,0:0:0:0:
64,192,121138,1,0,0:0:0:0:
192,192,121213,1,0,0:0:0:0:
448,192,121213,1,0,0:0:0:0:
64,192,121363,1,0,0:0:0:0:
192,192,121363,1,0,0:0:0:0:
320,192,121438,1,0,0:0:0:0:
448,192,121513,1,0,0:0:0:0:
64,192,121513,1,0,0:0:0:0:
192,192,121513,1,0,0:0:0:0:
320,192,121586,1,0,0:0:0:0:
64,192,121659,1,0,0:0:0:0:
320,192,121732,1,0,0:0:0:0:
192,192,121732,1,0,0:0:0:0:
448,192,121805,1,0,0:0:0:0:
64,192,121805,1,0,0:0:0:0:
192,192,121878,1,0,0:0:0:0:
448,192,121952,1,0,0:0:0:0:
320,192,121952,1,0,0:0:0:0:
192,192,122025,1,0,0:0:0:0:
64,192,122025,1,0,0:0:0:0:
320,192,122098,1,0,0:0:0:0:
448,192,122098,1,0,0:0:0:0:
64,192,122171,1,0,0:0:0:0:
320,192,122244,1,0,0:0:0:0:
192,192,122317,1,0,0:0:0:0:
64,192,122391,1,0,0:0:0:0:
448,192,122391,1,0,0:0:0:0:
320,192,122464,1,0,0:0:0:0:
64,192,122537,1,0,0:0:0:0:
192,192,122537,1,0,0:0:0:0:
448,192,122610,1,0,0:0:0:0:
320,192,122610,1,0,0:0:0:0:
192,192,122683,1,0,0:0:0:0:
64,192,122683,1,0,0:0:0:0:
448,192,122756,1,0,0:0:0:0:
320,192,122830,1,0,0:0:0:0:
448,192,122903,1,0,0:0:0:0:
192,192,122903,1,0,0:0:0:0:
320,192,122976,1,0,0:0:0:0:
64,192,122976,1,0,0:0:0:0:
192,192,123049,1,0,0:0:0:0:
320,192,123122,1,0,0:0:0:0:
448,192,123122,1,0,0:0:0:0:
64,192,123195,1,0,0:0:0:0:
192,192,123269,1,0,0:0:0:0:
448,192,123269,1,0,0:0:0:0:
320,192,123342,1,0,0:0:0:0:
192,192,123415,1,0,0:0:0:0:
64,192,123415,1,0,0:0:0:0:
320,192,123488,1,0,0:0:0:0:
448,192,123561,1,0,0:0:0:0:
64,192,123561,1,0,0:0:0:0:
192,192,123634,1,0,0:0:0:0:
320,192,123708,1,0,0:0:0:0:
448,192,123708,1,0,0:0:0:0:
192,192,123781,1,0,0:0:0:0:
64,192,123781,1,0,0:0:0:0:
320,192,123854,1,0,0:0:0:0:
448,192,123854,1,0,0:0:0:0:
192,192,124000,1,0,0:0:0:0:
448,192,124073,1,0,0:0:0:0:
320,192,124073,1,0,0:0:0:0:
192,192,124147,1,0,0:0:0:0:
64,192,124147,1,0,0:0:0:0:
320,192,124293,1,0,0:0:0:0:
64,192,124293,1,0,0:0:0:0:
64,192,124439,1,0,0:0:0:0:
320,192,124439,1,0,0:0:0:0:
448,192,124439,1,0,0:0:0:0:
64,192,124586,1,0,0:0:0:0:
320,192,124586,1,0,0:0:0:0:
64,192,124732,1,0,0:0:0:0:
320,192,124732,1,0,0:0:0:0:
192,192,124732,1,0,0:0:0:0:
192,192,124878,1,0,0:0:0:0:
320,192,124878,1,0,0:0:0:0:
64,192,125025,1,0,0:0:0:0:
448,192,125025,1,0,0:0:0:0:
320,192,125025,1,0,0:0:0:0:
192,192,125169,1,0,0:0:0:0:
448,192,125242,1,0,0:0:0:0:
64,192,125242,1,0,0:0:0:0:
192,192,125314,1,0,0:0:0:0:
320,192,125314,1,0,0:0:0:0:
192,192,125459,1,0,0:0:0:0:
448,192,125459,1,0,0:0:0:0:
192,192,125604,1,0,0:0:0:0:
448,192,125604,1,0,0:0:0:0:
64,192,125604,1,0,0:0:0:0:
192,192,125749,1,0,0:0:0:0:
448,192,125749,1,0,0:0:0:0:
192,192,125894,1,0,0:0:0:0:
448,192,125894,1,0,0:0:0:0:
320,192,125894,1,0,0:0:0:0:
64,192,125967,1,0,0:0:0:0:
192,192,126039,1,0,0:0:0:0:
448,192,126039,1,0,0:0:0:0:
320,192,126111,1,0,0:0:0:0:
448,192,126184,1,0,0:0:0:0:
64,192,126184,1,0,0:0:0:0:
192,192,126256,1,0,0:0:0:0:
320,192,126329,1,0,0:0:0:0:
64,192,126329,1,0,0:0:0:0:
192,192,126401,1,0,0:0:0:0:
320,192,126474,1,0,0:0:0:0:
448,192,126474,1,0,0:0:0:0:
64,192,126546,1,0,0:0:0:0:
192,192,126619,1,0,0:0:0:0:
448,192,126619,1,0,0:0:0:0:
320,192,126691,1,0,0:0:0:0:
448,192,126764,1,0,0:0:0:0:
64,192,126764,1,0,0:0:0:0:
192,192,126836,1,0,0:0:0:0:
320,192,126909,1,0,0:0:0:0:
64,192,126909,1,0,0:0:0:0:
192,192,126981,1,0,0:0:0:0:
320,192,127053,5,0,0:0:0:0:
448,192,127053,1,0,0:0:0:0:
192,192,127126,1,0,0:0:0:0:
64,192,127198,1,0,0:0:0:0:
448,192,127198,1,0,0:0:0:0:
320,192,127271,1,0,0:0:0:0:
192,192,127343,1,0,0:0:0:0:
64,192,127343,1,0,0:0:0:0:
448,192,127343,1,0,0:0:0:0:
192,192,127488,1,0,0:0:0:0:
320,192,127488,1,0,0:0:0:0:
64,192,127633,1,0,0:0:0:0:
448,192,127633,1,0,0:0:0:0:
320,192,127633,1,0,0:0:0:0:
320,192,127778,1,0,0:0:0:0:
192,192,127778,1,0,0:0:0:0:
64,192,127923,1,0,0:0:0:0:
448,192,127923,1,0,0:0:0:0:
192,192,127923,1,0,0:0:0:0:
64,192,128213,5,0,0:0:0:0:
192,192,128213,1,0,0:0:0:0:
448,192,128213,1,0,0:0:0:0:
320,192,128213,1,0,0:0:0:0:
