osu file format v14

[General]
AudioFilename: audio.mp3
AudioLeadIn: 0
PreviewTime: 62804
Countdown: 0
SampleSet: Normal
StackLeniency: 0.7
Mode: 1
LetterboxInBreaks: 0
WidescreenStoryboard: 1

[Editor]
DistanceSpacing: 1.2
BeatDivisor: 4
GridSize: 32
TimelineZoom: 2.2

[Metadata]
Title:Lettin' Go (MakSim Tribute Original Mix) (Nightcore & Cut Ver.)
TitleUnicode:Lettin' Go (MakSim Tribute Original Mix) (Nightcore & Cut Ver.)
Artist:Killaheadz
ArtistUnicode:Killaheadz
Creator:duski
Version:Didn't ask, plus you're a Futsuu player
Source:
Tags:electronic instrumental russian hardstyle maksim otpuskayu МакSим Отпускаю zyzz didnt youre depression 027'906 andrey gribanov Андрей Грибанов dmitriy duplyakin Дмитрий Дуплякин Марина Сергеевна Максимова Marina Sergeyevna Maksimova
BeatmapID:3128168
BeatmapSetID:1529234

[Difficulty]
HPDrainRate:7
CircleSize:6
OverallDifficulty:4
ApproachRate:6
SliderMultiplier:1.4
SliderTickRate:1

[Events]
//Background and Video events
0,0,"based.jpg",0,0
//Break Periods
//Storyboard Layer 0 (Background)
//Storyboard Layer 1 (Fail)
//Storyboard Layer 2 (Pass)
//Storyboard Layer 3 (Foreground)
//Storyboard Layer 4 (Overlay)
//Storyboard Sound Samples

[TimingPoints]
4375,365.185636031649,4,1,0,30,1,0
4375,-100,4,1,0,80,0,0
27655,-100,4,1,0,90,0,0
49566,-100,4,1,0,80,0,0
51027,-100,4,1,0,90,0,0
56870,-100,4,1,0,100,0,0
61343,-100,4,1,0,80,0,0
62165,-100,4,1,0,100,0,0
62804,-100,4,1,0,100,0,1
73029,-100,4,1,0,100,0,0
74490,-100,4,1,0,100,0,1
84715,-100,4,1,0,100,0,0
86267,-100,4,1,0,80,0,0
97771,-100,4,1,0,100,0,0
108087,-100,4,1,0,80,0,0
109457,-100,4,1,0,100,0,0
112469,365.185636031649,4,1,0,100,1,1
120868,-100,4,1,0,100,0,0
121598,-100,4,1,0,100,0,1
129997,-100,4,1,0,100,0,0

[HitObjects]
256,192,84,12,0,4009,0:0:0:0:
256,192,4375,5,12,0:0:0:0:
256,192,4740,1,0,0:0:0:0:
256,192,4922,1,8,0:0:0:0:
256,192,5287,1,0,0:0:0:0:
256,192,5470,1,8,0:0:0:0:
256,192,5835,1,8,0:0:0:0:
256,192,6383,1,0,0:0:0:0:
256,192,7296,1,8,0:0:0:0:
256,192,7661,1,8,0:0:0:0:
256,192,7844,1,8,0:0:0:0:
256,192,8209,1,0,0:0:0:0:
256,192,8757,1,8,0:0:0:0:
256,192,9122,1,0,0:0:0:0:
256,192,9305,1,8,0:0:0:0:
256,192,9670,1,0,0:0:0:0:
256,192,9852,1,8,0:0:0:0:
256,192,10217,1,8,0:0:0:0:
256,192,10583,1,8,0:0:0:0:
256,192,10765,1,0,0:0:0:0:
256,192,11130,1,0,0:0:0:0:
256,192,11313,1,8,0:0:0:0:
256,192,11678,1,8,0:0:0:0:
256,192,12226,1,0,0:0:0:0:
256,192,13139,1,8,0:0:0:0:
256,192,13504,1,0,0:0:0:0:
256,192,13687,1,8,0:0:0:0:
256,192,14052,1,0,0:0:0:0:
256,192,14235,1,8,0:0:0:0:
256,192,14600,1,8,0:0:0:0:
256,192,14965,1,0,0:0:0:0:
256,192,15147,1,8,0:0:0:0:
256,192,15513,1,0,0:0:0:0:
256,192,15695,1,8,0:0:0:0:
256,192,16060,1,0,0:0:0:0:
256,192,16426,1,8,0:0:0:0:
256,192,16608,1,0,0:0:0:0:
256,192,16973,1,0,0:0:0:0:
256,192,17156,1,8,0:0:0:0:
256,192,17521,1,8,0:0:0:0:
256,192,18069,1,8,0:0:0:0:
256,192,18982,1,8,0:0:0:0:
256,192,19347,1,0,0:0:0:0:
256,192,19530,1,8,0:0:0:0:
256,192,19895,1,0,0:0:0:0:
256,192,20443,1,8,0:0:0:0:
256,192,20808,1,0,0:0:0:0:
256,192,20990,1,8,0:0:0:0:
256,192,21356,1,0,0:0:0:0:
256,192,21538,1,8,0:0:0:0:
256,192,21903,1,8,0:0:0:0:
256,192,22269,1,8,0:0:0:0:
256,192,22451,1,0,0:0:0:0:
256,192,22816,1,0,0:0:0:0:
256,192,22999,1,8,0:0:0:0:
256,192,23364,1,8,0:0:0:0:
256,192,23912,1,8,0:0:0:0:
256,192,24825,1,8,0:0:0:0:
256,192,25190,1,0,0:0:0:0:
256,192,25373,1,8,0:0:0:0:
256,192,25920,1,0,0:0:0:0:
256,192,26103,1,8,0:0:0:0:
256,192,27746,1,8,0:0:0:0:
256,192,28112,1,0,0:0:0:0:
256,192,28294,1,0,0:0:0:0:
256,192,28659,1,0,0:0:0:0:
256,192,28842,1,0,0:0:0:0:
256,192,29207,1,8,0:0:0:0:
256,192,29755,1,0,0:0:0:0:
256,192,30668,1,0,0:0:0:0:
256,192,31033,1,8,0:0:0:0:
256,192,31216,1,0,0:0:0:0:
256,192,31581,1,0,0:0:0:0:
256,192,31946,1,0,0:0:0:0:
256,192,32129,1,0,0:0:0:0:
256,192,32494,1,8,0:0:0:0:
256,192,32676,1,0,0:0:0:0:
256,192,33042,1,0,0:0:0:0:
256,192,33224,1,0,0:0:0:0:
256,192,33589,1,8,0:0:0:0:
256,192,33955,1,0,0:0:0:0:
256,192,34137,1,0,0:0:0:0:
256,192,34502,1,0,0:0:0:0:
256,192,34685,1,0,0:0:0:0:
256,192,35050,1,8,0:0:0:0:
256,192,35598,1,0,0:0:0:0:
256,192,36511,1,0,0:0:0:0:
256,192,36876,1,8,0:0:0:0:
256,192,37059,1,0,0:0:0:0:
256,192,37424,1,0,0:0:0:0:
256,192,37606,1,0,0:0:0:0:
256,192,37972,1,0,0:0:0:0:
256,192,38337,1,8,0:0:0:0:
256,192,38519,1,0,0:0:0:0:
256,192,38885,1,0,0:0:0:0:
256,192,39067,1,0,0:0:0:0:
256,192,39432,1,12,0:0:0:0:
256,192,39798,1,0,0:0:0:0:
256,192,40163,1,0,0:0:0:0:
256,192,40528,1,0,0:0:0:0:
256,192,40893,1,8,0:0:0:0:
256,192,41441,1,8,0:0:0:0:
256,192,42354,1,0,0:0:0:0:
256,192,42719,1,8,0:0:0:0:
256,192,42902,1,0,0:0:0:0:
256,192,43267,1,0,0:0:0:0:
256,192,43632,1,0,0:0:0:0:
256,192,43815,1,0,0:0:0:0:
256,192,44180,1,8,0:0:0:0:
256,192,44362,1,0,0:0:0:0:
256,192,44728,1,0,0:0:0:0:
256,192,44910,1,0,0:0:0:0:
256,192,45275,1,8,0:0:0:0:
256,192,45640,1,0,0:0:0:0:
256,192,45823,1,0,0:0:0:0:
256,192,46188,1,0,0:0:0:0:
256,192,46371,1,0,0:0:0:0:
256,192,46736,1,8,0:0:0:0:
256,192,47284,1,8,0:0:0:0:
256,192,48197,1,0,0:0:0:0:
256,192,48562,1,8,0:0:0:0:
256,192,48745,1,0,0:0:0:0:
256,192,49292,1,4,0:0:0:0:
256,192,51118,1,0,0:0:0:0:
256,192,51483,1,0,0:0:0:0:
256,192,51849,1,0,0:0:0:0:
256,192,52214,1,0,0:0:0:0:
256,192,52579,1,0,0:0:0:0:
256,192,52944,1,0,0:0:0:0:
256,192,53309,1,0,0:0:0:0:
256,192,53675,1,0,0:0:0:0:
256,192,54040,1,0,0:0:0:0:
256,192,54405,1,0,0:0:0:0:
256,192,54770,1,0,0:0:0:0:
256,192,55135,1,0,0:0:0:0:
256,192,55500,1,0,0:0:0:0:
256,192,55866,1,0,0:0:0:0:
256,192,56231,1,0,0:0:0:0:
256,192,56961,1,8,0:0:0:0:
256,192,57326,1,0,0:0:0:0:
256,192,57509,1,0,0:0:0:0:
256,192,57692,1,8,0:0:0:0:
256,192,58057,1,0,0:0:0:0:
256,192,58422,1,8,0:0:0:0:
256,192,58787,1,0,0:0:0:0:
256,192,58970,1,0,0:0:0:0:
256,192,59152,1,8,0:0:0:0:
256,192,59518,1,0,0:0:0:0:
256,192,59883,1,8,0:0:0:0:
256,192,60065,1,0,0:0:0:0:
256,192,60248,1,0,0:0:0:0:
256,192,60430,1,0,0:0:0:0:
256,192,60613,1,8,0:0:0:0:
256,192,60978,1,8,0:0:0:0:
256,192,61161,1,8,0:0:0:0:
256,192,62256,1,0,0:0:0:0:
256,192,62439,1,0,0:0:0:0:
256,192,62804,1,12,0:0:0:0:
256,192,63169,1,8,0:0:0:0:
256,192,63352,1,8,0:0:0:0:
256,192,63535,1,0,0:0:0:0:
256,192,63900,1,0,0:0:0:0:
256,192,64265,1,8,0:0:0:0:
256,192,64630,1,0,0:0:0:0:
256,192,64813,1,8,0:0:0:0:
256,192,64995,1,0,0:0:0:0:
256,192,65361,1,0,0:0:0:0:
256,192,65726,1,8,0:0:0:0:
256,192,66091,1,8,0:0:0:0:
256,192,66273,1,8,0:0:0:0:
256,192,66456,1,0,0:0:0:0:
256,192,66821,1,0,0:0:0:0:
256,192,67186,1,8,0:0:0:0:
256,192,67369,1,0,0:0:0:0:
256,192,67552,1,8,0:0:0:0:
256,192,67917,1,0,0:0:0:0:
256,192,68647,1,8,0:0:0:0:
256,192,69012,1,0,0:0:0:0:
256,192,69378,1,0,0:0:0:0:
256,192,69560,1,0,0:0:0:0:
256,192,69743,1,8,0:0:0:0:
256,192,70108,1,8,0:0:0:0:
256,192,70473,1,0,0:0:0:0:
256,192,70656,1,8,0:0:0:0:
256,192,70838,1,0,0:0:0:0:
256,192,71203,1,8,0:0:0:0:
256,192,71569,1,0,0:0:0:0:
256,192,71934,1,0,0:0:0:0:
256,192,72116,1,8,0:0:0:0:
256,192,72299,1,0,0:0:0:0:
256,192,72482,1,8,0:0:0:0:
256,192,72664,1,8,0:0:0:0:
256,192,73029,1,8,0:0:0:0:
256,192,73760,1,8,0:0:0:0:
256,192,73942,1,0,0:0:0:0:
256,192,74125,1,8,0:0:0:0:
256,192,74490,1,8,0:0:0:0:
256,192,74855,1,0,0:0:0:0:
256,192,75221,1,0,0:0:0:0:
256,192,75403,1,0,0:0:0:0:
256,192,75586,1,8,0:0:0:0:
256,192,75951,1,8,0:0:0:0:
256,192,76316,1,0,0:0:0:0:
256,192,76499,1,8,0:0:0:0:
256,192,76681,1,0,0:0:0:0:
256,192,77046,1,8,0:0:0:0:
256,192,77412,1,0,0:0:0:0:
256,192,77777,1,8,0:0:0:0:
256,192,77959,1,0,0:0:0:0:
256,192,78325,1,0,0:0:0:0:
256,192,78690,1,0,0:0:0:0:
256,192,78872,1,8,0:0:0:0:
256,192,79238,1,0,0:0:0:0:
256,192,79420,1,8,0:0:0:0:
256,192,79603,1,0,0:0:0:0:
256,192,79785,1,0,0:0:0:0:
256,192,79968,1,8,0:0:0:0:
256,192,80333,1,8,0:0:0:0:
256,192,81063,1,0,0:0:0:0:
256,192,81246,1,8,0:0:0:0:
256,192,81429,1,8,0:0:0:0:
256,192,81794,1,8,0:0:0:0:
256,192,82159,1,0,0:0:0:0:
256,192,82342,1,8,0:0:0:0:
256,192,82524,1,0,0:0:0:0:
256,192,82889,1,8,0:0:0:0:
256,192,83255,1,0,0:0:0:0:
256,192,83620,1,8,0:0:0:0:
256,192,83802,1,8,0:0:0:0:
256,192,83985,1,0,0:0:0:0:
256,192,84350,1,8,0:0:0:0:
256,192,84715,1,0,0:0:0:0:
256,192,86176,1,12,0:0:0:0:
256,192,86541,1,0,0:0:0:0:
256,192,86724,1,8,0:0:0:0:
256,192,87089,1,0,0:0:0:0:
256,192,87272,1,8,0:0:0:0:
256,192,87637,1,8,0:0:0:0:
256,192,88185,1,0,0:0:0:0:
256,192,88732,1,0,0:0:0:0:
256,192,89098,1,0,0:0:0:0:
256,192,89463,1,8,0:0:0:0:
256,192,89645,1,0,0:0:0:0:
256,192,90011,1,0,0:0:0:0:
256,192,90558,1,8,0:0:0:0:
256,192,90923,1,0,0:0:0:0:
256,192,91106,1,8,0:0:0:0:
256,192,91471,1,0,0:0:0:0:
256,192,91654,1,8,0:0:0:0:
256,192,92019,1,8,0:0:0:0:
256,192,92384,1,8,0:0:0:0:
256,192,92567,1,0,0:0:0:0:
256,192,92932,1,0,0:0:0:0:
256,192,93115,1,8,0:0:0:0:
256,192,93480,1,8,0:0:0:0:
256,192,94028,1,8,0:0:0:0:
256,192,94941,1,8,0:0:0:0:
256,192,95306,1,8,0:0:0:0:
256,192,95488,1,0,0:0:0:0:
256,192,95854,1,0,0:0:0:0:
256,192,96036,1,8,0:0:0:0:
256,192,96401,1,8,0:0:0:0:
256,192,96766,1,8,0:0:0:0:
256,192,96949,1,0,0:0:0:0:
256,192,97314,1,0,0:0:0:0:
256,192,97497,1,8,0:0:0:0:
256,192,97862,1,4,0:0:0:0:
256,192,98227,1,0,0:0:0:0:
256,192,98592,1,0,0:0:0:0:
256,192,98958,1,8,0:0:0:0:
256,192,99323,1,8,0:0:0:0:
256,192,99688,1,0,0:0:0:0:
256,192,99871,1,8,0:0:0:0:
256,192,100053,1,0,0:0:0:0:
256,192,100784,1,0,0:0:0:0:
256,192,101149,1,8,0:0:0:0:
256,192,101514,1,0,0:0:0:0:
256,192,101696,1,8,0:0:0:0:
256,192,101879,1,0,0:0:0:0:
256,192,102244,1,8,0:0:0:0:
256,192,102609,1,8,0:0:0:0:
256,192,102792,1,8,0:0:0:0:
256,192,103157,1,0,0:0:0:0:
256,192,103340,1,8,0:0:0:0:
256,192,103705,1,0,0:0:0:0:
256,192,103888,1,0,0:0:0:0:
256,192,104070,1,8,0:0:0:0:
256,192,104253,1,0,0:0:0:0:
256,192,104435,1,0,0:0:0:0:
256,192,104801,1,8,0:0:0:0:
256,192,105166,1,8,0:0:0:0:
256,192,105348,1,8,0:0:0:0:
256,192,105531,1,0,0:0:0:0:
256,192,105714,1,0,0:0:0:0:
256,192,105896,1,8,0:0:0:0:
256,192,106261,1,0,0:0:0:0:
256,192,106626,1,8,0:0:0:0:
256,192,106809,1,0,0:0:0:0:
256,192,106992,1,0,0:0:0:0:
256,192,107174,1,8,0:0:0:0:
256,192,107722,1,8,0:0:0:0:
256,192,107905,1,8,0:0:0:0:
256,192,109548,1,12,0:0:0:0:
256,192,109913,1,0,0:0:0:0:
256,192,110096,1,8,0:0:0:0:
256,192,110461,1,0,0:0:0:0:
256,192,110644,1,8,0:0:0:0:
256,192,111009,1,8,0:0:0:0:
256,192,111374,1,8,0:0:0:0:
256,192,111739,1,8,0:0:0:0:
256,192,112104,1,8,0:0:0:0:
256,192,112287,1,8,0:0:0:0:
256,192,112469,1,4,0:0:0:0:
256,192,112834,1,8,0:0:0:0:
256,192,113016,1,0,0:0:0:0:
256,192,113381,1,0,0:0:0:0:
256,192,113747,1,0,0:0:0:0:
256,192,113929,1,8,0:0:0:0:
256,192,114112,1,0,0:0:0:0:
256,192,114294,1,8,0:0:0:0:
256,192,114660,1,0,0:0:0:0:
256,192,114934,1,0,0:0:0:0:
256,192,115207,1,0,0:0:0:0:
256,192,115390,1,8,0:0:0:0:
256,192,116120,1,0,0:0:0:0:
256,192,116303,1,0,0:0:0:0:
256,192,116486,1,8,0:0:0:0:
256,192,116851,1,8,0:0:0:0:
256,192,117399,1,8,0:0:0:0:
256,192,117581,1,0,0:0:0:0:
256,192,117946,1,8,0:0:0:0:
256,192,118129,1,0,0:0:0:0:
256,192,118311,1,8,0:0:0:0:
256,192,118677,1,0,0:0:0:0:
256,192,118859,1,8,0:0:0:0:
256,192,119042,1,0,0:0:0:0:
256,192,119407,1,0,0:0:0:0:
256,192,119772,1,8,0:0:0:0:
256,192,119955,1,0,0:0:0:0:
256,192,120137,1,0,0:0:0:0:
256,192,120320,1,0,0:0:0:0:
256,192,120685,1,0,0:0:0:0:
256,192,120868,1,0,0:0:0:0:
256,192,121598,1,0,0:0:0:0:
256,192,121781,1,0,0:0:0:0:
256,192,121963,1,0,0:0:0:0:
256,192,122329,1,8,0:0:0:0:
256,192,122511,1,0,0:0:0:0:
256,192,122694,1,8,0:0:0:0:
256,192,123059,1,0,0:0:0:0:
256,192,123333,1,0,0:0:0:0:
256,192,123607,1,0,0:0:0:0:
256,192,123789,1,8,0:0:0:0:
256,192,124154,1,0,0:0:0:0:
256,192,124520,1,8,0:0:0:0:
256,192,124702,1,0,0:0:0:0:
256,192,125067,1,8,0:0:0:0:
256,192,125433,1,0,0:0:0:0:
256,192,125615,1,8,0:0:0:0:
256,192,125798,1,0,0:0:0:0:
256,192,125980,1,8,0:0:0:0:
256,192,126163,1,8,0:0:0:0:
256,192,126528,1,8,0:0:0:0:
256,192,126711,1,0,0:0:0:0:
256,192,127076,1,8,0:0:0:0:
256,192,127441,1,0,0:0:0:0:
256,192,127624,1,8,0:0:0:0:
256,192,127989,1,0,0:0:0:0:
256,192,128171,1,8,0:0:0:0:
256,192,128354,1,0,0:0:0:0:
256,192,128537,1,8,0:0:0:0:
256,192,129084,1,8,0:0:0:0:
256,192,129632,1,0,0:0:0:0:
256,192,129815,1,0,0:0:0:0:
256,192,129997,1,12,0:0:0:0:
256,192,131093,1,0,0:0:0:0:
256,192,131458,1,4,0:0:0:0:
256,192,132280,1,0,0:0:0:0:
256,192,132554,1,0,0:0:0:0:
256,192,132919,1,4,0:0:0:0:
