osu file format v14

[General]
AudioFilename: audio.mp3
AudioLeadIn: 0
PreviewTime: -1
Countdown: 0
SampleSet: Normal
StackLeniency: 0.7
Mode: 0
LetterboxInBreaks: 0
WidescreenStoryboard: 0

[Editor]
DistanceSpacing: 0.9
BeatDivisor: 12
GridSize: 16
TimelineZoom: 1

[Metadata]
Title:Psycho Dreams (Hardstyle)
TitleUnicode:Psycho Dreams (Hardstyle)
Artist:Kill Eva & ENCASSATOR
ArtistUnicode:Kill Eva & ENCASSATOR
Creator:inf0space
Version:psycho
Source:
Tags:Kill Eva & ENCASSATOR - Psycho Dreams (Hardstyle) zxc dead inside gojo running kumiko
BeatmapID:4550916
BeatmapSetID:2158616

[Difficulty]
HPDrainRate:3
CircleSize:4
OverallDifficulty:6
ApproachRate:10
SliderMultiplier:1.3
SliderTickRate:1

[Events]
//Background and Video events
0,0,"загружено (45).jpg",0,0
Video,0,"Y2mate.mx-Psycho Dreams-Gojo running Kumiko edit.mp4"
//Break Periods
2,6896,10243
//Storyboard Layer 0 (Background)
//Storyboard Layer 1 (Fail)
//Storyboard Layer 2 (Pass)
//Storyboard Layer 3 (Foreground)
//Storyboard Layer 4 (Overlay)
//Storyboard Sound Samples

[TimingPoints]
30,333.333333333333,4,1,0,100,1,0

[HitObjects]
256,192,2696,12,0,6696,0:0:0:0:
163,267,10693,5,0,0:0:0:0:
125,88,11026,5,0,0:0:0:0:
306,279,11359,1,0,0:0:0:0:
352,77,11692,1,0,0:0:0:0:
133,343,12026,1,0,0:0:0:0:
21,118,12360,5,0,0:0:0:0:
394,326,12693,1,0,0:0:0:0:
379,89,13026,1,0,0:0:0:0:
126,325,13193,1,0,0:0:0:0:
94,88,13360,1,4,0:0:0:0:
271,335,13693,5,0,0:0:0:0:
441,73,14026,1,0,0:0:0:0:
29,215,14359,1,0,0:0:0:0:
173,15,14693,1,0,0:0:0:0:
419,220,15026,1,0,0:0:0:0:
106,337,15359,1,0,0:0:0:0:
87,90,15693,5,4,0:0:0:0:
196,66,15859,1,0,0:0:0:0:
179,313,16026,1,0,0:0:0:0:
70,88,16192,1,0,0:0:0:0:
457,131,16360,1,4,0:0:0:0:
175,233,16526,1,0,0:0:0:0:
354,73,16693,5,0,0:0:0:0:
413,295,16859,1,0,0:0:0:0:
130,46,17026,1,4,0:0:0:0:
306,347,17193,1,0,0:0:0:0:
289,29,17360,1,0,0:0:0:0:
121,341,17526,1,0,0:0:0:0:
463,24,17693,5,4,0:0:0:0:
309,334,17860,1,0,0:0:0:0:
239,27,18026,1,4,0:0:0:0:
218,346,18193,1,0,0:0:0:0:
65,38,18360,1,4,0:0:0:0:
366,349,18554,1,4,0:0:0:0:
288,1,18693,5,4,0:0:0:0:
316,39,18776,1,0,0:0:0:0:
335,67,18860,1,4,0:0:0:0:
351,102,18943,1,4,0:0:0:0:
365,139,19026,1,4,0:0:0:0:
372,178,19110,1,4,0:0:0:0:
369,214,19193,5,4,0:0:0:0:
348,248,19276,1,8,0:0:0:0:
348,248,19359,1,8,0:0:0:0:
348,248,19443,1,8,0:0:0:0:
348,248,19526,1,8,0:0:0:0:
319,274,19609,1,0,0:0:0:0:
272,293,19693,5,0,0:0:0:0:
227,313,19776,1,0,0:0:0:0:
179,305,19860,1,0,0:0:0:0:
136,279,19942,1,0,0:0:0:0:
106,247,20026,1,0,0:0:0:0:
92,196,20109,1,0,0:0:0:0:
95,142,20193,5,0,0:0:0:0:
107,81,20276,1,0,0:0:0:0:
140,50,20359,1,0,0:0:0:0:
180,18,20442,1,0,0:0:0:0:
234,5,20526,1,0,0:0:0:0:
297,6,20610,1,0,0:0:0:0:
358,18,20693,1,0,0:0:0:0:
417,43,20776,1,0,0:0:0:0:
36,322,21360,5,8,0:0:0:0:
131,35,21526,1,4,0:0:0:0:
447,336,21693,1,8,0:0:0:0:
339,37,21860,1,4,0:0:0:0:
29,144,22026,1,8,0:0:0:0:
395,37,22193,1,4,0:0:0:0:
270,334,22360,1,8,0:0:0:0:
72,81,22526,1,4,0:0:0:0:
392,307,22693,5,8,0:0:0:0:
311,15,22860,1,4,0:0:0:0:
129,359,23026,1,8,0:0:0:0:
359,31,23193,1,4,0:0:0:0:
427,358,23360,1,8,0:0:0:0:
49,81,23526,1,4,0:0:0:0:
455,113,23693,1,8,0:0:0:0:
133,324,23860,1,4,0:0:0:0:
173,34,24026,5,8,0:0:0:0:
51,326,24194,1,4,0:0:0:0:
288,16,24360,1,8,0:0:0:0:
435,329,24526,1,4,0:0:0:0:
101,26,24693,1,8,0:0:0:0:
88,343,24860,1,4,0:0:0:0:
392,19,25026,1,8,0:0:0:0:
274,334,25193,1,4,0:0:0:0:
197,14,25360,5,8,0:0:0:0:
175,342,25526,1,4,0:0:0:0:
78,101,25693,1,8,0:0:0:0:
421,170,25860,1,4,0:0:0:0:
170,299,26026,1,8,0:0:0:0:
210,14,26193,1,4,0:0:0:0:
68,285,26360,1,8,0:0:0:0:
364,57,26526,1,4,0:0:0:0:
80,50,26693,5,8,0:0:0:0:
366,309,26860,1,4,0:0:0:0:
220,17,27026,1,8,0:0:0:0:
241,350,27193,1,4,0:0:0:0:
85,259,27359,1,8,0:0:0:0:
344,28,27526,1,4,0:0:0:0:
354,335,27693,1,8,0:0:0:0:
176,35,27860,1,4,0:0:0:0:
144,321,28026,5,8,0:0:0:0:
294,44,28193,1,4,0:0:0:0:
457,304,28360,1,8,0:0:0:0:
69,247,28526,1,4,0:0:0:0:
409,47,28693,1,8,0:0:0:0:
171,336,28860,1,4,0:0:0:0:
345,36,29027,1,8,0:0:0:0:
412,353,29193,1,4,0:0:0:0:
166,32,29360,5,8,0:0:0:0:
258,356,29526,1,4,0:0:0:0:
12,61,29693,1,8,0:0:0:0:
432,57,29860,1,4,0:0:0:0:
127,312,30026,1,8,0:0:0:0:
292,24,30193,1,4,0:0:0:0:
356,350,30360,1,8,0:0:0:0:
78,58,30526,1,4,0:0:0:0:
457,271,30693,5,8,0:0:0:0:
19,226,30860,1,4,0:0:0:0:
394,39,31026,1,8,0:0:0:0:
151,340,31193,1,4,0:0:0:0:
240,23,31360,1,8,0:0:0:0:
385,346,31526,1,4,0:0:0:0:
107,40,31693,1,8,0:0:0:0:
198,256,32026,5,0,0:0:0:0:
298,106,32332,1,0,0:0:0:0:
367,226,32693,1,0,0:0:0:0:
367,226,32749,1,0,0:0:0:0:
367,226,32804,1,0,0:0:0:0:
157,98,33027,1,0,0:0:0:0:
199,206,33360,5,0,0:0:0:0:
323,103,33694,1,0,0:0:0:0:
322,241,34027,1,0,0:0:0:0:
322,241,34082,1,0,0:0:0:0:
322,241,34138,1,0,0:0:0:0:
249,126,34360,1,0,0:0:0:0:
192,233,34693,5,0,0:0:0:0:
372,47,35027,1,0,0:0:0:0:
274,241,35360,1,0,0:0:0:0:
274,241,35415,1,0,0:0:0:0:
274,241,35471,1,0,0:0:0:0:
144,75,35693,1,0,0:0:0:0:
180,226,36027,5,0,0:0:0:0:
286,120,36360,1,0,0:0:0:0:
384,229,36693,1,0,0:0:0:0:
389,226,36749,1,0,0:0:0:0:
389,226,36804,1,0,0:0:0:0:
108,219,37026,1,0,0:0:0:0:
263,156,37360,5,0,0:0:0:0:
182,274,37693,1,0,0:0:0:0:
385,184,38026,1,0,0:0:0:0:
385,184,38082,1,0,0:0:0:0:
385,184,38138,1,0,0:0:0:0:
169,127,38360,1,0,0:0:0:0:
196,209,38693,5,0,0:0:0:0:
88,210,39026,1,0,0:0:0:0:
299,151,39360,1,0,0:0:0:0:
299,151,39415,1,0,0:0:0:0:
299,151,39471,1,0,0:0:0:0:
148,91,39693,1,0,0:0:0:0:
279,268,40026,5,0,0:0:0:0:
101,168,40360,1,0,0:0:0:0:
235,143,40693,1,0,0:0:0:0:
235,143,40749,1,0,0:0:0:0:
235,143,40804,1,0,0:0:0:0:
338,240,41026,1,0,0:0:0:0:
421,121,41360,5,0,0:0:0:0:
199,68,41693,1,0,0:0:0:0:
144,267,42026,1,0,0:0:0:0:
144,267,42082,1,0,0:0:0:0:
144,267,42138,1,0,0:0:0:0:
59,160,42360,1,0,0:0:0:0:
264,306,42693,5,8,0:0:0:0:
216,83,42860,1,0,0:0:0:0:
93,322,43026,1,8,0:0:0:0:
393,65,43193,1,0,0:0:0:0:
465,267,43360,1,8,0:0:0:0:
93,35,43526,1,0,0:0:0:0:
82,300,43693,1,8,0:0:0:0:
435,31,43860,1,0,0:0:0:0:
453,154,44026,5,8,0:0:0:0:
23,227,44192,1,0,0:0:0:0:
336,324,44360,1,8,0:0:0:0:
174,48,44526,1,0,0:0:0:0:
23,326,44693,1,8,0:0:0:0:
330,46,44860,1,0,0:0:0:0:
160,340,45026,1,8,0:0:0:0:
200,30,45193,1,0,0:0:0:0:
393,294,45360,5,8,0:0:0:0:
134,46,45526,1,0,0:0:0:0:
44,293,45693,1,8,0:0:0:0:
426,29,45860,1,0,0:0:0:0:
323,338,46026,1,8,0:0:0:0:
58,79,46193,1,0,0:0:0:0:
435,141,46360,1,8,0:0:0:0:
28,204,46526,1,0,0:0:0:0:
214,303,46693,5,8,0:0:0:0:
198,35,46860,1,0,0:0:0:0:
20,311,47026,1,8,0:0:0:0:
389,58,47193,1,0,0:0:0:0:
27,124,47360,1,8,0:0:0:0:
394,210,47526,1,0,0:0:0:0:
204,43,47693,1,8,0:0:0:0:
256,332,47860,1,0,0:0:0:0:
362,25,48026,5,8,0:0:0:0:
72,322,48193,1,0,0:0:0:0:
432,104,48360,1,8,0:0:0:0:
10,178,48526,1,0,0:0:0:0:
260,303,48693,1,8,0:0:0:0:
142,29,48860,1,0,0:0:0:0:
37,308,49026,1,8,0:0:0:0:
381,32,49193,1,0,0:0:0:0:
404,302,49360,5,8,0:0:0:0:
212,37,49526,1,0,0:0:0:0:
126,308,49693,1,8,0:0:0:0:
335,34,49860,1,0,0:0:0:0:
337,277,50026,1,8,0:0:0:0:
141,40,50193,1,0,0:0:0:0:
39,254,50360,1,8,0:0:0:0:
430,40,50525,1,0,0:0:0:0:
374,361,50693,5,8,0:0:0:0:
217,67,50860,1,0,0:0:0:0:
49,131,51026,1,8,0:0:0:0:
438,248,51193,1,0,0:0:0:0:
176,22,51360,1,8,0:0:0:0:
256,348,51526,1,0,0:0:0:0:
441,87,51693,1,8,0:0:0:0:
61,266,51860,1,0,0:0:0:0:
469,232,52026,5,8,0:0:0:0:
150,50,52193,1,0,0:0:0:0:
346,294,52360,1,8,0:0:0:0:
239,15,52526,1,0,0:0:0:0:
193,349,52693,1,8,0:0:0:0:
377,37,52860,1,0,0:0:0:0:
50,297,53026,1,8,0:0:0:0:
