osu file format v14

[General]
AudioFilename: Gaussian Blur.mp3
AudioLeadIn: 0
PreviewTime: -1
Countdown: 0
SampleSet: None
StackLeniency: 0.7
Mode: 0
LetterboxInBreaks: 1
WidescreenStoryboard: 0

[Editor]
DistanceSpacing: 1
BeatDivisor: 4
GridSize: 4
TimelineZoom: 1

[Metadata]
Title:Gaussian Blur
TitleUnicode:
Artist:Kil
ArtistUnicode:
Creator:chickgod
Version:Hyper
Source:O2Jam
Tags:
BeatmapID:1175476
BeatmapSetID:25429

[Difficulty]
HPDrainRate:6
CircleSize:4
OverallDifficulty:5
ApproachRate:8
SliderMultiplier:1.2
SliderTickRate:0.5

[Events]
//Background and Video events
0,0,"Gaussian Blur.jpg",0,0
//Break Periods
2,45273,56315
//Storyboard Layer 0 (Background)
//Storyboard Layer 1 (Fail)
//Storyboard Layer 2 (Pass)
//Storyboard Layer 3 (Foreground)
//Storyboard Sound Samples

[TimingPoints]
714,299.805126667666,4,2,1,50,1,0
2274,-100,4,2,1,0,0,0
2476,-100,4,2,1,50,0,0
2873,-100,4,2,1,0,0,0
3023,-100,4,2,1,50,0,0
7071,-100,4,2,1,0,0,0
7221,-100,4,2,1,50,0,0
7670,-100,4,2,1,0,0,0
7820,-100,4,2,1,50,0,0
11868,-100,4,2,1,0,0,0
12018,-100,4,2,1,50,0,0
12467,-100,4,2,1,0,0,0
12617,-100,4,2,1,50,0,0
14873,-100,4,2,1,0,0,0
15064,-100,4,2,1,50,0,0
21120,299.805126667666,4,2,1,50,1,0
25801,-100,4,2,1,40,0,0
25886,299.805126667666,4,2,1,40,1,0
30598,-100,4,2,1,40,0,1
40229,-100,4,2,1,40,0,1
45041,-100,4,2,1,70,0,0
47356,-200,4,2,1,70,0,0
52185,-200,4,2,1,50,0,0
52560,-200,4,2,1,70,0,0
56792,-100,4,2,1,50,0,0
58332,-100,4,2,1,55,0,0
58631,-100,4,2,1,60,0,0
58931,-100,4,2,1,65,0,0
59231,-100,4,2,1,70,0,0
59627,299.805126667666,4,2,1,70,1,0
64397,299.805126667666,4,2,1,70,1,0
65977,-100,4,2,1,40,0,0
66277,-100,4,2,1,70,0,0
67176,-100,4,2,1,50,0,0
67476,-100,4,2,1,70,0,0
68363,-200,4,2,1,70,0,0
68813,-200,4,2,1,0,0,0
68983,-100,4,2,1,75,0,0
69583,-200,4,2,1,75,0,0
69950,-200,4,2,1,0,0,0
70182,-100,4,2,1,80,0,0
71149,-100,4,2,1,85,0,0
72573,-100,4,2,1,90,0,0
73697,-100,4,2,1,95,0,0
74972,-100,4,2,1,100,0,1
84641,-100,4,2,1,100,0,0
89962,-100,4,2,1,60,0,0
90262,-100,4,2,1,100,0,0
90562,-100,4,2,1,80,0,0
91162,-100,4,2,1,40,0,0
91462,-100,4,2,1,80,0,0
91761,-100,4,2,1,50,0,0
92736,-100,4,2,1,40,0,0

[Colours]
Combo1 : 255,255,0
Combo2 : 5,240,5
Combo3 : 5,5,240
Combo4 : 240,5,5

[HitObjects]
112,88,1913,2,0,B|128:64|128:64|144:88|144:88|160:64|160:64|176:88|176:88|192:64|192:64|208:96,1,180,0|0,0:0|0:0,0:0:0:0:
264,88,2512,2,0,B|280:64|280:64|296:88|296:88|312:64|312:64|328:88|328:88|344:64|344:64|368:96,1,180,0|0,0:0|0:0,0:0:0:0:
424,96,3112,1,2,0:0:0:0:
424,216,3412,1,0,0:0:0:0:
304,216,3712,2,0,B|352:216,8,30,2|0|0|0|0|0|0|0|4,0:0|0:0|0:0|0:0|0:0|0:0|0:0|0:0|0:0,0:0:0:0:
248,216,4461,5,0,0:0:0:0:
232,240,4536,1,0,0:0:0:0:
216,216,4611,1,0,0:0:0:0:
200,240,4686,1,0,0:0:0:0:
176,216,4761,1,0,0:0:0:0:
112,216,4911,2,0,B|128:200|128:200|96:184|96:184|128:168|128:168|96:152|96:152|128:136|128:136|96:120|96:120|128:104|128:104|112:80,1,240
248,104,5810,1,0,0:0:0:0:
368,104,6110,2,0,B|368:144,6,30,2|0|0|0|0|0|0,0:0|0:0|0:0|0:0|0:0|0:0|0:0,0:0:0:0:
368,168,6710,6,0,B|352:192|352:192|336:168|336:168|320:192|320:192|304:168|304:168|288:192|288:192|272:160,1,180,4|0,0:0|0:0,0:0:0:0:
272,224,7309,2,0,B|288:248|288:248|304:224|304:224|320:248|320:248|336:224|336:224|352:248|352:248|368:216,1,180,0|0,0:0|0:0,0:0:0:0:
432,216,7909,1,2,0:0:0:0:
432,336,8209,1,0,0:0:0:0:
312,336,8508,1,2,0:0:0:0:
192,336,8808,1,0,0:0:0:0:
104,256,9108,5,0,0:0:0:0:
152,216,9258,1,0,0:0:0:0:
104,176,9408,1,0,0:0:0:0:
152,136,9558,1,2,0:0:0:0:
104,96,9708,2,0,B|104:48,8,30,2|2|2|2|2|2|2|2|4,0:0|0:0|0:0|0:0|0:0|0:0|0:0|0:0|0:0,0:0:0:0:
256,192,10757,5,0,0:0:0:0:
256,192,10907,1,8,0:0:0:0:
352,48,11506,6,0,B|464:120|352:192,1,180,0|0,0:0|0:0,0:0:0:0:
344,128,12106,2,0,B|240:192|360:264,1,180
416,264,12706,1,2,0:0:0:0:
296,264,13006,1,0,0:0:0:0:
176,264,13305,2,0,B|224:264,8,30,0|0|0|0|0|0|0|0|4,0:0|0:0|0:0|0:0|0:0|0:0|0:0|0:0|0:0,0:0:0:0:
120,264,14055,1,0,0:0:0:0:
96,248,14130,1,0,0:0:0:0:
88,224,14205,1,0,0:0:0:0:
88,192,14280,1,0,0:0:0:0:
88,160,14355,1,0,0:0:0:0:
88,104,14505,6,0,B|112:72|112:72|144:104|144:104|176:72|176:72|216:112,1,180,8|0,0:0|0:0,0:0:0:0:
272,104,15104,1,0,0:0:0:0:
392,104,15404,1,0,0:0:0:0:
392,224,15704,2,0,B|384:256|384:256|376:224|376:224|368:256|368:256|360:224|360:224|352:256|352:256|344:224|344:224|336:256|336:256|328:224|328:224,1,240,4|2,0:0|0:0,0:0:0:0:
216,248,16603,5,0,0:0:0:0:
216,248,16678,1,0,0:0:0:0:
216,248,16753,1,0,0:0:0:0:
152,248,16903,1,8,0:0:0:0:
96,144,17203,5,0,0:0:0:0:
96,144,17278,1,0,0:0:0:0:
96,144,17353,1,0,0:0:0:0:
160,144,17503,1,2,0:0:0:0:
264,80,17802,1,0,0:0:0:0:
360,152,18102,1,2,0:0:0:0:
264,80,18402,1,4,0:0:0:0:
264,200,18702,5,0,0:0:0:0:
208,232,18852,1,0,0:0:0:0:
264,248,19002,1,0,0:0:0:0:
208,280,19152,1,2,0:0:0:0:
264,296,19301,2,0,B|296:296,8,30,0|0|0|0|0|0|0|0|4,0:0|0:0|0:0|0:0|0:0|0:0|0:0|0:0|0:0,0:0:0:0:
264,112,20351,5,0,0:0:0:0:
264,112,20501,1,8,0:0:0:0:
160,96,21120,6,0,B|160:24,1,60,0|0,0:0|0:0,0:0:0:0:
160,96,21419,2,0,B|80:96,1,60
160,96,21719,2,0,B|160:160,1,60
160,96,22019,2,0,B|232:96,1,60
352,96,22319,6,0,B|424:96,1,60
352,96,22619,2,0,B|352:24,1,60,0|0,0:0|0:0,0:0:0:0:
352,96,22918,2,0,B|288:96,1,60,0|0,0:0|0:0,0:0:0:0:
352,96,23218,2,0,B|352:168,1,60
352,288,23518,6,0,B|352:360,1,60,0|0,0:0|0:0,0:0:0:0:
352,288,23818,2,0,B|432:288,1,60,0|0,0:0|0:0,0:0:0:0:
352,288,24118,2,0,B|352:216,1,60,0|0,0:0|0:0,0:0:0:0:
352,288,24417,2,0,B|280:288,1,60,4|0,0:0|0:0,0:0:0:0:
160,288,24717,6,0,B|96:288,1,60,0|0,0:0|0:0,0:0:0:0:
160,288,25017,2,0,B|160:352,1,60,0|0,0:0|0:0,0:0:0:0:
160,288,25317,2,0,B|232:288,1,60,0|0,0:0|0:0,0:0:0:0:
160,288,25617,2,0,B|160:216,1,60,0|0,0:0|0:0,0:0:0:0:
160,96,25886,6,2,B|176:72|176:72|192:96|192:96|208:72|208:72|224:96|224:96|240:72|240:72|264:104,1,180
320,104,26485,1,2,0:0:0:0:
320,104,26560,1,2,0:0:0:0:
320,104,26635,1,2,0:0:0:0:
352,152,26785,1,2,0:0:0:0:
352,152,26860,1,2,0:0:0:0:
352,152,26935,1,4,0:0:0:0:
352,288,27085,6,2,B|336:312|336:312|320:288|320:288|304:312|304:312|288:288|288:288|272:312|272:312|248:280,1,180
192,280,27684,1,2,0:0:0:0:
192,280,27759,1,2,0:0:0:0:
192,280,27834,1,2,0:0:0:0:
160,232,27984,1,2,0:0:0:0:
160,232,28059,1,2,0:0:0:0:
160,232,28134,1,4,0:0:0:0:
160,96,28284,6,2,B|120:96,6,30
224,96,28884,1,2,0:0:0:0:
256,96,28959,1,2,0:0:0:0:
288,96,29033,1,2,0:0:0:0:
352,96,29183,1,2,0:0:0:0:
352,96,29258,1,2,0:0:0:0:
352,96,29333,1,4,0:0:0:0:
352,288,29483,6,2,B|384:288,6,30
288,288,30083,1,2,0:0:0:0:
256,288,30158,1,2,0:0:0:0:
224,288,30233,1,2,0:0:0:0:
160,288,30383,1,2,0:0:0:0:
160,288,30458,1,2,0:0:0:0:
160,288,30532,1,4,0:0:0:0:
96,288,30682,6,0,B|64:272|64:272|96:256|96:256|64:240|64:240|96:224|96:224|64:208|64:208|96:192|96:192|64:176|64:176|96:160|96:160|64:144|64:144|104:128,1,360,0|2,0:0|0:0,0:0:0:0:
112,104,31657,1,2,0:0:0:0:
128,80,31732,1,0,0:0:0:0:
152,72,31807,1,0,0:0:0:0:
184,72,31882,6,0,B|200:40|200:40|216:72|216:72|232:40|232:40|248:72|248:72|264:40|264:40|280:72|280:72|296:40|296:40|312:72|312:72|328:40|328:40|344:80,1,360,0|2,0:0|0:0,0:0:0:0:
376,72,32856,1,2,0:0:0:0:
408,80,32931,1,0,0:0:0:0:
424,104,33006,1,0,0:0:0:0:
440,128,33081,6,0,B|472:144|472:144|440:160|440:160|472:176|472:176|440:192|440:192|472:208|472:208|440:224|440:224|472:240|472:240|440:256|440:256|472:272|472:272|432:288,1,360,0|2,0:0|0:0,0:0:0:0:
408,288,34055,1,2,0:0:0:0:
376,288,34130,1,0,0:0:0:0:
344,288,34205,1,0,0:0:0:0:
312,288,34280,6,0,B|296:320|296:320|280:288|280:288|264:320|264:320|248:288|248:288|232:320|232:320|216:288|216:288|200:320|200:320|184:288|184:288|168:320|168:320|152:280,1,360,0|2,0:0|0:0,0:0:0:0:
128,272,35254,1,2,0:0:0:0:
112,248,35329,1,0,0:0:0:0:
112,216,35404,1,0,0:0:0:0:
112,184,35479,6,0,B|144:184,2,30
112,152,35704,2,0,B|72:152,2,30
112,120,35929,2,0,B|144:120,2,30
112,88,36154,2,0,B|72:88,2,30
136,64,36379,1,2,0:0:0:0:
168,56,36454,1,2,0:0:0:0:
200,56,36529,1,0,0:0:0:0:
232,56,36604,1,0,0:0:0:0:
264,56,36678,6,0,B|296:56,2,30,0|0|0,0:0|0:0|0:0,0:0:0:0:
264,88,36903,2,0,B|296:88,2,30
264,120,37128,2,0,B|296:120,2,30
264,152,37353,2,0,B|296:152,2,30
264,184,37578,1,2,0:0:0:0:
264,216,37653,1,2,0:0:0:0:
272,248,37728,1,0,0:0:0:0:
296,264,37803,1,0,0:0:0:0:
328,264,37878,6,0,B|360:264,2,30
328,232,38103,2,0,B|360:232,2,30
328,200,38327,2,0,B|360:200,2,30
328,168,38552,2,0,B|360:168,2,30
328,136,38777,1,2,0:0:0:0:
328,104,38852,1,2,0:0:0:0:
328,72,38927,1,0,0:0:0:0:
312,48,39002,1,0,0:0:0:0:
280,48,39077,6,0,B|280:80,2,30
248,48,39302,2,0,B|248:80,2,30
216,48,39527,2,0,B|216:80,2,30
184,48,39751,2,0,B|128:48,2,30
184,80,39976,1,2,0:0:0:0:
184,112,40051,1,2,0:0:0:0:
184,144,40126,1,0,0:0:0:0:
184,176,40201,1,0,0:0:0:0:
256,192,40276,12,2,41176,0:0:0:0:
256,192,41251,5,0,0:0:0:0:
256,192,41325,1,0,0:0:0:0:
256,192,41400,1,0,0:0:0:0:
256,192,41475,12,2,42375,0:0:0:0:
256,192,42450,5,0,0:0:0:0:
256,192,42525,1,0,0:0:0:0:
256,192,42600,1,0,0:0:0:0:
256,192,42675,12,2,43574,0:0:0:0:
256,192,43649,5,0,0:0:0:0:
256,192,43724,1,0,0:0:0:0:
256,192,43799,1,0,0:0:0:0:
256,192,43874,12,2,44773,0:0:0:0:
256,192,44848,5,0,0:0:0:0:
256,192,44923,1,0,0:0:0:0:
256,192,44998,1,0,0:0:0:0:
256,192,45073,1,4,0:0:0:0:
72,288,57065,5,4,0:0:0:0:
136,288,57215,5,0,0:0:0:0:
136,288,57290,1,0,0:0:0:0:
136,288,57365,1,2,0:0:0:0:
136,224,57515,2,0,B|168:224,2,30
136,160,57815,5,0,0:0:0:0:
136,160,57890,1,0,0:0:0:0:
136,160,57965,1,2,0:0:0:0:
136,96,58115,2,0,B|96:96,2,30
200,96,58414,5,0,0:0:0:0:
200,96,58489,1,0,0:0:0:0:
200,96,58564,1,2,0:0:0:0:
248,136,58714,2,0,B|280:136,2,30
296,176,59014,5,0,0:0:0:0:
296,176,59089,1,0,0:0:0:0:
296,176,59164,1,2,0:0:0:0:
344,216,59314,2,0,B|376:216,2,30
392,256,59627,5,0,0:0:0:0:
320,312,59776,1,0,0:0:0:0:
248,256,59926,1,0,0:0:0:0:
176,312,60076,1,0,0:0:0:0:
128,136,60376,5,4,0:0:0:0:
304,88,60676,1,0,0:0:0:0:
352,264,60976,1,2,0:0:0:0:
176,312,61275,1,0,0:0:0:0:
256,152,61575,5,0,0:0:0:0:
432,192,61875,1,8,0:0:0:0:
256,232,62175,1,0,0:0:0:0:
80,192,62475,1,2,0:0:0:0:
208,64,62774,5,0,0:0:0:0:
368,144,63074,1,2,0:0:0:0:
304,312,63374,1,0,0:0:0:0:
144,240,63674,1,8,0:0:0:0:
256,192,63974,1,4,0:0:0:0:
112,88,64397,5,0,0:0:0:0:
152,136,64546,1,0,0:0:0:0:
192,88,64696,1,0,0:0:0:0:
232,136,64846,1,0,0:0:0:0:
352,136,65146,5,4,0:0:0:0:
352,256,65446,1,0,0:0:0:0:
232,256,65746,1,2,0:0:0:0:
352,256,66045,1,4,0:0:0:0:
352,136,66345,5,0,0:0:0:0:
232,136,66645,1,4,0:0:0:0:
112,136,66945,1,0,0:0:0:0:
112,256,67245,1,4,0:0:0:0:
232,256,67544,1,0,0:0:0:0:
296,88,67844,5,2,0:0:0:0:
216,120,67994,1,2,0:0:0:0:
296,152,68144,1,2,0:0:0:0:
216,184,68294,1,2,0:0:0:0:
296,216,68444,2,0,B|360:216|368:160,1,90,4|0,0:0|0:0,0:0:0:0:
400,256,69043,5,2,0:0:0:0:
344,328,69193,1,2,0:0:0:0:
288,256,69343,1,2,0:0:0:0:
232,328,69493,1,2,0:0:0:0:
176,256,69643,2,0,B|128:240|120:184,1,90,4|0,0:0|0:0,0:0:0:0:
184,128,70243,5,2,0:0:0:0:
256,72,70393,1,2,0:0:0:0:
328,128,70543,1,2,0:0:0:0:
302,214,70692,1,2,0:0:0:0:
211,215,70842,1,4,0:0:0:0:
256,256,71442,5,2,0:0:0:0:
360,192,71592,1,2,0:0:0:0:
317,79,71742,1,2,0:0:0:0:
197,80,71892,1,2,0:0:0:0:
152,192,72042,1,4,0:0:0:0:
368,80,72641,5,2,0:0:0:0:
248,80,72941,1,2,0:0:0:0:
152,152,73241,1,2,0:0:0:0:
272,152,73541,1,2,0:0:0:0:
272,152,73840,5,2,0:0:0:0:
272,152,73990,1,2,0:0:0:0:
272,152,74140,1,2,0:0:0:0:
272,152,74290,1,2,0:0:0:0:
240,200,74440,5,4,0:0:0:0:
280,240,74590,1,2,0:0:0:0:
240,288,74740,1,0,0:0:0:0:
280,328,74890,1,0,0:0:0:0:
344,328,75040,5,0,0:0:0:0:
424,240,75339,1,0,0:0:0:0:
368,136,75639,1,0,0:0:0:0:
264,80,75939,1,0,0:0:0:0:
144,80,76239,5,2,0:0:0:0:
96,112,76389,1,0,0:0:0:0:
144,144,76539,1,0,0:0:0:0:
96,176,76689,1,0,0:0:0:0:
96,296,76988,1,0,0:0:0:0:
144,264,77138,1,0,0:0:0:0:
264,264,77438,5,0,0:0:0:0:
144,264,77738,1,0,0:0:0:0:
144,144,78038,1,2,0:0:0:0:
144,264,78337,1,0,0:0:0:0:
232,176,78637,1,2,0:0:0:0:
232,176,78787,1,0,0:0:0:0:
232,176,78937,1,0,0:0:0:0:
232,176,79087,1,0,0:0:0:0:
296,176,79237,2,0,B|368:176,2,60,0|0|2,0:0|0:0|0:0,0:0:0:0:
352,72,79836,5,0,0:0:0:0:
352,248,80286,1,0,0:0:0:0:
168,248,80736,1,2,0:0:0:0:
176,128,81036,2,0,B|272:64|360:144,2,180,0|0|2,0:0|0:0|0:0,0:0:0:0:
256,216,82235,5,0,0:0:0:0:
170,57,82685,1,2,0:0:0:0:
350,58,83134,1,2,0:0:0:0:
256,128,83434,5,0,0:0:0:0:
256,248,83734,1,0,0:0:0:0:
256,128,84034,1,2,0:0:0:0:
152,128,84633,2,0,B|168:104|168:104|184:128|184:128|200:104|200:104|216:128|216:128|232:104|232:104|248:128|248:128|264:104|264:104|280:128|280:128|296:104|296:104|312:128|312:128|328:104|328:104|376:136,1,360,4|0,0:0|0:0,0:0:0:0:
360,248,85833,2,0,B|344:272|344:272|328:248|328:248|312:272|312:272|296:248|296:248|280:272|280:272|264:248|264:248|248:272|248:272|232:248|232:248|216:272|216:272|200:248|200:248|184:272|184:272|136:240,1,360,8|0,0:0|0:0,0:0:0:0:
256,192,87032,12,0,87931,0:0:0:0:
256,192,88231,5,4,0:0:0:0:
196,88,88531,2,0,B|332:88,2,120
256,192,89430,5,4,0:0:0:0:
144,232,89730,1,2,0:0:0:0:
240,304,90030,1,4,0:0:0:0:
356,268,90330,1,0,0:0:0:0:
360,148,90629,5,4,0:0:0:0:
268,68,90929,1,2,0:0:0:0:
156,112,91229,1,4,0:0:0:0:
144,232,91529,1,0,0:0:0:0:
256,192,91829,6,2,B|300:192,8,30
436,192,92878,5,2,0:0:0:0:
436,192,92953,1,2,0:0:0:0:
436,192,93028,1,4,0:0:0:0:
196,192,93627,1,2,0:0:0:0:
256,192,94227,12,4,99024,0:0:0:0:
