osu file format v11

[General]
AudioFilename: Gaussian Blur.mp3
AudioLeadIn: 0
PreviewTime: -1
Countdown: 0
SampleSet: Soft
StackLeniency: 0.7
Mode: 0
LetterboxInBreaks: 1

[Editor]
DistanceSpacing: 1.4
BeatDivisor: 4
GridSize: 8

[Metadata]
Title:Gaussian Blur
TitleUnicode:Gaussian Blur
Artist:Kil
ArtistUnicode:Kil
Creator:chickgod
Version:Extra
Source:O2Jam
Tags:
BeatmapID:207131
BeatmapSetID:25429

[Difficulty]
HPDrainRate:8
CircleSize:4
OverallDifficulty:8
ApproachRate:9
SliderMultiplier:1.6
SliderTickRate:0.5

[Events]
//Background and Video events
0,0,"Gaussian Blur.jpg"
//Break Periods
//Storyboard Layer 0 (Background)
//Storyboard Layer 1 (Fail)
//Storyboard Layer 2 (Pass)
//Storyboard Layer 3 (Foreground)
//Storyboard Sound Samples
//Background Colour Transformations
3,100,163,162,255

[TimingPoints]
1905,299.775168623532,4,2,1,50,1,0
3253,-100,4,2,1,5,0,0
3364,-100,4,2,1,50,0,0
3553,-100,4,2,1,5,0,0
3671,-100,4,2,1,50,0,0
21120,299.805126667666,4,2,1,50,1,0
22244,-66.6666666666667,4,2,1,50,0,0
23443,-50,4,2,1,50,0,0
24642,-66.6666666666667,4,2,1,50,0,0
25801,-100,4,2,1,40,0,0
25886,299.775168623532,4,2,1,40,1,0
30598,-100,4,2,1,40,0,1
40229,-66.6666666666667,4,2,1,40,0,1
41432,-50,4,2,1,40,0,1
45041,-133.333333333333,4,2,1,70,0,0
46120,-100,4,2,1,70,0,0
47356,-200,4,2,1,70,0,0
52185,-200,4,2,1,50,0,0
52560,-200,4,2,1,70,0,0
56792,-100,4,2,1,50,0,0
58332,-100,4,2,1,55,0,0
58631,-100,4,2,1,60,0,0
58931,-100,4,2,1,65,0,0
59231,-100,4,2,1,70,0,0
59627,299.805126667666,4,2,1,70,1,0
59668,-100,4,2,1,5,0,0
59744,-100,4,2,1,70,0,0
59824,-100,4,2,1,5,0,0
59889,-100,4,2,1,70,0,0
59964,-100,4,2,1,5,0,0
60027,-100,4,2,1,70,0,0
60114,-100,4,2,1,5,0,0
60187,-100,4,2,1,70,0,0
64397,299.805126667666,4,2,1,70,1,0
68750,-100,4,2,1,75,0,0
69950,-100,4,2,1,80,0,0
71149,-100,4,2,1,85,0,0
72573,-100,4,2,1,90,0,0
73697,-100,4,2,1,95,0,0
74972,-100,4,2,1,100,0,1
84641,-100,4,2,1,100,0,0
89962,-100,4,2,1,60,0,0
90262,-100,4,2,1,100,0,0
90562,-100,4,2,1,80,0,0
91162,-100,4,2,1,40,0,0
91462,-100,4,2,1,80,0,0
91761,-100,4,2,1,50,0,0
92736,-100,4,2,1,40,0,0
94227,285.714285714286,4,2,1,40,1,0

[Colours]
Combo1 : 255,255,0
Combo2 : 5,240,5
Combo3 : 5,5,240
Combo4 : 240,5,5

[HitObjects]
72,280,1905,2,0,P|72:176,1,80
56,160,2129,2,0,P|32:104,4,40
128,120,2504,6,0,P|216:120,1,80
232,88,2729,2,0,B|232:40,4,40
312,96,3104,2,0,P|360:96|360:96|360:184,1,120
360,208,3403,2,0,P|360:256|360:256|272:256,1,120
208,256,3703,2,0,B|192:312,3,40,4|0|0|0,0:0|0:0|0:0|0:0,0:0:0
128,256,4003,2,0,B|112:296,3,40
56,152,4303,6,0,P|128:80,1,80
144,72,4528,1,0,0:0:0
184,64,4602,2,0,B|240:64,3,40
304,72,4902,6,0,P|224:144,1,80
216,160,5127,1,0,0:0:0
184,184,5201,2,0,B|144:224,3,40
168,288,5502,5,0,0:0:0
168,288,5577,1,0,0:0:0
168,288,5652,1,0,0:0:0
168,288,5727,1,0,0:0:0
248,304,5802,1,0,0:0:0
248,304,5877,1,0,0:0:0
248,304,5951,1,0,0:0:0
248,304,6026,1,0,0:0:0
304,248,6101,2,0,B|336:272,3,40,4|0|0|0,0:0|0:0|0:0|0:0,0:0:0
360,192,6401,2,0,B|400:216,3,40
464,168,6701,6,0,B|464:88,1,80
464,48,6926,1,0,0:0:0
424,48,7001,1,0,0:0:0
384,48,7076,1,0,0:0:0
344,48,7151,1,0,0:0:0
304,48,7226,1,0,0:0:0
264,48,7300,6,0,B|264:160,1,80,2|0,0:0|0:0,0:0:0
264,168,7525,1,0,0:0:0
224,168,7600,1,0,0:0:0
184,168,7675,1,0,0:0:0
144,168,7750,1,0,0:0:0
104,168,7825,1,0,0:0:0
24,168,7900,6,0,P|24:120,3,40
24,48,8200,6,0,P|80:48,3,40
144,48,8500,1,0,0:0:0
144,48,8574,1,0,0:0:0
144,48,8649,1,0,0:0:0
144,48,8724,1,0,0:0:0
224,48,8799,1,0,0:0:0
224,48,8874,1,0,0:0:0
224,48,8949,1,0,0:0:0
224,48,9024,1,0,0:0:0
304,48,9099,5,2,0:0:0
192,128,9249,1,2,0:0:0
304,208,9399,1,2,0:0:0
192,288,9549,1,2,0:0:0
248,168,9699,2,0,B|248:120,8,40,0|0|0|0|0|0|0|0|4,0:0|0:0|0:0|0:0|0:0|0:0|0:0|0:0|0:0,0:0:0
56,192,10748,5,0,0:0:0
456,192,10898,1,8,0:0:0
256,48,11497,5,4,0:0:0
328,72,11647,5,0,0:0:0
360,96,11722,1,0,0:0:0
376,136,11797,1,0,0:0:0
368,176,11872,1,0,0:0:0
344,208,11947,1,0,0:0:0
312,232,12022,1,0,0:0:0
280,248,12097,1,2,0:0:0
312,320,12247,5,0,0:0:0
272,328,12322,1,0,0:0:0
232,312,12397,1,0,0:0:0
208,280,12472,1,0,0:0:0
200,240,12547,1,0,0:0:0
208,200,12621,1,0,0:0:0
240,176,12696,1,2,0:0:0
344,296,12996,1,0,0:0:0
240,176,13296,5,4,0:0:0
248,136,13371,1,0,0:0:0
240,96,13446,1,0,0:0:0
216,64,13521,1,0,0:0:0
176,48,13596,1,0,0:0:0
136,56,13671,1,0,0:0:0
104,80,13746,1,0,0:0:0
80,112,13821,1,0,0:0:0
72,152,13896,6,0,B|64:224|128:224,1,80,2|0,0:0|0:0,0:0:0
136,240,14120,1,0,0:0:0
176,248,14195,1,0,0:0:0
216,232,14270,1,0,0:0:0
248,208,14345,1,0,0:0:0
264,168,14420,1,0,0:0:0
272,128,14495,6,0,B|264:56|328:56,1,80,2|0,0:0|0:0,0:0:0
336,48,14720,1,0,0:0:0
376,48,14795,1,0,0:0:0
416,64,14870,1,0,0:0:0
440,96,14945,1,0,0:0:0
440,136,15020,1,0,0:0:0
424,176,15095,1,0,0:0:0
264,168,15394,1,0,0:0:0
256,192,15694,12,4,16294,0:0:0
472,208,16444,5,0,0:0:0
432,192,16519,1,0,0:0:0
400,168,16593,1,0,0:0:0
400,128,16668,1,0,0:0:0
400,168,16743,1,0,0:0:0
368,192,16818,1,0,0:0:0
328,208,16893,1,2,0:0:0
40,208,17043,5,0,0:0:0
80,192,17118,1,0,0:0:0
112,168,17192,1,0,0:0:0
112,128,17267,1,0,0:0:0
112,168,17342,1,0,0:0:0
144,192,17417,1,0,0:0:0
184,208,17493,6,0,P|224:208,3,40
328,176,17793,2,0,P|288:176,3,40
144,272,18092,2,0,P|184:272,3,40
368,112,18392,2,0,P|328:112,3,40
144,112,18692,5,0,0:0:0
208,256,18842,1,0,0:0:0
256,104,18992,1,0,0:0:0
304,256,19142,1,0,0:0:0
376,136,19291,1,2,0:0:0
376,136,19366,1,2,0:0:0
376,136,19441,1,2,0:0:0
376,136,19516,1,2,0:0:0
376,136,19591,1,2,0:0:0
376,136,19666,1,2,0:0:0
376,136,19741,1,2,0:0:0
376,136,19816,1,2,0:0:0
376,136,19891,1,2,0:0:0
256,48,20341,5,0,0:0:0
256,336,20491,1,4,0:0:0
208,176,21120,6,0,B|208:72,1,80
272,144,21419,2,0,B|360:144,1,80
304,208,21719,2,0,B|304:288,1,80
240,240,22019,2,0,B|136:240,1,80
152,152,22319,6,0,B|152:32,1,120.000004577637
296,88,22619,2,0,B|416:88,1,120.000004577637
360,232,22918,2,0,B|360:352,1,120.000004577637
216,296,23218,2,0,B|96:296,1,120.000004577637
80,144,23518,6,0,B|184:144|176:40,1,160
432,144,23818,2,0,B|328:144|336:40,1,160
432,240,24118,2,0,B|328:240|336:344,1,160
80,240,24417,2,0,B|184:240|176:344,1,160
136,160,24717,6,0,B|160:160|160:160|176:96|232:96,1,120.000004577637
136,224,25017,2,0,B|160:224|160:224|176:288|232:288,1,120.000004577637
376,224,25317,2,0,B|352:224|352:224|336:288|280:288,1,120.000004577637
376,160,25617,2,0,B|352:160|352:160|336:96|280:96,1,120.000004577637
48,88,25886,5,2,0:0:0
72,64,25960,1,2,0:0:0
104,48,26035,1,2,0:0:0
136,64,26110,1,2,0:0:0
160,88,26185,1,2,0:0:0
192,96,26260,1,2,0:0:0
224,88,26335,1,2,0:0:0
280,48,26485,1,2,0:0:0
312,64,26560,1,2,0:0:0
336,88,26635,1,2,0:0:0
392,48,26785,1,2,0:0:0
424,64,26860,1,2,0:0:0
448,88,26935,1,4,0:0:0
472,296,27085,5,2,0:0:0
448,320,27160,1,2,0:0:0
416,336,27234,1,2,0:0:0
384,320,27309,1,2,0:0:0
360,296,27384,1,2,0:0:0
328,288,27459,1,2,0:0:0
296,296,27534,1,2,0:0:0
240,336,27684,1,2,0:0:0
208,320,27759,1,2,0:0:0
184,296,27834,1,2,0:0:0
128,336,27984,1,2,0:0:0
96,320,28059,1,2,0:0:0
72,296,28134,1,4,0:0:0
120,88,28284,5,2,0:0:0
88,104,28359,1,2,0:0:0
80,136,28434,1,2,0:0:0
104,160,28509,1,2,0:0:0
136,160,28583,1,2,0:0:0
160,136,28658,1,2,0:0:0
152,104,28733,1,2,0:0:0
128,240,28883,1,2,0:0:0
128,240,28958,1,2,0:0:0
128,240,29033,1,2,0:0:0
200,296,29183,1,2,0:0:0
200,296,29258,1,2,0:0:0
200,296,29333,1,4,0:0:0
384,296,29483,5,2,0:0:0
416,280,29558,1,2,0:0:0
424,248,29633,1,2,0:0:0
400,224,29708,1,2,0:0:0
368,224,29783,1,2,0:0:0
344,248,29858,1,2,0:0:0
352,280,29932,1,2,0:0:0
376,144,30082,1,2,0:0:0
376,144,30157,1,2,0:0:0
376,144,30232,1,2,0:0:0
312,88,30382,1,2,0:0:0
312,88,30457,1,2,0:0:0
312,88,30532,1,4,0:0:0
120,88,30682,5,2,0:0:0
88,96,30757,1,2,0:0:0
64,120,30832,1,0,0:0:0
48,152,30907,2,0,B|32:176|48:192,2,40,2|2|0,0:0|0:0|0:0,0:0:0
80,160,31132,1,2,0:0:0
112,160,31207,1,2,0:0:0
144,168,31281,1,0,0:0:0
176,184,31356,2,0,B|200:192|208:216,2,40,2|2|0,0:0|0:0|0:0,0:0:0
168,216,31581,1,2,0:0:0
160,248,31656,1,2,0:0:0
168,280,31731,1,0,0:0:0
192,304,31806,1,0,0:0:0
224,320,31881,5,2,0:0:0
256,328,31956,1,2,0:0:0
288,336,32031,1,0,0:0:0
320,336,32106,2,0,B|352:344|360:320,2,40,2|2|0,0:0|0:0|0:0,0:0:0
320,304,32331,1,2,0:0:0
320,272,32406,1,2,0:0:0
336,240,32481,1,0,0:0:0
360,216,32555,2,0,B|376:200|400:208,2,40,2|2|0,0:0|0:0|0:0,0:0:0
328,216,32780,1,2,0:0:0
296,208,32855,1,2,0:0:0
264,192,32930,1,0,0:0:0
240,168,33005,1,0,0:0:0
232,136,33080,5,2,0:0:0
240,104,33155,1,2,0:0:0
264,80,33230,1,0,0:0:0
296,72,33305,2,0,B|320:64|336:80,2,40,2|2|0,0:0|0:0|0:0,0:0:0
320,48,33530,1,2,0:0:0
352,40,33605,1,2,0:0:0
384,56,33680,1,0,0:0:0
400,88,33755,2,0,B|408:104|400:128,2,40,2|2|0,0:0|0:0|0:0,0:0:0
368,104,33979,1,2,0:0:0
352,136,34054,1,2,0:0:0
376,168,34129,1,0,0:0:0
408,176,34204,1,0,0:0:0
440,192,34279,5,2,0:0:0
456,224,34354,1,2,0:0:0
456,256,34429,1,0,0:0:0
448,288,34504,2,0,B|440:312|424:320,2,40,2|2|0,0:0|0:0|0:0,0:0:0
416,280,34729,1,2,0:0:0
384,288,34804,1,2,0:0:0
352,280,34879,1,0,0:0:0
328,256,34954,2,0,B|304:248|304:224,2,40,2|2|0,0:0|0:0|0:0,0:0:0
304,280,35179,1,2,0:0:0
272,288,35253,1,2,0:0:0
240,280,35328,1,0,0:0:0
208,264,35403,1,0,0:0:0
184,240,35478,5,2,0:0:0
168,208,35553,1,2,0:0:0
168,176,35628,1,0,0:0:0
176,144,35703,2,0,B|184:120|208:120,2,40,2|0|0,0:0|0:0|0:0,0:0:0
144,136,35928,1,2,0:0:0
144,104,36003,1,2,0:0:0
168,80,36078,1,0,0:0:0
200,80,36153,2,0,B|224:96|224:112,2,40,2|2|0,0:0|0:0|0:0,0:0:0
168,56,36378,1,2,0:0:0
136,56,36453,1,2,0:0:0
104,72,36528,1,0,0:0:0
88,104,36602,1,0,0:0:0
88,136,36677,5,2,0:0:0
96,168,36752,1,2,0:0:0
112,200,36827,1,0,0:0:0
136,224,36902,2,0,B|152:248|176:232,2,40,2|2|0,0:0|0:0|0:0,0:0:0
112,248,37127,1,2,0:0:0
88,272,37202,1,2,0:0:0
80,304,37277,1,0,0:0:0
96,336,37352,2,0,B|112:352|136:352|136:352,2,40,2|2|0,0:0|0:0|0:0,0:0:0
128,320,37577,1,2,0:0:0
160,312,37652,1,2,0:0:0
192,320,37727,1,0,0:0:0
216,344,37802,1,0,0:0:0
248,360,37877,5,2,0:0:0
280,360,37951,1,2,0:0:0
312,352,38026,1,0,0:0:0
344,336,38101,2,0,B|368:320|368:296,2,40,2|2|0,0:0|0:0|0:0,0:0:0
320,312,38326,1,2,0:0:0
304,280,38401,1,2,0:0:0
304,248,38476,1,0,0:0:0
320,216,38551,2,0,B|336:192|376:200,2,40,2|2|0,0:0|0:0|0:0,0:0:0
352,232,38776,1,2,0:0:0
376,256,38851,1,2,0:0:0
408,264,38926,1,0,0:0:0
440,256,39001,1,0,0:0:0
464,232,39076,5,2,0:0:0
464,200,39151,1,2,0:0:0
440,176,39225,1,0,0:0:0
408,160,39300,2,0,B|400:184|392:216,2,40,2|2|0,0:0|0:0|0:0,0:0:0
376,168,39525,1,2,0:0:0
344,160,39600,1,2,0:0:0
328,128,39675,1,0,0:0:0
344,96,39750,2,0,B|360:72|392:80,2,40,2|2|0,0:0|0:0|0:0,0:0:0
376,104,39975,1,2,0:0:0
408,120,40050,1,2,0:0:0
440,112,40125,1,0,0:0:0
464,88,40200,1,0,0:0:0
480,40,40275,6,0,B|448:40|448:40|416:8,1,60.0000022888184
400,72,40425,1,0,0:0:0
368,128,40500,6,0,B|336:128|336:128|304:96,1,60.0000022888184
288,160,40649,1,0,0:0:0
256,216,40724,6,0,B|224:216|224:216|192:184,1,60.0000022888184
176,248,40874,1,0,0:0:0
144,296,40949,6,0,B|112:296|112:296|80:264,1,60.0000022888184
56,320,41099,1,0,0:0:0
56,216,41174,2,0,P|56:152,3,60.0000022888184
56,48,41474,5,0,0:0:0
128,80,41549,2,0,P|168:80|168:80|208:48,1,80
128,96,41699,5,0,0:0:0
200,128,41774,2,0,P|240:128|240:128|280:96,1,80
200,144,41923,5,0,0:0:0
272,176,41998,2,0,P|312:176|312:176|352:144,1,80
272,192,42148,5,0,0:0:0
344,224,42223,2,0,P|384:224|384:224|424:192,1,80
416,120,42373,2,0,P|416:40,3,80
336,32,42673,6,0,B|224:32,1,80
176,32,42823,1,0,0:0:0
96,32,42898,2,0,B|40:32|40:80,1,80
40,152,43047,1,0,0:0:0
40,232,43122,2,0,B|40:280|96:280,1,80
176,280,43272,1,0,0:0:0
256,280,43347,2,0,B|392:280,1,80
416,280,43497,1,0,0:0:0
456,208,43572,5,0,0:0:0
432,128,43647,1,0,0:0:0
352,120,43722,1,0,0:0:0
304,184,43797,1,0,0:0:0
224,200,43872,6,0,B|112:200,1,80
112,128,44022,1,0,0:0:0
144,56,44097,2,0,B|248:56,1,80
304,56,44246,1,0,0:0:0
384,56,44321,2,0,B|440:56|440:112,1,80
440,184,44471,1,0,0:0:0
360,184,44546,2,0,B|304:184|304:128,1,80
224,136,44696,1,0,0:0:0
144,120,44771,5,0,0:0:0
80,168,44846,1,0,0:0:0
104,248,44921,1,0,0:0:0
176,272,44996,1,0,0:0:0
240,216,45071,6,0,P|232:208|232:208|248:208|248:208|248:224|248:224|232:224|232:224|232:208|232:208|248:208|248:208|248:224|248:224|232:224|232:224|232:208|232:208|240:208|240:208|240:88,1,240.000009155274,4|0,0:0|0:0,0:0:0
256,72,46270,5,4,0:0:0
256,312,46570,5,4,0:0:0
80,192,47469,5,4,0:0:0
152,192,47769,1,0,0:0:0
168,192,47844,1,0,0:0:0
184,192,47919,1,0,0:0:0
200,192,47994,1,0,0:0:0
216,192,48069,2,0,B|256:192|296:192,1,80,8|0,0:0|0:0,0:0:0
290,121,48668,2,0,B|338:121|344:176,1,80,0|0,0:0|0:0,0:0:0
344,232,49268,2,0,B|344:272|280:272,1,80
224,272,49868,2,0,B|178:271|184:216,1,80,4|0,0:0|0:0,0:0:0
256,192,50392,12,8,51067,0:0:0
64,328,52266,5,4,0:0:0
448,56,54664,5,10,0:0:0
112,56,57062,5,4,0:0:0
184,56,57212,5,0,0:0:0
184,56,57287,1,0,0:0:0
184,56,57362,1,2,0:0:0
256,56,57512,5,0,0:0:0
256,56,57587,1,0,0:0:0
256,56,57662,1,2,0:0:0
328,56,57812,5,0,0:0:0
328,56,57886,1,0,0:0:0
328,56,57961,1,2,0:0:0
400,56,58111,5,0,0:0:0
400,56,58186,1,0,0:0:0
400,56,58261,1,2,0:0:0
400,128,58411,5,0,0:0:0
400,160,58486,1,0,0:0:0
400,192,58561,1,2,0:0:0
320,200,58711,5,0,0:0:0
320,160,58786,1,0,0:0:0
320,120,58861,1,2,0:0:0
232,112,59011,5,0,0:0:0
232,160,59086,1,0,0:0:0
232,208,59161,1,2,0:0:0
128,216,59310,5,0,0:0:0
128,160,59385,1,0,0:0:0
128,104,59460,1,2,0:0:0
224,48,59627,6,0,B|200:80,1,40
304,128,59776,2,0,B|328:160,1,40
176,224,59926,2,0,B|152:256,1,40
296,296,60076,2,0,B|320:328,1,40
64,56,60376,5,4,0:0:0
448,56,60676,1,0,0:0:0
448,328,60976,1,2,0:0:0
64,328,61275,1,0,0:0:0
64,56,61575,5,0,0:0:0
448,328,61875,1,8,0:0:0
448,56,62175,1,0,0:0:0
64,328,62475,1,2,0:0:0
64,56,62774,5,0,0:0:0
448,56,63074,1,2,0:0:0
64,328,63374,1,0,0:0:0
296,168,63674,1,0,0:0:0
64,56,63974,1,4,0:0:0
168,40,64397,5,0,0:0:0
40,80,64546,1,0,0:0:0
88,216,64696,1,0,0:0:0
216,176,64846,5,0,0:0:0
408,96,64996,1,0,0:0:0
488,272,65146,1,0,0:0:0
296,352,65296,1,0,0:0:0
408,352,65446,5,0,0:0:0
488,176,65596,1,0,0:0:0
296,96,65746,1,0,0:0:0
216,272,65896,1,0,0:0:0
296,208,66045,5,0,0:0:0
104,288,66195,1,0,0:0:0
24,112,66345,1,0,0:0:0
216,32,66495,1,0,0:0:0
104,32,66645,5,0,0:0:0
24,208,66795,1,0,0:0:0
216,288,66945,1,0,0:0:0
296,112,67095,1,0,0:0:0
120,216,67245,1,0,0:0:0
424,216,67394,1,0,0:0:0
40,56,67544,1,0,0:0:0
448,344,67694,1,0,0:0:0
160,48,67844,5,2,0:0:0
360,120,67994,1,2,0:0:0
160,192,68144,1,2,0:0:0
360,264,68294,1,2,0:0:0
160,336,68444,1,4,0:0:0
56,288,69043,5,2,0:0:0
160,104,69193,1,2,0:0:0
256,288,69343,1,2,0:0:0
352,104,69493,1,2,0:0:0
456,288,69643,1,4,0:0:0
256,80,70243,5,2,0:0:0
184,280,70393,1,2,0:0:0
360,160,70543,1,2,0:0:0
152,160,70692,1,2,0:0:0
328,280,70842,1,4,0:0:0
256,344,71442,5,2,0:0:0
440,248,71592,1,2,0:0:0
360,56,71742,1,2,0:0:0
152,56,71892,1,2,0:0:0
72,248,72042,1,4,0:0:0
256,56,72641,5,2,0:0:0
256,80,72941,1,2,0:0:0
256,104,73241,1,2,0:0:0
256,128,73541,1,2,0:0:0
256,272,73840,5,2,0:0:0
256,240,73990,1,2,0:0:0
256,208,74140,1,2,0:0:0
256,176,74290,1,2,0:0:0
176,32,74440,5,4,0:0:0
328,88,74590,1,2,0:0:0
208,160,74740,1,0,0:0:0
304,200,74890,1,0,0:0:0
208,248,75040,5,0,0:0:0
176,264,75115,1,0,0:0:0
144,264,75189,1,0,0:0:0
112,256,75264,1,0,0:0:0
88,232,75339,1,2,0:0:0
80,96,75639,5,0,0:0:0
72,128,75714,1,0,0:0:0
88,160,75789,1,0,0:0:0
128,120,75939,5,2,0:0:0
160,112,76014,1,0,0:0:0
192,88,76089,1,0,0:0:0
216,56,76164,1,0,0:0:0
248,40,76239,5,0,0:0:0
280,40,76314,1,0,0:0:0
312,56,76389,1,0,0:0:0
328,88,76464,1,0,0:0:0
344,120,76539,1,2,0:0:0
216,168,76838,5,0,0:0:0
248,192,76913,1,0,0:0:0
280,192,76988,1,0,0:0:0
288,264,77138,5,0,0:0:0
320,264,77213,1,0,0:0:0
352,248,77288,1,0,0:0:0
368,216,77363,1,0,0:0:0
368,184,77438,5,0,0:0:0
360,152,77513,1,0,0:0:0
336,128,77588,1,0,0:0:0
304,112,77663,1,0,0:0:0
272,96,77738,1,2,0:0:0
320,48,77888,5,0,0:0:0
288,32,77963,1,0,0:0:0
256,32,78038,1,0,0:0:0
224,48,78113,1,0,0:0:0
208,80,78188,1,2,0:0:0
136,96,78337,5,0,0:0:0
136,128,78412,1,0,0:0:0
152,160,78487,1,0,0:0:0
176,184,78562,1,0,0:0:0
208,200,78637,5,2,0:0:0
240,208,78712,1,0,0:0:0
272,208,78787,1,0,0:0:0
304,200,78862,1,0,0:0:0
336,184,78937,5,2,0:0:0
304,200,79012,1,0,0:0:0
272,208,79087,1,0,0:0:0
240,224,79162,1,0,0:0:0
216,248,79237,5,2,0:0:0
208,280,79312,1,2,0:0:0
216,312,79387,1,2,0:0:0
240,336,79462,1,2,0:0:0
272,344,79537,2,0,B|296:344,8,20,0|0|0|0|0|0|0|0|4,0:0|0:0|0:0|0:0|0:0|0:0|0:0|0:0|0:0,0:0:0
344,328,79986,5,0,0:0:0
376,312,80061,1,0,0:0:0
376,280,80136,1,0,0:0:0
448,264,80286,1,2,0:0:0
472,200,80436,1,0,0:0:0
440,192,80511,1,0,0:0:0
416,160,80586,1,0,0:0:0
360,112,80736,1,2,0:0:0
336,88,80811,1,0,0:0:0
304,104,80886,1,0,0:0:0
272,88,80961,1,0,0:0:0
248,112,81036,1,4,0:0:0
184,136,81186,5,0,0:0:0
152,152,81261,1,0,0:0:0
120,136,81335,1,0,0:0:0
80,192,81485,1,2,0:0:0
120,248,81635,1,0,0:0:0
152,232,81710,1,0,0:0:0
184,248,81785,1,0,0:0:0
152,312,81935,1,2,0:0:0
184,328,82010,1,0,0:0:0
216,320,82085,1,0,0:0:0
240,296,82160,1,0,0:0:0
256,264,82235,5,4,0:0:0
256,232,82310,1,0,0:0:0
240,200,82385,1,0,0:0:0
208,176,82460,1,0,0:0:0
176,168,82535,1,2,0:0:0
152,232,82685,1,4,0:0:0
120,208,82760,1,0,0:0:0
112,176,82835,1,0,0:0:0
112,144,82909,1,0,0:0:0
136,112,82984,1,2,0:0:0
208,112,83134,1,2,0:0:0
200,80,83209,1,0,0:0:0
216,48,83284,1,0,0:0:0
248,32,83359,1,0,0:0:0
280,48,83434,5,4,0:0:0
296,80,83509,1,0,0:0:0
288,112,83584,1,0,0:0:0
280,144,83659,1,0,0:0:0
288,176,83734,5,0,0:0:0
312,200,83809,1,0,0:0:0
344,216,83884,1,0,0:0:0
376,216,83959,1,0,0:0:0
408,192,84034,5,6,0:0:0
416,160,84109,1,2,0:0:0
416,128,84184,1,2,0:0:0
392,104,84259,1,2,0:0:0
360,96,84334,2,0,B|328:96,7,20
320,64,84633,6,0,B|288:32,3,40,4|0|0|0,0:0|0:0|0:0|0:0,0:0:0
264,112,84933,6,0,B|232:136,3,40
192,64,85233,6,0,B|160:32,3,40
120,104,85533,6,0,B|88:136,3,40
64,208,85833,5,4,0:0:0
72,248,85908,1,0,0:0:0
88,288,85982,1,0,0:0:0
128,304,86057,1,0,0:0:0
168,296,86132,5,0,0:0:0
192,264,86207,1,0,0:0:0
192,224,86282,1,0,0:0:0
160,200,86357,1,0,0:0:0
152,160,86432,5,0,0:0:0
176,128,86507,1,0,0:0:0
216,112,86582,1,0,0:0:0
256,120,86657,1,0,0:0:0
280,152,86732,5,0,0:0:0
296,192,86807,1,0,0:0:0
296,232,86882,1,0,0:0:0
272,264,86957,1,0,0:0:0
352,168,87032,5,4,0:0:0
384,128,87107,1,0,0:0:0
432,128,87182,1,0,0:0:0
464,168,87257,1,0,0:0:0
464,216,87332,1,0,0:0:0
416,232,87407,1,0,0:0:0
448,272,87481,1,0,0:0:0
432,320,87556,1,0,0:0:0
384,328,87631,1,0,0:0:0
344,296,87706,1,0,0:0:0
336,248,87781,1,0,0:0:0
304,280,87856,1,0,0:0:0
264,304,87931,1,0,0:0:0
216,296,88006,1,0,0:0:0
184,264,88081,1,0,0:0:0
176,216,88156,1,0,0:0:0
152,312,88231,5,4,0:0:0
96,280,88306,1,0,0:0:0
64,232,88381,1,0,0:0:0
56,176,88456,1,0,0:0:0
80,120,88531,1,0,0:0:0
136,96,88606,1,0,0:0:0
160,40,88681,1,0,0:0:0
136,96,88756,1,0,0:0:0
144,152,88831,1,0,0:0:0
192,192,88906,1,0,0:0:0
248,200,88981,1,0,0:0:0
296,160,89055,1,0,0:0:0
248,200,89130,1,0,0:0:0
216,248,89205,1,0,0:0:0
224,304,89280,1,0,0:0:0
280,328,89355,1,0,0:0:0
376,240,89430,5,4,0:0:0
376,240,89505,1,0,0:0:0
376,240,89580,1,0,0:0:0
376,240,89655,1,0,0:0:0
480,240,89730,2,0,P|440:240,3,40
312,240,90030,5,4,0:0:0
312,240,90105,1,0,0:0:0
312,240,90180,1,0,0:0:0
312,240,90255,1,0,0:0:0
208,240,90330,2,0,P|256:240,3,40
136,240,90629,5,4,0:0:0
136,240,90704,1,0,0:0:0
136,240,90779,1,0,0:0:0
136,240,90854,1,0,0:0:0
72,240,90929,2,0,P|32:240,3,40
208,240,91229,5,4,0:0:0
208,240,91304,1,0,0:0:0
208,240,91379,1,0,0:0:0
208,240,91454,1,0,0:0:0
312,240,91529,2,0,P|248:240,3,40
248,160,91829,5,2,0:0:0
168,160,91904,1,2,0:0:0
248,160,91979,1,2,0:0:0
248,80,92054,1,2,0:0:0
248,160,92128,1,2,0:0:0
328,160,92203,1,2,0:0:0
248,160,92278,1,2,0:0:0
248,240,92353,1,2,0:0:0
248,160,92428,1,2,0:0:0
224,320,92878,5,2,0:0:0
258,321,92953,1,2,0:0:0
293,321,93028,1,4,0:0:0
256,64,93627,1,2,0:0:0
72,320,94227,5,0,0:0:0
112,304,94298,1,0,0:0:0
128,264,94369,1,0,0:0:0
120,216,94441,1,0,0:0:0
96,176,94512,1,0,0:0:0
104,136,94584,1,0,0:0:0
128,104,94655,1,0,0:0:0
128,144,94726,1,0,0:0:0
160,176,94798,1,0,0:0:0
200,168,94869,1,0,0:0:0
208,128,94941,1,0,0:0:0
232,88,95012,1,0,0:0:0
272,72,95084,1,0,0:0:0
272,120,95155,1,0,0:0:0
304,152,95226,1,0,0:0:0
352,136,95298,1,0,0:0:0
384,104,95369,5,0,0:0:0
432,96,95441,1,0,0:0:0
464,128,95512,1,0,0:0:0
472,176,95584,1,0,0:0:0
448,216,95655,1,0,0:0:0
416,248,95726,1,0,0:0:0
376,272,95798,1,0,0:0:0
352,312,95869,1,0,0:0:0
312,280,95941,1,0,0:0:0
272,256,96012,1,0,0:0:0
224,256,96084,1,0,0:0:0
184,280,96155,1,0,0:0:0
160,320,96226,1,0,0:0:0
136,280,96298,1,0,0:0:0
96,256,96369,1,0,0:0:0
48,264,96441,1,0,0:0:0
56,216,96512,5,0,0:0:0
64,168,96584,1,0,0:0:0
104,136,96655,1,0,0:0:0
152,144,96726,1,0,0:0:0
184,184,96798,1,0,0:0:0
192,232,96869,1,0,0:0:0
184,280,96941,1,0,0:0:0
224,320,97012,1,0,0:0:0
272,328,97084,1,0,0:0:0
320,312,97155,1,0,0:0:0
368,328,97226,1,0,0:0:0
408,360,97298,1,0,0:0:0
400,312,97369,1,0,0:0:0
416,264,97441,1,0,0:0:0
456,232,97512,1,0,0:0:0
472,184,97584,1,0,0:0:0
464,128,97655,5,0,0:0:0
440,80,97726,1,0,0:0:0
392,56,97798,1,0,0:0:0
336,40,97869,1,0,0:0:0
304,88,97941,1,0,0:0:0
272,40,98012,1,0,0:0:0
224,64,98084,1,0,0:0:0
176,40,98155,1,0,0:0:0
152,88,98226,1,0,0:0:0
112,128,98298,1,0,0:0:0
88,176,98369,1,0,0:0:0
120,224,98441,1,0,0:0:0
112,288,98512,1,0,0:0:0
72,328,98584,1,0,0:0:0
112,288,98655,1,0,0:0:0
168,280,98726,1,0,0:0:0
216,312,98798,1,0,0:0:0
272,312,98869,1,0,0:0:0
312,272,98941,1,0,0:0:0
304,216,99012,1,0,0:0:0
256,184,99084,1,4,0:0:0
