osu file format v14

[General]
AudioFilename: audio.mp3
AudioLeadIn: 0
PreviewTime: 136833
Countdown: 0
SampleSet: Normal
StackLeniency: 0.2
Mode: 1
LetterboxInBreaks: 0
WidescreenStoryboard: 0

[Editor]
Bookmarks: 1854,48104,75604,95604,109354,111854,131854,136854,165604,194354,218104
DistanceSpacing: 2.4
BeatDivisor: 6
GridSize: 32
TimelineZoom: 1.7

[Metadata]
Title:Desert Theater
TitleUnicode:デザート・シアター
Artist:KikuoHana
ArtistUnicode:きくおはな
Creator:Alchyr
Version:Withered
Source:
Tags:花たん YURiCa hanatan 第一幕 First Act 1 Daiichimaku japanese rock
BeatmapID:1996725
BeatmapSetID:955835

[Difficulty]
HPDrainRate:5.5
CircleSize:2.2
OverallDifficulty:6.6
ApproachRate:10
SliderMultiplier:1.4
SliderTickRate:1

[Events]
//Background and Video events
0,0,"bg.jpg",0,0
//Break Periods
//Storyboard Layer 0 (Background)
//Storyboard Layer 1 (Fail)
//Storyboard Layer 2 (Pass)
//Storyboard Layer 3 (Foreground)
//Storyboard Layer 4 (Overlay)
//Storyboard Sound Samples

[TimingPoints]
604,250,5,1,0,80,1,0
604,-151.515151515152,5,1,0,80,0,0
1479,-151.515151515152,5,1,0,80,0,0
1854,-100,5,1,0,80,0,0
6479,-98.0392156862745,5,1,0,80,0,0
6604,-95.2380952380952,5,1,0,80,0,0
6729,-91.743119266055,5,1,0,80,0,0
6854,-87.719298245614,5,1,0,80,0,0
11979,-100,5,1,0,60,0,0
16416,-98.0392156862745,5,1,0,60,0,0
16479,-96.1538461538461,5,1,0,60,0,0
16541,-94.3396226415094,5,1,0,60,0,0
16604,-92.5925925925926,5,1,0,60,0,0
16666,-90.9090909090909,5,1,0,60,0,0
16729,-89.2857142857143,5,1,0,60,0,0
16791,-87.719298245614,5,1,0,60,0,0
16822,-86.2068965517241,5,1,0,80,0,0
16916,-94.3396226415094,5,1,0,60,0,0
17229,-100,5,1,0,60,0,0
17666,-98.0392156862745,5,1,0,60,0,0
17729,-96.1538461538461,5,1,0,60,0,0
17791,-94.3396226415094,5,1,0,60,0,0
17854,-92.5925925925926,5,1,0,60,0,0
17979,-90.0900900900901,5,1,0,60,0,0
18041,-87.719298245614,5,1,0,80,0,0
18166,-93.4579439252336,5,1,0,60,0,0
18416,-87.719298245614,5,1,0,80,0,0
18541,-89.2857142857143,5,1,0,60,0,0
18729,-90.9090909090909,5,1,0,60,0,0
18854,-92.5925925925926,5,1,0,60,0,0
18979,-94.3396226415094,5,1,0,60,0,0
19104,-96.1538461538461,5,1,0,60,0,0
19229,-98.0392156862745,5,1,0,60,0,0
19291,-87.719298245614,5,1,0,80,0,0
19416,-95.2380952380952,5,1,0,60,0,0
19729,-100,5,1,0,60,0,0
20541,-87.719298245614,5,1,0,80,0,0
20666,-89.2857142857143,5,1,0,60,0,0
20854,-90.4977375565611,5,1,0,60,0,0
20979,-91.743119266055,5,1,0,60,0,0
21104,-93.0232558139535,5,1,0,60,0,0
21229,-93.4579439252336,5,1,0,60,0,0
21354,-94.3396226415094,5,1,0,60,0,0
21416,-95.2380952380952,5,1,0,60,0,0
21479,-96.1538461538461,5,1,0,60,0,0
21541,-97.0873786407767,5,1,0,60,0,0
21604,-98.0392156862745,5,1,0,60,0,0
21729,-99.009900990099,5,1,0,60,0,0
21854,-100,5,1,0,60,0,0
22229,-107.52688172043,5,1,0,60,0,0
22604,-116.279069767442,5,1,0,60,0,0
22729,-120.481927710843,5,1,0,60,0,0
22854,-125,5,1,0,60,0,0
22979,-129.87012987013,5,1,0,60,0,0
23041,-131.578947368421,5,1,0,60,0,0
23104,-133.333333333333,5,1,0,60,0,0
28104,-151.515151515152,5,1,0,60,0,0
32854,-169.491525423729,5,1,0,60,0,0
32916,-158.730158730159,5,1,0,60,0,0
32979,-149.253731343284,5,1,0,60,0,0
33041,-140.845070422535,5,1,0,60,0,0
33104,-133.333333333333,5,1,0,60,0,0
41291,-133.333333333333,5,1,0,60,0,0
41479,-153.846153846154,5,1,0,60,0,0
41729,-181.818181818182,5,1,0,60,0,0
42604,-87.719298245614,5,1,0,60,0,0
42729,-93.4579439252336,5,1,0,65,0,0
42854,-100,5,1,0,70,0,0
42979,-107.52688172043,5,1,0,75,0,0
43104,-100,5,1,0,80,0,0
45229,-98.0392156862745,5,1,0,80,0,0
45354,-95.2380952380952,5,1,0,80,0,0
45479,-91.743119266055,5,1,0,80,0,0
45604,-87.719298245614,5,1,0,80,0,0
48104,-87.719298245614,5,1,0,80,0,1
48354,-87.719298245614,5,1,0,80,0,1
54354,-82.6446280991736,5,1,0,80,0,1
54604,-87.719298245614,5,1,0,80,0,1
54729,-82.6446280991736,5,1,0,80,0,1
54979,-96.1538461538461,5,1,0,80,0,1
55104,-94.3396226415094,5,1,0,80,0,1
55166,-93.4579439252336,5,1,0,80,0,1
55229,-92.5925925925926,5,1,0,80,0,1
55291,-91.743119266055,5,1,0,80,0,1
55354,-90.9090909090909,5,1,0,80,0,1
55479,-89.2857142857143,5,1,0,80,0,1
55604,-87.719298245614,5,1,0,80,0,1
55854,-100,5,1,0,80,0,1
56854,-100,5,1,0,80,0,1
56979,-98.6193293885602,5,1,0,80,0,1
57104,-97.2762645914397,5,1,0,80,0,1
57229,-95.9692898272553,5,1,0,80,0,1
57354,-94.6969696969697,5,1,0,80,0,1
57479,-93.4579439252336,5,1,0,80,0,1
57604,-92.2509225092251,5,1,0,80,0,1
57729,-91.0746812386157,5,1,0,80,0,1
57791,-90.4977375565611,5,1,0,80,0,1
57854,-89.9280575539568,5,1,0,80,0,1
57916,-89.3655049151028,5,1,0,80,0,1
57979,-88.809946714032,5,1,0,80,0,1
58041,-88.261253309797,5,1,0,80,0,1
58104,-87.719298245614,5,1,0,80,0,1
64354,-82.6446280991736,5,1,0,80,0,1
64604,-87.719298245614,5,1,0,80,0,1
64729,-82.6446280991736,5,1,0,80,0,1
64979,-96.1538461538461,5,1,0,80,0,1
65104,-94.3396226415094,5,1,0,80,0,1
65166,-93.4579439252336,5,1,0,80,0,1
65229,-92.5925925925926,5,1,0,80,0,1
65291,-91.743119266055,5,1,0,80,0,1
65354,-90.9090909090909,5,1,0,80,0,1
65479,-89.2857142857143,5,1,0,80,0,1
65604,-87.719298245614,5,1,0,80,0,1
65854,-100,5,1,0,80,0,1
66854,-100,5,1,0,80,0,1
66979,-98.6193293885602,5,1,0,80,0,1
67104,-97.2762645914397,5,1,0,80,0,1
67229,-95.9692898272553,5,1,0,80,0,1
67354,-94.6969696969697,5,1,0,80,0,1
67479,-93.4579439252336,5,1,0,80,0,1
67604,-92.2509225092251,5,1,0,80,0,1
67729,-91.0746812386157,5,1,0,80,0,1
67791,-90.4977375565611,5,1,0,80,0,1
67854,-89.9280575539568,5,1,0,80,0,1
67916,-89.3655049151028,5,1,0,80,0,1
67979,-88.809946714032,5,1,0,80,0,1
68041,-88.261253309797,5,1,0,80,0,1
68104,-87.719298245614,5,1,0,80,0,1
68229,-90.9090909090909,5,1,0,80,0,1
68479,-100,5,1,0,80,0,1
74354,-100,5,1,0,80,0,1
74479,-98.6249706590712,5,1,0,80,0,1
74604,-97.2872425293127,5,1,0,80,0,1
74729,-95.9853180857456,5,1,0,80,0,1
74854,-94.7177789059718,5,1,0,80,0,1
74979,-93.4832805152798,5,1,0,80,0,1
75104,-92.2806327867551,5,1,0,80,0,1
75229,-91.1084527689225,5,1,0,80,0,1
75291,-90.5334593559087,5,1,0,80,0,1
75354,-89.9656780938072,5,1,0,80,0,1
75416,-89.404974135141,5,1,0,80,0,1
75479,-88.8512159733162,5,1,0,80,0,1
75541,-88.3042753397949,5,1,0,80,0,1
75604,-87.719298245614,5,1,0,80,0,0
75729,-100,5,1,0,50,0,0
93604,-100,5,1,0,50,0,0
93729,-99.1348501626307,5,1,0,51,0,0
93792,-98.7078159809928,5,1,0,52,0,0
93854,-98.2844450123101,5,1,0,53,0,0
93979,-97.448600735542,5,1,0,54,0,0
94104,-96.6268531822605,5,1,0,55,0,0
94229,-95.8188487173689,5,1,0,56,0,0
94291,-95.4198473282443,5,1,0,57,0,0
94354,-95.0241551402366,5,1,0,58,0,0
94479,-94.2426238654366,5,1,0,59,0,0
94604,-93.4738432144533,5,1,0,60,0,0
94666,-93.0940939244933,5,1,0,62,0,0
94729,-92.7175036739311,5,1,0,64,0,0
94854,-91.9732210769512,5,1,0,66,0,0
94979,-91.2408759124088,5,1,0,68,0,0
95104,-90.5201013463055,5,1,0,70,0,0
95166,-90.1639270357437,5,1,0,72,0,0
95229,-89.8105446560481,5,1,0,74,0,0
95354,-89.1121048100932,5,1,0,76,0,0
95479,-88.4244444071097,5,1,0,78,0,0
95604,-87.719298245614,5,1,0,80,0,0
95729,-89.1206024552726,5,1,0,80,0,0
95979,-92.062042451649,5,1,0,80,0,0
96104,-93.6067524166923,5,1,0,80,0,0
96229,-95.204275052767,5,1,0,80,0,0
96354,-96.8571782791966,5,1,0,80,0,0
96479,-98.5684898223106,5,1,0,80,0,0
96604,-100.341361311181,5,1,0,80,0,0
96729,-102.17927967695,5,1,0,80,0,0
96854,-104.166666666667,5,1,0,80,0,0
96979,-102.675518665383,5,1,0,80,0,0
97229,-99.8177328198709,5,1,0,80,0,0
97354,-98.4476770286128,5,1,0,80,0,0
97479,-97.1147216206505,5,1,0,80,0,0
97604,-95.8174715493973,5,1,0,80,0,0
97729,-94.5543323376762,5,1,0,80,0,0
97791,-93.9351697032776,5,1,0,80,0,0
97854,-93.3240631430611,5,1,0,80,0,0
97979,-92.1253974059331,5,1,0,80,0,0
98104,-90.9090909090909,5,1,0,80,0,0
98229,-93.1869180476968,5,1,0,80,0,0
98479,-98.1030788670272,5,1,0,80,0,0
98604,-100.760946669246,5,1,0,80,0,0
98729,-103.566842039853,5,1,0,80,0,0
98854,-106.533485605195,5,1,0,80,0,0
98979,-109.675098488238,5,1,0,80,0,0
99104,-113.007630275196,5,1,0,80,0,0
99229,-116.549029845876,5,1,0,80,0,0
99354,-120.481927710843,5,1,0,80,0,0
99479,-116.161422559245,5,1,0,80,0,0
99729,-108.387689759748,5,1,0,80,0,0
99854,-104.878419691972,5,1,0,80,0,0
99979,-101.589159217642,5,1,0,80,0,0
100104,-98.5000413700174,5,1,0,80,0,0
100229,-95.593155530064,5,1,0,80,0,0
100354,-92.8530108981579,5,1,0,80,0,0
100416,-91.5409732819361,5,1,0,80,0,0
100479,-90.2655793876744,5,1,0,80,0,0
100604,-87.719298245614,5,1,0,80,0,0
100729,-89.1206024552726,5,1,0,80,0,0
100979,-92.062042451649,5,1,0,80,0,0
101104,-93.6067524166923,5,1,0,80,0,0
101229,-95.204275052767,5,1,0,80,0,0
101354,-96.8571782791966,5,1,0,80,0,0
101479,-98.5684898223106,5,1,0,80,0,0
101604,-100.341361311181,5,1,0,80,0,0
101729,-102.17927967695,5,1,0,80,0,0
101854,-104.166666666667,5,1,0,80,0,0
101979,-102.675518665383,5,1,0,80,0,0
102229,-99.8177328198709,5,1,0,80,0,0
102354,-98.4476770286128,5,1,0,80,0,0
102479,-97.1147216206505,5,1,0,80,0,0
102604,-95.8174715493973,5,1,0,80,0,0
102729,-94.5543323376762,5,1,0,80,0,0
102791,-93.9351697032776,5,1,0,80,0,0
102854,-93.3240631430611,5,1,0,80,0,0
102979,-92.1253974059331,5,1,0,80,0,0
103104,-90.9090909090909,5,1,0,80,0,0
103229,-93.1869180476968,5,1,0,80,0,0
103479,-98.1030788670272,5,1,0,80,0,0
103604,-100.760946669246,5,1,0,80,0,0
103729,-103.566842039853,5,1,0,80,0,0
103854,-106.533485605195,5,1,0,80,0,0
103979,-109.675098488238,5,1,0,80,0,0
104104,-113.007630275196,5,1,0,80,0,0
104229,-116.549029845876,5,1,0,80,0,0
104354,-100,5,1,0,80,0,0
106979,-99.2701657414687,5,1,0,80,0,0
107041,-98.9092290223416,5,1,0,80,0,0
107104,-98.550810334038,5,1,0,80,0,0
107229,-97.8419011855503,5,1,0,80,0,0
107354,-97.143118041517,5,1,0,80,0,0
107479,-96.454245481842,5,1,0,80,0,0
107604,-95.7749824252907,5,1,0,80,0,0
107729,-95.1053101098847,5,1,0,80,0,0
107854,-94.4449376568967,5,1,0,80,0,0
107979,-93.7935847063932,5,1,0,80,0,0
108104,-93.1512412868658,5,1,0,80,0,0
108229,-92.5176361743957,5,1,0,80,0,0
108291,-92.2040549499286,5,1,0,80,0,0
108354,-91.8925078200524,5,1,0,80,0,0
108479,-91.2758538856131,5,1,0,80,0,0
108604,-90.6674210196095,5,1,0,80,0,0
108666,-90.3662362824053,5,1,0,80,0,0
108729,-90.0670459089746,5,1,0,80,0,0
108854,-89.4744894809316,5,1,0,80,0,0
108979,-88.8897580331897,5,1,0,80,0,0
109104,-88.3126196084042,5,1,0,80,0,0
109229,-87.7428502738454,5,1,0,80,0,0
109354,-90.0900900900901,5,1,0,65,0,0
109416,-91.7819371312087,5,1,0,65,0,0
109479,-93.5385444280025,5,1,0,65,0,0
109604,-97.2614104655223,5,1,0,65,0,0
109729,-101.293005211525,5,1,0,65,0,0
109791,-103.436790811503,5,1,0,65,0,0
109854,-105.673281461842,5,1,0,65,0,0
109979,-110.449396504498,5,1,0,65,0,0
110104,-115.677814152024,5,1,0,65,0,0
110166,-118.482148887038,5,1,0,65,0,0
110229,-121.425830674108,5,1,0,65,0,0
110354,-127.774789267429,5,1,0,65,0,0
110416,-131.20501308114,5,1,0,65,0,0
110479,-134.824492217256,5,1,0,65,0,0
110604,-133.333333333333,5,1,0,50,0,0
110666,-132.695903614458,5,1,0,50,0,0
110729,-132.048192771084,5,1,0,50,0,0
110854,-130.763052208835,5,1,0,50,0,0
110979,-129.477911646586,5,1,0,50,0,0
111041,-128.840481927711,5,1,0,50,0,0
111104,-128.192771084337,5,1,0,50,0,0
111229,-126.907630522088,5,1,0,50,0,0
111354,-125.622489959839,5,1,0,50,0,0
111416,-124.985060240964,5,1,0,50,0,0
111479,-124.33734939759,5,1,0,50,0,0
111604,-123.052208835341,5,1,0,50,0,0
111666,-122.414779116466,5,1,0,50,0,0
111729,-121.767068273092,5,1,0,50,0,0
111791,-121.129638554217,5,1,0,50,0,0
111854,-120.481927710843,5,1,0,50,0,0
121354,-151.515151515152,5,1,0,50,0,0
121541,-166.666666666667,5,1,0,70,0,0
121635,-152.363075113472,5,1,0,50,0,0
121729,-140.320745159285,5,1,0,50,0,0
121791,-130.042393820385,5,1,0,50,0,0
121854,-121.167179203835,5,1,0,50,0,0
122166,-121.167179203835,5,1,0,70,0,0
122291,-121.167179203835,5,1,0,50,0,0
122791,-121.167179203835,5,1,0,70,0,0
122916,-121.167179203835,5,1,0,50,0,0
123416,-121.167179203835,5,1,0,70,0,0
123541,-121.167179203835,5,1,0,50,0,0
124072,-121.167179203835,5,1,0,70,0,0
124166,-121.167179203835,5,1,0,60,0,0
124291,-121.167179203835,5,1,0,50,0,0
124666,-121.167179203835,5,1,0,70,0,0
124791,-121.167179203835,5,1,0,50,0,0
125291,-121.167179203835,5,1,0,70,0,0
125416,-121.167179203835,5,1,0,50,0,0
125916,-121.167179203835,5,1,0,70,0,0
126041,-121.167179203835,5,1,0,50,0,0
126572,-121.167179203835,5,1,0,70,0,0
126791,-121.167179203835,5,1,0,50,0,0
127166,-121.167179203835,5,1,0,70,0,0
127260,-121.167179203835,5,1,0,50,0,0
127791,-121.167179203835,5,1,0,70,0,0
127916,-121.167179203835,5,1,0,50,0,0
128416,-121.167179203835,5,1,0,70,0,0
128541,-121.167179203835,5,1,0,50,0,0
129072,-121.167179203835,5,1,0,70,0,0
129135,-121.167179203835,5,1,0,50,0,0
129666,-121.167179203835,5,1,0,70,0,0
129791,-121.167179203835,5,1,0,50,0,0
130354,-133.333333333333,5,1,0,50,0,0
130604,-151.515151515152,5,1,0,50,0,0
131354,-87.719298245614,5,1,0,60,0,0
131479,-93.4579439252336,5,1,0,65,0,0
131604,-100,5,1,0,70,0,0
131729,-107.52688172043,5,1,0,75,0,0
131854,-100,5,1,0,80,0,0
133979,-98.0392156862745,5,1,0,80,0,0
134104,-95.2380952380952,5,1,0,80,0,0
134229,-91.743119266055,5,1,0,80,0,0
134354,-87.719298245614,5,1,0,80,0,0
136854,-87.719298245614,5,1,0,80,0,1
143104,-82.6446280991736,5,1,0,80,0,1
143354,-87.719298245614,5,1,0,80,0,1
143479,-82.6446280991736,5,1,0,80,0,1
143729,-96.1538461538461,5,1,0,80,0,1
143854,-94.3396226415094,5,1,0,80,0,1
143916,-93.4579439252336,5,1,0,80,0,1
143979,-92.5925925925926,5,1,0,80,0,1
144041,-91.743119266055,5,1,0,80,0,1
144104,-90.9090909090909,5,1,0,80,0,1
144166,-90.0900900900901,5,1,0,80,0,1
144229,-89.2857142857143,5,1,0,80,0,1
144291,-88.4955752212389,5,1,0,80,0,1
144354,-87.719298245614,5,1,0,80,0,1
144604,-100,5,1,0,80,0,1
145604,-100,5,1,0,80,0,1
145729,-98.6193293885602,5,1,0,80,0,1
145854,-97.2762645914397,5,1,0,80,0,1
145979,-95.9692898272553,5,1,0,80,0,1
146104,-94.6969696969697,5,1,0,80,0,1
146229,-93.4579439252336,5,1,0,80,0,1
146354,-92.2509225092251,5,1,0,80,0,1
146479,-91.0746812386157,5,1,0,80,0,1
146541,-90.4977375565611,5,1,0,80,0,1
146604,-89.9280575539568,5,1,0,80,0,1
146666,-89.3655049151028,5,1,0,80,0,1
146729,-88.809946714032,5,1,0,80,0,1
146791,-88.261253309797,5,1,0,80,0,1
146854,-87.719298245614,5,1,0,80,0,1
153104,-82.6446280991736,5,1,0,80,0,1
153354,-87.719298245614,5,1,0,80,0,1
153479,-82.6446280991736,5,1,0,80,0,1
153729,-96.1538461538461,5,1,0,80,0,1
153854,-94.3396226415094,5,1,0,80,0,1
153916,-93.4579439252336,5,1,0,80,0,1
153979,-92.5925925925926,5,1,0,80,0,1
154041,-91.743119266055,5,1,0,80,0,1
154104,-90.9090909090909,5,1,0,80,0,1
154166,-90.0900900900901,5,1,0,80,0,1
154229,-89.2857142857143,5,1,0,80,0,1
154291,-88.4955752212389,5,1,0,80,0,1
154354,-87.719298245614,5,1,0,80,0,1
154604,-100,5,1,0,80,0,1
155604,-100,5,1,0,80,0,1
155729,-98.6193293885602,5,1,0,80,0,1
155854,-97.2762645914397,5,1,0,80,0,1
155979,-95.9692898272553,5,1,0,80,0,1
156104,-94.6969696969697,5,1,0,80,0,1
156229,-93.4579439252336,5,1,0,80,0,1
156354,-92.2509225092251,5,1,0,80,0,1
156479,-91.0746812386157,5,1,0,80,0,1
156541,-90.4977375565611,5,1,0,80,0,1
156604,-89.9280575539568,5,1,0,80,0,1
156666,-89.3655049151028,5,1,0,80,0,1
156729,-88.809946714032,5,1,0,80,0,1
156791,-88.261253309797,5,1,0,80,0,1
156854,-87.719298245614,5,1,0,80,0,1
156979,-90.9090909090909,5,1,0,80,0,1
157229,-100,5,1,0,80,0,1
163104,-100,5,1,0,80,0,0
163229,-101.694949727102,5,1,0,80,0,0
163354,-103.448240190262,5,1,0,80,0,0
163479,-105.263157894737,5,1,0,80,0,0
163604,-107.142895408177,5,1,0,80,0,0
163729,-109.090869421502,5,1,0,80,0,0
163854,-111.111111111111,5,1,0,80,0,0
163979,-113.207589889657,5,1,0,80,0,0
164104,-115.384571005934,5,1,0,80,0,0
164229,-117.647058823529,5,1,0,80,0,0
164354,-120.000048000019,5,1,0,80,0,0
164479,-122.448929612682,5,1,0,80,0,0
164604,-125,5,1,0,80,0,0
164729,-127.659628791331,5,1,0,80,0,0
164854,-130.434725897945,5,1,0,80,0,0
164979,-133.333333333333,5,1,0,80,0,0
165104,-119.047619047619,5,1,0,80,0,0
165229,-108.695652173913,5,1,0,80,0,0
165354,-100,5,1,0,80,0,0
165479,-93.4579439252336,5,1,0,80,0,0
165604,-87.719298245614,5,1,0,80,0,1
171854,-82.6446280991736,5,1,0,80,0,1
172104,-87.719298245614,5,1,0,80,0,1
172229,-82.6446280991736,5,1,0,80,0,1
172479,-96.1538461538461,5,1,0,80,0,1
172604,-94.3396226415094,5,1,0,80,0,1
172666,-93.4579439252336,5,1,0,80,0,1
172729,-92.5925925925926,5,1,0,80,0,1
172791,-91.743119266055,5,1,0,80,0,1
172854,-90.9090909090909,5,1,0,80,0,1
172916,-90.0900900900901,5,1,0,80,0,1
172979,-89.2857142857143,5,1,0,80,0,1
173041,-88.4955752212389,5,1,0,80,0,1
173104,-87.719298245614,5,1,0,80,0,1
173354,-100,5,1,0,80,0,1
174354,-100,5,1,0,80,0,1
174479,-98.6193293885602,5,1,0,80,0,1
174541,-97.8473581213307,5,1,0,80,0,1
174604,-97.2762645914397,5,1,0,80,0,1
174729,-95.9692898272553,5,1,0,80,0,1
174854,-94.6969696969697,5,1,0,80,0,1
174916,-93.8086303939962,5,1,0,80,0,1
174979,-93.4579439252336,5,1,0,80,0,1
175104,-92.2509225092251,5,1,0,80,0,1
175229,-91.0746812386157,5,1,0,80,0,1
175291,-90.4977375565611,5,1,0,80,0,1
175354,-89.9280575539568,5,1,0,80,0,1
175416,-89.3655049151028,5,1,0,80,0,1
175479,-88.809946714032,5,1,0,80,0,1
175541,-88.261253309797,5,1,0,80,0,1
175604,-87.719298245614,5,1,0,80,0,1
181854,-82.6446280991736,5,1,0,80,0,1
182104,-87.719298245614,5,1,0,80,0,1
182229,-82.6446280991736,5,1,0,80,0,1
182479,-96.1538461538461,5,1,0,80,0,1
182604,-94.3396226415094,5,1,0,80,0,1
182666,-93.4579439252336,5,1,0,80,0,1
182729,-92.5925925925926,5,1,0,80,0,1
182791,-91.743119266055,5,1,0,80,0,1
182854,-90.9090909090909,5,1,0,80,0,1
182916,-90.0900900900901,5,1,0,80,0,1
182979,-89.2857142857143,5,1,0,80,0,1
183041,-88.4955752212389,5,1,0,80,0,1
183104,-87.719298245614,5,1,0,80,0,1
183354,-100,5,1,0,80,0,1
184354,-100,5,1,0,80,0,1
184479,-98.6193293885602,5,1,0,80,0,1
184541,-97.8473581213307,5,1,0,80,0,1
184604,-97.2762645914397,5,1,0,80,0,1
184729,-95.9692898272553,5,1,0,80,0,1
184854,-94.6969696969697,5,1,0,80,0,1
184916,-93.8086303939962,5,1,0,80,0,1
184979,-93.4579439252336,5,1,0,80,0,1
185104,-92.2509225092251,5,1,0,80,0,1
185229,-91.0746812386157,5,1,0,80,0,1
185291,-90.4977375565611,5,1,0,80,0,1
185354,-89.9280575539568,5,1,0,80,0,1
185416,-89.3655049151028,5,1,0,80,0,1
185479,-88.809946714032,5,1,0,80,0,1
185541,-88.261253309797,5,1,0,80,0,1
185604,-87.719298245614,5,1,0,80,0,1
185729,-90.9090909090909,5,1,0,80,0,1
185979,-100,5,1,0,80,0,1
191854,-100,5,1,0,80,0,0
191979,-101.694949727102,5,1,0,80,0,0
192104,-103.448240190262,5,1,0,80,0,0
192229,-105.263157894737,5,1,0,80,0,0
192354,-107.142895408177,5,1,0,80,0,0
192479,-109.090869421502,5,1,0,80,0,0
192604,-111.111111111111,5,1,0,80,0,0
192666,-111.856823266219,5,1,0,80,0,0
192729,-113.207589889657,5,1,0,80,0,0
192791,-114.155251141552,5,1,0,80,0,0
192854,-115.384571005934,5,1,0,80,0,0
192916,-116.279069767442,5,1,0,80,0,0
192979,-117.647058823529,5,1,0,80,0,0
193041,-119.047619047619,5,1,0,80,0,0
193104,-120.481927710843,5,1,0,80,0,0
193229,-126.050473130451,5,1,0,70,0,0
193354,-132.158532088752,5,1,0,65,0,0
193479,-138.888888888889,5,1,0,65,0,0
193604,-146.341534800749,5,1,0,65,0,0
193729,-154.639095546858,5,1,0,65,0,0
193854,-163.934426229508,5,1,0,65,0,0
193979,-174.418706057387,5,1,0,65,0,0
194104,-186.335287990504,5,1,0,65,0,0
194229,-200,5,1,0,65,0,0
194354,-100,5,1,0,80,0,1
199354,-87.719298245614,5,1,0,80,0,1
199479,-92.5925925925926,5,1,0,80,0,1
199604,-100,5,1,0,80,0,1
200166,-98.0392156862745,5,1,0,80,0,1
200229,-96.1538461538461,5,1,0,80,0,1
200291,-94.3396226415094,5,1,0,80,0,1
200354,-92.5925925925926,5,1,0,80,0,1
200479,-90.0900900900901,5,1,0,80,0,1
200604,-87.719298245614,5,1,0,80,0,1
200729,-95.2380952380952,5,1,0,80,0,1
200979,-87.719298245614,5,1,0,80,0,1
201104,-89.2857142857143,5,1,0,80,0,1
201229,-90.9090909090909,5,1,0,80,0,1
201354,-92.5925925925926,5,1,0,80,0,1
201479,-94.3396226415094,5,1,0,80,0,1
201541,-95.2380952380952,5,1,0,80,0,1
201604,-96.1538461538461,5,1,0,80,0,1
201729,-98.0392156862745,5,1,0,80,0,1
201854,-87.719298245614,5,1,0,80,0,1
201979,-95.2380952380952,5,1,0,80,0,1
202229,-100,5,1,0,80,0,1
203104,-87.719298245614,5,1,0,80,0,1
203229,-89.2857142857143,5,1,0,80,0,1
203354,-90.4977375565611,5,1,0,80,0,1
203479,-91.743119266055,5,1,0,80,0,1
203604,-93.0232558139535,5,1,0,80,0,1
203729,-93.4579439252336,5,1,0,80,0,1
203854,-94.3396226415094,5,1,0,80,0,1
203916,-95.2380952380952,5,1,0,80,0,1
203979,-96.1538461538461,5,1,0,80,0,1
204041,-97.0873786407767,5,1,0,80,0,1
204104,-98.0392156862745,5,1,0,80,0,1
204229,-99.009900990099,5,1,0,80,0,1
204354,-87.719298245614,5,1,0,80,0,0
204479,-90.9090909090909,5,1,0,60,0,0
204604,-94.3396226415094,5,1,0,60,0,0
204854,-100,5,1,0,60,0,0
204979,-100.262185615384,5,1,0,60,0,0
205104,-100.525850725143,5,1,0,60,0,0
205229,-100.79080465331,5,1,0,60,0,0
205354,-101.057261065265,5,1,0,60,0,0
205604,-101.594216444446,5,1,0,60,0,0
205729,-101.864943383464,5,1,0,60,0,0
205854,-102.137012717079,5,1,0,60,0,0
206104,-102.685640234698,5,1,0,60,0,0
206229,-102.962117148238,5,1,0,60,0,0
206354,-103.240193472123,5,1,0,60,0,0
206479,-103.51966873706,5,1,0,60,0,0
206604,-103.800661210212,5,1,0,60,0,0
206729,-104.083291613281,5,1,0,60,0,0
206854,-104.367356395736,5,1,0,60,0,0
206979,-104.653085486919,5,1,0,60,0,0
207104,-104.940273243483,5,1,0,60,0,0
207354,-105.519514779063,5,1,0,60,0,0
207479,-105.81148414362,5,1,0,60,0,0
207604,-106.105073732416,5,1,0,60,0,0
207729,-106.400410279982,5,1,0,60,0,0
207854,-106.697281673355,5,1,0,60,0,0
208104,-107.296137339056,5,1,0,60,0,0
208229,-107.598035259876,5,1,0,60,0,0
208354,-107.901753295589,5,1,0,60,0,0
208604,-108.514244664897,5,1,0,60,0,0
208729,-108.823046109413,5,1,0,60,0,0
208854,-109.133610096169,5,1,0,60,0,0
208979,-109.446071542708,5,1,0,60,0,0
209041,-109.60285405832,5,1,0,60,0,0
209104,-109.760206876038,5,1,0,60,0,0
209229,-110.076150681041,5,1,0,60,0,0
209354,-110.394040488118,5,1,0,60,0,0
209479,-110.713649110803,5,1,0,60,0,0
209604,-111.035237032472,5,1,0,60,0,0
209854,-111.68380082311,5,1,0,60,0,0
209979,-112.011057731619,5,1,0,60,0,0
210104,-112.340111935688,5,1,0,60,0,0
210229,-112.671232104992,5,1,0,60,0,0
210354,-113.004182284786,5,1,0,60,0,0
210604,-113.676150288965,5,1,0,60,0,0
210729,-114.015075073226,5,1,0,60,0,0
210854,-114.356026905686,5,1,0,60,0,0
211104,-115.044217244898,5,1,0,60,0,0
211229,-115.391494492941,5,1,0,60,0,0
211354,-115.740740740741,5,1,0,60,0,0
211479,-116.092107478073,5,1,0,60,0,0
211604,-116.445749671914,5,1,0,60,0,0
211729,-116.80141656758,5,1,0,60,0,0
211854,-117.159400050144,5,1,0,60,0,0
211979,-117.519446530415,5,1,0,60,0,0
212104,-117.881712774134,5,1,0,60,0,0
212354,-118.613127863766,5,1,0,60,0,0
212479,-118.982178849252,5,1,0,60,0,0
212604,-119.353675973866,5,1,0,60,0,0
212666,-119.540295838324,5,1,0,60,0,0
212729,-119.727356862952,5,1,0,60,0,0
212854,-120.103529242207,5,1,0,60,0,0
212979,-120.481927710843,5,1,0,60,0,0
213104,-100,5,1,0,80,0,0
215604,-100,5,1,0,80,0,0
215729,-99.304865938431,5,1,0,80,0,0
215791,-98.9609104403761,5,1,0,80,0,0
215854,-98.6193293885602,5,1,0,80,0,0
215979,-97.9431929480901,5,1,0,80,0,0
216104,-97.2762645914397,5,1,0,80,0,0
216229,-96.6183574879227,5,1,0,80,0,0
216354,-95.9692898272553,5,1,0,80,0,0
216479,-95.3288846520496,5,1,0,80,0,0
216604,-94.6969696969697,5,1,0,80,0,0
216729,-94.0733772342427,5,1,0,80,0,0
216854,-93.4579439252336,5,1,0,80,0,0
216979,-92.8505106778087,5,1,0,80,0,0
217041,-92.5497454881999,5,1,0,80,0,0
217104,-92.2509225092251,5,1,0,80,0,0
217229,-91.6590284142988,5,1,0,80,0,0
217354,-91.0746812386157,5,1,0,80,0,0
217416,-90.7852927825692,5,1,0,80,0,0
217479,-90.4977375565611,5,1,0,80,0,0
217604,-89.9280575539568,5,1,0,80,0,0
217687,-89.5522120739665,5,1,0,80,0,0
217770,-89.1795746669366,5,1,0,80,0,0
217854,-88.809946714032,5,1,0,80,0,0
217937,-88.4433701523083,5,1,0,80,0,0
218020,-88.0798849324383,5,1,0,80,0,0
218104,-87.719298245614,5,1,0,80,0,0
222729,-85.4700854700855,5,1,0,80,0,0
222854,-82.6446280991736,5,1,0,80,0,0
222979,-79.8084596967279,5,1,0,80,0,0
223104,-76.9230769230769,5,1,0,80,0,0
228104,-50,5,1,0,35,0,0
229354,-100,5,1,0,35,0,0
230604,-125,5,1,0,35,0,0
231854,-142.857142857143,5,1,0,35,0,0
233104,-166.666666666667,5,1,0,35,0,0
234354,-200,5,1,0,35,0,0
235604,-250,5,1,0,35,0,0

[HitObjects]
64,64,1479,5,0,0:0:0:0:
320,64,1604,1,8,0:0:0:0:
320,64,1854,1,12,0:0:0:0:
320,64,1979,1,12,0:0:0:0:
64,64,2104,1,0,0:0:0:0:
64,64,2166,1,0,0:0:0:0:
320,64,2229,1,12,0:0:0:0:
320,64,2354,1,12,0:0:0:0:
64,64,2479,1,0,0:0:0:0:
64,64,2541,1,0,0:0:0:0:
320,64,2604,1,12,0:0:0:0:
64,64,2729,1,0,0:0:0:0:
320,64,2791,1,8,0:0:0:0:
64,64,2854,1,4,0:0:0:0:
64,64,2979,1,0,0:0:0:0:
320,64,3104,1,12,0:0:0:0:
320,64,3229,1,12,0:0:0:0:
64,64,3354,1,0,0:0:0:0:
64,64,3416,1,0,0:0:0:0:
320,64,3479,1,12,0:0:0:0:
64,64,3604,1,0,0:0:0:0:
320,64,3729,1,8,0:0:0:0:
320,64,3791,1,8,0:0:0:0:
64,64,3854,1,4,0:0:0:0:
64,64,3979,1,0,0:0:0:0:
320,64,4104,1,12,0:0:0:0:
64,64,4229,1,0,0:0:0:0:
320,64,4354,1,12,0:0:0:0:
320,64,4479,1,12,0:0:0:0:
64,64,4604,1,0,0:0:0:0:
64,64,4666,1,0,0:0:0:0:
320,64,4729,1,12,0:0:0:0:
320,64,4854,1,12,0:0:0:0:
64,64,4979,1,0,0:0:0:0:
64,64,5041,1,0,0:0:0:0:
320,64,5104,1,12,0:0:0:0:
320,64,5229,1,8,0:0:0:0:
320,64,5291,1,8,0:0:0:0:
64,64,5354,1,4,0:0:0:0:
64,64,5479,1,0,0:0:0:0:
320,64,5604,1,12,0:0:0:0:
320,64,5729,1,12,0:0:0:0:
64,64,5854,1,0,0:0:0:0:
64,64,5916,1,0,0:0:0:0:
320,64,5979,1,12,0:0:0:0:
64,64,6104,1,0,0:0:0:0:
320,64,6229,1,8,0:0:0:0:
64,64,6291,1,0,0:0:0:0:
320,64,6354,1,12,0:0:0:0:
320,64,6479,1,8,0:0:0:0:
64,64,6604,1,4,0:0:0:0:
64,64,6729,1,0,0:0:0:0:
320,64,6854,1,12,0:0:0:0:
320,64,6979,1,12,0:0:0:0:
64,64,7104,1,0,0:0:0:0:
64,64,7166,1,0,0:0:0:0:
320,64,7229,1,12,0:0:0:0:
320,64,7354,1,12,0:0:0:0:
64,64,7479,1,0,0:0:0:0:
64,64,7541,1,0,0:0:0:0:
320,64,7604,1,12,0:0:0:0:
64,64,7729,1,0,0:0:0:0:
320,64,7791,1,8,0:0:0:0:
64,64,7854,1,4,0:0:0:0:
64,64,7979,1,0,0:0:0:0:
320,64,8104,1,12,0:0:0:0:
320,64,8229,1,12,0:0:0:0:
64,64,8354,1,0,0:0:0:0:
64,64,8416,1,0,0:0:0:0:
320,64,8479,1,12,0:0:0:0:
64,64,8604,1,0,0:0:0:0:
320,64,8729,1,8,0:0:0:0:
320,64,8791,1,8,0:0:0:0:
64,64,8854,1,4,0:0:0:0:
64,64,8979,1,0,0:0:0:0:
320,64,9104,1,12,0:0:0:0:
64,64,9229,1,0,0:0:0:0:
320,64,9354,1,12,0:0:0:0:
320,64,9479,1,12,0:0:0:0:
64,64,9604,1,0,0:0:0:0:
64,64,9666,1,0,0:0:0:0:
320,64,9729,1,12,0:0:0:0:
320,64,9854,1,12,0:0:0:0:
64,64,9979,1,0,0:0:0:0:
64,64,10041,1,0,0:0:0:0:
320,64,10104,1,12,0:0:0:0:
320,64,10229,1,8,0:0:0:0:
320,64,10291,1,8,0:0:0:0:
64,64,10354,1,4,0:0:0:0:
64,64,10479,1,0,0:0:0:0:
320,64,10604,1,12,0:0:0:0:
320,64,10729,1,12,0:0:0:0:
64,64,10854,1,0,0:0:0:0:
64,64,10916,1,0,0:0:0:0:
320,64,10979,1,12,0:0:0:0:
64,64,11104,1,0,0:0:0:0:
320,64,11229,1,8,0:0:0:0:
64,64,11291,1,0,0:0:0:0:
320,64,11354,1,12,0:0:0:0:
320,64,11479,1,8,0:0:0:0:
64,64,11604,1,4,0:0:0:0:
64,64,11729,1,0,0:0:0:0:
320,64,11854,1,12,0:0:0:0:
320,64,12229,1,8,0:0:0:0:
64,64,12354,1,0,0:0:0:0:
64,64,12479,1,0,0:0:0:0:
320,64,12604,1,8,0:0:0:0:
320,64,12854,1,8,0:0:0:0:
320,64,12979,1,8,0:0:0:0:
64,64,13104,1,0,0:0:0:0:
320,64,13229,1,8,0:0:0:0:
320,64,13479,1,8,0:0:0:0:
64,64,13604,1,0,0:0:0:0:
64,64,13729,1,0,0:0:0:0:
320,64,13854,1,8,0:0:0:0:
64,64,13979,1,0,0:0:0:0:
320,64,14104,1,8,0:0:0:0:
64,64,14354,1,0,0:0:0:0:
64,64,14479,1,0,0:0:0:0:
64,64,14729,1,0,0:0:0:0:
320,64,14854,1,8,0:0:0:0:
320,64,14979,1,8,0:0:0:0:
64,64,15104,1,0,0:0:0:0:
64,64,15229,1,0,0:0:0:0:
320,64,15354,1,8,0:0:0:0:
320,64,15604,1,8,0:0:0:0:
64,64,15729,1,0,0:0:0:0:
64,64,15979,1,0,0:0:0:0:
320,64,16104,1,8,0:0:0:0:
64,64,16229,1,0,0:0:0:0:
320,64,16354,1,8,0:0:0:0:
320,64,16416,1,8,0:0:0:0:
64,64,16479,1,0,0:0:0:0:
64,64,16541,1,0,0:0:0:0:
320,64,16604,1,8,0:0:0:0:
320,64,16666,1,8,0:0:0:0:
64,64,16729,1,0,0:0:0:0:
64,64,16791,1,0,0:0:0:0:
320,64,16854,1,12,0:0:0:0:
64,64,16979,1,0,0:0:0:0:
320,64,17229,1,8,0:0:0:0:
320,64,17354,1,8,0:0:0:0:
64,64,17479,1,0,0:0:0:0:
320,64,17604,1,8,0:0:0:0:
64,64,17666,1,0,0:0:0:0:
64,64,17729,1,0,0:0:0:0:
64,64,17791,1,0,0:0:0:0:
320,64,17854,1,8,0:0:0:0:
320,64,17979,1,8,0:0:0:0:
64,64,18104,1,4,0:0:0:0:
320,64,18229,1,8,0:0:0:0:
64,64,18479,1,4,0:0:0:0:
320,64,18604,1,8,0:0:0:0:
64,64,18729,1,0,0:0:0:0:
320,64,18854,1,8,0:0:0:0:
64,64,18979,1,0,0:0:0:0:
64,64,19104,1,0,0:0:0:0:
64,64,19229,1,0,0:0:0:0:
320,64,19354,1,12,0:0:0:0:
64,64,19479,1,0,0:0:0:0:
64,64,19729,1,0,0:0:0:0:
320,64,19854,1,8,0:0:0:0:
320,64,19979,1,8,0:0:0:0:
64,64,20104,1,0,0:0:0:0:
320,64,20354,1,8,0:0:0:0:
64,64,20604,1,4,0:0:0:0:
320,64,20729,1,8,0:0:0:0:
320,64,20854,1,8,0:0:0:0:
64,64,20979,1,0,0:0:0:0:
320,64,21104,1,8,0:0:0:0:
320,64,21229,1,8,0:0:0:0:
64,64,21354,1,0,0:0:0:0:
64,64,21416,1,0,0:0:0:0:
64,64,21479,1,0,0:0:0:0:
64,64,21541,1,0,0:0:0:0:
320,64,21604,1,8,0:0:0:0:
320,64,21729,1,8,0:0:0:0:
64,64,21854,1,0,0:0:0:0:
64,64,21979,1,0,0:0:0:0:
64,64,22229,1,0,0:0:0:0:
64,64,22354,1,0,0:0:0:0:
64,64,22604,1,0,0:0:0:0:
64,64,22729,1,0,0:0:0:0:
64,64,22854,1,0,0:0:0:0:
64,64,22979,1,0,0:0:0:0:
320,64,23041,1,8,0:0:0:0:
320,64,23104,1,8,0:0:0:0:
320,64,25354,1,8,0:0:0:0:
64,64,25604,1,0,0:0:0:0:
64,64,28104,1,0,0:0:0:0:
64,64,28854,1,0,0:0:0:0:
320,64,29354,1,8,0:0:0:0:
320,64,30104,1,8,0:0:0:0:
64,64,30604,1,0,0:0:0:0:
320,64,31354,1,8,0:0:0:0:
64,64,31854,1,0,0:0:0:0:
64,64,32604,1,0,0:0:0:0:
64,64,32854,1,0,0:0:0:0:
64,64,32916,1,0,0:0:0:0:
64,64,32979,1,0,0:0:0:0:
64,64,33042,1,0,0:0:0:0:
320,64,33104,1,8,0:0:0:0:
64,64,33229,1,0,0:0:0:0:
320,64,33354,1,8,0:0:0:0:
64,64,33479,1,0,0:0:0:0:
64,64,33604,1,0,0:0:0:0:
64,64,33729,1,0,0:0:0:0:
64,64,33854,1,0,0:0:0:0:
320,64,34104,1,8,0:0:0:0:
64,64,34354,1,0,0:0:0:0:
64,64,34479,1,0,0:0:0:0:
320,64,34604,1,8,0:0:0:0:
64,64,34729,1,0,0:0:0:0:
64,64,34854,1,0,0:0:0:0:
64,64,35104,1,0,0:0:0:0:
64,64,35229,1,0,0:0:0:0:
64,64,35291,1,0,0:0:0:0:
320,64,35354,1,8,0:0:0:0:
320,64,35479,1,8,0:0:0:0:
64,64,35604,1,0,0:0:0:0:
64,64,35729,1,0,0:0:0:0:
320,64,35854,1,8,0:0:0:0:
64,64,35979,1,0,0:0:0:0:
64,64,36104,1,0,0:0:0:0:
64,64,36229,1,0,0:0:0:0:
64,64,36354,1,0,0:0:0:0:
320,64,36604,1,8,0:0:0:0:
64,64,36854,1,0,0:0:0:0:
64,64,36979,1,0,0:0:0:0:
64,64,37104,1,0,0:0:0:0:
64,64,37229,1,0,0:0:0:0:
320,64,37354,1,8,0:0:0:0:
64,64,37604,1,0,0:0:0:0:
64,64,37729,1,0,0:0:0:0:
64,64,37791,1,0,0:0:0:0:
320,64,37854,1,8,0:0:0:0:
320,64,37979,1,8,0:0:0:0:
64,64,38104,1,0,0:0:0:0:
320,64,38354,1,8,0:0:0:0:
64,64,38479,1,0,0:0:0:0:
64,64,38541,1,0,0:0:0:0:
64,64,38604,1,0,0:0:0:0:
64,64,38729,1,0,0:0:0:0:
64,64,38854,1,0,0:0:0:0:
320,64,39104,1,8,0:0:0:0:
64,64,39354,1,0,0:0:0:0:
64,64,39479,1,0,0:0:0:0:
64,64,39541,1,0,0:0:0:0:
64,64,39604,1,0,0:0:0:0:
64,64,39729,1,0,0:0:0:0:
320,64,39854,1,8,0:0:0:0:
320,64,39979,1,8,0:0:0:0:
64,64,40104,1,0,0:0:0:0:
64,64,40229,1,0,0:0:0:0:
64,64,40291,1,0,0:0:0:0:
320,64,40354,1,8,0:0:0:0:
320,64,40479,1,8,0:0:0:0:
64,64,40604,1,0,0:0:0:0:
64,64,40729,1,0,0:0:0:0:
320,64,40854,1,8,0:0:0:0:
64,64,40979,1,0,0:0:0:0:
64,64,41104,1,0,0:0:0:0:
64,64,41229,1,0,0:0:0:0:
320,64,41354,1,8,0:0:0:0:
320,64,41604,1,8,0:0:0:0:
64,64,41854,1,0,0:0:0:0:
64,64,42604,1,0,0:0:0:0:
320,64,42729,1,8,0:0:0:0:
64,64,42854,1,0,0:0:0:0:
64,64,42979,1,0,0:0:0:0:
320,64,43104,1,12,0:0:0:0:
320,64,43229,1,12,0:0:0:0:
64,64,43354,1,0,0:0:0:0:
64,64,43416,1,0,0:0:0:0:
320,64,43479,1,12,0:0:0:0:
320,64,43604,1,12,0:0:0:0:
64,64,43729,1,0,0:0:0:0:
64,64,43791,1,0,0:0:0:0:
320,64,43854,1,12,0:0:0:0:
64,64,43979,1,0,0:0:0:0:
320,64,44041,1,8,0:0:0:0:
64,64,44104,1,4,0:0:0:0:
64,64,44229,1,0,0:0:0:0:
320,64,44354,1,12,0:0:0:0:
320,64,44479,1,12,0:0:0:0:
64,64,44604,1,0,0:0:0:0:
64,64,44666,1,0,0:0:0:0:
320,64,44729,1,12,0:0:0:0:
64,64,44854,1,0,0:0:0:0:
320,64,44979,1,8,0:0:0:0:
320,64,45041,1,8,0:0:0:0:
64,64,45104,1,4,0:0:0:0:
64,64,45229,1,0,0:0:0:0:
320,64,45354,1,12,0:0:0:0:
64,64,45479,1,0,0:0:0:0:
320,64,45604,1,12,0:0:0:0:
320,64,45729,1,12,0:0:0:0:
64,64,45854,1,0,0:0:0:0:
64,64,45916,1,0,0:0:0:0:
320,64,45979,1,12,0:0:0:0:
320,64,46104,1,12,0:0:0:0:
64,64,46229,1,0,0:0:0:0:
64,64,46291,1,0,0:0:0:0:
320,64,46354,1,12,0:0:0:0:
320,64,46479,1,8,0:0:0:0:
320,64,46541,1,8,0:0:0:0:
64,64,46604,1,4,0:0:0:0:
64,64,46729,1,0,0:0:0:0:
320,64,46854,1,12,0:0:0:0:
320,64,46979,1,12,0:0:0:0:
64,64,47104,1,0,0:0:0:0:
64,64,47166,1,0,0:0:0:0:
320,64,47229,1,12,0:0:0:0:
64,64,47354,1,0,0:0:0:0:
320,64,47479,1,8,0:0:0:0:
64,64,47541,1,0,0:0:0:0:
320,64,47604,1,8,0:0:0:0:
64,64,47666,1,0,0:0:0:0:
64,64,47729,1,0,0:0:0:0:
64,64,47791,1,0,0:0:0:0:
320,64,47854,1,8,0:0:0:0:
64,64,47916,1,0,0:0:0:0:
64,64,47979,1,0,0:0:0:0:
64,64,48041,1,0,0:0:0:0:
320,64,48104,1,12,0:0:0:0:
64,64,48229,1,0,0:0:0:0:
320,64,48479,1,8,0:0:0:0:
64,64,48604,1,0,0:0:0:0:
64,64,48666,1,0,0:0:0:0:
320,64,48729,1,8,0:0:0:0:
64,64,48854,1,0,0:0:0:0:
64,64,48979,1,0,0:0:0:0:
320,64,49104,1,8,0:0:0:0:
64,64,49354,1,0,0:0:0:0:
320,64,49479,1,8,0:0:0:0:
320,64,49729,1,8,0:0:0:0:
320,64,49854,1,8,0:0:0:0:
320,64,49916,1,8,0:0:0:0:
64,64,49979,1,0,0:0:0:0:
320,64,50104,1,8,0:0:0:0:
64,64,50229,1,0,0:0:0:0:
320,64,50354,1,8,0:0:0:0:
320,64,50479,1,8,0:0:0:0:
64,64,50604,1,0,0:0:0:0:
320,64,50729,1,8,0:0:0:0:
320,64,50979,1,8,0:0:0:0:
64,64,51104,1,0,0:0:0:0:
64,64,51166,1,0,0:0:0:0:
320,64,51229,1,8,0:0:0:0:
64,64,51354,1,0,0:0:0:0:
320,64,51479,1,8,0:0:0:0:
64,64,51604,1,0,0:0:0:0:
64,64,51729,1,0,0:0:0:0:
64,64,51854,1,0,0:0:0:0:
320,64,51979,1,8,0:0:0:0:
64,64,52229,1,0,0:0:0:0:
320,64,52354,1,8,0:0:0:0:
320,64,52479,1,8,0:0:0:0:
64,64,52604,1,0,0:0:0:0:
320,64,52729,1,8,0:0:0:0:
64,64,52791,1,0,0:0:0:0:
320,64,52854,1,8,0:0:0:0:
320,64,52979,1,8,0:0:0:0:
64,64,53104,1,4,0:0:0:0:
64,64,53354,1,0,0:0:0:0:
320,64,53479,1,8,0:0:0:0:
64,64,53604,1,0,0:0:0:0:
64,64,53729,1,0,0:0:0:0:
320,64,53854,1,8,0:0:0:0:
64,64,53979,1,0,0:0:0:0:
64,64,54041,1,0,0:0:0:0:
320,64,54104,1,8,0:0:0:0:
64,64,54166,1,0,0:0:0:0:
320,64,54229,1,8,0:0:0:0:
64,64,54354,1,4,0:0:0:0:
320,64,54604,1,8,0:0:0:0:
64,64,54729,1,4,0:0:0:0:
64,64,54979,1,0,0:0:0:0:
320,64,55104,1,8,0:0:0:0:
320,64,55166,1,8,0:0:0:0:
64,64,55229,1,0,0:0:0:0:
64,64,55291,1,0,0:0:0:0:
320,64,55354,1,8,0:0:0:0:
64,64,55479,1,0,0:0:0:0:
320,64,55604,1,12,0:0:0:0:
320,64,55854,1,8,0:0:0:0:
64,64,55979,1,0,0:0:0:0:
320,64,56104,1,8,0:0:0:0:
320,64,56166,1,8,0:0:0:0:
64,64,56229,1,0,0:0:0:0:
320,64,56354,1,8,0:0:0:0:
64,64,56479,1,0,0:0:0:0:
320,64,56604,1,8,0:0:0:0:
320,64,56729,1,8,0:0:0:0:
64,64,56854,1,4,0:0:0:0:
320,64,56979,1,8,0:0:0:0:
320,64,57104,1,8,0:0:0:0:
64,64,57229,1,4,0:0:0:0:
320,64,57354,1,8,0:0:0:0:
320,64,57479,1,8,0:0:0:0:
64,64,57604,1,4,0:0:0:0:
320,64,57729,1,8,0:0:0:0:
64,64,57791,1,0,0:0:0:0:
320,64,57854,1,8,0:0:0:0:
320,64,57916,1,8,0:0:0:0:
64,64,57979,1,0,0:0:0:0:
64,64,58041,1,0,0:0:0:0:
320,64,58104,1,12,0:0:0:0:
64,64,58229,1,0,0:0:0:0:
320,64,58479,1,8,0:0:0:0:
64,64,58604,1,0,0:0:0:0:
64,64,58666,1,0,0:0:0:0:
320,64,58729,1,8,0:0:0:0:
64,64,58854,1,0,0:0:0:0:
64,64,58979,1,0,0:0:0:0:
320,64,59104,1,8,0:0:0:0:
64,64,59354,1,0,0:0:0:0:
320,64,59479,1,8,0:0:0:0:
320,64,59729,1,8,0:0:0:0:
320,64,59854,1,8,0:0:0:0:
320,64,59916,1,8,0:0:0:0:
64,64,59979,1,0,0:0:0:0:
320,64,60104,1,8,0:0:0:0:
64,64,60229,1,0,0:0:0:0:
320,64,60354,1,8,0:0:0:0:
320,64,60479,1,8,0:0:0:0:
64,64,60604,1,0,0:0:0:0:
320,64,60729,1,8,0:0:0:0:
320,64,60979,1,8,0:0:0:0:
64,64,61104,1,0,0:0:0:0:
64,64,61166,1,0,0:0:0:0:
320,64,61229,1,8,0:0:0:0:
64,64,61354,1,0,0:0:0:0:
320,64,61479,1,8,0:0:0:0:
64,64,61604,1,0,0:0:0:0:
64,64,61729,1,0,0:0:0:0:
64,64,61854,1,0,0:0:0:0:
320,64,61979,1,8,0:0:0:0:
64,64,62229,1,0,0:0:0:0:
320,64,62354,1,8,0:0:0:0:
320,64,62479,1,8,0:0:0:0:
64,64,62604,1,0,0:0:0:0:
320,64,62729,1,8,0:0:0:0:
64,64,62791,1,0,0:0:0:0:
320,64,62854,1,8,0:0:0:0:
320,64,62979,1,8,0:0:0:0:
64,64,63104,1,4,0:0:0:0:
64,64,63354,1,0,0:0:0:0:
320,64,63479,1,8,0:0:0:0:
64,64,63604,1,0,0:0:0:0:
64,64,63729,1,0,0:0:0:0:
320,64,63854,1,8,0:0:0:0:
64,64,63979,1,0,0:0:0:0:
64,64,64041,1,0,0:0:0:0:
320,64,64104,1,8,0:0:0:0:
64,64,64166,1,0,0:0:0:0:
320,64,64229,1,8,0:0:0:0:
64,64,64354,1,4,0:0:0:0:
320,64,64604,1,8,0:0:0:0:
64,64,64729,1,4,0:0:0:0:
64,64,64979,1,0,0:0:0:0:
320,64,65104,1,8,0:0:0:0:
320,64,65166,1,8,0:0:0:0:
64,64,65229,1,0,0:0:0:0:
64,64,65291,1,0,0:0:0:0:
320,64,65354,1,8,0:0:0:0:
64,64,65479,1,0,0:0:0:0:
320,64,65604,1,12,0:0:0:0:
320,64,65854,1,8,0:0:0:0:
64,64,65979,1,0,0:0:0:0:
320,64,66104,1,8,0:0:0:0:
320,64,66166,1,8,0:0:0:0:
64,64,66229,1,0,0:0:0:0:
320,64,66354,1,8,0:0:0:0:
64,64,66479,1,0,0:0:0:0:
320,64,66604,1,8,0:0:0:0:
320,64,66729,1,8,0:0:0:0:
64,64,66854,1,4,0:0:0:0:
320,64,66979,1,8,0:0:0:0:
320,64,67104,1,8,0:0:0:0:
64,64,67229,1,4,0:0:0:0:
320,64,67354,1,8,0:0:0:0:
320,64,67479,1,8,0:0:0:0:
64,64,67604,1,4,0:0:0:0:
320,64,67729,1,8,0:0:0:0:
64,64,67791,1,0,0:0:0:0:
320,64,67854,1,8,0:0:0:0:
320,64,67916,1,8,0:0:0:0:
64,64,67979,1,0,0:0:0:0:
64,64,68041,1,0,0:0:0:0:
320,64,68104,1,12,0:0:0:0:
64,64,68229,1,0,0:0:0:0:
320,64,68479,1,8,0:0:0:0:
64,64,68604,1,0,0:0:0:0:
64,64,68666,1,0,0:0:0:0:
320,64,68729,1,8,0:0:0:0:
64,64,68854,1,0,0:0:0:0:
64,64,68979,1,0,0:0:0:0:
320,64,69104,1,8,0:0:0:0:
64,64,69354,1,0,0:0:0:0:
320,64,69479,1,8,0:0:0:0:
320,64,69729,1,8,0:0:0:0:
64,64,69854,1,0,0:0:0:0:
64,64,69979,1,0,0:0:0:0:
320,64,70104,1,8,0:0:0:0:
64,64,70229,1,0,0:0:0:0:
64,64,70291,1,0,0:0:0:0:
320,64,70354,1,8,0:0:0:0:
320,64,70479,1,8,0:0:0:0:
64,64,70604,1,0,0:0:0:0:
320,64,70729,1,8,0:0:0:0:
320,64,70979,1,8,0:0:0:0:
64,64,71104,1,0,0:0:0:0:
64,64,71166,1,0,0:0:0:0:
320,64,71229,1,8,0:0:0:0:
64,64,71354,1,0,0:0:0:0:
320,64,71479,1,8,0:0:0:0:
64,64,71604,1,0,0:0:0:0:
64,64,71729,1,0,0:0:0:0:
64,64,71854,1,0,0:0:0:0:
320,64,71979,1,8,0:0:0:0:
64,64,72229,1,0,0:0:0:0:
320,64,72354,1,8,0:0:0:0:
320,64,72479,1,8,0:0:0:0:
64,64,72604,1,0,0:0:0:0:
320,64,72729,1,8,0:0:0:0:
64,64,72791,1,0,0:0:0:0:
320,64,72854,1,8,0:0:0:0:
320,64,72979,1,8,0:0:0:0:
64,64,73104,1,4,0:0:0:0:
64,64,73354,1,0,0:0:0:0:
320,64,73479,1,8,0:0:0:0:
64,64,73604,1,0,0:0:0:0:
64,64,73729,1,0,0:0:0:0:
320,64,73854,1,8,0:0:0:0:
64,64,73979,1,0,0:0:0:0:
64,64,74041,1,0,0:0:0:0:
320,64,74104,1,8,0:0:0:0:
320,64,74166,1,8,0:0:0:0:
64,64,74229,1,0,0:0:0:0:
320,64,74354,1,8,0:0:0:0:
64,64,74479,1,0,0:0:0:0:
64,64,74604,1,0,0:0:0:0:
320,64,74729,1,8,0:0:0:0:
64,64,74854,1,0,0:0:0:0:
64,64,74979,1,0,0:0:0:0:
320,64,75104,1,8,0:0:0:0:
64,64,75229,1,0,0:0:0:0:
64,64,75291,1,0,0:0:0:0:
320,64,75354,1,8,0:0:0:0:
320,64,75416,1,8,0:0:0:0:
64,64,75479,1,0,0:0:0:0:
64,64,75541,1,0,0:0:0:0:
320,64,75604,1,12,0:0:0:0:
320,64,75854,1,8,0:0:0:0:
64,64,75979,1,0,0:0:0:0:
320,64,76229,1,8,0:0:0:0:
64,64,76354,1,0,0:0:0:0:
320,64,76447,1,8,0:0:0:0:
320,64,76666,1,8,0:0:0:0:
64,64,76729,1,0,0:0:0:0:
64,64,76791,1,0,0:0:0:0:
320,64,76854,1,8,0:0:0:0:
64,64,76979,1,0,0:0:0:0:
64,64,77229,1,0,0:0:0:0:
320,64,77354,1,8,0:0:0:0:
320,64,77562,1,8,0:0:0:0:
64,64,77645,1,0,0:0:0:0:
320,64,77729,1,8,0:0:0:0:
64,64,77854,1,0,0:0:0:0:
320,64,77979,1,8,0:0:0:0:
64,64,78104,1,0,0:0:0:0:
320,64,78166,1,8,0:0:0:0:
64,64,78229,1,0,0:0:0:0:
320,64,78479,1,8,0:0:0:0:
320,64,78604,1,8,0:0:0:0:
64,64,78729,1,0,0:0:0:0:
320,64,78854,1,8,0:0:0:0:
64,64,78979,1,0,0:0:0:0:
320,64,79041,1,8,0:0:0:0:
64,64,79104,1,0,0:0:0:0:
320,64,79229,1,8,0:0:0:0:
64,64,79354,1,0,0:0:0:0:
64,64,79479,1,0,0:0:0:0:
320,64,79604,1,8,0:0:0:0:
64,64,79729,1,0,0:0:0:0:
320,64,79979,1,8,0:0:0:0:
64,64,80104,1,0,0:0:0:0:
64,64,80229,1,0,0:0:0:0:
64,64,80291,1,0,0:0:0:0:
320,64,80354,1,8,0:0:0:0:
320,64,80479,1,8,0:0:0:0:
64,64,80604,1,0,0:0:0:0:
320,64,80666,1,8,0:0:0:0:
320,64,80729,1,8,0:0:0:0:
64,64,80791,1,0,0:0:0:0:
320,64,80854,1,8,0:0:0:0:
320,64,80979,1,8,0:0:0:0:
64,64,81104,1,0,0:0:0:0:
320,64,81229,1,8,0:0:0:0:
320,64,81354,1,8,0:0:0:0:
64,64,81479,1,0,0:0:0:0:
320,64,81604,1,8,0:0:0:0:
64,64,81729,1,0,0:0:0:0:
320,64,81854,1,8,0:0:0:0:
64,64,81979,1,0,0:0:0:0:
320,64,82041,1,8,0:0:0:0:
64,64,82104,1,0,0:0:0:0:
320,64,82229,1,8,0:0:0:0:
320,64,82291,1,8,0:0:0:0:
320,64,82354,1,8,0:0:0:0:
64,64,82479,1,0,0:0:0:0:
320,64,82604,1,8,0:0:0:0:
64,64,82666,1,0,0:0:0:0:
320,64,82729,1,8,0:0:0:0:
64,64,82854,1,0,0:0:0:0:
320,64,82979,1,8,0:0:0:0:
320,64,83187,1,8,0:0:0:0:
320,64,83270,1,8,0:0:0:0:
64,64,83354,1,0,0:0:0:0:
320,64,83479,1,8,0:0:0:0:
320,64,83729,1,8,0:0:0:0:
320,64,83854,1,8,0:0:0:0:
64,64,83979,1,0,0:0:0:0:
320,64,84104,1,8,0:0:0:0:
64,64,84229,1,0,0:0:0:0:
320,64,84354,1,8,0:0:0:0:
320,64,84416,1,8,0:0:0:0:
64,64,84479,1,0,0:0:0:0:
64,64,84729,1,0,0:0:0:0:
64,64,84979,1,0,0:0:0:0:
320,64,85104,1,8,0:0:0:0:
320,64,85166,1,8,0:0:0:0:
64,64,85229,1,0,0:0:0:0:
64,64,85291,1,0,0:0:0:0:
320,64,85354,1,8,0:0:0:0:
64,64,85416,1,0,0:0:0:0:
320,64,85479,1,8,0:0:0:0:
320,64,85541,1,8,0:0:0:0:
64,64,85604,1,4,0:0:0:0:
320,64,85729,1,8,0:0:0:0:
320,64,85854,1,8,0:0:0:0:
64,64,85979,1,0,0:0:0:0:
320,64,86104,1,8,0:0:0:0:
320,64,86229,1,8,0:0:0:0:
64,64,86354,1,0,0:0:0:0:
320,64,86479,1,8,0:0:0:0:
64,64,86604,1,0,0:0:0:0:
320,64,86729,1,8,0:0:0:0:
64,64,86854,1,0,0:0:0:0:
320,64,86979,1,8,0:0:0:0:
64,64,87041,1,0,0:0:0:0:
320,64,87104,1,8,0:0:0:0:
64,64,87229,1,0,0:0:0:0:
320,64,87354,1,8,0:0:0:0:
320,64,87479,1,8,0:0:0:0:
64,64,87604,1,0,0:0:0:0:
64,64,87666,1,0,0:0:0:0:
320,64,87729,1,8,0:0:0:0:
64,64,87854,1,0,0:0:0:0:
320,64,88104,1,8,0:0:0:0:
320,64,88354,1,8,0:0:0:0:
64,64,88479,1,0,0:0:0:0:
320,64,88604,1,8,0:0:0:0:
320,64,88729,1,8,0:0:0:0:
64,64,88854,1,0,0:0:0:0:
64,64,88916,1,0,0:0:0:0:
320,64,88979,1,8,0:0:0:0:
64,64,89104,1,0,0:0:0:0:
64,64,89166,1,0,0:0:0:0:
320,64,89229,1,8,0:0:0:0:
64,64,89354,1,0,0:0:0:0:
320,64,89416,1,8,0:0:0:0:
64,64,89479,1,0,0:0:0:0:
64,64,89541,1,0,0:0:0:0:
320,64,89604,1,8,0:0:0:0:
64,64,89729,1,0,0:0:0:0:
64,64,90104,1,0,0:0:0:0:
320,64,90229,1,8,0:0:0:0:
320,64,90291,1,8,0:0:0:0:
64,64,90354,1,0,0:0:0:0:
320,64,90416,1,8,0:0:0:0:
64,64,90479,1,0,0:0:0:0:
64,64,90541,1,0,0:0:0:0:
64,64,90604,1,0,0:0:0:0:
320,64,90666,1,8,0:0:0:0:
64,64,90807,1,0,0:0:0:0:
64,64,90885,1,0,0:0:0:0:
64,64,90963,1,0,0:0:0:0:
320,64,91041,1,8,0:0:0:0:
64,64,91182,1,0,0:0:0:0:
64,64,91244,1,0,0:0:0:0:
64,64,91307,1,0,0:0:0:0:
320,64,91369,1,8,0:0:0:0:
64,64,91525,1,0,0:0:0:0:
64,64,91604,1,0,0:0:0:0:
64,64,91682,1,0,0:0:0:0:
320,64,91760,1,8,0:0:0:0:
64,64,91854,1,0,0:0:0:0:
64,64,91932,1,0,0:0:0:0:
64,64,92010,1,0,0:0:0:0:
320,64,92088,1,8,0:0:0:0:
64,64,92229,1,0,0:0:0:0:
64,64,92307,1,0,0:0:0:0:
64,64,92385,1,0,0:0:0:0:
320,64,92463,1,8,0:0:0:0:
64,64,92588,1,0,0:0:0:0:
64,64,92666,1,0,0:0:0:0:
64,64,92744,1,0,0:0:0:0:
320,64,92822,1,8,0:0:0:0:
64,64,92979,1,0,0:0:0:0:
64,64,93010,1,0,0:0:0:0:
320,64,93104,1,8,0:0:0:0:
320,64,93166,1,8,0:0:0:0:
64,64,93229,1,0,0:0:0:0:
64,64,93291,1,0,0:0:0:0:
320,64,93354,1,8,0:0:0:0:
64,64,93479,1,0,0:0:0:0:
320,64,93604,1,8,0:0:0:0:
320,64,93729,1,8,0:0:0:0:
320,64,93792,1,8,0:0:0:0:
64,64,93854,1,0,0:0:0:0:
64,64,93979,1,0,0:0:0:0:
320,64,94104,1,8,0:0:0:0:
64,64,94229,1,0,0:0:0:0:
64,64,94291,1,0,0:0:0:0:
320,64,94354,1,8,0:0:0:0:
64,64,94479,1,0,0:0:0:0:
320,64,94604,1,8,0:0:0:0:
64,64,94666,1,0,0:0:0:0:
320,64,94729,1,8,0:0:0:0:
320,64,94854,1,8,0:0:0:0:
64,64,94979,1,0,0:0:0:0:
320,64,95104,1,8,0:0:0:0:
320,64,95166,1,8,0:0:0:0:
64,64,95229,1,0,0:0:0:0:
320,64,95354,1,8,0:0:0:0:
64,64,95479,1,0,0:0:0:0:
320,64,95604,1,12,0:0:0:0:
64,64,95729,1,0,0:0:0:0:
64,64,95979,1,0,0:0:0:0:
320,64,96104,1,8,0:0:0:0:
64,64,96229,1,0,0:0:0:0:
320,64,96354,1,8,0:0:0:0:
320,64,96479,1,8,0:0:0:0:
64,64,96604,1,0,0:0:0:0:
320,64,96729,1,8,0:0:0:0:
64,64,96854,1,0,0:0:0:0:
320,64,96979,1,8,0:0:0:0:
320,64,97229,1,8,0:0:0:0:
64,64,97354,1,0,0:0:0:0:
64,64,97479,1,0,0:0:0:0:
320,64,97604,1,8,0:0:0:0:
64,64,97729,1,0,0:0:0:0:
320,64,97791,1,8,0:0:0:0:
320,64,97854,1,8,0:0:0:0:
64,64,97979,1,0,0:0:0:0:
320,64,98104,1,12,0:0:0:0:
64,64,98229,1,0,0:0:0:0:
64,64,98479,1,0,0:0:0:0:
320,64,98604,1,8,0:0:0:0:
64,64,98729,1,0,0:0:0:0:
320,64,98854,1,8,0:0:0:0:
320,64,98979,1,8,0:0:0:0:
64,64,99104,1,0,0:0:0:0:
320,64,99229,1,8,0:0:0:0:
64,64,99354,1,4,0:0:0:0:
320,64,99479,1,8,0:0:0:0:
64,64,99729,1,0,0:0:0:0:
320,64,99854,1,8,0:0:0:0:
64,64,99979,1,0,0:0:0:0:
320,64,100104,1,8,0:0:0:0:
320,64,100229,1,8,0:0:0:0:
64,64,100354,1,0,0:0:0:0:
64,64,100416,1,0,0:0:0:0:
64,64,100479,1,0,0:0:0:0:
320,64,100604,1,12,0:0:0:0:
64,64,100729,1,0,0:0:0:0:
64,64,100979,1,0,0:0:0:0:
320,64,101104,1,8,0:0:0:0:
64,64,101229,1,0,0:0:0:0:
320,64,101354,1,8,0:0:0:0:
320,64,101479,1,8,0:0:0:0:
64,64,101604,1,0,0:0:0:0:
320,64,101729,1,8,0:0:0:0:
64,64,101854,1,4,0:0:0:0:
320,64,101979,1,8,0:0:0:0:
320,64,102229,1,8,0:0:0:0:
64,64,102354,1,0,0:0:0:0:
64,64,102479,1,0,0:0:0:0:
320,64,102604,1,8,0:0:0:0:
64,64,102729,1,0,0:0:0:0:
320,64,102791,1,8,0:0:0:0:
320,64,102854,1,8,0:0:0:0:
64,64,102979,1,0,0:0:0:0:
320,64,103104,1,12,0:0:0:0:
64,64,103229,1,0,0:0:0:0:
64,64,103479,1,0,0:0:0:0:
320,64,103604,1,8,0:0:0:0:
64,64,103729,1,0,0:0:0:0:
320,64,103854,1,8,0:0:0:0:
320,64,103979,1,8,0:0:0:0:
64,64,104104,1,0,0:0:0:0:
64,64,104229,1,0,0:0:0:0:
320,64,104354,1,12,0:0:0:0:
64,64,104729,1,4,0:0:0:0:
320,64,105104,1,12,0:0:0:0:
64,64,105229,1,0,0:0:0:0:
64,64,105291,1,0,0:0:0:0:
320,64,105354,1,12,0:0:0:0:
64,64,105479,1,0,0:0:0:0:
320,64,105604,1,12,0:0:0:0:
64,64,105979,1,4,0:0:0:0:
320,64,106354,1,12,0:0:0:0:
64,64,106479,1,0,0:0:0:0:
64,64,106541,1,0,0:0:0:0:
320,64,106604,1,12,0:0:0:0:
64,64,106729,1,0,0:0:0:0:
320,64,106854,1,12,0:0:0:0:
320,64,106979,1,8,0:0:0:0:
320,64,107041,1,8,0:0:0:0:
64,64,107104,1,0,0:0:0:0:
320,64,107229,1,12,0:0:0:0:
64,64,107354,1,0,0:0:0:0:
64,64,107479,1,0,0:0:0:0:
320,64,107604,1,12,0:0:0:0:
64,64,107729,1,0,0:0:0:0:
320,64,107854,1,12,0:0:0:0:
64,64,107979,1,0,0:0:0:0:
320,64,108104,1,12,0:0:0:0:
320,64,108229,1,8,0:0:0:0:
64,64,108291,1,0,0:0:0:0:
320,64,108354,1,8,0:0:0:0:
320,64,108479,1,12,0:0:0:0:
320,64,108604,1,8,0:0:0:0:
320,64,108666,1,8,0:0:0:0:
64,64,108729,1,0,0:0:0:0:
320,64,108854,1,12,0:0:0:0:
64,64,108979,1,0,0:0:0:0:
320,64,109104,1,12,0:0:0:0:
320,64,109229,1,8,0:0:0:0:
64,64,109354,1,0,0:0:0:0:
64,64,109416,1,0,0:0:0:0:
64,64,109479,1,0,0:0:0:0:
64,64,109604,1,0,0:0:0:0:
64,64,109729,1,0,0:0:0:0:
64,64,109791,1,0,0:0:0:0:
64,64,109854,1,0,0:0:0:0:
64,64,109979,1,0,0:0:0:0:
64,64,110104,1,0,0:0:0:0:
64,64,110166,1,0,0:0:0:0:
64,64,110229,1,0,0:0:0:0:
64,64,110354,1,0,0:0:0:0:
64,64,110416,1,0,0:0:0:0:
64,64,110479,1,0,0:0:0:0:
320,64,110604,1,8,0:0:0:0:
64,64,110666,1,0,0:0:0:0:
320,64,110729,1,8,0:0:0:0:
64,64,110854,1,0,0:0:0:0:
320,64,110979,1,8,0:0:0:0:
64,64,111041,1,0,0:0:0:0:
320,64,111104,1,8,0:0:0:0:
64,64,111229,1,0,0:0:0:0:
320,64,111354,1,8,0:0:0:0:
64,64,111416,1,0,0:0:0:0:
320,64,111479,1,8,0:0:0:0:
320,64,111604,1,8,0:0:0:0:
320,64,111666,1,8,0:0:0:0:
64,64,111729,1,0,0:0:0:0:
64,64,111791,1,0,0:0:0:0:
320,64,111854,1,8,0:0:0:0:
64,64,111979,1,0,0:0:0:0:
320,64,112104,1,8,0:0:0:0:
64,64,112229,1,0,0:0:0:0:
64,64,112354,1,0,0:0:0:0:
64,64,112479,1,0,0:0:0:0:
64,64,112604,1,0,0:0:0:0:
320,64,112854,1,8,0:0:0:0:
64,64,113104,1,0,0:0:0:0:
64,64,113229,1,0,0:0:0:0:
64,64,113354,1,0,0:0:0:0:
64,64,113479,1,0,0:0:0:0:
320,64,113604,1,8,0:0:0:0:
64,64,113854,1,0,0:0:0:0:
64,64,113979,1,0,0:0:0:0:
64,64,114041,1,0,0:0:0:0:
320,64,114104,1,8,0:0:0:0:
320,64,114229,1,8,0:0:0:0:
64,64,114354,1,0,0:0:0:0:
64,64,114479,1,0,0:0:0:0:
320,64,114604,1,8,0:0:0:0:
64,64,114729,1,0,0:0:0:0:
64,64,114854,1,0,0:0:0:0:
64,64,114979,1,0,0:0:0:0:
64,64,115104,1,0,0:0:0:0:
320,64,115354,1,8,0:0:0:0:
64,64,115604,1,0,0:0:0:0:
64,64,115729,1,0,0:0:0:0:
64,64,115854,1,0,0:0:0:0:
64,64,115979,1,0,0:0:0:0:
320,64,116104,1,8,0:0:0:0:
64,64,116354,1,0,0:0:0:0:
64,64,116479,1,0,0:0:0:0:
64,64,116541,1,0,0:0:0:0:
320,64,116604,1,8,0:0:0:0:
320,64,116729,1,8,0:0:0:0:
64,64,116854,1,0,0:0:0:0:
320,64,117104,1,8,0:0:0:0:
64,64,117229,1,0,0:0:0:0:
320,64,117354,1,8,0:0:0:0:
320,64,117479,1,8,0:0:0:0:
64,64,117604,1,0,0:0:0:0:
320,64,117854,1,8,0:0:0:0:
64,64,118104,1,0,0:0:0:0:
320,64,118229,1,8,0:0:0:0:
64,64,118354,1,0,0:0:0:0:
64,64,118479,1,0,0:0:0:0:
320,64,118604,1,8,0:0:0:0:
320,64,118729,1,8,0:0:0:0:
64,64,118854,1,0,0:0:0:0:
64,64,118979,1,0,0:0:0:0:
64,64,119041,1,0,0:0:0:0:
64,64,119104,1,0,0:0:0:0:
320,64,119229,1,8,0:0:0:0:
64,64,119354,1,0,0:0:0:0:
64,64,119479,1,0,0:0:0:0:
320,64,119604,1,8,0:0:0:0:
64,64,119729,1,0,0:0:0:0:
64,64,119854,1,0,0:0:0:0:
64,64,119979,1,0,0:0:0:0:
64,64,120041,1,0,0:0:0:0:
320,64,120104,1,8,0:0:0:0:
320,64,120354,1,8,0:0:0:0:
64,64,120604,1,0,0:0:0:0:
64,64,121354,1,0,0:0:0:0:
320,64,121604,1,8,0:0:0:0:
64,64,121666,1,0,0:0:0:0:
64,64,121729,1,0,0:0:0:0:
64,64,121791,1,0,0:0:0:0:
320,64,121854,1,8,0:0:0:0:
64,64,121979,1,0,0:0:0:0:
64,64,122104,1,0,0:0:0:0:
320,64,122229,1,8,0:0:0:0:
64,64,122354,1,0,0:0:0:0:
64,64,122479,1,0,0:0:0:0:
64,64,122604,1,0,0:0:0:0:
320,64,122854,1,8,0:0:0:0:
64,64,123104,1,0,0:0:0:0:
64,64,123229,1,0,0:0:0:0:
64,64,123354,1,0,0:0:0:0:
320,64,123479,1,8,0:0:0:0:
64,64,123604,1,0,0:0:0:0:
64,64,123854,1,0,0:0:0:0:
64,64,123979,1,0,0:0:0:0:
64,64,124041,1,0,0:0:0:0:
320,64,124104,1,8,0:0:0:0:
320,64,124229,1,8,0:0:0:0:
64,64,124354,1,0,0:0:0:0:
64,64,124479,1,0,0:0:0:0:
64,64,124604,1,0,0:0:0:0:
320,64,124729,1,8,0:0:0:0:
64,64,124854,1,0,0:0:0:0:
64,64,124979,1,0,0:0:0:0:
64,64,125104,1,0,0:0:0:0:
320,64,125354,1,8,0:0:0:0:
64,64,125604,1,0,0:0:0:0:
64,64,125729,1,0,0:0:0:0:
64,64,125854,1,0,0:0:0:0:
320,64,125979,1,8,0:0:0:0:
64,64,126104,1,0,0:0:0:0:
64,64,126354,1,0,0:0:0:0:
64,64,126479,1,0,0:0:0:0:
64,64,126541,1,0,0:0:0:0:
320,64,126604,1,8,0:0:0:0:
320,64,126729,1,8,0:0:0:0:
64,64,126854,1,0,0:0:0:0:
64,64,127104,1,0,0:0:0:0:
320,64,127229,1,8,0:0:0:0:
320,64,127291,1,8,0:0:0:0:
64,64,127354,1,0,0:0:0:0:
64,64,127479,1,0,0:0:0:0:
320,64,127604,1,8,0:0:0:0:
64,64,127729,1,0,0:0:0:0:
320,64,127854,1,8,0:0:0:0:
64,64,128104,1,0,0:0:0:0:
64,64,128229,1,0,0:0:0:0:
320,64,128479,1,8,0:0:0:0:
64,64,128604,1,0,0:0:0:0:
64,64,128729,1,0,0:0:0:0:
320,64,128854,1,8,0:0:0:0:
64,64,128979,1,0,0:0:0:0:
64,64,129041,1,0,0:0:0:0:
320,64,129104,1,8,0:0:0:0:
64,64,129166,1,0,0:0:0:0:
320,64,129229,1,8,0:0:0:0:
320,64,129291,1,8,0:0:0:0:
64,64,129354,1,0,0:0:0:0:
64,64,129479,1,0,0:0:0:0:
64,64,129604,1,0,0:0:0:0:
320,64,129729,1,8,0:0:0:0:
64,64,129854,1,0,0:0:0:0:
64,64,129979,1,0,0:0:0:0:
320,64,130104,1,8,0:0:0:0:
320,64,130354,1,8,0:0:0:0:
64,64,130604,1,0,0:0:0:0:
320,64,131354,1,8,0:0:0:0:
64,64,131479,1,0,0:0:0:0:
64,64,131604,1,0,0:0:0:0:
64,64,131729,1,0,0:0:0:0:
320,64,131854,1,12,0:0:0:0:
320,64,131979,1,12,0:0:0:0:
64,64,132104,1,0,0:0:0:0:
64,64,132166,1,0,0:0:0:0:
320,64,132229,1,12,0:0:0:0:
320,64,132354,1,12,0:0:0:0:
64,64,132479,1,0,0:0:0:0:
64,64,132541,1,0,0:0:0:0:
320,64,132604,1,12,0:0:0:0:
64,64,132729,1,0,0:0:0:0:
320,64,132791,1,8,0:0:0:0:
64,64,132854,1,4,0:0:0:0:
64,64,132979,1,0,0:0:0:0:
320,64,133104,1,12,0:0:0:0:
320,64,133229,1,12,0:0:0:0:
64,64,133354,1,0,0:0:0:0:
64,64,133416,1,0,0:0:0:0:
320,64,133479,1,12,0:0:0:0:
64,64,133604,1,0,0:0:0:0:
320,64,133729,1,8,0:0:0:0:
320,64,133791,1,8,0:0:0:0:
64,64,133854,1,4,0:0:0:0:
64,64,133979,1,0,0:0:0:0:
320,64,134104,1,12,0:0:0:0:
64,64,134229,1,0,0:0:0:0:
320,64,134354,1,12,0:0:0:0:
320,64,134479,1,12,0:0:0:0:
64,64,134604,1,0,0:0:0:0:
64,64,134666,1,0,0:0:0:0:
320,64,134729,1,12,0:0:0:0:
320,64,134854,1,12,0:0:0:0:
64,64,134979,1,0,0:0:0:0:
64,64,135041,1,0,0:0:0:0:
320,64,135104,1,12,0:0:0:0:
320,64,135229,1,8,0:0:0:0:
320,64,135291,1,8,0:0:0:0:
64,64,135354,1,4,0:0:0:0:
64,64,135479,1,0,0:0:0:0:
320,64,135604,1,12,0:0:0:0:
320,64,135729,1,12,0:0:0:0:
64,64,135854,1,0,0:0:0:0:
64,64,135916,1,0,0:0:0:0:
320,64,135979,1,12,0:0:0:0:
64,64,136104,1,0,0:0:0:0:
320,64,136229,1,8,0:0:0:0:
64,64,136291,1,0,0:0:0:0:
320,64,136354,1,8,0:0:0:0:
320,64,136416,1,8,0:0:0:0:
64,64,136479,1,0,0:0:0:0:
64,64,136541,1,0,0:0:0:0:
320,64,136604,1,8,0:0:0:0:
64,64,136666,1,0,0:0:0:0:
320,64,136729,1,8,0:0:0:0:
320,64,136791,1,8,0:0:0:0:
64,64,136854,1,4,0:0:0:0:
320,64,136979,1,8,0:0:0:0:
64,64,137229,1,0,0:0:0:0:
320,64,137354,1,8,0:0:0:0:
320,64,137416,1,8,0:0:0:0:
64,64,137479,1,0,0:0:0:0:
320,64,137604,1,8,0:0:0:0:
64,64,137729,1,0,0:0:0:0:
320,64,137854,1,8,0:0:0:0:
64,64,137979,1,0,0:0:0:0:
320,64,138104,1,8,0:0:0:0:
320,64,138229,1,8,0:0:0:0:
64,64,138479,1,0,0:0:0:0:
320,64,138604,1,8,0:0:0:0:
320,64,138667,1,8,0:0:0:0:
64,64,138729,1,0,0:0:0:0:
64,64,138791,1,0,0:0:0:0:
320,64,138854,1,8,0:0:0:0:
64,64,138979,1,0,0:0:0:0:
320,64,139104,1,8,0:0:0:0:
320,64,139229,1,8,0:0:0:0:
64,64,139354,1,0,0:0:0:0:
320,64,139479,1,8,0:0:0:0:
320,64,139729,1,8,0:0:0:0:
64,64,139854,1,0,0:0:0:0:
64,64,139916,1,0,0:0:0:0:
64,64,139979,1,0,0:0:0:0:
320,64,140104,1,8,0:0:0:0:
64,64,140229,1,0,0:0:0:0:
64,64,140291,1,0,0:0:0:0:
320,64,140354,1,8,0:0:0:0:
64,64,140416,1,0,0:0:0:0:
320,64,140479,1,8,0:0:0:0:
64,64,140604,1,0,0:0:0:0:
320,64,140729,1,8,0:0:0:0:
64,64,140979,1,0,0:0:0:0:
64,64,141104,1,0,0:0:0:0:
64,64,141166,1,0,0:0:0:0:
320,64,141229,1,8,0:0:0:0:
64,64,141354,1,0,0:0:0:0:
320,64,141479,1,8,0:0:0:0:
320,64,141541,1,8,0:0:0:0:
320,64,141604,1,8,0:0:0:0:
320,64,141729,1,8,0:0:0:0:
64,64,141854,1,4,0:0:0:0:
64,64,142104,1,0,0:0:0:0:
320,64,142229,1,8,0:0:0:0:
320,64,142291,1,8,0:0:0:0:
64,64,142354,1,0,0:0:0:0:
64,64,142479,1,0,0:0:0:0:
320,64,142604,1,8,0:0:0:0:
64,64,142729,1,0,0:0:0:0:
64,64,142791,1,0,0:0:0:0:
320,64,142854,1,8,0:0:0:0:
64,64,142916,1,0,0:0:0:0:
320,64,142979,1,8,0:0:0:0:
64,64,143104,1,4,0:0:0:0:
320,64,143354,1,8,0:0:0:0:
64,64,143479,1,4,0:0:0:0:
64,64,143729,1,0,0:0:0:0:
320,64,143854,1,8,0:0:0:0:
320,64,143917,1,8,0:0:0:0:
64,64,143979,1,0,0:0:0:0:
64,64,144041,1,0,0:0:0:0:
320,64,144104,1,8,0:0:0:0:
320,64,144166,1,8,0:0:0:0:
64,64,144229,1,0,0:0:0:0:
320,64,144354,1,12,0:0:0:0:
320,64,144604,1,8,0:0:0:0:
64,64,144729,1,0,0:0:0:0:
320,64,144854,1,8,0:0:0:0:
320,64,144916,1,8,0:0:0:0:
64,64,144979,1,0,0:0:0:0:
320,64,145104,1,8,0:0:0:0:
320,64,145166,1,8,0:0:0:0:
64,64,145229,1,0,0:0:0:0:
320,64,145354,1,8,0:0:0:0:
64,64,145479,1,0,0:0:0:0:
64,64,145604,1,4,0:0:0:0:
320,64,145729,1,8,0:0:0:0:
320,64,145854,1,8,0:0:0:0:
64,64,145979,1,4,0:0:0:0:
320,64,146104,1,8,0:0:0:0:
320,64,146229,1,8,0:0:0:0:
64,64,146354,1,4,0:0:0:0:
320,64,146479,1,8,0:0:0:0:
64,64,146541,1,0,0:0:0:0:
320,64,146604,1,8,0:0:0:0:
320,64,146666,1,8,0:0:0:0:
64,64,146729,1,0,0:0:0:0:
64,64,146791,1,0,0:0:0:0:
320,64,146854,1,12,0:0:0:0:
64,64,146979,1,0,0:0:0:0:
320,64,147229,1,8,0:0:0:0:
64,64,147354,1,0,0:0:0:0:
64,64,147416,1,0,0:0:0:0:
320,64,147479,1,8,0:0:0:0:
320,64,147604,1,8,0:0:0:0:
64,64,147729,1,0,0:0:0:0:
320,64,147854,1,8,0:0:0:0:
320,64,147916,1,8,0:0:0:0:
64,64,147979,1,0,0:0:0:0:
320,64,148104,1,8,0:0:0:0:
64,64,148229,1,0,0:0:0:0:
320,64,148479,1,8,0:0:0:0:
320,64,148604,1,8,0:0:0:0:
320,64,148667,1,8,0:0:0:0:
64,64,148729,1,0,0:0:0:0:
64,64,148791,1,0,0:0:0:0:
320,64,148854,1,8,0:0:0:0:
64,64,148979,1,0,0:0:0:0:
320,64,149104,1,8,0:0:0:0:
320,64,149229,1,8,0:0:0:0:
64,64,149354,1,0,0:0:0:0:
320,64,149479,1,8,0:0:0:0:
320,64,149729,1,8,0:0:0:0:
64,64,149854,1,0,0:0:0:0:
64,64,149916,1,0,0:0:0:0:
64,64,149979,1,0,0:0:0:0:
320,64,150104,1,8,0:0:0:0:
64,64,150229,1,0,0:0:0:0:
64,64,150291,1,0,0:0:0:0:
320,64,150354,1,8,0:0:0:0:
64,64,150416,1,0,0:0:0:0:
320,64,150479,1,8,0:0:0:0:
64,64,150604,1,0,0:0:0:0:
320,64,150729,1,8,0:0:0:0:
64,64,150979,1,0,0:0:0:0:
64,64,151104,1,0,0:0:0:0:
64,64,151166,1,0,0:0:0:0:
320,64,151229,1,8,0:0:0:0:
64,64,151354,1,0,0:0:0:0:
320,64,151479,1,8,0:0:0:0:
320,64,151541,1,8,0:0:0:0:
320,64,151604,1,8,0:0:0:0:
320,64,151729,1,8,0:0:0:0:
64,64,151854,1,4,0:0:0:0:
64,64,152104,1,0,0:0:0:0:
320,64,152229,1,8,0:0:0:0:
320,64,152291,1,8,0:0:0:0:
64,64,152354,1,0,0:0:0:0:
64,64,152479,1,0,0:0:0:0:
320,64,152604,1,8,0:0:0:0:
64,64,152729,1,0,0:0:0:0:
64,64,152791,1,0,0:0:0:0:
320,64,152854,1,8,0:0:0:0:
64,64,152916,1,0,0:0:0:0:
320,64,152979,1,8,0:0:0:0:
64,64,153104,1,4,0:0:0:0:
320,64,153354,1,8,0:0:0:0:
64,64,153479,1,4,0:0:0:0:
64,64,153729,1,0,0:0:0:0:
320,64,153854,1,8,0:0:0:0:
320,64,153916,1,8,0:0:0:0:
64,64,153979,1,0,0:0:0:0:
64,64,154041,1,0,0:0:0:0:
320,64,154104,1,8,0:0:0:0:
320,64,154166,1,8,0:0:0:0:
64,64,154229,1,0,0:0:0:0:
320,64,154354,1,12,0:0:0:0:
320,64,154604,1,8,0:0:0:0:
320,64,154666,1,8,0:0:0:0:
64,64,154729,1,0,0:0:0:0:
320,64,154854,1,8,0:0:0:0:
64,64,154979,1,0,0:0:0:0:
320,64,155104,1,8,0:0:0:0:
320,64,155166,1,8,0:0:0:0:
64,64,155229,1,0,0:0:0:0:
320,64,155354,1,8,0:0:0:0:
64,64,155479,1,0,0:0:0:0:
64,64,155604,1,4,0:0:0:0:
320,64,155729,1,8,0:0:0:0:
320,64,155854,1,8,0:0:0:0:
64,64,155979,1,4,0:0:0:0:
320,64,156104,1,8,0:0:0:0:
320,64,156229,1,8,0:0:0:0:
64,64,156354,1,4,0:0:0:0:
320,64,156479,1,8,0:0:0:0:
64,64,156541,1,0,0:0:0:0:
320,64,156604,1,8,0:0:0:0:
320,64,156666,1,8,0:0:0:0:
64,64,156729,1,0,0:0:0:0:
64,64,156791,1,0,0:0:0:0:
320,64,156854,1,12,0:0:0:0:
64,64,156979,1,0,0:0:0:0:
320,64,157229,1,8,0:0:0:0:
64,64,157354,1,0,0:0:0:0:
64,64,157416,1,0,0:0:0:0:
320,64,157479,1,8,0:0:0:0:
64,64,157604,1,0,0:0:0:0:
64,64,157729,1,0,0:0:0:0:
320,64,157854,1,8,0:0:0:0:
64,64,158104,1,0,0:0:0:0:
320,64,158229,1,8,0:0:0:0:
64,64,158479,1,0,0:0:0:0:
320,64,158604,1,8,0:0:0:0:
64,64,158729,1,0,0:0:0:0:
320,64,158854,1,8,0:0:0:0:
64,64,158979,1,0,0:0:0:0:
64,64,159041,1,0,0:0:0:0:
320,64,159104,1,8,0:0:0:0:
320,64,159229,1,8,0:0:0:0:
64,64,159354,1,0,0:0:0:0:
320,64,159479,1,8,0:0:0:0:
64,64,159729,1,0,0:0:0:0:
320,64,159854,1,8,0:0:0:0:
64,64,159979,1,0,0:0:0:0:
320,64,160104,1,8,0:0:0:0:
320,64,160229,1,8,0:0:0:0:
64,64,160354,1,0,0:0:0:0:
320,64,160479,1,8,0:0:0:0:
64,64,160604,1,0,0:0:0:0:
320,64,160729,1,8,0:0:0:0:
64,64,160979,1,0,0:0:0:0:
320,64,161104,1,8,0:0:0:0:
320,64,161229,1,8,0:0:0:0:
64,64,161354,1,0,0:0:0:0:
64,64,161416,1,0,0:0:0:0:
64,64,161479,1,0,0:0:0:0:
64,64,161541,1,0,0:0:0:0:
320,64,161604,1,8,0:0:0:0:
320,64,161729,1,8,0:0:0:0:
64,64,161854,1,4,0:0:0:0:
64,64,162104,1,0,0:0:0:0:
320,64,162229,1,8,0:0:0:0:
64,64,162354,1,0,0:0:0:0:
64,64,162479,1,0,0:0:0:0:
320,64,162604,1,8,0:0:0:0:
64,64,162729,1,0,0:0:0:0:
64,64,162791,1,0,0:0:0:0:
320,64,162854,1,8,0:0:0:0:
320,64,162916,1,8,0:0:0:0:
64,64,162979,1,0,0:0:0:0:
320,64,163104,1,8,0:0:0:0:
64,64,163229,1,0,0:0:0:0:
64,64,163354,1,0,0:0:0:0:
320,64,163479,1,8,0:0:0:0:
64,64,163604,1,0,0:0:0:0:
64,64,163729,1,0,0:0:0:0:
320,64,163854,1,8,0:0:0:0:
64,64,163979,1,0,0:0:0:0:
320,64,164104,1,8,0:0:0:0:
64,64,164229,1,0,0:0:0:0:
320,64,164354,1,8,0:0:0:0:
64,64,164479,1,0,0:0:0:0:
64,64,164604,1,0,0:0:0:0:
320,64,164729,1,8,0:0:0:0:
64,64,164854,1,0,0:0:0:0:
64,64,164979,1,0,0:0:0:0:
320,64,165104,1,8,0:0:0:0:
320,64,165229,1,8,0:0:0:0:
320,64,165354,1,8,0:0:0:0:
320,64,165479,1,8,0:0:0:0:
64,64,165604,1,4,0:0:0:0:
320,64,165729,1,8,0:0:0:0:
64,64,165979,1,0,0:0:0:0:
320,64,166104,1,8,0:0:0:0:
320,64,166166,1,8,0:0:0:0:
64,64,166229,1,0,0:0:0:0:
320,64,166354,1,8,0:0:0:0:
64,64,166479,1,0,0:0:0:0:
320,64,166604,1,8,0:0:0:0:
64,64,166666,1,0,0:0:0:0:
320,64,166729,1,8,0:0:0:0:
64,64,166854,1,0,0:0:0:0:
320,64,166979,1,8,0:0:0:0:
320,64,167229,1,8,0:0:0:0:
64,64,167354,1,0,0:0:0:0:
64,64,167416,1,0,0:0:0:0:
64,64,167479,1,0,0:0:0:0:
64,64,167541,1,0,0:0:0:0:
320,64,167604,1,8,0:0:0:0:
64,64,167729,1,0,0:0:0:0:
64,64,167791,1,0,0:0:0:0:
320,64,167854,1,8,0:0:0:0:
320,64,167979,1,8,0:0:0:0:
64,64,168104,1,0,0:0:0:0:
320,64,168229,1,8,0:0:0:0:
320,64,168479,1,8,0:0:0:0:
64,64,168604,1,0,0:0:0:0:
64,64,168666,1,0,0:0:0:0:
64,64,168729,1,0,0:0:0:0:
320,64,168854,1,8,0:0:0:0:
64,64,168979,1,0,0:0:0:0:
64,64,169041,1,0,0:0:0:0:
320,64,169104,1,8,0:0:0:0:
64,64,169166,1,0,0:0:0:0:
320,64,169229,1,8,0:0:0:0:
64,64,169354,1,0,0:0:0:0:
320,64,169479,1,8,0:0:0:0:
64,64,169729,1,0,0:0:0:0:
320,64,169854,1,8,0:0:0:0:
320,64,169916,1,8,0:0:0:0:
64,64,169979,1,0,0:0:0:0:
320,64,170104,1,8,0:0:0:0:
320,64,170229,1,8,0:0:0:0:
320,64,170291,1,8,0:0:0:0:
320,64,170354,1,8,0:0:0:0:
320,64,170479,1,8,0:0:0:0:
64,64,170604,1,4,0:0:0:0:
64,64,170854,1,0,0:0:0:0:
320,64,170979,1,8,0:0:0:0:
320,64,171041,1,8,0:0:0:0:
64,64,171104,1,0,0:0:0:0:
64,64,171229,1,0,0:0:0:0:
320,64,171354,1,8,0:0:0:0:
64,64,171479,1,0,0:0:0:0:
64,64,171541,1,0,0:0:0:0:
320,64,171604,1,8,0:0:0:0:
64,64,171666,1,0,0:0:0:0:
320,64,171729,1,8,0:0:0:0:
64,64,171854,1,4,0:0:0:0:
320,64,172104,1,8,0:0:0:0:
64,64,172229,1,4,0:0:0:0:
64,64,172479,1,0,0:0:0:0:
320,64,172604,1,8,0:0:0:0:
320,64,172666,1,8,0:0:0:0:
64,64,172729,1,0,0:0:0:0:
64,64,172791,1,0,0:0:0:0:
320,64,172854,1,8,0:0:0:0:
64,64,172916,1,0,0:0:0:0:
64,64,172979,1,0,0:0:0:0:
64,64,173041,1,0,0:0:0:0:
320,64,173104,1,12,0:0:0:0:
320,64,173354,1,8,0:0:0:0:
64,64,173479,1,0,0:0:0:0:
64,64,173541,1,0,0:0:0:0:
320,64,173604,1,8,0:0:0:0:
64,64,173729,1,0,0:0:0:0:
320,64,173854,1,8,0:0:0:0:
64,64,173979,1,0,0:0:0:0:
64,64,174041,1,0,0:0:0:0:
320,64,174104,1,8,0:0:0:0:
320,64,174229,1,8,0:0:0:0:
64,64,174354,1,4,0:0:0:0:
320,64,174479,1,8,0:0:0:0:
64,64,174541,1,0,0:0:0:0:
320,64,174604,1,8,0:0:0:0:
64,64,174729,1,4,0:0:0:0:
320,64,174854,1,8,0:0:0:0:
64,64,174916,1,0,0:0:0:0:
320,64,174979,1,8,0:0:0:0:
64,64,175104,1,4,0:0:0:0:
320,64,175229,1,8,0:0:0:0:
64,64,175291,1,0,0:0:0:0:
320,64,175354,1,8,0:0:0:0:
320,64,175416,1,8,0:0:0:0:
64,64,175479,1,0,0:0:0:0:
64,64,175541,1,0,0:0:0:0:
320,64,175604,1,12,0:0:0:0:
64,64,175729,1,0,0:0:0:0:
320,64,175979,1,8,0:0:0:0:
64,64,176104,1,0,0:0:0:0:
64,64,176166,1,0,0:0:0:0:
320,64,176229,1,8,0:0:0:0:
64,64,176354,1,0,0:0:0:0:
64,64,176479,1,0,0:0:0:0:
320,64,176604,1,8,0:0:0:0:
320,64,176666,1,8,0:0:0:0:
64,64,176729,1,0,0:0:0:0:
320,64,176854,1,8,0:0:0:0:
64,64,176979,1,0,0:0:0:0:
320,64,177229,1,8,0:0:0:0:
64,64,177354,1,0,0:0:0:0:
320,64,177416,1,8,0:0:0:0:
64,64,177479,1,0,0:0:0:0:
320,64,177604,1,8,0:0:0:0:
64,64,177729,1,0,0:0:0:0:
64,64,177791,1,0,0:0:0:0:
320,64,177854,1,8,0:0:0:0:
320,64,177979,1,8,0:0:0:0:
64,64,178104,1,0,0:0:0:0:
320,64,178229,1,8,0:0:0:0:
320,64,178479,1,8,0:0:0:0:
64,64,178604,1,0,0:0:0:0:
64,64,178666,1,0,0:0:0:0:
64,64,178729,1,0,0:0:0:0:
320,64,178854,1,8,0:0:0:0:
64,64,178979,1,0,0:0:0:0:
64,64,179041,1,0,0:0:0:0:
320,64,179104,1,8,0:0:0:0:
64,64,179166,1,0,0:0:0:0:
320,64,179229,1,8,0:0:0:0:
64,64,179354,1,0,0:0:0:0:
320,64,179479,1,8,0:0:0:0:
320,64,179729,1,8,0:0:0:0:
64,64,179854,1,0,0:0:0:0:
64,64,179916,1,0,0:0:0:0:
64,64,179979,1,0,0:0:0:0:
320,64,180104,1,8,0:0:0:0:
64,64,180229,1,0,0:0:0:0:
64,64,180291,1,0,0:0:0:0:
320,64,180354,1,8,0:0:0:0:
320,64,180479,1,8,0:0:0:0:
64,64,180604,1,4,0:0:0:0:
320,64,180854,1,8,0:0:0:0:
64,64,180979,1,0,0:0:0:0:
64,64,181041,1,0,0:0:0:0:
320,64,181104,1,8,0:0:0:0:
320,64,181229,1,8,0:0:0:0:
64,64,181354,1,0,0:0:0:0:
320,64,181479,1,8,0:0:0:0:
64,64,181541,1,0,0:0:0:0:
320,64,181604,1,8,0:0:0:0:
320,64,181729,1,8,0:0:0:0:
64,64,181854,1,4,0:0:0:0:
320,64,182104,1,8,0:0:0:0:
64,64,182229,1,4,0:0:0:0:
64,64,182479,1,0,0:0:0:0:
320,64,182604,1,8,0:0:0:0:
320,64,182666,1,8,0:0:0:0:
64,64,182729,1,0,0:0:0:0:
64,64,182791,1,0,0:0:0:0:
320,64,182854,1,8,0:0:0:0:
64,64,182916,1,0,0:0:0:0:
64,64,182979,1,0,0:0:0:0:
64,64,183041,1,0,0:0:0:0:
320,64,183104,1,12,0:0:0:0:
320,64,183354,1,8,0:0:0:0:
64,64,183479,1,0,0:0:0:0:
320,64,183604,1,8,0:0:0:0:
320,64,183666,1,8,0:0:0:0:
64,64,183729,1,0,0:0:0:0:
320,64,183854,1,8,0:0:0:0:
64,64,183979,1,0,0:0:0:0:
64,64,184041,1,0,0:0:0:0:
320,64,184104,1,8,0:0:0:0:
320,64,184229,1,8,0:0:0:0:
64,64,184354,1,4,0:0:0:0:
320,64,184479,1,8,0:0:0:0:
64,64,184541,1,0,0:0:0:0:
320,64,184604,1,8,0:0:0:0:
64,64,184729,1,4,0:0:0:0:
320,64,184854,1,8,0:0:0:0:
64,64,184916,1,0,0:0:0:0:
320,64,184979,1,8,0:0:0:0:
64,64,185104,1,4,0:0:0:0:
320,64,185229,1,8,0:0:0:0:
64,64,185291,1,0,0:0:0:0:
320,64,185354,1,8,0:0:0:0:
320,64,185416,1,8,0:0:0:0:
64,64,185479,1,0,0:0:0:0:
64,64,185541,1,0,0:0:0:0:
320,64,185604,1,12,0:0:0:0:
64,64,185729,1,0,0:0:0:0:
64,64,185979,1,0,0:0:0:0:
320,64,186104,1,8,0:0:0:0:
320,64,186166,1,8,0:0:0:0:
64,64,186229,1,0,0:0:0:0:
320,64,186354,1,8,0:0:0:0:
320,64,186479,1,8,0:0:0:0:
64,64,186604,1,0,0:0:0:0:
64,64,186854,1,0,0:0:0:0:
320,64,186979,1,8,0:0:0:0:
320,64,187229,1,8,0:0:0:0:
64,64,187354,1,0,0:0:0:0:
64,64,187416,1,0,0:0:0:0:
64,64,187479,1,0,0:0:0:0:
320,64,187604,1,8,0:0:0:0:
64,64,187729,1,0,0:0:0:0:
64,64,187792,1,0,0:0:0:0:
320,64,187854,1,8,0:0:0:0:
320,64,187979,1,8,0:0:0:0:
64,64,188104,1,0,0:0:0:0:
320,64,188229,1,8,0:0:0:0:
64,64,188479,1,0,0:0:0:0:
320,64,188604,1,8,0:0:0:0:
320,64,188667,1,8,0:0:0:0:
64,64,188729,1,0,0:0:0:0:
320,64,188854,1,8,0:0:0:0:
64,64,188979,1,0,0:0:0:0:
64,64,189041,1,0,0:0:0:0:
320,64,189104,1,8,0:0:0:0:
320,64,189229,1,8,0:0:0:0:
64,64,189354,1,0,0:0:0:0:
320,64,189479,1,8,0:0:0:0:
64,64,189729,1,0,0:0:0:0:
320,64,189854,1,8,0:0:0:0:
320,64,189979,1,8,0:0:0:0:
64,64,190104,1,0,0:0:0:0:
64,64,190166,1,0,0:0:0:0:
320,64,190229,1,8,0:0:0:0:
64,64,190291,1,0,0:0:0:0:
320,64,190354,1,8,0:0:0:0:
320,64,190479,1,8,0:0:0:0:
64,64,190604,1,4,0:0:0:0:
64,64,190854,1,0,0:0:0:0:
320,64,190979,1,8,0:0:0:0:
64,64,191104,1,0,0:0:0:0:
64,64,191229,1,0,0:0:0:0:
320,64,191354,1,8,0:0:0:0:
320,64,191416,1,8,0:0:0:0:
64,64,191479,1,0,0:0:0:0:
64,64,191541,1,0,0:0:0:0:
320,64,191604,1,8,0:0:0:0:
64,64,191729,1,0,0:0:0:0:
320,64,191854,1,8,0:0:0:0:
64,64,191979,1,0,0:0:0:0:
64,64,192104,1,0,0:0:0:0:
320,64,192229,1,8,0:0:0:0:
64,64,192354,1,0,0:0:0:0:
64,64,192479,1,0,0:0:0:0:
320,64,192604,1,8,0:0:0:0:
64,64,192666,1,0,0:0:0:0:
64,64,192729,1,0,0:0:0:0:
64,64,192791,1,0,0:0:0:0:
320,64,192854,1,8,0:0:0:0:
64,64,192916,1,0,0:0:0:0:
64,64,192979,1,0,0:0:0:0:
64,64,193041,1,0,0:0:0:0:
320,64,193104,1,8,0:0:0:0:
320,64,193229,1,8,0:0:0:0:
320,64,193354,1,8,0:0:0:0:
320,64,193479,1,8,0:0:0:0:
320,64,193604,1,8,0:0:0:0:
320,64,193729,1,8,0:0:0:0:
320,64,193854,1,8,0:0:0:0:
320,64,193979,1,8,0:0:0:0:
320,64,194104,1,8,0:0:0:0:
320,64,194229,1,8,0:0:0:0:
64,64,194354,1,4,0:0:0:0:
320,64,194479,1,8,0:0:0:0:
64,64,194729,1,0,0:0:0:0:
320,64,194854,1,8,0:0:0:0:
64,64,194979,1,0,0:0:0:0:
320,64,195104,1,8,0:0:0:0:
320,64,195229,1,8,0:0:0:0:
64,64,195354,1,0,0:0:0:0:
64,64,195479,1,0,0:0:0:0:
320,64,195604,1,8,0:0:0:0:
64,64,195729,1,0,0:0:0:0:
64,64,195979,1,0,0:0:0:0:
320,64,196104,1,8,0:0:0:0:
320,64,196229,1,8,0:0:0:0:
64,64,196354,1,0,0:0:0:0:
64,64,196479,1,0,0:0:0:0:
320,64,196541,1,8,0:0:0:0:
320,64,196604,1,8,0:0:0:0:
320,64,196729,1,8,0:0:0:0:
64,64,196854,1,0,0:0:0:0:
320,64,196979,1,8,0:0:0:0:
64,64,197229,1,0,0:0:0:0:
320,64,197354,1,8,0:0:0:0:
64,64,197479,1,0,0:0:0:0:
320,64,197604,1,8,0:0:0:0:
320,64,197729,1,8,0:0:0:0:
64,64,197854,1,0,0:0:0:0:
64,64,197979,1,0,0:0:0:0:
320,64,198104,1,8,0:0:0:0:
64,64,198229,1,0,0:0:0:0:
320,64,198479,1,8,0:0:0:0:
320,64,198604,1,8,0:0:0:0:
64,64,198729,1,0,0:0:0:0:
320,64,198854,1,8,0:0:0:0:
64,64,198979,1,0,0:0:0:0:
64,64,199041,1,0,0:0:0:0:
320,64,199104,1,8,0:0:0:0:
320,64,199166,1,8,0:0:0:0:
64,64,199229,1,0,0:0:0:0:
320,64,199354,1,12,0:0:0:0:
64,64,199479,1,0,0:0:0:0:
320,64,199729,1,8,0:0:0:0:
320,64,199854,1,8,0:0:0:0:
64,64,199979,1,0,0:0:0:0:
320,64,200104,1,8,0:0:0:0:
64,64,200166,1,0,0:0:0:0:
64,64,200229,1,0,0:0:0:0:
64,64,200291,1,0,0:0:0:0:
320,64,200354,1,8,0:0:0:0:
320,64,200479,1,8,0:0:0:0:
64,64,200604,1,4,0:0:0:0:
320,64,200729,1,8,0:0:0:0:
64,64,200979,1,4,0:0:0:0:
320,64,201104,1,8,0:0:0:0:
320,64,201229,1,8,0:0:0:0:
64,64,201354,1,0,0:0:0:0:
64,64,201479,1,0,0:0:0:0:
64,64,201541,1,0,0:0:0:0:
320,64,201604,1,8,0:0:0:0:
64,64,201729,1,0,0:0:0:0:
320,64,201854,1,12,0:0:0:0:
64,64,201979,1,0,0:0:0:0:
64,64,202229,1,0,0:0:0:0:
320,64,202354,1,8,0:0:0:0:
64,64,202479,1,0,0:0:0:0:
320,64,202604,1,8,0:0:0:0:
64,64,202729,1,0,0:0:0:0:
64,64,202791,1,0,0:0:0:0:
320,64,202854,1,8,0:0:0:0:
64,64,202979,1,0,0:0:0:0:
320,64,203104,1,12,0:0:0:0:
64,64,203229,1,0,0:0:0:0:
64,64,203354,1,0,0:0:0:0:
320,64,203479,1,8,0:0:0:0:
64,64,203604,1,0,0:0:0:0:
64,64,203729,1,0,0:0:0:0:
320,64,203854,1,8,0:0:0:0:
320,64,203916,1,8,0:0:0:0:
64,64,203979,1,0,0:0:0:0:
64,64,204041,1,0,0:0:0:0:
320,64,204104,1,8,0:0:0:0:
64,64,204229,1,0,0:0:0:0:
320,64,204354,1,12,0:0:0:0:
64,64,204479,1,0,0:0:0:0:
320,64,204604,1,8,0:0:0:0:
64,64,204854,1,0,0:0:0:0:
64,64,204979,1,0,0:0:0:0:
320,64,205104,1,8,0:0:0:0:
64,64,205229,1,0,0:0:0:0:
320,64,205354,1,8,0:0:0:0:
320,64,205604,1,8,0:0:0:0:
320,64,205729,1,8,0:0:0:0:
64,64,205854,1,0,0:0:0:0:
320,64,206104,1,8,0:0:0:0:
64,64,206229,1,0,0:0:0:0:
320,64,206354,1,8,0:0:0:0:
320,64,206479,1,8,0:0:0:0:
64,64,206604,1,0,0:0:0:0:
320,64,206729,1,8,0:0:0:0:
64,64,206854,1,0,0:0:0:0:
64,64,206979,1,0,0:0:0:0:
320,64,207104,1,8,0:0:0:0:
64,64,207354,1,0,0:0:0:0:
64,64,207479,1,0,0:0:0:0:
320,64,207604,1,8,0:0:0:0:
64,64,207729,1,0,0:0:0:0:
320,64,207854,1,8,0:0:0:0:
320,64,208104,1,8,0:0:0:0:
320,64,208229,1,8,0:0:0:0:
64,64,208354,1,0,0:0:0:0:
320,64,208604,1,8,0:0:0:0:
64,64,208729,1,0,0:0:0:0:
320,64,208854,1,8,0:0:0:0:
64,64,208979,1,0,0:0:0:0:
64,64,209041,1,0,0:0:0:0:
64,64,209104,1,0,0:0:0:0:
64,64,209229,1,0,0:0:0:0:
320,64,209354,1,12,0:0:0:0:
64,64,209479,1,0,0:0:0:0:
320,64,209604,1,8,0:0:0:0:
64,64,209854,1,0,0:0:0:0:
64,64,209979,1,0,0:0:0:0:
320,64,210104,1,8,0:0:0:0:
64,64,210229,1,0,0:0:0:0:
320,64,210354,1,8,0:0:0:0:
320,64,210604,1,8,0:0:0:0:
320,64,210729,1,8,0:0:0:0:
64,64,210854,1,0,0:0:0:0:
320,64,211104,1,8,0:0:0:0:
64,64,211229,1,0,0:0:0:0:
320,64,211354,1,8,0:0:0:0:
320,64,211479,1,8,0:0:0:0:
64,64,211604,1,0,0:0:0:0:
320,64,211729,1,8,0:0:0:0:
64,64,211854,1,0,0:0:0:0:
64,64,211979,1,0,0:0:0:0:
320,64,212104,1,8,0:0:0:0:
64,64,212354,1,0,0:0:0:0:
64,64,212479,1,0,0:0:0:0:
320,64,212604,1,8,0:0:0:0:
64,64,212666,1,0,0:0:0:0:
320,64,212729,1,8,0:0:0:0:
320,64,212854,1,8,0:0:0:0:
64,64,212979,1,0,0:0:0:0:
320,64,213104,1,12,0:0:0:0:
64,64,213479,1,4,0:0:0:0:
320,64,213854,1,12,0:0:0:0:
320,64,214104,1,12,0:0:0:0:
320,64,214354,1,12,0:0:0:0:
64,64,214729,1,4,0:0:0:0:
320,64,215104,1,12,0:0:0:0:
320,64,215354,1,12,0:0:0:0:
320,64,215604,1,12,0:0:0:0:
64,64,215729,1,0,0:0:0:0:
320,64,215791,1,8,0:0:0:0:
64,64,215854,1,0,0:0:0:0:
320,64,215979,1,12,0:0:0:0:
64,64,216104,1,0,0:0:0:0:
64,64,216229,1,0,0:0:0:0:
320,64,216354,1,12,0:0:0:0:
64,64,216479,1,0,0:0:0:0:
320,64,216604,1,12,0:0:0:0:
64,64,216729,1,0,0:0:0:0:
320,64,216854,1,12,0:0:0:0:
320,64,216979,1,8,0:0:0:0:
64,64,217041,1,0,0:0:0:0:
320,64,217104,1,8,0:0:0:0:
320,64,217229,1,12,0:0:0:0:
320,64,217354,1,8,0:0:0:0:
320,64,217416,1,8,0:0:0:0:
64,64,217479,1,0,0:0:0:0:
320,64,217604,1,8,0:0:0:0:
64,64,217687,1,0,0:0:0:0:
320,64,217770,1,8,0:0:0:0:
64,64,217854,1,0,0:0:0:0:
320,64,217937,1,8,0:0:0:0:
64,64,218020,1,0,0:0:0:0:
320,64,218104,1,12,0:0:0:0:
320,64,218229,1,12,0:0:0:0:
64,64,218354,1,0,0:0:0:0:
64,64,218416,1,0,0:0:0:0:
320,64,218479,1,12,0:0:0:0:
320,64,218604,1,12,0:0:0:0:
64,64,218729,1,0,0:0:0:0:
64,64,218791,1,0,0:0:0:0:
320,64,218854,1,12,0:0:0:0:
64,64,218979,1,0,0:0:0:0:
320,64,219041,1,8,0:0:0:0:
64,64,219104,1,4,0:0:0:0:
64,64,219229,1,0,0:0:0:0:
320,64,219354,1,12,0:0:0:0:
320,64,219479,1,12,0:0:0:0:
64,64,219604,1,0,0:0:0:0:
64,64,219666,1,0,0:0:0:0:
320,64,219729,1,12,0:0:0:0:
64,64,219854,1,0,0:0:0:0:
320,64,219979,1,8,0:0:0:0:
320,64,220041,1,8,0:0:0:0:
64,64,220104,1,4,0:0:0:0:
64,64,220229,1,0,0:0:0:0:
320,64,220354,1,12,0:0:0:0:
64,64,220479,1,0,0:0:0:0:
320,64,220604,1,12,0:0:0:0:
320,64,220729,1,12,0:0:0:0:
64,64,220854,1,0,0:0:0:0:
64,64,220916,1,0,0:0:0:0:
320,64,220979,1,12,0:0:0:0:
320,64,221104,1,12,0:0:0:0:
64,64,221229,1,0,0:0:0:0:
64,64,221291,1,0,0:0:0:0:
320,64,221354,1,12,0:0:0:0:
320,64,221479,1,8,0:0:0:0:
320,64,221541,1,8,0:0:0:0:
64,64,221604,1,4,0:0:0:0:
64,64,221729,1,0,0:0:0:0:
320,64,221854,1,12,0:0:0:0:
320,64,221979,1,12,0:0:0:0:
64,64,222104,1,0,0:0:0:0:
64,64,222166,1,0,0:0:0:0:
320,64,222229,1,12,0:0:0:0:
64,64,222354,1,0,0:0:0:0:
320,64,222479,1,8,0:0:0:0:
64,64,222541,1,0,0:0:0:0:
320,64,222604,1,12,0:0:0:0:
320,64,222729,1,8,0:0:0:0:
64,64,222854,1,4,0:0:0:0:
64,64,222979,1,0,0:0:0:0:
320,64,223104,1,12,0:0:0:0:
320,64,223229,1,12,0:0:0:0:
64,64,223354,1,0,0:0:0:0:
64,64,223416,1,0,0:0:0:0:
320,64,223479,1,12,0:0:0:0:
320,64,223604,1,12,0:0:0:0:
64,64,223729,1,0,0:0:0:0:
64,64,223791,1,0,0:0:0:0:
320,64,223854,1,12,0:0:0:0:
64,64,223979,1,0,0:0:0:0:
320,64,224041,1,8,0:0:0:0:
64,64,224104,1,4,0:0:0:0:
64,64,224229,1,0,0:0:0:0:
320,64,224354,1,12,0:0:0:0:
320,64,224479,1,12,0:0:0:0:
64,64,224604,1,0,0:0:0:0:
64,64,224666,1,0,0:0:0:0:
320,64,224729,1,12,0:0:0:0:
64,64,224854,1,0,0:0:0:0:
320,64,224979,1,8,0:0:0:0:
320,64,225041,1,8,0:0:0:0:
64,64,225104,1,4,0:0:0:0:
64,64,225229,1,0,0:0:0:0:
320,64,225354,1,12,0:0:0:0:
64,64,225479,1,0,0:0:0:0:
320,64,225604,1,12,0:0:0:0:
320,64,225729,1,12,0:0:0:0:
64,64,225854,1,0,0:0:0:0:
64,64,225916,1,0,0:0:0:0:
320,64,225979,1,12,0:0:0:0:
320,64,226104,1,12,0:0:0:0:
64,64,226229,1,0,0:0:0:0:
64,64,226291,1,0,0:0:0:0:
320,64,226354,1,12,0:0:0:0:
320,64,226479,1,8,0:0:0:0:
320,64,226541,1,8,0:0:0:0:
64,64,226604,1,4,0:0:0:0:
64,64,226729,1,0,0:0:0:0:
320,64,226854,1,12,0:0:0:0:
320,64,226979,1,12,0:0:0:0:
64,64,227104,1,0,0:0:0:0:
64,64,227166,1,0,0:0:0:0:
320,64,227229,1,12,0:0:0:0:
64,64,227354,1,0,0:0:0:0:
64,64,227479,1,0,0:0:0:0:
320,64,227541,1,8,0:0:0:0:
64,64,227604,1,4,0:0:0:0:
64,64,227729,1,0,0:0:0:0:
320,64,227854,1,12,0:0:0:0:
256,192,228104,12,0,236354,0:0:0:0:
