osu file format v14

[General]
AudioFilename: audio.mp3
AudioLeadIn: 0
PreviewTime: 177258
Countdown: 0
SampleSet: Soft
StackLeniency: 0.7
Mode: 0
LetterboxInBreaks: 0
WidescreenStoryboard: 1

[Editor]
Bookmarks: 14440,20986,34077,40622,43895,56986,83168,96259,101986,108531,115076,121622,131440,137986,164167,170713,177258,193622,219804,238622,246804
DistanceSpacing: 0.4
BeatDivisor: 6
GridSize: 32
TimelineZoom: 1.199999

[Metadata]
Title:Urami no Waltz
TitleUnicode:うらみのワルツ
Artist:KikuoHana
ArtistUnicode:きくおはな
Creator:SMOKELIND
Version:frozz's Hard
Source:
Tags:Waltz of Malice Hanatan 花たん YURiCa ユリカ 第一幕 1 First Act Daiichi Maku Japanese Rock Jazz iljaaz FuJu frozz -Keqing Keqing Crissa Eula-
BeatmapID:3213042
BeatmapSetID:1552723

[Difficulty]
HPDrainRate:4.5
CircleSize:3.7
OverallDifficulty:6
ApproachRate:8
SliderMultiplier:1.4
SliderTickRate:1

[Events]
//Background and Video events
0,0,"89693204_p0.jpg",0,0
//Break Periods
2,177458,190349
//Storyboard Layer 0 (Background)
//Storyboard Layer 1 (Fail)
//Storyboard Layer 2 (Pass)
//Storyboard Layer 3 (Foreground)
//Storyboard Layer 4 (Overlay)
//Storyboard Sound Samples

[TimingPoints]
1350,272.727272727273,6,2,77,77,1,0
14440,-125,6,2,77,47,0,0
17440,-125,6,2,77,57,0,0
20986,-111.111111111111,6,2,77,87,0,0
27531,-142.857142857143,6,2,77,57,0,0
30804,-111.111111111111,6,2,77,87,0,0
34077,-142.857142857143,6,2,77,47,0,0
40622,-125,6,2,77,57,0,0
43895,-166.666666666667,6,2,77,47,0,0
50168,-111.111111111111,6,2,77,47,0,0
50440,-125,6,2,77,57,0,0
56986,-90.9090909090909,6,2,77,87,0,0
83168,-125,6,2,77,87,0,0
83350,-125,6,2,77,57,0,0
90531,-200,6,2,77,57,0,0
91350,-125,6,2,77,57,0,0
92168,-200,6,2,77,57,0,0
92986,-125,6,2,77,57,0,0
96259,-166.666666666667,6,2,77,47,0,0
101986,272.727272727273,6,2,77,47,1,0
101986,-170.940170940171,6,2,77,47,0,0
108531,-125,6,2,77,57,0,0
111804,-125,6,2,77,47,0,0
115076,-166.666666666667,6,2,77,47,0,0
121622,-125,6,2,77,47,0,0
123258,-200,6,2,77,47,0,0
124895,-166.666666666667,6,2,77,47,0,0
131167,-111.111111111111,6,2,77,47,0,0
131440,-125,6,2,77,57,0,0
137986,-90.9090909090909,6,2,77,87,0,0
164167,-111.111111111111,6,2,77,87,0,0
164349,-111.111111111111,6,2,77,57,0,0
170713,-142.857142857143,6,2,77,57,0,0
175622,-166.666666666667,6,2,77,57,0,0
176167,-166.666666666667,6,2,77,57,0,0
176713,-111.111111111111,6,2,77,57,0,0
177258,-111.111111111111,6,2,77,27,0,0
191440,-142.857142857143,6,2,77,57,0,0
191713,-111.111111111111,6,2,77,57,0,0
191986,-90.9090909090909,6,2,77,57,0,0
192804,-142.857142857143,6,2,77,57,0,0
193622,-83.3333333333333,6,2,77,87,0,0
219804,-90.9090909090909,6,2,77,87,0,0
232895,-142.857142857143,6,2,77,47,0,0
233713,-125,6,2,77,47,0,0
234531,-111.111111111111,6,2,77,47,0,0
235349,-100,6,2,77,47,0,0
236167,-90.9090909090909,6,2,77,87,0,0
238622,-370.37037037037,6,2,77,27,0,0
238713,-370.37037037037,6,2,77,5,0,0

[Colours]
Combo1 : 255,244,149
Combo2 : 244,172,159

[HitObjects]
49,18,14440,6,0,B|60:4|60:4|152:23,2,112,2|2|2,0:0|0:0|0:0,0:0:0:0:
50,141,15259,2,0,P|17:179|26:223,1,74.6666666666666,2|0,0:0|0:0,0:0:0:0:
16,201,15531,2,0,B|108:220|108:220|119:206,1,112,2|2,0:0|0:0,0:0:0:0:
223,364,16077,2,0,B|212:350|212:350|120:369,2,112,2|2|2,0:0|0:0|0:0,0:0:0:0:
359,313,16895,2,0,P|338:278|357:220,1,74.6666666666667,2|0,0:0|0:0,0:0:0:0:
341,245,17168,2,0,L|476:203,1,112,0|8,0:0|0:1,0:0:0:0:
488,54,17713,5,10,0:1:0:0:
351,99,17986,1,10,0:1:0:0:
217,11,18259,1,10,0:1:0:0:
354,103,18531,2,0,P|374:148|379:187,1,74.6666666666667,10|0,0:1|0:0,0:0:0:0:
378,172,18804,2,0,P|323:226|332:278,1,112,10|10,0:1|0:1,0:0:0:0:
202,325,19350,6,0,B|129:285|83:352|116:346|60:416|-23:368,1,224,10|0,0:1|1:0,0:0:0:0:
100,244,20168,2,0,P|112:200|98:163,1,74.6666666666667,8|0,0:1|0:0,0:0:0:0:
93,162,20440,2,0,P|85:125|97:91,1,74.6666666666667,0|8,0:0|0:0,0:0:0:0:
110,81,20713,1,8,0:0:0:0:
253,18,20986,5,6,1:0:0:0:
327,112,21259,2,0,L|305:205,1,83.9999974365235,8|8,0:0|0:0,0:0:0:0:
354,262,21531,2,0,L|445:234,1,83.9999974365235,2|0,1:0|0:0,0:0:0:0:
512,268,21804,2,0,B|483:246|483:246|501:151,1,125.999996154785,2|8,1:0|0:0,0:0:0:0:
404,75,22350,2,0,P|370:39|310:38,1,83.9999974365235,10|2,0:0|0:0,0:0:0:0:
253,18,22622,2,0,L|274:126,1,83.9999974365235,2|0,1:0|0:0,0:0:0:0:
197,205,23077,5,10,0:0:0:0:
197,205,23168,2,0,P|152:179|93:199,1,83.9999974365235,10|0,0:0|0:0,0:0:0:0:
121,181,23440,2,0,L|144:303,1,83.9999974365235,0|0,1:0|0:0,0:0:0:0:
237,346,23895,1,10,0:0:0:0:
237,346,23986,2,0,P|282:320|341:340,1,83.9999974365235,10|10,0:0|0:1,0:0:0:0:
312,322,24259,6,0,B|319:348|319:348|428:361,1,125.999996154785,2|8,1:0|0:0,0:0:0:0:
512,276,24804,2,0,P|517:234|488:176,1,83.9999974365235,10|2,0:0|0:0,0:0:0:0:
503,195,25077,2,0,B|404:206|404:206|397:232,1,125.999996154785,2|8,1:0|0:0,0:0:0:0:
297,133,25622,6,0,P|269:85|277:41,1,83.9999974365235,8|0,0:0|0:0,0:0:0:0:
270,58,25895,2,0,B|331:23|378:87|363:84|406:137|478:94,1,209.999993591309,2|0,1:0|0:0,0:0:0:0:
459,102,26440,1,10,0:0:0:0:
397,232,26713,2,0,P|381:297|400:342,1,83.9999974365235,2|0,1:0|0:0,0:0:0:0:
471,384,27168,2,0,P|427:339|347:346,1,125.999996154785,8|8,0:0|0:3,0:0:0:0:
362,347,27531,6,0,L|253:383,2,97.9999970092775,4|8|4,1:0|0:3|0:3,0:0:0:0:
283,276,28350,1,0,3:0:0:0:
283,276,28622,2,0,L|247:167,1,97.9999970092775,8|4,0:3|0:3,0:0:0:0:
179,262,29168,2,0,L|70:298,2,97.9999970092775,0|8|4,3:0|0:3|0:3,0:0:0:0:
100,191,29895,5,0,0:0:0:0:
100,191,29987,2,0,L|71:103,1,65.3333313395183,0|0,3:0|0:0,0:0:0:0:
76,115,30259,2,0,L|164:86,1,65.3333313395183
134,82,30531,1,8,0:3:0:0:
237,0,30804,6,0,B|340:11|340:11|349:33,1,125.999996154785,6|8,1:0|0:3,0:0:0:0:
475,70,31259,2,0,B|502:91|525:101|525:101|513:136|508:194,1,125.999996154785,10|8,0:0|0:3,0:0:0:0:
504,175,31622,6,0,L|359:158,1,125.999996154785,2|8,1:0|0:3,0:0:0:0:
247,187,32077,2,0,B|220:208|197:218|197:218|209:253|214:311,1,125.999996154785,10|0,0:0|0:3,0:0:0:0:
220,298,32440,6,0,P|278:312|313:234,1,125.999996154785,2|8,1:0|0:3,0:0:0:0:
466,262,32895,2,0,B|493:283|516:293|516:293|504:328|499:386,1,125.999996154785,8|8,0:0|0:3,0:0:0:0:
494,368,33259,2,0,P|416:342|379:339,1,83.9999974365235,10|8,0:1|0:1,0:0:0:0:
402,342,33531,1,0,0:0:0:0:
273,384,33804,1,8,0:0:0:0:
158,238,34077,6,0,B|80:214|147:97|274:150|222:276|338:266,1,293.999991027832,2|2,0:0|0:0,0:0:0:0:
448,199,35440,1,2,0:0:0:0:
448,199,35713,2,0,P|459:152|478:94,2,97.9999970092775,2|2|2,0:0|0:0|0:0,0:0:0:0:
432,332,36531,1,2,0:0:0:0:
255,249,37350,6,0,B|285:246|320:250|320:250|336:234|257:242|210:191|207:215|207:215|176:255|117:261,1,293.999991027832,2|2,0:0|0:0,0:0:0:0:
91,130,38713,1,2,0:0:0:0:
91,130,38986,2,0,B|66:142|52:156|52:156|-14:158|-44:87|25:44,1,195.999994018555,2|2,0:0|0:0,0:0:0:0:
123,24,39804,1,2,0:0:0:0:
253,247,40622,5,2,0:0:0:0:
253,247,40759,2,0,L|267:193,1,56,2|2,0:0|0:0,0:0:0:0:
333,131,41031,1,2,0:0:0:0:
333,131,41168,2,0,L|319:76,1,56,2|2,0:0|0:0,0:0:0:0:
373,13,41440,1,2,0:0:0:0:
500,124,42259,6,0,L|513:69,2,56,2|2|2,0:0|0:0|0:0,0:0:0:0:
435,187,42668,1,2,0:0:0:0:
435,187,42804,2,0,L|449:242,1,56,2|2,0:0|0:0,0:0:0:0:
395,305,43077,2,0,B|280:306|180:364,1,224,2|0,3:0|0:0,0:0:0:0:
71,343,43895,6,0,B|62:328|46:315|46:315|44:253|90:237|133:257,1,167.999994873047,6|2,0:0|0:0,0:0:0:0:
243,199,44713,2,0,B|252:184|268:171|268:171|270:109|224:93|181:113,1,167.999994873047,2|2,0:0|0:0,0:0:0:0:
95,38,45531,2,0,P|147:202|181:367,1,335.999989746094,2|0,0:0|0:0,0:0:0:0:
497,371,47168,6,0,B|473:334|459:298|459:298|424:309|374:310,1,167.999994873047,2|2,0:0|0:0,0:0:0:0:
390,175,47986,2,0,B|414:138|428:102|428:102|463:113|512:114,1,167.999994873047,2|0,0:0|0:0,0:0:0:0:
493,220,48804,1,2,0:0:0:0:
493,220,49622,5,2,0:0:0:0:
335,242,49895,2,0,L|322:311,1,55.9999982910157,10|0,0:0|0:0,0:0:0:0:
324,297,50168,2,0,L|219:327,1,83.9999974365235,10|0,0:0|0:0,0:0:0:0:
243,320,50440,6,0,B|180:294|145:345|157:339|122:389|62:367,1,186.666666666667,14|0,0:0|0:0,0:0:0:0:
74,371,50986,1,8,0:0:0:0:
192,217,51259,1,0,3:0:0:0:
192,217,51531,2,0,B|175:192|168:143|168:143|172:184|168:214,1,112,10|2,0:0|3:0,0:0:0:0:
316,287,52077,6,0,B|347:317|347:317|332:395,2,112,2|0|8,3:0|0:0|0:0,0:0:0:0:
317,170,52895,1,0,3:0:0:0:
317,170,53168,2,0,B|348:87|348:87|343:77|343:77|329:114,1,112,10|2,0:0|3:0,0:0:0:0:
261,4,53622,5,0,0:0:0:0:
261,4,53713,2,0,P|315:27|480:74,1,224,2|0,3:0|0:0,0:0:0:0:
441,229,54531,2,0,P|469:259|472:306,1,74.6666666666667,10|0,0:1|0:0,0:0:0:0:
474,291,54804,2,0,B|429:305|429:305|427:310|427:310|366:332,1,112,2|2,0:0|0:0,0:0:0:0:
192,217,55350,1,2,3:0:0:0:
61,353,56077,5,0,1:0:0:0:
61,353,56168,2,0,L|144:325,1,74.6666666666667,10|0,0:0|0:0,0:0:0:0:
207,357,56440,2,0,L|230:286,1,74.6666666666667,10|0,0:0|0:0,0:0:0:0:
192,217,56713,1,10,0:0:0:0:
9,116,56986,6,0,B|97:92|76:172|165:142,1,154.000004699707,6|8,1:0|0:0,0:0:0:0:
298,247,57440,1,0,3:0:0:0:
298,247,57531,2,0,P|356:230|419:226,1,102.666669799805,8|0,0:0|3:0,0:0:0:0:
454,288,57804,2,0,P|443:225|523:189,2,154.000004699707,2|8|8,1:0|0:0|0:0,0:0:0:0:
283,355,58622,6,0,B|223:340|223:340|213:314|213:314|138:290,1,154.000004699707,2|8,1:0|0:0,0:0:0:0:
58,185,59077,1,0,3:0:0:0:
58,185,59168,2,0,P|120:162|187:123,1,102.666669799805,8|0,0:0|3:0,0:0:0:0:
212,79,59440,2,0,P|150:56|83:17,1,102.666669799805,2|0,1:0|0:0,0:0:0:0:
40,1,59713,2,0,P|-11:39|28:140,1,154.000004699707,8|8,0:0|0:0,0:0:0:0:
8,295,60168,5,8,0:1:0:0:
8,295,60259,2,0,L|189:250,1,154.000004699707,2|8,1:0|0:0,0:0:0:0:
297,331,60713,1,0,3:0:0:0:
297,331,60804,2,0,P|356:344|416:378,1,102.666669799805,10|0,0:0|3:0,0:0:0:0:
474,339,61077,2,0,P|509:296|484:232,1,102.666669799805,2|0,1:0|0:0,0:0:0:0:
510,231,61350,2,0,P|467:196|403:220,1,102.666669799805,10|0,0:0|3:0,0:0:0:0:
404,191,61622,1,10,0:0:0:0:
324,44,61895,6,0,P|266:54|209:79,1,102.666669799805,2|0,1:0|0:0,0:0:0:0:
177,0,62168,2,0,B|190:13|190:13|163:156,1,154.000004699707,8|8,0:0|0:0,0:0:0:0:
41,274,62713,6,0,P|99:284|156:309,1,102.666669799805,0|0,1:0|3:0,0:0:0:0:
188,230,62986,2,0,B|175:243|175:243|202:386,1,154.000004699707,8|8,0:0|0:0,0:0:0:0:
345,384,63440,5,0,3:0:0:0:
345,384,63531,2,0,P|401:344|361:246,1,154.000004699707,6|8,1:0|0:0,0:0:0:0:
304,172,63986,1,0,3:0:0:0:
304,172,64077,2,0,P|321:110|347:54,1,102.666669799805,10|0,0:0|0:0,0:0:0:0:
375,0,64350,2,0,B|404:31|434:46|434:46|420:80|411:121,1,154.000004699707,2|8,1:0|0:0,0:0:0:0:
499,234,64804,5,0,3:0:0:0:
499,234,64895,2,0,P|442:254|393:273,1,102.666669799805,10|0,0:0|3:0,0:0:0:0:
330,310,65168,2,0,B|419:292|391:366|486:338,1,154.000004699707,2|8,1:0|0:0,0:0:0:0:
380,194,65713,1,10,0:0:0:0:
226,283,65986,2,0,P|244:346|256:397,1,102.666669799805,2|0,1:0|0:0,0:0:0:0:
104,294,66440,1,0,3:0:0:0:
104,294,66531,2,0,P|41:312|-10:324,1,102.666669799805,8|0,0:0|3:0,0:0:0:0:
0,234,66804,5,2,1:0:0:0:
148,143,67077,1,10,0:0:0:0:
47,17,67350,1,10,0:0:0:0:
0,234,67622,6,0,P|62:215|126:208,1,102.666669799805,2|0,1:0|0:0,0:0:0:0:
148,143,67895,2,0,P|129:81|122:17,1,102.666669799805,10|0,0:0|3:0,0:0:0:0:
47,17,68168,1,10,0:0:0:0:
99,209,68440,6,0,L|80:325,1,102.666669799805,2|0,1:0|0:0,0:0:0:0:
229,245,68895,1,0,3:0:0:0:
229,245,68986,2,0,L|345:264,1,102.666669799805,8|0,0:0|3:0,0:0:0:0:
383,197,69259,6,0,P|339:156|344:83,1,102.666669799805,0|0,1:0|3:0,0:0:0:0:
320,104,69531,2,0,P|361:60|434:65,1,102.666669799805,8|8,0:0|0:0,0:0:0:0:
410,40,69804,1,8,0:3:0:0:
473,231,70077,6,0,B|385:207|406:287|317:257,1,154.000004699707,6|8,1:0|0:0,0:0:0:0:
182,329,70531,1,0,3:0:0:0:
182,329,70622,2,0,P|107:312|57:309,1,102.666669799805,8|0,0:0|3:0,0:0:0:0:
6,266,70895,2,0,P|57:317|6:393,2,154.000004699707,2|8|0,1:0|0:0|3:0,0:0:0:0:
51,117,71713,6,0,B|110:103|110:103|124:76|124:76|194:53,1,154.000004699707,2|8,1:0|0:0,0:0:0:0:
328,123,72168,1,0,3:0:0:0:
328,123,72259,2,0,P|377:136|425:153,1,102.666669799805,8|0,0:0|3:0,0:0:0:0:
507,217,72531,2,0,P|432:247|379:277,1,102.666669799805,2|0,1:0|0:0,0:0:0:0:
370,336,72804,2,0,B|319:288|319:288|360:176,1,154.000004699707,8|8,0:0|0:0,0:0:0:0:
275,44,73259,5,0,3:0:0:0:
275,44,73350,2,0,L|148:23,1,102.666669799805,2|0,1:0|0:0,0:0:0:0:
93,0,73622,2,0,B|69:33|46:55|46:55|68:101|86:161,1,154.000004699707,10|10,0:0|0:0,0:0:0:0:
177,288,74168,2,0,P|242:269|290:305,1,102.666669799805,2|0,1:0|0:0,0:0:0:0:
283,277,74440,2,0,P|301:342|265:390,1,102.666669799805,10|0,0:0|3:0,0:0:0:0:
293,384,74713,1,10,0:0:0:0:
62,335,74986,6,0,P|80:266|82:210,1,102.666669799805,2|0,1:0|3:0,0:0:0:0:
10,191,75259,2,0,L|171:157,1,154.000004699707,8|8,0:0|0:0,0:0:0:0:
301,47,75804,6,0,P|319:116|321:172,1,102.666669799805,0|0,1:0|3:0,0:0:0:0:
249,191,76077,2,0,L|410:225,1,154.000004699707,8|8,0:0|0:0,0:0:0:0:
478,109,76531,5,0,3:0:0:0:
478,109,76622,2,0,B|491:101|510:99|510:99|539:55|507:7|434:14,1,154.000004699707,6|8,1:0|0:0,0:0:0:0:
305,50,77077,1,0,3:0:0:0:
305,50,77168,2,0,P|246:68|185:79,1,102.666669799805,10|0,0:0|3:0,0:0:0:0:
212,156,77440,2,0,P|162:104|74:81,2,154.000004699707,2|10|10,1:0|0:0|0:0,0:0:0:0:
353,291,78168,5,0,3:0:0:0:
353,291,78259,2,0,P|371:215|405:133,1,154.000004699707,2|8,1:0|0:0,0:0:0:0:
250,251,78804,2,0,P|193:265|143:283,1,102.666669799805,10|0,0:0|3:0,0:0:0:0:
65,297,79077,2,0,P|34:226|12:182,1,102.666669799805,2|0,1:0|0:0,0:0:0:0:
90,84,79531,1,0,3:0:0:0:
90,84,79622,2,0,P|161:53|205:31,1,102.666669799805,8|8,0:0|0:3,0:0:0:0:
264,45,79895,6,0,P|262:103|226:155,1,102.666669799805,14|0,0:1|0:0,0:0:0:0:
300,195,80168,2,0,P|343:168|369:124,1,102.666669799805,10|0,0:1|0:0,0:0:0:0:
420,244,80440,2,0,P|368:271|305:266,1,102.666669799805,10|0,0:3|0:0,0:0:0:0:
307,348,80713,1,14,0:3:0:0:
184,272,80986,6,0,P|115:260|43:254,1,102.666669799805,8|0,0:0|0:0,0:0:0:0:
61,238,81259,2,0,L|77:295,2,51.3333348999024,8|8|8,0:3|0:3|0:3,0:0:0:0:
117,176,81531,6,0,P|101:118|130:73,1,102.666669799805,14|0,0:3|0:0,0:0:0:0:
201,96,81804,2,0,P|216:37|263:13,1,102.666669799805,10|0,0:3|3:0,0:0:0:0:
313,68,82077,2,0,P|355:25|408:27,1,102.666669799805,10|0,0:3|0:0,0:0:0:0:
482,0,82350,2,0,P|464:78|452:151,1,154.000004699707,14|8,0:0|0:0,0:0:0:0:
407,343,82895,2,0,L|476:327,2,51.3333348999024,10|8|8,0:3|0:3|0:3,0:0:0:0:
427,320,83168,6,0,P|418:282|402:246,1,74.6666666666667,14|0,0:1|0:0,0:0:0:0:
302,169,83713,1,4,0:3:0:0:
427,320,83986,6,0,P|400:291|368:268,1,74.6666666666667,8|0,0:3|0:0,0:0:0:0:
243,251,84531,1,4,0:3:0:0:
427,320,84804,6,0,P|389:308|350:304,1,74.6666666666667,4|0,0:3|0:0,0:0:0:0:
233,352,85349,1,4,0:3:0:0:
302,169,85622,5,8,0:0:0:0:
243,251,85895,1,0,0:0:0:0:
233,352,86168,1,4,0:3:0:0:
96,362,86440,6,0,P|69:316|59:282,1,74.6666666666667,12|8,0:3|0:3,0:0:0:0:
73,154,86986,1,4,0:3:0:0:
96,362,87259,6,0,P|95:308|103:274,1,74.6666666666667,4|0,0:3|0:0,0:0:0:0:
180,170,87805,1,4,0:3:0:0:
96,362,88077,6,0,P|122:315|146:289,1,74.6666666666667,12|8,0:3|0:3,0:0:0:0:
264,237,88623,1,4,0:3:0:0:
73,154,88895,6,0,B|146:138|185:198|156:193|199:257|263:236,1,224,4|4,0:3|0:3,0:0:0:0:
408,161,89713,6,0,P|426:104|452:40,2,112,12|0|0,0:3|0:0|0:0,0:0:0:0:
410,241,90531,2,0,P|439:229|483:213,2,70,4|0|4,0:3|0:0|0:3,0:0:0:0:
324,243,91350,6,0,P|301:187|279:122,2,112,4|0|4,0:3|0:0|0:3,0:0:0:0:
376,302,92168,2,0,P|390:274|413:233,2,70,4|0|4,0:3|0:0|0:3,0:0:0:0:
312,359,92986,6,0,P|258:331|200:294,1,112,4|0,0:3|0:0,0:0:0:0:
73,154,93713,1,8,0:3:0:0:
73,154,93804,2,0,P|126:126|184:89,2,112,4|0|4,0:3|0:0|0:3,0:0:0:0:
102,299,94622,2,0,P|174:302|242:304,2,112,4|0|0,0:3|0:0|0:0,0:0:0:0:
77,293,95259,2,0,L|95:340,2,37.3333333333333,0|0|8,0:0|0:0|0:3,0:0:0:0:
229,295,96259,6,0,P|268:302|315:327,2,83.9999974365235,2|0|0,0:0|0:0|0:0,0:0:0:0:
292,183,97077,2,0,P|253:190|206:215,2,83.9999974365235,2|0|0,0:0|0:0|0:0,0:0:0:0:
229,71,97895,1,2,0:0:0:0:
229,295,98440,5,0,0:0:0:0:
292,183,98713,1,2,0:0:0:0:
229,71,98986,2,0,P|268:78|315:103,1,83.9999974365235
453,146,99531,5,2,0:0:0:0:
478,219,99804,1,0,0:0:0:0:
503,292,100077,1,0,0:0:0:0:
453,146,100350,5,2,0:0:0:0:
433,243,100623,1,0,0:0:0:0:
414,342,100896,1,0,0:0:0:0:
453,146,101168,5,2,0:0:0:0:
367,242,101441,1,0,0:0:0:0:
281,341,101714,1,0,0:0:0:0:
453,146,101986,6,0,B|464:191|436:238|310:247|341:88|419:77|466:20|466:20|386:68|313:23|313:23|238:113|321:140|266:210|266:210|215:216|174:261|174:261|258:233|343:262|343:262|333:299|346:344|346:344|218:310|164:355|164:355|102:328|79:290|96:220|96:220|139:177|185:149|185:149|127:102|109:18|109:18|77:108|29:144|29:144|63:165|88:182,1,1883.70000718575,2|0,3:0|0:0,0:0:0:0:
6,276,108531,6,0,P|23:329|31:384,2,112,14|2|2,0:3|3:0|3:0,0:0:0:0:
73,172,109349,1,6,0:3:0:0:
506,276,110167,6,0,P|488:329|480:384,2,112,6|2|2,0:3|3:0|3:0,0:0:0:0:
439,172,110985,1,6,0:3:0:0:
241,80,111804,6,0,L|173:67,2,56,2|0|0,0:0|0:0|0:0,0:0:0:0:
285,143,112213,2,0,L|353:130,2,56,2|0|0,0:0|0:0|0:0,0:0:0:0:
238,209,112622,2,0,L|251:277,1,56,2|0,0:0|0:0,0:0:0:0:
218,336,112895,2,0,P|255:321|331:335,1,112,2|0,0:0|0:0,0:0:0:0:
390,370,113304,1,2,0:0:0:0:
445,309,113440,2,0,L|435:247,1,56,2|0,0:0|0:0,0:0:0:0:
423,175,113713,2,0,L|485:165,1,56,2|2,0:0|0:0,0:0:0:0:
457,77,113986,6,0,P|466:45|485:18,2,56,2|0|0,0:0|0:0|0:0,0:0:0:0:
373,91,114395,2,0,P|364:58|367:25,2,56,2|0|0,0:0|0:0|0:0,0:0:0:0:
307,145,114804,2,0,P|283:121|269:91,1,56,2|0,0:0|0:0,0:0:0:0:
233,26,115076,6,0,B|172:30|158:83|158:83|173:110|167:150,1,167.999994873047,2|2,0:0|0:0,0:0:0:0:
108,253,115895,2,0,B|66:255|32:238|32:238|47:281|43:328,1,167.999994873047,2|2,0:0|0:0,0:0:0:0:
154,351,116713,2,0,P|214:332|329:310,1,167.999994873047,2|2,0:0|0:0,0:0:0:0:
408,353,117531,1,2,0:0:0:0:
408,353,118349,6,0,P|434:310|461:275,2,83.9999974365235,2|0|0,0:0|0:0|0:0,0:0:0:0:
335,268,119167,2,0,P|309:225|282:190,2,83.9999974365235,2|0|0,0:0|0:0|0:0,0:0:0:0:
411,178,119986,2,0,P|437:135|464:100,2,83.9999974365235,2|2|2,0:0|0:0|0:0,0:0:0:0:
336,90,120804,1,2,0:0:0:0:
336,90,121622,6,0,P|276:49|233:58,1,112,2|2,0:0|0:0,0:0:0:0:
174,110,122031,1,2,0:0:0:0:
174,110,122167,2,0,L|180:173,1,56,2|2,0:0|0:0,0:0:0:0:
198,244,122440,1,2,0:0:0:0:
57,354,122713,5,2,3:0:0:0:
259,344,123258,6,0,L|266:378,2,35,2|2|2,0:0|0:0|0:0,0:0:0:0:
259,344,123667,1,2,0:0:0:0:
259,344,123804,2,0,L|266:310,1,35,2|2,0:0|0:0,0:0:0:0:
267,310,124076,1,2,0:0:0:0:
415,207,124349,5,0,0:0:0:0:
378,68,124622,5,0,0:0:0:0:
196,66,124895,6,0,B|169:140|169:140|79:135,1,167.999994873047,2|2,0:0|0:0,0:0:0:0:
17,213,125713,2,0,B|44:287|44:287|134:282,1,167.999994873047,2|2,0:0|0:0,0:0:0:0:
156,375,126531,2,0,P|136:250|106:37,1,335.999989746094,2|0,0:0|0:0,0:0:0:0:
346,59,128167,6,0,P|390:39|461:121,1,167.999994873047,2|0,0:0|0:0,0:0:0:0:
426,213,128986,2,0,P|382:193|311:275,1,167.999994873047,2|0,0:0|0:0,0:0:0:0:
375,346,129804,1,2,0:0:0:0:
375,346,130622,5,2,0:0:0:0:
228,266,130895,2,0,L|239:210,1,55.9999982910157,10|0,0:0|0:0,0:0:0:0:
238,211,131167,2,0,P|246:160|211:116,1,83.9999974365235,10|0,0:0|0:0,0:0:0:0:
231,132,131440,6,0,B|294:106|329:157|317:151|352:201|412:179,1,186.666666666667,6|0,0:0|0:0,0:0:0:0:
399,182,131986,1,8,0:0:0:0:
490,318,132258,5,2,3:0:0:0:
375,346,132531,1,10,0:0:0:0:
260,374,132804,1,2,3:0:0:0:
116,313,133076,6,0,B|115:269|98:225|98:225|121:251,2,112,2|0|8,3:0|0:0|0:0,0:0:0:0:
221,260,133895,1,0,3:0:0:0:
221,260,134167,2,0,L|234:141,1,112,10|2,0:0|3:0,0:0:0:0:
149,117,134622,5,0,0:0:0:0:
149,117,134713,2,0,P|211:110|404:74,1,224,2|0,3:0|0:0,0:0:0:0:
476,241,135531,2,0,P|433:218|392:226,1,74.6666666666667,10|0,0:1|0:0,0:0:0:0:
409,220,135804,2,0,B|362:251|362:251|285:201,1,112,2|2,0:0|0:0,0:0:0:0:
252,66,136349,1,2,3:0:0:0:
0,74,137076,5,0,1:0:0:0:
0,74,137167,2,0,P|39:94|95:75,1,74.6666666666667,8|0,0:0|0:0,0:0:0:0:
128,146,137440,2,0,P|164:122|176:64,1,74.6666666666667,8|0,0:0|0:0,0:0:0:0:
252,66,137713,1,8,0:0:0:0:
48,179,137986,6,0,B|68:246|68:246|66:254|66:254|92:337,1,154.000004699707,6|8,1:0|0:0,0:0:0:0:
230,383,138440,1,0,3:0:0:0:
230,383,138531,2,0,P|269:341|333:337,1,102.666669799805,8|0,0:0|3:0,0:0:0:0:
375,384,138804,1,2,1:0:0:0:
452,266,139076,2,0,B|504:215|504:215|468:134,1,154.000004699707,8|8,0:0|0:0,0:0:0:0:
360,67,139622,6,0,P|418:63|529:41,1,154.000004699707,2|8,1:0|0:0,0:0:0:0:
399,196,140076,1,0,3:0:0:0:
399,196,140167,2,0,P|333:186|293:180,1,102.666669799805,8|0,0:0|3:0,0:0:0:0:
224,209,140440,2,0,P|194:155|212:101,1,102.666669799805,2|0,1:0|0:0,0:0:0:0:
236,46,140713,2,0,P|182:16|128:34,1,102.666669799805,8|0,0:0|3:0,0:0:0:0:
95,87,140986,1,8,0:0:0:0:
132,282,141167,5,8,0:1:0:0:
132,282,141258,2,0,P|196:267|302:261,1,154.000004699707,2|8,1:0|0:0,0:0:0:0:
361,131,141713,1,0,3:0:0:0:
361,131,141804,2,0,P|389:78|447:64,1,102.666669799805,10|0,0:0|3:0,0:0:0:0:
494,20,142076,2,0,L|476:157,1,102.666669799805,2|0,1:0|0:0,0:0:0:0:
492,131,142349,2,0,L|474:268,1,102.666669799805,10|0,0:0|3:0,0:0:0:0:
483,248,142622,1,10,0:0:0:0:
370,338,142895,6,0,P|304:325|239:324,1,102.666669799805,2|0,1:0|0:0,0:0:0:0:
220,384,143167,2,0,L|199:201,1,154.000004699707,8|8,0:0|0:0,0:0:0:0:
104,112,143713,6,0,P|170:99|235:98,1,102.666669799805,0|0,1:0|3:0,0:0:0:0:
254,158,143985,2,0,L|275:-25,1,154.000004699707,8|8,0:0|0:0,0:0:0:0:
398,59,144440,5,0,3:0:0:0:
398,59,144531,2,0,B|450:115|450:115|414:212,1,154.000004699707,6|8,1:0|0:0,0:0:0:0:
435,312,144986,1,0,3:0:0:0:
435,312,145076,2,0,P|391:288|322:290,1,102.666669799805,10|0,0:0|0:0,0:0:0:0:
275,334,145349,2,0,L|97:378,1,154.000004699707,2|8,1:0|0:0,0:0:0:0:
43,268,145804,5,0,3:0:0:0:
43,268,145895,2,0,P|59:197|71:151,1,102.666669799805,10|0,0:0|3:0,0:0:0:0:
45,89,146167,2,0,B|101:145|101:145|203:127,1,154.000004699707,2|8,1:0|0:0,0:0:0:0:
341,204,146713,1,10,0:0:0:0:
455,105,146986,2,0,P|441:37|435:-7,1,102.666669799805,2|0,1:0|0:0,0:0:0:0:
312,104,147440,1,0,3:0:0:0:
312,104,147531,2,0,P|244:118|200:124,1,102.666669799805,8|0,0:0|3:0,0:0:0:0:
142,78,147804,5,2,1:0:0:0:
30,231,148076,1,10,0:0:0:0:
152,349,148349,1,10,0:0:0:0:
142,78,148622,6,0,P|98:125|78:176,1,102.666669799805,2|0,1:0|0:0,0:0:0:0:
30,231,148895,2,0,P|48:292|82:335,1,102.666669799805,10|0,0:0|3:0,0:0:0:0:
152,349,149167,1,10,0:0:0:0:
296,192,149440,6,0,P|310:121|320:70,1,102.666669799805,2|0,1:0|0:0,0:0:0:0:
411,222,149895,1,0,3:0:0:0:
411,222,149986,2,0,P|461:231|511:241,1,102.666669799805,8|0,0:0|3:0,0:0:0:0:
508,325,150258,6,0,B|429:334|429:334|432:364,1,102.666669799805,0|0,1:0|3:0,0:0:0:0:
404,347,150531,2,0,B|325:356|325:356|328:386,1,102.666669799805,8|8,0:0|0:0,0:0:0:0:
308,373,150804,1,8,0:3:0:0:
208,251,151076,6,0,P|219:171|235:64,1,154.000004699707,6|8,1:0|0:0,0:0:0:0:
136,37,151531,1,0,3:0:0:0:
136,37,151622,2,0,P|63:73|55:119,1,102.666669799805,8|0,0:0|3:0,0:0:0:0:
0,143,151895,1,2,1:0:0:0:
75,271,152167,2,0,P|138:231|217:278,1,154.000004699707,8|0,0:0|3:0,0:0:0:0:
315,370,152622,5,0,3:0:0:0:
315,370,152713,2,0,P|371:343|469:312,1,154.000004699707,2|8,1:0|0:0,0:0:0:0:
480,192,153167,1,0,3:0:0:0:
480,192,153258,2,0,P|448:142|454:81,1,102.666669799805,8|0,0:0|3:0,0:0:0:0:
498,32,153531,2,0,P|448:18|369:23,1,102.666669799805,2|0,1:0|0:0,0:0:0:0:
317,0,153804,2,0,P|303:50|308:129,1,102.666669799805,8|0,0:0|3:0,0:0:0:0:
358,166,154076,1,8,0:0:0:0:
205,259,154258,5,0,3:0:0:0:
205,259,154349,2,0,P|153:205|202:118,1,154.000004699707,2|8,1:0|0:0,0:0:0:0:
128,21,154804,1,0,3:0:0:0:
128,21,154895,2,0,P|189:10|249:-2,1,102.666669799805,10|0,0:0|3:0,0:0:0:0:
317,0,155167,2,0,L|297:127,1,102.666669799805,2|0,1:0|0:0,0:0:0:0:
314,114,155440,2,0,L|294:241,1,102.666669799805,10|0,0:0|3:0,0:0:0:0:
308,234,155713,1,10,0:0:0:0:
395,333,155986,6,0,P|439:291|435:224,1,102.666669799805,2|0,1:0|3:0,0:0:0:0:
512,204,156258,2,0,B|372:186|372:186|358:151,1,154.000004699707,8|8,0:0|0:0,0:0:0:0:
191,105,156804,6,0,P|235:147|231:214,1,102.666669799805,0|0,1:0|3:0,0:0:0:0:
308,234,157076,2,0,B|168:251|168:251|154:287,1,154.000004699707,8|8,0:0|0:0,0:0:0:0:
53,367,157531,5,0,3:0:0:0:
53,367,157622,2,0,P|4:309|40:223,1,154.000004699707,6|8,1:0|0:0,0:0:0:0:
80,100,158076,1,0,3:0:0:0:
80,100,158167,2,0,P|139:117|200:123,1,102.666669799805,10|0,0:0|3:0,0:0:0:0:
243,67,158440,2,0,B|248:51|248:51|401:33,1,154.000004699707,2|8,1:0|0:0,0:0:0:0:
475,143,158986,1,10,0:0:0:0:
362,257,159258,6,0,B|340:239|307:202|307:202|276:213|233:220,1,154.000004699707,2|8,1:0|0:0,0:0:0:0:
192,348,159804,1,10,0:0:0:0:
342,384,160076,2,0,P|398:364|461:345,1,102.666669799805,2|0,1:0|0:0,0:0:0:0:
507,240,160531,1,0,3:0:0:0:
507,240,160622,2,0,P|487:184|468:121,1,102.666669799805,8|8,0:0|0:3,0:0:0:0:
478,59,160895,6,0,P|427:69|395:127,1,102.666669799805,14|0,0:1|0:0,0:0:0:0:
298,125,161167,2,0,P|304:75|343:43,1,102.666669799805,10|0,0:1|0:0,0:0:0:0:
218,96,161440,2,0,P|201:145|235:201,1,102.666669799805,10|0,0:3|0:0,0:0:0:0:
184,283,161713,1,14,0:3:0:0:
322,384,161986,6,0,P|383:366|436:356,1,102.666669799805,8|0,0:0|0:0,0:0:0:0:
438,331,162258,2,0,L|454:389,2,51.3333348999024,8|8|8,0:3|0:3|0:3,0:0:0:0:
499,268,162531,6,0,P|476:229|399:226,1,102.666669799805,14|0,0:3|0:0,0:0:0:0:
408,134,162804,2,0,P|365:118|304:166,1,102.666669799805,10|0,0:3|3:0,0:0:0:0:
252,89,163076,2,0,P|209:104|193:180,1,102.666669799805,10|0,0:3|0:0,0:0:0:0:
103,154,163349,6,0,P|133:224|159:297,1,154.000004699707,14|8,0:0|0:0,0:0:0:0:
322,379,163895,2,0,L|380:367,2,51.3333348999024,10|8|8,0:3|0:3|0:3,0:0:0:0:
338,345,164167,6,0,P|347:284|352:244,1,83.9999974365235,14|0,0:1|0:0,0:0:0:0:
418,174,164622,2,0,P|409:142|403:113,1,41.9999987182618,8|4,0:3|0:3,0:0:0:0:
252,352,164986,6,0,P|261:291|266:251,1,83.9999974365235,8|0,0:3|0:0,0:0:0:0:
332,181,165441,2,0,P|323:149|317:120,1,41.9999987182618,8|4,0:3|0:3,0:0:0:0:
166,359,165804,6,0,P|175:298|180:258,1,83.9999974365235,4|0,0:3|0:0,0:0:0:0:
246,188,166258,2,0,P|237:156|231:127,1,41.9999987182618,8|4,0:3|0:3,0:0:0:0:
80,366,166622,6,0,P|89:305|94:265,1,83.9999974365235,4|0,0:3|0:0,0:0:0:0:
131,209,166895,2,0,P|117:162|109:120,1,83.9999974365235,4|8,0:3|0:3,0:0:0:0:
155,63,167167,1,4,0:3:0:0:
310,49,167440,6,0,P|356:35|406:26,1,83.9999974365235,12|8,0:3|0:3,0:0:0:0:
397,10,167713,2,0,P|463:42|443:112,1,125.999996154785,4|4,0:3|0:3,0:0:0:0:
339,183,168258,6,0,P|293:169|243:160,1,83.9999974365235,4|8,0:3|0:3,0:0:0:0:
252,144,168531,2,0,B|191:164|191:164|183:239,1,125.999996154785,4|4,0:3|0:3,0:0:0:0:
290,337,169076,6,0,P|336:323|386:314,1,83.9999974365235,12|8,0:3|0:3,0:0:0:0:
386,305,169349,2,0,P|431:327|453:378,1,83.9999974365235,4|8,0:3|0:3,0:0:0:0:
450,375,169713,1,0,0:0:0:0:
460,214,169895,6,0,P|469:145|495:57,2,125.999996154785,4|4|4,0:3|0:3|0:3,0:0:0:0:
309,245,170713,6,0,B|220:234|248:310|136:275,1,163.333328348796,12|0,0:3|1:0,0:0:0:0:
156,280,171258,1,0,1:0:0:0:
77,207,171440,1,0,0:0:0:0:
77,207,171531,2,0,P|44:166|-5:172,2,97.9999970092775,0|0|0,1:0|3:0|1:0,0:0:0:0:
56,307,172349,1,0,1:0:0:0:
159,151,172804,5,0,1:0:0:0:
159,151,172895,2,0,P|208:155|246:161,1,65.3333313395183,0|0,1:0|0:0,0:0:0:0:
246,150,173167,2,0,P|279:118|282:77,1,65.3333313395183,0|0,1:0|0:0,0:0:0:0:
285,76,173440,2,0,L|400:53,1,97.9999970092775,8|0,0:3|3:0,0:0:0:0:
466,152,173986,6,0,P|457:197|454:230,1,65.3333313395183,0|0,3:0|0:0,0:0:0:0:
436,227,174258,2,0,P|481:236|514:239,1,65.3333313395183,0|8,0:0|0:3,0:0:0:0:
342,321,174804,2,0,P|297:330|264:333,1,65.3333313395183
252,327,175076,2,0,P|207:336|174:339,1,65.3333313395183,8|8,0:1|0:3,0:0:0:0:
169,350,175349,1,8,0:1:0:0:
65,273,175622,6,0,P|45:230|20:197,2,83.9999974365235
183,211,176440,6,0,P|216:200|245:196,1,55.9999982910157,8|0,0:1|0:0,0:0:0:0:
237,197,176713,2,0,P|255:112|155:129,1,209.999993591309,0|0,3:0|0:0,0:0:0:0:
160,117,177258,1,6,0:0:0:0:
372,384,191440,6,0,P|376:323|382:290,1,65.3333313395183,8|0,0:0|0:0,0:0:0:0:
376,318,191713,2,0,P|404:277|397:217,1,83.9999974365235,8|0,0:0|0:0,0:0:0:0:
406,243,191986,6,0,P|270:208|86:164,1,308.000009399414,8|8,0:1|0:1,0:0:0:0:
202,81,192804,6,0,P|241:62|243:-1,2,97.9999970092775,10|8|8,0:0|0:0|0:0,0:0:0:0:
25,177,193622,6,0,B|117:161|74:241|212:205,1,167.999994873047,6|8,1:0|0:0,0:0:0:0:
293,322,194076,1,0,3:0:0:0:
293,322,194167,2,0,P|360:327|434:356,1,111.999996582031,8|0,0:0|3:0,0:0:0:0:
464,280,194440,2,0,P|439:347|532:370,2,167.999994873047,2|8|8,1:0|0:0|0:0,0:0:0:0:
428,141,195167,5,0,3:0:0:0:
428,141,195258,2,0,B|362:123|362:123|351:100|351:100|262:72,1,167.999994873047,2|8,1:0|0:0,0:0:0:0:
162,12,195713,1,0,3:0:0:0:
162,12,195804,2,0,P|141:73|131:142,1,111.999996582031,8|0,0:0|3:0,0:0:0:0:
60,175,196076,2,0,P|101:226|129:276,1,111.999996582031,2|0,1:0|0:0,0:0:0:0:
176,335,196349,2,0,P|237:287|170:197,1,167.999994873047,8|8,0:0|0:0,0:0:0:0:
281,64,196804,5,8,0:1:0:0:
281,64,196895,2,0,B|397:48|397:48|414:136,1,167.999994873047,2|8,1:0|0:0,0:0:0:0:
478,231,197349,1,0,3:0:0:0:
478,231,197440,2,0,P|432:273|446:341,1,111.999996582031,10|0,0:0|3:0,0:0:0:0:
349,357,197713,2,0,L|220:340,1,111.999996582031,2|0,1:0|0:0,0:0:0:0:
236,360,197986,2,0,L|107:343,1,111.999996582031,10|0,0:0|3:0,0:0:0:0:
123,362,198258,1,10,0:0:0:0:
31,244,198531,6,0,P|68:178|50:131,1,111.999996582031,2|0,1:0|0:0,0:0:0:0:
0,88,198804,2,0,B|10:105|10:105|172:91,1,167.999994873047,8|8,0:0|0:0,0:0:0:0:
260,0,199349,6,0,P|297:66|279:113,1,111.999996582031,0|0,1:0|3:0,0:0:0:0:
229,156,199622,2,0,B|239:139|239:139|401:153,1,167.999994873047,8|8,0:0|0:0,0:0:0:0:
512,245,200076,5,0,3:0:0:0:
512,245,200167,2,0,B|442:269|442:269|439:279|439:279|340:314,1,167.999994873047,6|8,1:0|0:0,0:0:0:0:
228,384,200622,1,0,3:0:0:0:
228,384,200713,2,0,P|189:342|195:262,1,111.999996582031,10|0,0:0|0:0,0:0:0:0:
257,238,200986,2,0,L|234:45,1,167.999994873047,2|8,1:0|0:0,0:0:0:0:
108,15,201440,5,0,3:0:0:0:
108,15,201531,2,0,P|72:70|45:131,1,111.999996582031,10|0,0:0|3:0,0:0:0:0:
0,187,201804,2,0,P|65:219|62:328,1,167.999994873047,2|8,1:0|0:0,0:0:0:0:
228,384,202349,1,10,0:0:0:0:
284,245,202622,2,0,P|261:179|243:138,1,111.999996582031,2|0,1:0|0:0,0:0:0:0:
390,206,203076,1,0,3:0:0:0:
390,206,203167,2,0,P|456:183|497:165,1,111.999996582031,8|0,0:0|3:0,0:0:0:0:
464,94,203440,5,2,1:0:0:0:
282,44,203713,1,10,0:0:0:0:
196,213,203986,1,10,0:0:0:0:
464,94,204258,6,0,P|410:54|353:61,1,111.999996582031,2|0,1:0|0:0,0:0:0:0:
282,44,204531,2,0,P|242:98|248:155,1,111.999996582031,10|0,0:0|3:0,0:0:0:0:
196,213,204804,1,10,0:0:0:0:
319,366,205076,6,0,P|387:354|448:348,1,111.999996582031,2|0,1:0|0:0,0:0:0:0:
342,240,205531,1,0,3:0:0:0:
342,240,205622,2,0,P|330:172|324:111,1,111.999996582031,8|0,0:0|3:0,0:0:0:0:
244,88,205895,6,0,P|188:61|126:88,1,111.999996582031,0|0,1:0|3:0,0:0:0:0:
129,68,206167,2,0,P|77:102|70:170,1,111.999996582031,8|8,0:0|0:0,0:0:0:0:
54,157,206440,1,8,0:3:0:0:
96,325,206713,6,0,L|270:294,1,167.999994873047,6|8,1:0|0:0,0:0:0:0:
277,188,207167,1,0,3:0:0:0:
277,188,207258,2,0,P|340:176|366:126,1,111.999996582031,8|0,0:0|3:0,0:0:0:0:
337,65,207531,1,2,1:0:0:0:
480,17,207804,2,0,L|450:202,1,167.999994873047,8|0,0:0|3:0,0:0:0:0:
489,316,208258,5,0,3:0:0:0:
489,316,208349,2,0,P|445:280|364:303,1,111.999996582031,2|0,1:0|0:0,0:0:0:0:
326,336,208622,2,0,B|255:355|255:355|253:362|253:362|148:388,1,167.999994873047,10|10,0:0|0:0,0:0:0:0:
44,331,209167,2,0,B|28:240|28:240|54:233,1,111.999996582031,2|0,1:0|0:0,0:0:0:0:
92,157,209440,2,0,B|183:141|183:141|190:167,1,111.999996582031,8|0,0:0|3:0,0:0:0:0:
268,193,209713,1,8,0:0:0:0:
299,65,209895,5,0,3:0:0:0:
299,65,209986,2,0,P|342:31|416:40,1,111.999996582031,2|0,1:0|0:0,0:0:0:0:
488,5,210258,2,0,L|461:123,1,111.999996582031,10|0,0:0|3:0,0:0:0:0:
381,145,210531,2,0,L|408:263,1,111.999996582031,10|0,0:0|3:0,0:0:0:0:
339,314,210804,2,0,P|294:358|223:345,1,111.999996582031,2|0,1:0|0:0,0:0:0:0:
236,366,211076,2,0,P|184:329|185:257,1,111.999996582031,10|0,0:0|3:0,0:0:0:0:
161,269,211349,1,10,0:0:0:0:
110,127,211622,6,0,P|147:76|229:73,1,111.999996582031,2|0,1:0|3:0,0:0:0:0:
271,5,211895,2,0,B|252:15|252:15|236:184,1,167.999994873047,8|8,0:0|0:0,0:0:0:0:
314,331,212440,6,0,P|277:280|195:277,1,111.999996582031,0|0,1:0|3:0,0:0:0:0:
153,209,212713,2,0,B|172:219|172:219|188:388,1,167.999994873047,8|8,0:0|0:0,0:0:0:0:
43,325,213167,5,0,3:0:0:0:
43,325,213258,2,0,P|-10:276|40:183,1,167.999994873047,6|8,1:0|0:0,0:0:0:0:
65,77,213713,1,0,3:0:0:0:
65,77,213804,2,0,P|148:98|218:127,1,111.999996582031,10|0,0:0|3:0,0:0:0:0:
260,91,214076,2,0,B|290:67|305:17|269:-29|194:-5|209:50,1,167.999994873047,2|8,1:0|0:0,0:0:0:0:
153,209,214622,1,10,0:0:0:0:
275,307,214895,6,0,L|399:286,1,111.999996582031,2|0,1:0|0:0,0:0:0:0:
448,342,215167,2,0,P|486:291|472:228,1,111.999996582031,10|0,0:0|3:0,0:0:0:0:
400,202,215440,2,0,L|379:78,1,111.999996582031,10|0,0:0|3:0,0:0:0:0:
442,15,215713,2,0,P|386:9|331:0,1,111.999996582031,2|0,1:0|0:0,0:0:0:0:
177,51,216167,1,0,3:0:0:0:
177,51,216258,2,0,P|166:106|161:161,1,111.999996582031,8|8,0:0|0:3,0:0:0:0:
209,249,216531,6,0,P|266:240|323:267,1,111.999996582031,14|0,0:1|0:0,0:0:0:0:
350,187,216804,2,0,P|311:145|259:125,1,111.999996582031,10|0,0:1|0:0,0:0:0:0:
377,60,217076,2,0,P|412:106|418:169,1,111.999996582031,10|0,0:3|0:0,0:0:0:0:
499,154,217349,1,14,0:3:0:0:
512,320,217622,6,0,L|391:345,1,111.999996582031,8|0,0:0|0:0,0:0:0:0:
380,361,217895,2,0,L|394:296,2,55.9999982910157,8|8|8,0:3|0:3|0:3,0:0:0:0:
299,377,218167,6,0,P|228:361|210:309,1,111.999996582031,14|0,0:3|0:0,0:0:0:0:
128,339,218440,2,0,P|106:269|142:227,1,111.999996582031,10|0,0:3|3:0,0:0:0:0:
75,171,218713,2,0,P|124:117|178:127,1,111.999996582031,10|0,0:3|0:0,0:0:0:0:
193,41,218986,2,0,P|327:68|377:75,1,167.999994873047,14|8,0:0|0:0,0:0:0:0:
465,179,219531,2,0,L|479:237,2,55.9999982910157,10|8|8,0:3|0:3|0:3,0:0:0:0:
435,220,219804,6,0,B|380:205|351:248|373:241|342:287|274:266,1,154.000004699707,6|8,1:0|0:0,0:0:0:0:
212,339,220258,1,2,3:0:0:0:
212,339,220349,2,0,P|177:308|93:323,1,102.666669799805,10|0,0:0|0:0,0:0:0:0:
44,280,220622,2,0,P|67:354|-14:376,2,154.000004699707,0|10|8,1:0|0:0|0:0,0:0:0:0:
44,118,221440,6,0,B|106:133|106:133|122:157|122:157|220:173,1,154.000004699707,2|10,1:0|0:0,0:0:0:0:
290,247,221895,1,2,3:0:0:0:
290,247,221986,2,0,P|336:199|327:156,1,102.666669799805,10|0,0:0|3:0,0:0:0:0:
310,76,222258,6,0,P|380:94|449:101,1,102.666669799805,2|0,1:0|3:0,0:0:0:0:
452,26,222531,2,0,P|519:84|490:157,1,154.000004699707,10|8,0:0|0:0,0:0:0:0:
419,245,222986,5,0,3:0:0:0:
419,245,223076,1,0,1:0:0:0:
503,346,223349,2,0,B|414:328|439:398|331:364,1,154.000004699707,10|10,0:0|0:0,0:0:0:0:
242,294,223895,2,0,B|252:210|252:210|278:215,1,102.666669799805,2|0,1:0|0:0,0:0:0:0:
260,198,224167,2,0,B|270:114|270:114|296:119,1,102.666669799805,10|0,0:0|3:0,0:0:0:0:
282,94,224440,1,10,0:0:0:0:
146,46,224713,6,0,P|81:26|-16:-6,1,154.000004699707,2|8,1:0|0:0,0:0:0:0:
69,151,225258,1,8,0:0:0:0:
0,288,225531,2,0,P|58:268|160:248,1,154.000004699707,2|10,1:0|0:0,0:0:0:0:
260,198,225986,1,0,3:0:0:0:
260,198,226076,2,0,P|311:222|377:245,1,102.666669799805,10|8,0:0|0:0,0:0:0:0:
423,192,226349,6,0,P|494:202|494:300,1,154.000004699707,6|8,1:0|0:0,0:0:0:0:
401,358,226804,1,2,3:0:0:0:
401,358,226895,2,0,L|288:344,1,102.666669799805,10|0,0:0|3:0,0:0:0:0:
221,368,227167,2,0,P|188:311|209:257,1,102.666669799805,0|2,1:0|3:0,0:0:0:0:
179,266,227440,2,0,P|211:208|269:200,1,102.666669799805,10|2,0:0|3:0,0:0:0:0:
239,183,227713,1,10,0:0:0:0:
374,127,227986,1,0,1:0:0:0:
243,59,228258,6,0,P|179:46|98:22,1,102.666669799805,2|8,1:0|0:0,0:0:0:0:
58,7,228531,2,0,B|79:8|79:8|103:166,1,154.000004699707,10|2,0:0|1:0,0:0:0:0:
78,288,229076,2,0,P|142:275|223:251,1,102.666669799805,10|0,0:0|3:0,0:0:0:0:
263,236,229349,2,0,B|242:237|242:237|222:364,1,102.666669799805,10|0,0:0|3:0,0:0:0:0:
301,373,229622,6,0,P|336:324|342:266,1,102.666669799805,10|0,0:3|0:0,0:0:0:0:
411,231,229895,2,0,P|434:276|435:327,1,102.666669799805,8|0,0:3|0:0,0:0:0:0:
511,208,230167,2,0,P|469:164|413:148,1,102.666669799805,8|0,0:1|0:0,0:0:0:0:
392,76,230440,1,8,0:1:0:0:
218,123,230713,2,0,L|244:244,1,102.666669799805,8|0,0:0|0:0,0:0:0:0:
267,247,230986,2,0,L|204:238,2,51.3333348999024,8|8|8,0:3|0:3|0:3,0:0:0:0:
296,331,231258,6,0,P|227:359|168:319,1,102.666669799805,14|0,2:3|0:0,0:0:0:0:
127,381,231531,2,0,P|68:336|72:264,1,102.666669799805,8|2,0:0|3:0,0:0:0:0:
0,260,231804,2,0,P|9:186|73:154,1,102.666669799805,10|0,0:0|0:0,0:0:0:0:
42,90,232076,2,0,P|111:101|205:110,1,154.000004699707,14|8,0:0|0:3,0:0:0:0:
299,374,232622,2,0,L|312:309,2,51.3333348999024,4|4|4,0:3|0:3|0:3,0:0:0:0:
214,375,232895,6,0,P|190:378|160:386,2,48.9999985046387,2|0|0,0:0|0:0|0:0,0:0:0:0:
299,374,233304,2,0,P|322:377|352:385,2,48.9999985046387,2|0|0,0:0|0:0|0:0,0:0:0:0:
214,290,233713,6,0,P|190:293|160:301,2,56,2|0|0,0:0|0:0|0:0,0:0:0:0:
299,289,234122,2,0,P|322:292|352:300,2,56,2|0|0,0:0|0:0|0:0,0:0:0:0:
214,205,234531,6,0,P|190:208|153:219,2,62.9999980773926,2|0|0,0:0|0:0|0:0,0:0:0:0:
299,204,234940,2,0,P|322:207|359:219,2,62.9999980773926,2|0|0,0:0|0:0|0:0,0:0:0:0:
212,119,235349,6,0,P|188:122|140:136,2,70,2|0|0,0:0|0:0|0:0,0:0:0:0:
297,118,235758,2,0,P|320:121|369:134,2,70,2|0|0,0:0|0:0|0:0,0:0:0:0:
246,34,236167,6,0,P|192:30|129:19,1,102.666669799805,6|0,1:0|0:0,0:0:0:0:
59,0,236440,2,0,B|86:19|86:19|101:162,1,154.000004699707,8|8,0:0|0:0,0:0:0:0:
219,232,236986,6,0,P|165:228|102:217,1,102.666669799805,4|0,1:0|0:0,0:0:0:0:
32,198,237259,2,0,B|59:217|59:217|74:360,1,154.000004699707,8|8,0:0|0:0,0:0:0:0:
198,384,237804,5,4,1:0:0:0:
352,208,238622,6,0,B|305:254|242:233|242:233|251:169|304:136|304:136|244:107|241:41|241:41|307:17|352:67|352:67|362:11|424:-17|424:-17|458:33|433:94|433:94|497:89|538:138|538:138|489:187|434:180|434:180|462:232|424:291|424:291|377:287|361:252,1,1134.00002768555,2|0,3:0|0:0,0:0:0:0:
