osu file format v14

[General]
AudioFilename: audio.mp3
AudioLeadIn: 0
PreviewTime: 177258
Countdown: 0
SampleSet: Soft
StackLeniency: 0.7
Mode: 0
LetterboxInBreaks: 0
WidescreenStoryboard: 1

[Editor]
Bookmarks: 14440,20986,34077,40622,43895,56986,83168,96259,101986,108531,115076,121622,131440,137986,164167,170713,177258,193622,219804,238622,246804
DistanceSpacing: 0.5
BeatDivisor: 3
GridSize: 32
TimelineZoom: 1.799999

[Metadata]
Title:Urami no Waltz
TitleUnicode:うらみのワルツ
Artist:KikuoHana
ArtistUnicode:きくおはな
Creator:SMOKELIND
Version:Fuqing's Insane
Source:
Tags:Waltz of Malice Hanatan 花たん YURiCa ユリカ 第一幕 1 First Act Daiichi Maku Japanese Rock Jazz iljaaz FuJu frozz -Keqing Keqing Crissa Eula-
BeatmapID:3252055
BeatmapSetID:1552723

[Difficulty]
HPDrainRate:5
CircleSize:3.7
OverallDifficulty:7.5
ApproachRate:8.5
SliderMultiplier:1.6
SliderTickRate:1

[Events]
//Background and Video events
0,0,"89693204_p0.jpg",0,0
//Break Periods
2,27731,30129
2,34276,39947
2,83368,95584
2,177458,192947
//Storyboard Layer 0 (Background)
//Storyboard Layer 1 (Fail)
//Storyboard Layer 2 (Pass)
//Storyboard Layer 3 (Foreground)
//Storyboard Layer 4 (Overlay)
//Storyboard Sound Samples

[TimingPoints]
1350,272.727272727273,6,2,77,77,1,0
14440,-125,6,2,77,47,0,0
17440,-125,6,2,77,57,0,0
20986,-105.263157894737,6,2,77,87,0,0
27531,-142.857142857143,6,2,77,57,0,0
30804,-111.111111111111,6,2,77,87,0,0
34077,-142.857142857143,6,2,77,47,0,0
40622,-125,6,2,77,57,0,0
43895,-166.666666666667,6,2,77,47,0,0
50168,-111.111111111111,6,2,77,47,0,0
50440,-125,6,2,77,57,0,0
55350,-166.666666666667,6,2,77,57,0,0
56986,-90.9090909090909,6,2,77,87,0,0
83168,-125,6,2,77,87,0,0
83350,-125,6,2,77,57,0,0
90531,-200,6,2,77,57,0,0
91350,-125,6,2,77,57,0,0
92168,-200,6,2,77,57,0,0
92986,-125,6,2,77,57,0,0
96259,-250.000000000001,6,2,77,47,0,0
101986,272.727272727273,6,2,77,47,1,0
101986,-170.940170940171,6,2,77,47,0,0
108531,-125,6,2,77,57,0,0
111804,-125,6,2,77,47,0,0
115076,-200,6,2,77,47,0,0
121622,-125,6,2,77,47,0,0
123258,-200,6,2,77,47,0,0
124895,-166.666666666667,6,2,77,47,0,0
131167,-111.111111111111,6,2,77,47,0,0
131440,-125,6,2,77,57,0,0
137986,-90.9090909090909,6,2,77,87,0,0
164167,-111.111111111111,6,2,77,87,0,0
164349,-111.111111111111,6,2,77,57,0,0
170713,-142.857142857143,6,2,77,57,0,0
176167,-142.857142857143,6,2,77,57,0,0
176713,-200,6,2,77,57,0,0
177258,-111.111111111111,6,2,77,27,0,0
191440,-142.857142857143,6,2,77,57,0,0
191713,-111.111111111111,6,2,77,57,0,0
191986,-90.9090909090909,6,2,77,57,0,0
192804,-142.857142857143,6,2,77,57,0,0
193622,-90.9090909090909,6,2,77,87,0,0
219804,-90.9090909090909,6,2,77,87,0,0
232895,-142.857142857143,6,2,77,47,0,0
233713,-125,6,2,77,47,0,0
234531,-111.111111111111,6,2,77,47,0,0
235349,-100,6,2,77,47,0,0
236167,-90.9090909090909,6,2,77,87,0,0
238622,-370.37037037037,6,2,77,27,0,0
238713,-370.37037037037,6,2,77,5,0,0

[Colours]
Combo1 : 255,244,149
Combo2 : 244,172,159

[HitObjects]
469,31,14440,5,2,0:0:0:0:
371,109,14577,1,2,0:0:0:0:
371,109,14713,1,2,0:0:0:0:
485,37,14850,1,2,0:0:0:0:
485,37,14986,1,2,0:0:0:0:
444,192,15259,5,2,0:0:0:0:
319,177,15395,1,2,0:0:0:0:
319,177,15532,1,2,0:0:0:0:
451,207,15668,1,2,0:0:0:0:
451,207,15805,1,2,0:0:0:0:
251,384,16077,6,0,B|225:350|225:350|233:307,1,85.3333333333333,2|0,0:0|0:0,0:0:0:0:
373,244,16350,2,0,B|398:277|398:277|390:320,1,85.3333333333333,2|0,0:0|0:0,0:0:0:0:
313,333,16622,1,2,0:0:0:0:
157,279,16895,2,0,P|177:218|189:155,2,128,2|0|8,0:0|0:0|0:1,0:0:0:0:
80,90,17713,6,0,P|38:101|0:117,1,85.3333333333333,10|0,0:1|0:0,0:0:0:0:
161,62,17986,2,0,P|201:49|241:34,1,85.3333333333333,10|0,0:1|0:0,0:0:0:0:
81,64,18259,2,0,P|39:52|0:36,1,85.3333333333333,10|0,0:1|0:0,0:0:0:0:
162,92,18532,2,0,P|202:104|242:119,1,85.3333333333333,10|0,0:1|0:0,0:0:0:0:
287,185,18804,1,10,0:1:0:0:
411,119,18986,1,0,0:0:0:0:
411,119,19077,1,10,0:1:0:0:
323,0,19350,5,10,0:1:0:0:
396,222,19531,1,8,0:1:0:0:
396,222,19622,1,0,0:0:0:0:
472,187,19804,1,0,0:0:0:0:
472,187,19895,1,0,1:0:0:0:
320,257,20077,5,0,3:0:0:0:
320,256,20168,2,0,P|279:247|252:215,1,85.3333333333333,8|0,0:1|0:0,0:0:0:0:
271,140,20440,1,0,0:0:0:0:
178,250,20622,1,8,0:0:0:0:
178,250,20713,2,0,P|139:231|99:217,1,85.3333333333333,8|8,0:0|0:0,0:0:0:0:
13,72,20986,5,6,1:0:0:0:
0,170,21168,2,0,P|45:148|93:132,1,101.333330627441
176,17,21440,1,8,0:0:0:0:
176,17,21531,2,0,P|223:31|247:75,1,101.333330627441,2|0,1:0|0:0,0:0:0:0:
323,50,21804,2,0,P|329:99|300:139,1,101.333330627441,2|0,1:0|0:0,0:0:0:0:
174,104,22077,1,8,0:0:0:0:
310,239,22259,5,0,1:0:0:0:
310,238,22350,2,0,P|334:231|357:221,1,50.6666653137207,10|2,0:0|0:0,0:0:0:0:
240,281,22531,1,2,0:0:0:0:
240,281,22622,2,0,P|170:254|95:240,1,151.999995941162,2|8,1:0|0:0,0:0:0:0:
288,355,23077,1,10,0:0:0:0:
288,355,23168,2,0,P|362:341|433:313,1,151.999995941162,10|0,0:0|1:0,0:0:0:0:
336,151,23622,1,0,0:0:0:0:
336,151,23713,2,0,P|301:190|309:238,1,101.333330627441,8|10,0:0|0:0,0:0:0:0:
218,146,23986,2,0,P|173:122|137:86,1,101.333330627441,10|10,0:0|0:1,0:0:0:0:
379,0,24259,6,0,P|308:23|276:89,1,151.999995941162,2|8,1:0|0:0,0:0:0:0:
180,281,24713,1,8,0:0:0:0:
180,281,24804,2,0,P|165:233|125:202,1,101.333330627441,10|2,0:0|0:0,0:0:0:0:
66,254,25077,1,2,1:0:0:0:
235,376,25259,1,0,0:0:0:0:
235,376,25350,1,8,0:0:0:0:
396,252,25531,1,8,0:0:0:0:
396,252,25622,2,0,P|378:204|354:160,1,101.333330627441,8|0,0:0|0:0,0:0:0:0:
389,91,25895,5,2,1:0:0:0:
472,215,26077,1,0,0:0:0:0:
471,215,26168,2,0,P|436:282|413:354,1,151.999995941162,8|10,0:0|0:0,0:0:0:0:
273,202,26622,1,0,0:0:0:0:
273,202,26713,2,0,P|225:185|189:151,1,101.333330627441,2|0,1:0|0:0,0:0:0:0:
47,235,26986,2,0,P|63:187|97:151,1,101.333330627441,0|8,1:0|0:0,0:0:0:0:
142,89,27259,1,8,0:0:0:0:
172,321,27440,5,8,0:3:0:0:
172,321,27531,1,4,1:0:0:0:
444,384,30804,6,0,P|419:266|391:149,1,239.999992675781,6|10,1:0|0:0,0:0:0:0:
455,100,31350,2,0,P|484:84|460:107,1,95.9999970703126,0|8,0:0|0:3,0:0:0:0:
333,285,31622,2,0,P|264:275|239:211,1,143.999995605469,2|8,1:0|0:3,0:0:0:0:
49,184,32077,1,10,0:0:0:0:
49,184,32168,2,0,P|57:138|99:118,1,95.9999970703126,0|0,0:0|0:3,0:0:0:0:
170,72,32440,6,0,P|145:139|125:208,1,143.999995605469,2|8,1:0|0:3,0:0:0:0:
333,285,32895,1,8,0:0:0:0:
333,285,32986,2,0,P|315:329|301:375,1,95.9999970703126,2|8,0:0|0:3,0:0:0:0:
240,302,33259,1,10,0:1:0:0:
421,268,33440,1,8,0:1:0:0:
421,267,33531,2,0,P|438:225|417:183,1,95.9999970703126
421,67,33804,2,0,P|402:133|335:142,1,143.999995605469,8|2,0:0|0:0,0:0:0:0:
0,189,40622,5,2,0:0:0:0:
0,189,40759,1,2,0:0:0:0:
0,189,40895,1,2,0:0:0:0:
0,189,41031,1,2,0:0:0:0:
0,189,41168,1,2,0:0:0:0:
0,189,41304,1,2,0:0:0:0:
0,189,41440,1,2,0:0:0:0:
512,189,42259,5,2,0:0:0:0:
512,189,42396,1,2,0:0:0:0:
512,189,42532,1,2,0:0:0:0:
512,189,42668,1,2,0:0:0:0:
512,189,42805,1,2,0:0:0:0:
512,189,42941,1,2,0:0:0:0:
512,189,43077,1,2,3:0:0:0:
512,277,43895,6,0,P|454:205|361:198,1,191.999994140625,6|2,0:0|0:0,0:0:0:0:
120,146,44713,2,0,P|142:77|160:7,1,143.999995605469,2|0,0:0|0:0,0:0:0:0:
223,224,45259,1,2,0:0:0:0:
223,224,45531,2,0,P|200:292|182:362,1,143.999995605469,2|0,0:0|0:0,0:0:0:0:
120,263,46077,6,0,P|90:254|61:241,1,63.9999980468751
283,313,46350,2,0,P|312:326|342:334,1,63.9999980468751
223,224,46622,2,0,B|226:192|226:192|243:165,1,63.9999980468751
437,155,46895,2,0,B|434:187|434:187|416:213,1,63.9999980468751
352,153,47168,2,0,P|261:142|225:57,1,191.999994140625,2|2,0:0|0:0,0:0:0:0:
40,282,47986,2,0,P|130:250|222:223,1,191.999994140625,2|0,0:0|0:0,0:0:0:0:
398,333,48804,2,0,B|402:234|339:262|351:151,1,191.999994140625,2|0,0:0|0:0,0:0:0:0:
500,46,49622,6,0,P|485:74|475:104,1,63.9999980468751,2|0,0:0|0:0,0:0:0:0:
427,13,49895,2,0,P|417:42|401:71,1,63.9999980468751,10|0,0:0|0:0,0:0:0:0:
223,197,50168,2,0,P|188:165|188:118,1,95.9999970703126,10|0,0:0|0:0,0:0:0:0:
274,128,50440,6,0,P|390:181|504:239,1,256,14|8,0:0|0:0,0:0:0:0:
161,379,51259,2,0,P|133:347|130:305,1,85.3333333333333,0|0,3:0|0:0,0:0:0:0:
193,258,51531,1,10,0:0:0:0:
87,138,51804,1,2,3:0:0:0:
210,45,51986,5,0,0:0:0:0:
210,45,52077,1,2,3:0:0:0:
210,45,52350,6,0,P|251:35|292:23,1,85.3333333333333
87,138,52622,2,0,P|45:147|4:159,1,85.3333333333333,8|0,0:0|0:0,0:0:0:0:
193,258,52895,2,0,P|214:222|206:181,1,85.3333333333333,0|0,3:0|0:0,0:0:0:0:
163,115,53168,1,10,0:0:0:0:
306,242,53440,2,0,P|346:230|381:205,1,85.3333333333333,2|0,3:0|0:0,0:0:0:0:
440,302,53713,2,0,P|383:196|455:99,1,256,2|0,3:0|0:0,0:0:0:0:
454,98,54531,6,0,P|440:137|400:149,1,85.3333333333333,10|0,0:1|0:0,0:0:0:0:
276,160,54804,2,0,P|290:121|330:109,1,85.3333333333333,2|0,0:0|0:0,0:0:0:0:
407,158,55077,1,2,0:0:0:0:
406,158,55350,2,0,P|289:108|174:48,1,255.9999921875,2|0,3:0|1:0,0:0:0:0:
102,74,56168,1,10,0:0:0:0:
61,273,56350,1,0,0:0:0:0:
61,272,56440,2,0,P|80:247|83:216,1,63.9999980468751,10|0,0:0|0:0,0:0:0:0:
164,215,56713,2,0,P|160:183|141:158,1,63.9999980468751,10|0,0:0|0:0,0:0:0:0:
352,228,56986,6,0,P|303:301|272:383,1,176.000005371094,6|8,1:0|0:0,0:0:0:0:
147,298,57440,1,0,3:0:0:0:
214,243,57531,2,0,P|186:232|163:214,1,58.6666684570313,8|0,0:0|0:0,0:0:0:0:
146,75,57713,1,0,3:0:0:0:
216,44,57804,2,0,P|264:73|267:130,1,117.333336914063,2|0,1:0|0:0,0:0:0:0:
272,383,58077,6,0,P|303:301|352:228,1,176.000005371094,8|8,0:0|0:0,0:0:0:0:
462,34,58531,1,0,3:0:0:0:
480,110,58622,2,0,P|398:90|361:13,1,176.000005371094,2|8,1:0|0:0,0:0:0:0:
40,115,59077,1,0,3:0:0:0:
112,136,59168,2,0,P|165:112|221:93,1,117.333336914063,8|0,0:0|3:0,0:0:0:0:
259,272,59440,2,0,P|207:248|191:193,1,117.333336914063,2|0,1:0|0:0,0:0:0:0:
415,171,59713,2,0,P|363:194|347:249,1,117.333336914063,8|0,0:0|3:0,0:0:0:0:
409,300,59986,1,8,0:0:0:0:
274,0,60168,5,8,0:1:0:0:
317,109,60259,2,0,P|295:43|275:0,1,117.333336914063,2|0,1:0|0:0,0:0:0:0:
379,27,60531,2,0,P|405:38|433:47,1,58.6666684570313,8|0,0:0|0:0,0:0:0:0:
213,74,60713,1,0,3:0:0:0:
213,74,60804,2,0,P|158:51|102:34,1,117.333336914063,10|0,0:0|3:0,0:0:0:0:
277,209,61077,1,2,1:0:0:0:
277,208,61350,2,0,P|316:166|316:108,1,117.333336914063,10|0,0:0|3:0,0:0:0:0:
122,195,61622,2,0,P|122:252|161:294,1,117.333336914063,10|0,0:0|3:0,0:0:0:0:
274,311,61895,6,0,P|247:227|200:152,1,176.000005371094,2|8,1:0|0:0,0:0:0:0:
442,221,62350,1,0,3:0:0:0:
442,221,62440,2,0,P|426:164|399:112,1,117.333336914063,8|0,0:0|3:0,0:0:0:0:
507,34,62713,2,0,P|509:62|493:86,1,58.6666684570313,0|0,1:0|0:0,0:0:0:0:
338,67,62895,1,0,3:0:0:0:
309,139,62986,2,0,P|253:125|224:76,1,117.333336914063,8|0,0:0|3:0,0:0:0:0:
207,0,63259,5,8,0:0:0:0:
207,0,63350,1,0,0:0:0:0:
207,0,63440,1,0,3:0:0:0:
207,0,63531,2,0,P|193:79|140:176,1,176.000005371094,6|8,1:0|0:0,0:0:0:0:
281,340,63986,1,0,3:0:0:0:
281,340,64077,2,0,P|255:287|243:230,1,117.333336914063,10|0,0:0|0:0,0:0:0:0:
422,132,64350,6,0,P|417:215|341:251,1,176.000005371094,2|8,1:0|0:0,0:0:0:0:
41,209,64804,1,0,3:0:0:0:
41,209,64895,2,0,P|95:232|143:267,1,117.333336914063,10|0,0:0|3:0,0:0:0:0:
281,340,65168,2,0,P|255:287|243:230,1,117.333336914063,2|0,1:0|0:0,0:0:0:0:
287,165,65440,1,8,0:0:0:0:
423,135,65622,1,0,3:0:0:0:
423,135,65713,2,0,P|434:77|460:25,1,117.333336914063,10|0,0:0|0:0,0:0:0:0:
354,56,65986,6,0,P|327:68|299:75,1,58.6666684570313,2|0,1:0|0:0,0:0:0:0:
242,26,66168,1,0,0:0:0:0:
242,26,66259,1,8,0:0:0:0:
0,107,66440,1,0,3:0:0:0:
0,107,66531,2,0,P|55:125|99:163,1,117.333336914063,8|0,0:0|3:0,0:0:0:0:
207,158,66804,6,0,P|199:213|148:238,1,117.333336914063,2|0,1:0|0:0,0:0:0:0:
96,313,67077,2,0,P|46:286|40:230,1,117.333336914063,10|0,0:0|3:0,0:0:0:0:
99,163,67350,1,10,0:0:0:0:
414,312,67622,6,0,P|463:285|469:229,1,117.333336914063,2|0,1:0|0:0,0:0:0:0:
303,157,67895,2,0,P|310:212|361:237,1,117.333336914063,10|0,0:0|3:0,0:0:0:0:
411,162,68168,1,10,0:0:0:0:
346,0,68350,1,0,3:0:0:0:
283,46,68440,2,0,P|208:92|124:118,1,176.000005371094,2|8,1:0|0:0,0:0:0:0:
272,279,68986,5,8,0:0:0:0:
271,279,69077,2,0,P|325:300|367:341,1,117.333336914063,0|0,0:0|1:0,0:0:0:0:
365,65,69440,1,0,3:0:0:0:
429,112,69531,2,0,P|424:169|380:205,1,117.333336914063,8|8,0:0|0:0,0:0:0:0:
223,363,69804,2,0,P|178:326|173:270,1,117.333336914063,8|8,0:3|0:0,0:0:0:0:
91,251,70077,6,0,P|110:168|183:124,1,176.000005371094,6|8,1:0|0:0,0:0:0:0:
0,141,70531,1,0,3:0:0:0:
0,5,70622,2,0,P|46:38|59:94,1,117.333336914063,8|0,0:0|3:0,0:0:0:0:
231,207,70895,2,0,P|285:184|341:168,1,117.333336914063,2|0,1:0|3:0,0:0:0:0:
456,112,71168,1,8,0:0:0:0:
327,0,71350,1,0,3:0:0:0:
327,0,71440,1,0,3:0:0:0:
502,52,71622,5,2,3:0:0:0:
456,112,71713,2,0,P|418:68|420:11,1,117.333336914063,2|0,1:0|0:0,0:0:0:0:
512,169,71986,2,0,P|514:226|476:269,1,117.333336914063,8|0,0:0|3:0,0:0:0:0:
411,228,72259,1,8,0:0:0:0:
271,337,72440,1,0,3:0:0:0:
271,337,72531,2,0,P|191:300|108:268,1,176.000005371094,2|8,1:0|0:0,0:0:0:0:
191,112,72895,1,0,0:0:0:0:
191,112,72986,1,0,3:0:0:0:
191,112,73077,2,0,P|240:143|250:199,1,117.333336914063,8|0,0:0|3:0,0:0:0:0:
0,292,73350,6,0,P|9:235|58:205,1,117.333336914063,2|0,1:0|0:0,0:0:0:0:
271,337,73622,2,0,P|191:300|108:268,1,176.000005371094,10|10,0:0|0:0,0:0:0:0:
324,126,74077,1,0,3:0:0:0:
324,125,74168,2,0,P|376:151|430:175,1,117.333336914063,2|0,1:0|0:0,0:0:0:0:
250,199,74440,2,0,P|201:168|191:112,1,117.333336914063,10|0,0:0|3:0,0:0:0:0:
118,93,74713,2,0,P|125:36|172:3,1,117.333336914063,10|0,0:0|3:0,0:0:0:0:
238,45,74986,5,2,1:0:0:0:
339,235,75168,1,0,3:0:0:0:
339,235,75259,2,0,P|331:291|284:324,1,117.333336914063,8|0,0:0|3:0,0:0:0:0:
221,276,75531,1,8,0:0:0:0:
42,272,75713,1,0,3:0:0:0:
42,272,75804,2,0,P|63:217|79:161,1,117.333336914063,0|0,1:0|3:0,0:0:0:0:
160,187,76077,2,0,P|138:241|122:297,1,117.333336914063,8|0,0:0|3:0,0:0:0:0:
0,146,76350,5,8,0:0:0:0:
0,146,76440,1,0,0:0:0:0:
0,146,76531,1,0,3:0:0:0:
0,146,76622,2,0,P|82:127|116:49,1,176.000005371094,6|8,1:0|0:0,0:0:0:0:
234,151,77077,1,0,3:0:0:0:
310,154,77168,2,0,P|304:97|259:62,1,117.333336914063,10|0,0:0|3:0,0:0:0:0:
367,312,77440,2,0,P|412:277|417:220,1,117.333336914063,2|0,1:0|0:0,0:0:0:0:
226,293,77713,2,0,P|271:327|276:384,1,117.333336914063,10|0,0:0|3:0,0:0:0:0:
161,340,77986,1,10,0:0:0:0:
161,340,78259,6,0,P|138:255|104:173,1,176.000005371094,2|8,1:0|0:0,0:0:0:0:
169,89,78713,1,0,3:0:0:0:
169,89,78804,2,0,P|190:102|221:114,1,58.6666684570313,10|0,0:0|0:0,0:0:0:0:
382,1,78986,1,0,3:0:0:0:
382,0,79077,2,0,P|328:22|302:73,1,117.333336914063,2|0,1:0|0:0,0:0:0:0:
383,79,79350,1,8,0:0:0:0:
252,214,79531,1,0,3:0:0:0:
252,214,79622,2,0,P|278:265|331:287,1,117.333336914063,8|8,0:0|0:3,0:0:0:0:
402,250,79895,5,14,0:1:0:0:
243,341,80031,1,10,0:1:0:0:
152,200,80168,1,10,0:1:0:0:
243,351,80304,1,10,0:1:0:0:
291,146,80440,1,10,0:3:0:0:
244,363,80577,1,10,0:3:0:0:
269,246,80713,5,14,0:3:0:0:
263,257,80986,6,0,P|213:252|174:291,1,88.000002685547,8|8,0:0|0:0,0:0:0:0:
150,347,81190,1,8,0:0:0:0:
150,347,81259,6,0,P|121:341|85:321,1,58.6666684570313,8|8,0:3|0:3,0:0:0:0:
15,229,81440,1,8,0:3:0:0:
0,313,81531,6,0,P|83:287|103:191,1,176.000005371094,14|10,0:3|0:3,0:0:0:0:
198,85,81986,1,0,3:0:0:0:
186,94,82077,2,0,P|157:87|128:76,1,58.6666684570313,10|0,0:3|0:0,0:0:0:0:
226,191,82259,1,0,0:0:0:0:
283,138,82350,2,0,P|358:121|444:109,1,117.333336914063,14|0,0:0|0:0,0:0:0:0:
460,58,82622,5,8,0:0:0:0:
492,86,82690,1,8,0:0:0:0:
500,127,82759,1,8,0:0:0:0:
481,168,82827,1,8,0:0:0:0:
438,190,82895,1,10,0:3:0:0:
412,228,82963,1,8,0:3:0:0:
416,261,83031,1,8,0:3:0:0:
431,277,83100,1,8,0:3:0:0:
438,280,83168,1,14,0:1:0:0:
331,304,96259,6,0,P|324:275|319:229,1,64,2|0,0:0|0:0,0:0:0:0:
256,193,96804,1,0,0:0:0:0:
338,81,97077,6,0,P|311:102|276:124,1,64,2|0,0:0|0:0,0:0:0:0:
256,193,97622,1,0,0:0:0:0:
130,211,97895,6,0,P|163:222|201:240,1,64,2|0,0:0|0:0,0:0:0:0:
256,193,98440,1,0,0:0:0:0:
148,91,98713,6,0,P|152:64|165:15,1,64,2|0,0:0|0:0,0:0:0:0:
256,193,99259,1,0,0:0:0:0:
417,59,99531,6,0,P|415:96|407:130,1,64,2|0,0:0|0:0,0:0:0:0:
256,193,100077,1,0,0:0:0:0:
403,351,100350,6,0,P|411:321|411:275,1,64,2|0,0:0|0:0,0:0:0:0:
256,193,100895,1,0,0:0:0:0:
389,110,101168,5,2,0:0:0:0:
256,193,101440,1,0,0:0:0:0:
103,153,101713,1,0,0:0:0:0:
256,193,101986,6,0,P|263:240|269:303,1,105.300000401688,2|0,3:0|0:0,0:0:0:0:
240,182,102531,1,0,0:0:0:0:
384,224,102804,6,0,P|373:179|365:122,1,93.6000003570557
417,71,103213,1,0,0:0:0:0:
495,127,103349,2,0,P|471:137|431:140,1,46.8000001785278
257,281,103622,6,0,P|333:295|370:328,1,128.700000490952,2|0,3:0|0:0,0:0:0:0:
207,197,104167,2,0,P|182:192|142:179,1,46.8000001785278
304,51,104440,6,0,P|288:99|281:157,1,93.6000003570557
91,274,104986,1,0,0:0:0:0:
161,186,105258,6,0,P|177:250|181:296,1,105.300000401688,2|0,3:0|0:0,0:0:0:0:
301,294,105804,2,0,P|277:288|240:271,1,46.8000001785278
18,384,106076,2,0,P|63:368|124:354,1,93.6000003570557
0,264,106622,5,0,0:0:0:0:
195,346,106895,2,0,P|247:364|341:383,1,140.400000535584,2|0,3:0|0:0,0:0:0:0:
419,256,107440,2,0,P|386:268|357:274,1,46.8000001785278
501,326,107713,5,0,0:0:0:0:
313,210,107986,1,0,0:0:0:0:
477,74,108258,1,0,0:0:0:0:
431,205,108531,6,0,P|419:266|409:344,2,128,14|2|2,0:3|3:0|3:0,0:0:0:0:
494,155,109349,1,6,0:3:0:0:
410,331,110167,6,0,P|421:269|432:192,2,128,6|2|2,0:3|3:0|3:0,0:0:0:0:
347,381,110985,1,6,0:3:0:0:
430,204,111804,5,2,0:0:0:0:
379,188,111940,1,0,0:0:0:0:
340,231,112076,1,0,0:0:0:0:
203,316,112213,5,2,0:0:0:0:
274,341,112349,1,0,0:0:0:0:
203,316,112486,1,0,0:0:0:0:
340,231,112622,5,2,0:0:0:0:
264,258,112758,1,0,0:0:0:0:
223,189,112895,1,0,0:0:0:0:
228,177,113031,1,2,0:0:0:0:
298,140,113167,1,0,0:0:0:0:
301,129,113304,1,0,0:0:0:0:
255,52,113440,5,2,0:0:0:0:
258,44,113576,1,0,0:0:0:0:
253,60,113713,1,0,0:0:0:0:
260,36,113849,1,2,0:0:0:0:
251,69,113986,1,0,0:0:0:0:
266,27,114122,1,0,0:0:0:0:
152,105,114258,5,2,0:0:0:0:
156,118,114395,1,0,0:0:0:0:
298,140,114531,5,0,0:0:0:0:
293,157,114667,1,2,0:0:0:0:
287,177,114804,1,0,0:0:0:0:
282,195,114940,1,0,0:0:0:0:
134,276,115076,6,0,P|88:289|20:335,1,120,2|0,0:0|0:0,0:0:0:0:
22,338,115622,1,2,0:0:0:0:
253,333,115895,6,0,P|199:301|127:281,1,120,2|0,0:0|0:0,0:0:0:0:
134,276,116440,1,2,0:0:0:0:
365,201,116713,6,0,P|329:216|274:234,1,80,2|0,0:0|0:0,0:0:0:0:
156,373,117258,1,2,0:0:0:0:
144,283,117531,6,0,P|210:307|259:337,1,120,2|0,0:0|0:0,0:0:0:0:
259,341,118076,1,0,0:0:0:0:
125,186,118349,6,0,P|123:144|110:95,1,80,2|0,0:0|0:0,0:0:0:0:
159,46,118895,1,0,0:0:0:0:
238,167,119167,6,0,P|229:128|227:89,2,80,2|0|0,0:0|0:0|0:0,0:0:0:0:
0,37,119986,6,0,P|25:27|82:16,1,80,2|2,0:0|0:0,0:0:0:0:
320,166,120531,1,2,0:0:0:0:
253,16,120804,6,0,P|299:28|360:81,1,120,2|0,0:0|0:0,0:0:0:0:
359,83,121349,1,0,0:0:0:0:
114,284,121622,5,2,0:0:0:0:
114,284,121758,1,2,0:0:0:0:
114,284,121895,1,2,0:0:0:0:
114,284,122031,1,2,0:0:0:0:
114,284,122167,1,2,0:0:0:0:
114,284,122304,1,2,0:0:0:0:
114,284,122440,1,2,0:0:0:0:
256,193,122713,5,2,3:0:0:0:
398,329,123258,5,2,0:0:0:0:
398,329,123394,1,2,0:0:0:0:
398,329,123531,1,2,0:0:0:0:
398,329,123667,1,2,0:0:0:0:
398,329,123803,1,2,0:0:0:0:
398,329,123940,1,2,0:0:0:0:
398,329,124076,1,2,0:0:0:0:
256,193,124349,5,0,0:0:0:0:
219,384,124622,1,0,0:0:0:0:
256,193,124895,6,0,P|262:162|267:107,1,63.9999980468751,2|0,0:0|0:0,0:0:0:0:
343,153,125167,2,0,P|334:187|331:236,1,63.9999980468751
272,270,125440,1,2,0:0:0:0:
160,132,125713,6,0,P|154:101|149:46,1,63.9999980468751,2|0,0:0|0:0,0:0:0:0:
73,92,125985,2,0,P|81:126|85:175,1,63.9999980468751
144,209,126258,1,2,0:0:0:0:
278,52,126531,6,0,P|315:42|351:26,1,63.9999980468751,2|0,0:0|0:0,0:0:0:0:
412,62,126804,1,0,0:0:0:0:
278,52,127076,6,0,P|249:39|209:27,1,63.9999980468751
149,55,127349,1,0,0:0:0:0:
277,233,127622,1,0,0:0:0:0:
412,62,127895,1,0,0:0:0:0:
277,233,128167,6,0,P|282:184|292:136,1,95.9999970703126,2|0,0:0|0:0,0:0:0:0:
208,280,128713,1,0,0:0:0:0:
168,121,128986,6,0,P|163:170|153:218,1,95.9999970703126,2|0,0:0|0:0,0:0:0:0:
237,74,129532,1,0,0:0:0:0:
38,333,129804,6,0,P|81:311|129:296,1,95.9999970703126,2|0,0:0|0:0,0:0:0:0:
291,138,130349,1,0,0:0:0:0:
370,358,130622,6,0,P|338:349|273:299,1,95.9999970703126,2|10,0:0|0:0,0:0:0:0:
168,121,131167,1,10,0:0:0:0:
364,263,131440,6,0,P|424:251|419:134,1,192,6|0,0:0|0:0,0:0:0:0:
277,250,131986,2,0,P|279:282|295:329,1,64,8|0,0:0|0:0,0:0:0:0:
161,125,132258,2,0,P|140:182|123:258,2,128,2|10|2,3:0|0:0|3:0,0:0:0:0:
161,125,133076,6,0,P|224:146|292:159,1,128,2|0,3:0|0:0,0:0:0:0:
124,247,133622,1,8,0:0:0:0:
204,25,133895,6,0,P|147:43|60:57,1,128,0|10,3:0|0:0,0:0:0:0:
285,155,134440,1,2,3:0:0:0:
60,322,134713,5,2,3:0:0:0:
60,322,135531,5,10,0:1:0:0:
121,273,135804,5,2,0:0:0:0:
239,342,136076,5,2,0:0:0:0:
234,354,136349,5,2,3:0:0:0:
234,354,137031,5,0,0:0:0:0:
298,275,137167,2,0,P|286:187|267:76,1,192,8|0,0:0|0:0,0:0:0:0:
451,195,137713,2,0,P|417:199|374:210,1,64,8|0,0:0|0:0,0:0:0:0:
229,0,137986,6,0,P|284:-1|356:102,1,176.000005371094,6|8,1:0|0:0,0:0:0:0:
166,233,138440,1,0,3:0:0:0:
238,198,138531,2,0,P|248:171|270:74,1,117.333336914063,8|0,0:0|3:0,0:0:0:0:
451,195,138804,2,0,P|396:204|335:229,1,117.333336914063,2|0,1:0|0:0,0:0:0:0:
334,236,139076,1,8,0:0:0:0:
96,142,139258,5,0,3:0:0:0:
89,132,139349,2,0,P|55:122|26:106,1,58.6666684570313,8|0,0:0|0:0,0:0:0:0:
102,283,139531,1,0,3:0:0:0:
115,293,139622,2,0,P|192:278|232:160,1,176.000005371094,2|8,1:0|0:0,0:0:0:0:
432,44,140076,1,0,3:0:0:0:
365,0,140167,2,0,P|351:55|345:120,1,117.333336914063,8|0,0:0|3:0,0:0:0:0:
512,292,140440,2,0,B|527:240|472:206|483:229|422:196|430:125,1,176.000005371094,2|8,1:0|0:0,0:0:0:0:
296,339,140895,5,0,3:0:0:0:
432,290,140986,2,0,P|377:307|316:321,1,117.333336914063,8|8,0:0|0:1,0:0:0:0:
82,139,141258,6,0,P|162:141|242:206,1,176.000005371094,2|8,1:0|0:0,0:0:0:0:
59,380,141713,1,0,3:0:0:0:
71,372,141804,2,0,P|79:346|85:289,1,58.6666684570313,10|0,0:0|0:0,0:0:0:0:
236,197,141986,1,0,3:0:0:0:
159,180,142076,2,0,P|168:238|188:308,1,117.333336914063,2|0,1:0|0:0,0:0:0:0:
250,337,142349,2,0,P|258:311|264:263,1,58.6666684570313,10|0,0:0|0:0,0:0:0:0:
82,139,142531,1,0,3:0:0:0:
72,129,142622,2,0,P|66:101|61:66,1,58.6666684570313,10|0,0:0|0:0,0:0:0:0:
233,0,142804,1,0,3:0:0:0:
273,69,142895,6,0,P|203:76|127:0,1,176.000005371094,2|8,1:0|0:0,0:0:0:0:
343,174,143349,1,0,3:0:0:0:
395,112,143440,2,0,P|457:94|509:64,1,117.333336914063,8|0,0:0|3:0,0:0:0:0:
343,174,143713,2,0,P|330:211|321:254,1,58.6666684570313,0|0,1:0|0:0,0:0:0:0:
453,358,143895,1,0,3:0:0:0:
442,351,143986,2,0,P|426:299|416:220,1,117.333336914063,8|0,0:0|3:0,0:0:0:0:
229,305,144258,2,0,P|288:321|349:362,1,117.333336914063,8|0,0:0|3:0,0:0:0:0:
199,193,144531,6,0,P|130:194|78:296,1,176.000005371094,6|8,1:0|0:0,0:0:0:0:
268,126,144986,1,0,3:0:0:0:
219,57,145076,2,0,P|170:32|105:11,1,117.333336914063,10|0,0:0|0:0,0:0:0:0:
268,126,145349,2,0,P|279:186|301:253,1,117.333336914063,2|0,1:0|0:0,0:0:0:0:
309,247,145622,1,8,0:0:0:0:
135,340,145804,1,0,3:0:0:0:
147,332,145895,2,0,P|153:308|161:261,1,58.6666684570313,10|0,0:0|0:0,0:0:0:0:
0,130,146076,1,0,3:0:0:0:
7,145,146167,6,0,P|64:166|142:182,1,117.333336914063,2|0,1:0|0:0,0:0:0:0:
128,174,146440,1,8,0:0:0:0:
0,267,146622,1,0,3:0:0:0:
11,276,146713,2,0,P|41:266|80:257,1,58.6666684570313,10|0,0:0|0:0,0:0:0:0:
207,158,146895,1,0,0:0:0:0:
128,174,146986,2,0,P|193:190|294:268,1,176.000005371094,2|8,1:0|0:0,0:0:0:0:
446,376,147440,5,0,3:0:0:0:
435,368,147531,2,0,P|425:307|411:242,1,117.333336914063,8|0,0:0|3:0,0:0:0:0:
432,155,147804,6,0,P|488:162|507:236,1,117.333336914063,2|0,1:0|0:0,0:0:0:0:
251,344,148076,2,0,P|252:278|300:242,1,117.333336914063,10|0,0:0|3:0,0:0:0:0:
494,306,148349,2,8,P|436:316|360:339,1,117.333336914063,10|0,0:0|3:0,0:0:0:0:
188,120,148622,6,0,P|243:139|321:162,1,117.333336914063,2|0,1:0|0:0,0:0:0:0:
442,76,148895,2,0,P|410:27|354:26,1,117.333336914063,10|0,0:0|3:0,0:0:0:0:
408,233,149167,2,0,P|488:216|512:180,1,117.333336914063,10|0,0:0|3:0,0:0:0:0:
365,110,149440,6,0,P|337:194|322:297,1,176.000005371094,2|8,1:0|0:0,0:0:0:0:
115,296,149895,5,0,3:0:0:0:
177,249,149986,2,0,P|194:300|204:369,1,117.333336914063,8|0,0:0|3:0,0:0:0:0:
20,200,150258,6,0,P|54:190|93:164,1,58.6666684570313,0|0,1:0|0:0,0:0:0:0:
211,82,150440,1,0,3:0:0:0:
134,111,150531,2,0,P|187:159|254:172,1,117.333336914063,8|8,0:0|0:0,0:0:0:0:
294,224,150804,2,0,P|370:199|414:143,1,117.333336914063,8|8,0:3|0:0,0:0:0:0:
510,80,151076,6,0,P|490:167|471:273,1,176.000005371094,6|8,1:0|0:0,0:0:0:0:
331,116,151531,1,0,3:0:0:0:
395,174,151622,2,0,P|412:111|422:53,1,117.333336914063,8|0,0:0|3:0,0:0:0:0:
210,230,151895,2,0,P|284:237|343:321,1,176.000005371094,2|8,1:0|0:0,0:0:0:0:
129,133,152349,5,0,3:0:0:0:
123,145,152440,2,0,P|95:155|54:167,1,58.6666684570313,0|0,3:0|0:0,0:0:0:0:
227,36,152622,1,0,3:0:0:0:
144,50,152713,2,0,P|218:74|334:89,1,176.000005371094,2|8,1:0|0:0,0:0:0:0:
415,224,153167,5,0,3:0:0:0:
352,269,153258,2,0,P|335:246|347:196,1,58.6666684570313,8|0,0:0|0:0,0:0:0:0:
415,224,153440,1,0,3:0:0:0:
433,299,153531,2,0,P|375:348|255:336,1,176.000005371094,2|8,1:0|0:0,0:0:0:0:
108,172,153986,5,0,3:0:0:0:
103,252,154076,2,0,P|90:224|88:188,1,58.6666684570313,8|0,0:0|0:0,0:0:0:0:
230,250,154258,1,0,3:0:0:0:
188,318,154349,2,0,P|103:340|16:376,1,176.000005371094,2|8,1:0|0:0,0:0:0:0:
289,172,154804,5,0,3:0:0:0:
299,186,154895,2,0,P|353:200|417:225,1,117.333336914063,10|0,0:0|3:0,0:0:0:0:
222,108,155167,2,0,P|189:54|241:7,1,117.333336914063,2|0,1:0|0:0,0:0:0:0:
292,8,155440,2,0,P|327:48|285:107,1,117.333336914063,10|0,0:0|3:0,0:0:0:0:
154,206,155713,2,0,P|95:220|18:249,1,117.333336914063,10|0,0:0|3:0,0:0:0:0:
299,186,155986,6,0,B|338:233|288:295|296:262|242:312|282:381,1,176.000005371094,2|8,1:0|0:0,0:0:0:0:
180,134,156440,5,0,3:0:0:0:
169,149,156531,2,0,P|162:180|152:210,1,58.6666684570313,8|0,0:0|0:0,0:0:0:0:
366,309,156713,1,0,3:0:0:0:
357,298,156804,2,0,P|291:296|166:363,1,176.000005371094,0|8,1:0|0:0,0:0:0:0:
437,158,157258,5,0,3:0:0:0:
354,208,157349,2,0,P|421:237|480:246,1,117.333336914063,8|0,0:0|3:0,0:0:0:0:
296,28,157622,6,0,P|233:30|209:93,1,117.333336914063,6|0,1:0|0:0,0:0:0:0:
150,126,157895,1,8,0:0:0:0:
354,208,158076,5,0,3:0:0:0:
296,265,158167,2,0,P|256:214|282:156,1,117.333336914063,10|0,0:0|3:0,0:0:0:0:
507,73,158440,2,0,P|482:157|461:257,1,176.000005371094,2|8,1:0|0:0,0:0:0:0:
296,28,158895,1,0,3:0:0:0:
339,89,158986,2,0,P|403:80|430:19,1,117.333336914063,10|0,0:0|3:0,0:0:0:0:
150,126,159258,6,0,P|71:122|23:16,1,176.000005371094,2|8,1:0|0:0,0:0:0:0:
296,265,159713,1,0,3:0:0:0:
229,224,159804,2,0,P|158:250|143:327,1,117.333336914063,10|0,0:0|3:0,0:0:0:0:
369,178,160076,2,0,P|387:272|417:371,1,176.000005371094,2|8,1:0|0:0,0:0:0:0:
231,109,160531,5,0,3:0:0:0:
272,174,160622,2,0,P|282:114|310:36,1,117.333336914063,8|8,0:0|0:3,0:0:0:0:
377,0,160895,5,14,0:1:0:0:
231,109,161031,1,10,0:1:0:0:
201,29,161167,5,10,0:1:0:0:
299,60,161304,1,10,0:1:0:0:
147,140,161440,5,10,0:3:0:0:
291,193,161576,1,10,0:3:0:0:
98,266,161713,5,14,0:3:0:0:
291,193,161986,6,0,P|351:210|412:234,1,117.333336914063,8|0,0:0|0:0,0:0:0:0:
465,285,162258,1,8,0:3:0:0:
510,261,162326,1,8,0:3:0:0:
511,204,162395,1,8,0:3:0:0:
450,158,162463,1,8,0:3:0:0:
440,166,162531,6,0,P|423:232|398:365,1,176.000005371094,14|10,0:3|0:3,0:0:0:0:
205,108,162986,1,0,3:0:0:0:
283,128,163076,2,0,P|271:58|237:1,1,117.333336914063,10|0,0:3|0:0,0:0:0:0:
35,226,163349,6,0,P|120:241|225:278,1,176.000005371094,14|8,0:0|0:0,0:0:0:0:
204,269,163895,5,10,0:3:0:0:
164,280,163963,1,8,0:3:0:0:
130,258,164031,1,8,0:3:0:0:
131,209,164099,1,8,0:3:0:0:
174,174,164167,6,0,P|161:128|145:83,1,95.9999970703126,14|0,0:1|0:0,0:0:0:0:
186,19,164440,1,8,0:3:0:0:
298,143,164622,1,8,0:3:0:0:
338,207,164713,2,0,P|322:252|310:299,1,95.9999970703126,4|0,0:3|0:0,0:0:0:0:
369,354,164986,6,0,P|408:379|453:368,1,95.9999970703126,8|0,0:3|0:0,0:0:0:0:
479,296,165258,1,12,0:3:0:0:
269,162,165440,1,8,0:3:0:0:
228,231,165531,2,0,P|181:244|136:260,1,95.9999970703126,4|8,0:3|0:3,0:0:0:0:
63,213,165804,6,0,B|59:132|104:160|93:75,1,143.999995605469,4|12,0:3|0:3,0:0:0:0:
358,215,166258,1,8,0:3:0:0:
314,281,166349,2,0,P|273:228|283:143,1,143.999995605469,4|4,0:3|0:3,0:0:0:0:
468,94,166804,1,0,0:0:0:0:
457,15,166895,2,0,P|395:48|371:115,1,143.999995605469,4|4,0:3|0:3,0:0:0:0:
185,181,167440,6,0,L|139:195,1,47.9999985351563,12|0,0:3|0:0,0:0:0:0:
228,110,167622,2,0,L|201:17,1,95.9999970703126,8|0,0:3|0:0,0:0:0:0:
304,153,167895,1,8,0:3:0:0:
304,153,167986,2,0,L|277:245,1,95.9999970703126,4|8,0:3|0:3,0:0:0:0:
331,313,168258,2,0,B|409:313|383:265|461:262,1,143.999995605469,4|4,0:3|0:3,0:0:0:0:
257,375,168713,5,8,0:3:0:0:
256,375,168804,2,0,P|209:370|181:333,1,95.9999970703126,4|8,0:3|0:3,0:0:0:0:
22,351,169076,2,0,P|26:304|63:276,1,95.9999970703126,12|8,0:3|0:3,0:0:0:0:
139,268,169349,1,4,0:3:0:0:
309,147,169531,5,8,0:3:0:0:
245,197,169622,2,0,P|178:185|169:118,1,143.999995605469,4|4,0:3|0:3,0:0:0:0:
449,265,170076,1,8,0:3:0:0:
449,265,170167,2,0,P|442:310|402:333,1,95.9999970703126,4|8,0:3|0:3,0:0:0:0:
327,383,170440,2,0,P|353:317|366:246,1,143.999995605469,4|12,0:3|0:3,0:0:0:0:
162,14,171167,5,0,1:0:0:0:
167,23,171258,1,0,1:0:0:0:
222,81,171440,5,0,0:0:0:0:
217,90,171531,1,0,1:0:0:0:
179,170,171804,5,0,3:0:0:0:
227,245,172077,5,0,1:0:0:0:
134,384,172349,6,0,B|136:308|84:333|102:242,1,149.333328776042,0|0,1:0|0:0,0:0:0:0:
40,199,172804,1,0,1:0:0:0:
32,207,172895,1,0,1:0:0:0:
193,258,173076,5,0,0:0:0:0:
186,266,173167,2,0,L|222:256,1,37.3333321940105,0|0,1:0|0:0,0:0:0:0:
340,362,173440,2,0,L|303:352,1,37.3333321940105,8|0,0:3|0:0,0:0:0:0:
180,172,173713,2,0,P|180:136|201:105,1,74.6666643880209,0|0,3:0|0:0,0:0:0:0:
270,140,173986,1,0,3:0:0:0:
111,233,174167,1,0,0:0:0:0:
111,233,174258,1,0,0:0:0:0:
12,161,174440,6,0,P|12:197|32:228,1,74.6666643880209,8|0,0:3|0:0,0:0:0:0:
111,233,174804,1,0,0:0:0:0:
270,140,174986,1,0,0:0:0:0:
270,140,175076,1,8,0:1:0:0:
161,6,175258,5,8,0:3:0:0:
89,31,175349,2,0,P|68:61|68:98,1,74.6666643880209,8|0,0:1|0:0,0:0:0:0:
313,67,175622,2,0,P|312:30|292:0,1,74.6666643880209
292,0,175895,1,0,0:0:0:0:
270,140,176167,5,0,0:0:0:0:
313,67,176349,1,0,0:0:0:0:
313,67,176440,2,0,P|312:30|292:0,1,74.6666643880209,8|0,0:1|0:0,0:0:0:0:
395,108,176713,2,0,P|347:169|360:246,1,160,0|6,3:0|0:0,0:0:0:0:
260,384,193622,6,0,P|332:342|327:259,1,176.000005371094,6|8,1:0|0:0,0:0:0:0:
90,275,194076,1,0,3:0:0:0:
109,351,194167,2,0,P|166:340|206:298,1,117.333336914063,8|0,0:0|3:0,0:0:0:0:
358,146,194440,2,0,P|414:158|455:200,1,117.333336914063,2|0,1:0|0:0,0:0:0:0:
230,143,194713,2,0,P|190:102|194:45,1,117.333336914063,8|0,0:0|3:0,0:0:0:0:
264,7,194986,1,8,0:0:0:0:
77,251,195167,5,0,3:0:0:0:
191,262,195258,2,0,P|130:322|45:321,1,176.000005371094,2|8,1:0|0:0,0:0:0:0:
275,384,195712,1,0,3:0:0:0:
275,384,195804,2,0,P|273:326|310:282,1,117.333336914063,8|0,0:0|3:0,0:0:0:0:
455,212,196076,2,0,P|397:276|371:360,1,176.000005371094,2|8,1:0|0:0,0:0:0:0:
222,91,196531,1,0,3:0:0:0:
269,27,196622,2,0,P|308:69|330:123,1,117.333336914063,8|8,0:0|0:1,0:0:0:0:
104,130,196895,6,0,P|185:161|251:219,1,176.000005371094,2|8,1:0|0:0,0:0:0:0:
462,375,197349,1,0,3:0:0:0:
470,384,197440,2,0,P|477:355|482:326,1,58.6666684570313,10|0,0:0|0:0,0:0:0:0:
364,123,197622,1,0,3:0:0:0:
353,118,197713,2,0,P|364:175|382:231,1,117.333336914063,2|0,1:0|0:0,0:0:0:0:
509,178,197986,2,0,P|481:168|453:157,1,58.6666684570313,10|0,0:0|0:0,0:0:0:0:
385,317,198167,1,0,3:0:0:0:
393,323,198258,2,0,P|365:332|337:343,1,58.6666684570313,10|0,0:0|0:0,0:0:0:0:
197,227,198440,5,0,3:0:0:0:
218,321,198531,2,0,P|216:236|288:194,1,176.000005371094,2|8,1:0|0:0,0:0:0:0:
64,31,198985,1,0,3:0:0:0:
239,35,199076,2,0,P|187:62|131:78,1,117.333336914063,8|0,0:0|3:0,0:0:0:0:
314,101,199349,2,0,P|341:111|366:126,1,58.6666684570313,0|0,1:0|0:0,0:0:0:0:
72,238,199531,1,0,3:0:0:0:
61,248,199622,2,0,P|45:193|76:145,1,117.333336914063,8|0,0:0|3:0,0:0:0:0:
303,189,199895,2,0,P|251:216|195:232,1,117.333336914063,8|0,0:0|3:0,0:0:0:0:
337,384,200167,6,0,P|411:345|409:262,1,176.000005371094,6|8,1:0|0:0,0:0:0:0:
120,287,200622,1,0,3:0:0:0:
31,340,200713,2,0,P|83:366|139:384,1,117.333336914063,10|0,0:0|0:0,0:0:0:0:
277,197,200986,2,0,P|279:140|237:101,1,117.333336914063,2|0,1:0|0:0,0:0:0:0:
181,153,201258,1,8,0:0:0:0:
247,347,201440,1,0,3:0:0:0:
252,354,201531,2,0,P|260:326|264:296,1,58.6666684570313,10|0,0:0|0:0,0:0:0:0:
377,150,201713,5,0,3:0:0:0:
375,162,201804,2,0,P|430:184|487:199,1,117.333336914063,2|0,1:0|0:0,0:0:0:0:
401,258,202076,1,8,0:0:0:0:
320,76,202258,1,0,3:0:0:0:
309,84,202349,2,0,P|248:68|189:41,1,117.333336914063,10|0,0:0|0:0,0:0:0:0:
55,95,202622,2,0,P|140:125|145:216,1,176.000005371094,2|8,1:0|0:0,0:0:0:0:
365,326,203076,1,0,3:0:0:0:
309,384,203167,2,0,P|269:336|283:276,1,117.333336914063,8|0,0:0|3:0,0:0:0:0:
451,127,203440,6,0,P|429:66|417:3,1,117.333336914063,2|0,1:0|0:0,0:0:0:0:
344,74,203713,2,0,P|302:122|254:164,1,117.333336914063,10|0,0:0|3:0,0:0:0:0:
361,198,203986,2,8,P|423:209|484:230,1,117.333336914063,10|0,0:0|3:0,0:0:0:0:
196,252,204258,6,0,P|174:191|162:128,1,117.333336914063,2|0,1:0|0:0,0:0:0:0:
89,202,204531,2,0,P|47:250|0:292,1,117.333336914063,10|0,0:0|3:0,0:0:0:0:
106,316,204804,2,0,P|168:327|229:348,1,117.333336914063,10|0,0:0|3:0,0:0:0:0:
343,286,205076,6,0,P|338:195|253:163,1,176.000005371094,2|8,1:0|0:0,0:0:0:0:
363,38,205531,5,0,3:0:0:0:
432,0,205622,2,0,P|467:50|454:111,1,117.333336914063,8|0,0:0|3:0,0:0:0:0:
241,175,205895,6,0,P|214:158|183:149,1,58.6666684570313,0|0,1:0|0:0,0:0:0:0:
246,72,206076,1,0,3:0:0:0:
131,213,206167,2,0,P|72:233|36:285,1,117.333336914063,8|8,0:0|0:0,0:0:0:0:
288,245,206440,2,0,P|346:226|362:167,1,117.333336914063,8|8,0:3|0:0,0:0:0:0:
152,135,206713,6,0,P|173:228|188:323,1,176.000005371094,6|8,1:0|0:0,0:0:0:0:
400,87,207167,1,0,3:0:0:0:
467,201,207258,2,0,P|504:153|486:94,1,117.333336914063,8|0,0:0|3:0,0:0:0:0:
288,244,207531,2,0,P|378:262|417:346,1,176.000005371094,2|8,1:0|0:0,0:0:0:0:
219,358,207985,5,0,3:0:0:0:
209,366,208076,2,0,P|199:335|193:303,1,58.6666684570313,0|0,3:0|0:0,0:0:0:0:
71,278,208258,1,0,3:0:0:0:
125,384,208349,2,0,P|148:290|159:195,1,176.000005371094,2|10,1:0|0:0,0:0:0:0:
276,29,208804,5,0,3:0:0:0:
286,21,208895,2,0,P|295:51|301:83,1,58.6666684570313,10|0,0:0|0:0,0:0:0:0:
377,28,209076,1,0,3:0:0:0:
365,172,209167,2,0,P|289:113|195:102,1,176.000005371094,2|8,1:0|0:0,0:0:0:0:
201,361,209622,5,0,3:0:0:0:
191,359,209713,2,0,P|187:328|199:299,1,58.6666684570313,8|0,0:0|0:0,0:0:0:0:
323,246,209894,1,0,3:0:0:0:
255,204,209986,2,0,P|160:215|85:273,1,176.000005371094,2|10,1:0|0:0,0:0:0:0:
36,24,210440,5,0,3:0:0:0:
46,14,210531,2,0,P|81:65|73:127,1,117.333336914063,10|0,0:0|3:0,0:0:0:0:
112,384,210804,2,0,P|76:332|84:270,1,117.333336914063,2|0,1:0|0:0,0:0:0:0:
301,231,211076,2,0,P|363:244|423:266,1,117.333336914063,10|0,0:0|3:0,0:0:0:0:
251,162,211349,2,0,P|191:183|129:197,1,117.333336914063,10|0,0:0|3:0,0:0:0:0:
256,300,211622,2,0,P|278:208|328:126,1,176.000005371094,2|8,1:0|0:0,0:0:0:0:
143,13,212076,5,0,3:0:0:0:
215,38,212167,2,0,P|208:68|192:96,1,58.6666684570313,8|0,0:0|0:0,0:0:0:0:
381,201,212349,1,0,3:0:0:0:
381,201,212440,2,0,P|336:115|320:21,1,176.000005371094,0|8,1:0|0:0,0:0:0:0:
365,288,212894,5,0,3:0:0:0:
291,314,212985,2,0,P|232:287|170:272,1,117.333336914063,8|0,0:0|3:0,0:0:0:0:
42,211,213258,6,0,P|54:151|112:130,1,117.333336914063,6|0,1:0|0:0,0:0:0:0:
149,199,213531,1,8,0:0:0:0:
283,54,213713,1,0,3:0:0:0:
341,0,213804,2,0,P|386:41|375:101,1,117.333336914063,10|0,0:0|3:0,0:0:0:0:
288,308,214076,2,0,P|269:222|244:137,1,176.000005371094,2|8,1:0|0:0,0:0:0:0:
487,233,214531,1,0,3:0:0:0:
375,384,214622,2,0,P|387:321|405:259,1,117.333336914063,10|0,0:0|3:0,0:0:0:0:
183,253,214894,6,0,P|101:293|106:384,1,176.000005371094,2|10,1:0|0:0,0:0:0:0:
150,130,215349,1,0,3:0:0:0:
72,137,215440,2,0,P|62:198|101:246,1,117.333336914063,10|0,0:0|3:0,0:0:0:0:
350,171,215713,2,0,P|325:86|309:0,1,176.000005371094,2|8,1:0|0:0,0:0:0:0:
509,237,216167,5,0,3:0:0:0:
363,278,216258,2,0,P|404:324|465:319,1,117.333336914063,8|8,0:0|0:3,0:0:0:0:
438,180,216531,5,14,0:1:0:0:
442,184,216667,1,10,0:1:0:0:
492,106,216803,5,10,0:1:0:0:
496,110,216940,1,10,0:1:0:0:
426,38,217076,5,10,0:3:0:0:
430,42,217212,1,10,0:3:0:0:
369,114,217349,5,14,0:3:0:0:
217,306,217622,6,0,P|156:301|120:250,1,117.333336914063,8|0,0:0|0:0,0:0:0:0:
197,110,217895,1,8,0:3:0:0:
242,86,217986,1,8,0:3:0:0:
243,29,218076,1,8,0:3:0:0:
161,36,218167,6,0,P|182:121|198:207,1,176.000005371094,14|10,0:3|0:3,0:0:0:0:
385,330,218622,1,0,3:0:0:0:
373,320,218713,2,0,P|383:257|402:196,1,117.333336914063,10|0,0:3|0:0,0:0:0:0:
274,295,218985,6,0,P|222:372|130:380,1,176.000005371094,14|8,0:0|0:0,0:0:0:0:
37,259,219349,1,0,0:0:0:0:
41,263,219440,1,0,0:0:0:0:
45,267,219531,2,0,L|63:328,2,58.6666684570313,10|8|8,0:3|0:3|0:3,0:0:0:0:
95,204,219804,1,6,1:0:0:0:
256,192,219895,12,2,224713,1:0:0:0:
