osu file format v14

[General]
AudioFilename: audio.mp3
AudioLeadIn: 0
PreviewTime: 177258
Countdown: 0
SampleSet: Soft
StackLeniency: 0.4
Mode: 0
LetterboxInBreaks: 0
WidescreenStoryboard: 0

[Editor]
DistanceSpacing: 0.5
BeatDivisor: 12
GridSize: 32
TimelineZoom: 4.699996

[Metadata]
Title:Urami no Waltz
TitleUnicode:うらみのワルツ
Artist:KikuoHana
ArtistUnicode:きくおはな
Creator:SMOKELIND
Version:EX
Source:
Tags:Waltz of Malice Hanatan 花たん YURiCa ユリカ 第一幕 1 First Act Daiichi Maku Japanese Rock Jazz iljaaz FuJu frozz -Keqing Keqing Crissa Eula-
BeatmapID:3172579
BeatmapSetID:1552723

[Difficulty]
HPDrainRate:5.7
CircleSize:4
OverallDifficulty:9
ApproachRate:9.6
SliderMultiplier:1.97
SliderTickRate:1

[Events]
//Background and Video events
0,0,"89693204_p0.jpg",0,0
//Break Periods
2,177458,189824
//Storyboard Layer 0 (Background)
//Storyboard Layer 1 (Fail)
//Storyboard Layer 2 (Pass)
//Storyboard Layer 3 (Foreground)
//Storyboard Layer 4 (Overlay)
//Storyboard Sound Samples

[TimingPoints]
1350,272.727272727273,6,2,77,77,1,0
14440,-175.438596491228,4,2,77,47,0,0
17440,-370.37037037037,4,2,77,57,0,0
17667,-370.37037037037,4,2,77,5,0,0
17713,-212.765957446809,4,2,77,57,0,0
17894,-212.765957446809,4,2,77,5,0,0
17986,-212.765957446809,4,2,77,57,0,0
18167,-212.765957446809,4,2,77,5,0,0
18259,-212.765957446809,4,2,77,57,0,0
18440,-212.765957446809,4,2,77,5,0,0
18531,-212.765957446809,4,2,77,57,0,0
19304,-212.765957446809,4,2,77,5,0,0
19350,-175.438596491228,4,2,77,57,0,0
19713,-212.765957446809,4,2,77,5,0,0
19804,-175.438596491228,4,2,77,57,0,0
20076,-175.438596491228,4,2,77,5,0,0
20168,-149.253731343284,4,2,77,57,0,0
20349,-149.253731343284,4,2,77,5,0,0
20440,-129.87012987013,4,2,77,57,0,0
20986,-68.0272108843537,4,2,77,87,0,0
21259,-103.092783505155,4,2,77,87,0,0
21895,-212.765957446809,4,2,77,5,0,0
21986,-103.092783505155,4,2,77,87,0,0
23531,-212.765957446809,4,2,77,5,0,0
23622,-103.092783505155,4,2,77,87,0,0
25213,-103.092783505155,4,2,77,5,0,0
25259,-103.092783505155,4,2,77,87,0,0
27531,-175.438596491229,4,2,77,57,0,0
30804,-93.4579439252339,4,2,77,87,0,0
30986,-212.765957446809,4,2,77,5,0,0
31077,-93.4579439252339,4,2,77,87,0,0
31804,-212.765957446809,4,2,77,5,0,0
31895,-93.4579439252339,4,2,77,87,0,0
32349,-93.4579439252339,4,2,77,5,0,0
32440,-93.4579439252339,4,2,77,87,0,0
33077,-212.765957446809,4,2,77,5,0,0
33168,-93.4579439252339,4,2,77,87,0,0
33531,-114.942528735632,4,2,77,87,0,0
33713,-212.765957446809,4,2,77,5,0,0
33804,-149.253731343283,4,2,77,87,0,0
34077,-212.765957446807,4,2,77,47,0,0
40622,-149.253731343283,4,2,77,57,0,0
40690,-212.765957446809,4,2,77,5,0,0
40759,-149.253731343283,4,2,77,57,0,0
40827,-212.765957446809,4,2,77,5,0,0
40895,-149.253731343283,4,2,77,57,0,0
41031,-149.253731343283,4,2,77,57,0,0
41168,-149.253731343283,4,2,77,57,0,0
42327,-212.765957446809,4,2,77,5,0,0
42395,-149.253731343283,4,2,77,57,0,0
42463,-149.253731343283,4,2,77,5,0,0
42531,-149.253731343283,4,2,77,57,0,0
42600,-212.765957446809,4,2,77,5,0,0
42668,-149.253731343283,4,2,77,57,0,0
42735,-149.253731343283,4,2,77,5,0,0
42804,-149.253731343283,4,2,77,57,0,0
43895,-212.765957446807,4,2,77,47,0,0
45804,-175.438596491227,4,2,77,47,0,0
45985,-175.438596491227,4,2,77,5,0,0
46077,-212.765957446807,4,2,77,47,0,0
46258,-212.765957446807,4,2,77,5,0,0
46350,-270.270270270268,4,2,77,47,0,0
46531,-270.270270270268,4,2,77,5,0,0
46622,-370.370370370366,4,2,77,47,0,0
46803,-370.370370370366,4,2,77,5,0,0
46895,-588.235294117637,4,2,77,47,0,0
47076,-588.235294117637,4,2,77,5,0,0
47168,-212.765957446807,4,2,77,47,0,0
50122,-212.765957446807,4,2,77,5,0,0
50168,-212.765957446807,4,2,77,47,0,0
50395,-212.765957446807,4,2,77,5,0,0
50440,-175.438596491227,4,2,77,57,0,0
54713,-212.765957446809,4,2,77,5,0,0
54804,-175.438596491227,4,2,77,57,0,0
54986,-212.765957446809,4,2,77,5,0,0
55077,-175.438596491227,4,2,77,57,0,0
55259,-212.765957446809,4,2,77,5,0,0
55350,-175.438596491227,4,2,77,57,0,0
56986,-93.4579439252336,4,2,77,87,0,0
57986,-212.765957446809,4,2,77,5,0,0
58077,-93.4579439252336,4,2,77,87,0,0
58486,-93.4579439252336,4,2,77,5,0,0
58531,-93.4579439252336,4,2,77,87,0,0
59667,-93.4579439252336,4,2,77,5,0,0
59713,-93.4579439252336,4,2,77,87,0,0
60077,-212.765957446809,4,2,77,5,0,0
60168,-93.4579439252336,4,2,77,87,0,0
62849,-93.4579439252336,4,2,77,5,0,0
62895,-93.4579439252336,4,2,77,87,0,0
66168,-212.765957446809,4,2,77,5,0,0
66259,-93.4579439252336,4,2,77,87,0,0
69395,-93.4579439252336,4,2,77,5,0,0
69440,-93.4579439252336,4,2,77,87,0,0
69622,-212.765957446809,4,2,77,5,0,0
69713,-93.4579439252336,4,2,77,87,0,0
69804,-175.438596491228,4,2,77,87,0,0
69986,-212.765957446809,4,2,77,5,0,0
70077,-93.4579439252336,4,2,77,87,0,0
70849,-93.4579439252336,4,2,77,5,0,0
70895,-93.4579439252336,4,2,77,87,0,0
71259,-212.765957446809,4,2,77,5,0,0
71350,-93.4579439252336,4,2,77,87,0,0
72758,-93.4579439252336,4,2,77,5,0,0
72804,-93.4579439252336,4,2,77,87,0,0
77667,-93.4579439252336,4,2,77,5,0,0
77713,-93.4579439252336,4,2,77,87,0,0
78622,-212.765957446809,4,2,77,5,0,0
78713,-93.4579439252336,4,2,77,87,0,0
79440,-212.765957446809,4,2,77,5,0,0
79531,-93.4579439252336,4,2,77,87,0,0
79622,-175.438596491228,4,2,77,87,0,0
79895,-93.4579439252336,4,2,77,87,0,0
79963,-212.765957446809,4,2,77,5,0,0
80031,-93.4579439252336,4,2,77,87,0,0
80100,-212.765957446809,4,2,77,5,0,0
80168,-93.4579439252336,4,2,77,87,0,0
80236,-212.765957446809,4,2,77,5,0,0
80304,-93.4579439252336,4,2,77,87,0,0
80372,-212.765957446809,4,2,77,5,0,0
80440,-93.4579439252336,4,2,77,87,0,0
81713,-212.765957446809,4,2,77,5,0,0
81804,-93.4579439252336,4,2,77,87,0,0
81985,-93.4579439252336,4,2,77,5,0,0
82077,-93.4579439252336,4,2,77,87,0,0
82259,-212.765957446809,4,2,77,5,0,0
82350,-93.4579439252336,4,2,77,87,0,0
83168,-149.253731343284,4,2,77,87,0,0
83350,-175.438596491228,4,2,77,57,0,0
86349,-175.438596491228,4,2,77,5,0,0
86440,-212.765957446809,4,2,77,57,0,0
91350,-175.438596491228,4,2,77,57,0,0
93167,-175.438596491228,4,2,77,5,0,0
93440,-175.438596491228,4,2,77,57,0,0
96259,-212.765957446809,4,2,77,47,0,0
101986,272.727272727273,6,2,77,47,1,0
101986,-270.270270270271,4,2,77,47,0,0
108531,-212.765957446809,4,2,77,57,0,0
111804,-212.765957446809,4,2,77,47,0,0
120167,-212.765957446809,4,2,77,5,0,0
120258,-212.765957446809,4,2,77,47,0,0
120439,-212.765957446809,4,2,77,5,0,0
120531,-212.765957446809,4,2,77,47,0,0
120712,-212.765957446809,4,2,77,5,0,0
120804,-212.765957446809,4,2,77,47,0,0
122713,-588.23529411765,4,2,77,47,0,0
123190,-212.765957446809,4,2,77,5,0,0
123258,-588.23529411765,4,2,77,47,0,0
124895,-212.765957446809,4,2,77,47,0,0
126804,-588.235294117637,4,2,77,47,0,0
126985,-588.235294117637,4,2,77,5,0,0
127076,-370.370370370366,4,2,77,47,0,0
127257,-370.370370370366,4,2,77,5,0,0
127349,-270.270270270268,4,2,77,47,0,0
127530,-270.270270270268,4,2,77,5,0,0
127622,-212.765957446807,4,2,77,47,0,0
127803,-212.765957446807,4,2,77,5,0,0
127895,-175.438596491227,4,2,77,47,0,0
128076,-212.765957446809,4,2,77,5,0,0
128167,-212.765957446807,4,2,77,47,0,0
131122,-212.765957446807,4,2,77,5,0,0
131167,-212.765957446807,4,2,77,47,0,0
131372,-212.765957446809,4,2,77,5,0,0
131440,-175.438596491227,4,2,77,57,0,0
135758,-175.438596491227,4,2,77,5,0,0
135804,-175.438596491227,4,2,77,57,0,0
136031,-175.438596491227,4,2,77,5,0,0
136076,-175.438596491227,4,2,77,57,0,0
136257,-175.438596491227,4,2,77,5,0,0
136349,-175.438596491227,4,2,77,57,0,0
137986,-93.4579439252336,4,2,77,87,0,0
139031,-93.4579439252336,4,2,77,5,0,0
139077,-93.4579439252336,4,2,77,87,0,0
139485,-93.4579439252336,4,2,77,5,0,0
139531,-93.4579439252336,4,2,77,87,0,0
140667,-93.4579439252336,4,2,77,5,0,0
140713,-93.4579439252336,4,2,77,87,0,0
141122,-212.765957446809,4,2,77,5,0,0
141167,-93.4579439252336,4,2,77,87,0,0
150394,-93.4579439252336,4,2,77,5,0,0
150440,-93.4579439252336,4,2,77,87,0,0
150667,-93.4579439252336,4,2,77,5,0,0
150713,-93.4579439252336,4,2,77,87,0,0
151804,-212.765957446809,4,2,77,5,0,0
151895,-93.4579439252336,4,2,77,87,0,0
153394,-93.4579439252336,4,2,77,5,0,0
153440,-93.4579439252336,4,2,77,87,0,0
153758,-93.4579439252336,4,2,77,5,0,0
153804,-93.4579439252336,4,2,77,87,0,0
158622,-93.4579439252336,4,2,77,5,0,0
158713,-93.4579439252336,4,2,77,87,0,0
160440,-212.765957446809,4,2,77,5,0,0
160531,-93.4579439252336,4,2,77,87,0,0
160622,-175.438596491228,4,2,77,87,0,0
160895,-93.4579439252336,4,2,77,87,0,0
160963,-93.4579439252336,4,2,77,5,0,0
161031,-93.4579439252336,4,2,77,87,0,0
161099,-93.4579439252336,4,2,77,5,0,0
161167,-93.4579439252336,4,2,77,87,0,0
161236,-93.4579439252336,4,2,77,5,0,0
161304,-93.4579439252336,4,2,77,87,0,0
161371,-93.4579439252336,4,2,77,5,0,0
161440,-93.4579439252336,4,2,77,87,0,0
162712,-93.4579439252336,4,2,77,5,0,0
162804,-93.4579439252336,4,2,77,87,0,0
162986,-93.4579439252336,4,2,77,5,0,0
163076,-93.4579439252336,4,2,77,87,0,0
163258,-93.4579439252336,4,2,77,5,0,0
163349,-93.4579439252336,4,2,77,87,0,0
164167,-149.253731343284,4,2,77,87,0,0
164349,-175.438596491228,4,2,77,57,0,0
170667,-175.438596491228,4,2,77,5,0,0
170713,-175.438596491228,4,2,77,57,0,0
175622,-175.438596491228,4,2,77,57,0,0
175645,-175.438596491228,4,2,77,27,0,0
175804,-175.438596491228,4,2,77,57,0,0
175827,-175.438596491228,4,2,77,27,0,0
176167,-175.438596491228,4,2,77,57,0,0
177258,-212.765957446809,4,2,77,27,0,0
177531,-212.765957446809,4,2,77,27,0,0
191349,-212.765957446809,4,2,77,5,0,0
191440,-212.765957446809,4,2,77,57,0,0
191667,-212.765957446809,4,2,77,5,0,0
191713,-212.765957446809,4,2,77,57,0,0
191940,-212.765957446809,4,2,77,5,0,0
191986,-212.765957446809,4,2,77,57,0,0
192440,-212.765957446809,4,2,77,5,0,0
192531,-212.765957446809,4,2,77,57,0,0
192758,-212.765957446809,4,2,77,5,0,0
192804,-114.942528735632,4,2,77,57,0,0
193622,-93.4579439252336,4,2,77,87,0,0
194667,-93.4579439252336,4,2,77,5,0,0
194713,-93.4579439252336,4,2,77,87,0,0
195122,-93.4579439252336,4,2,77,5,0,0
195167,-93.4579439252336,4,2,77,87,0,0
196303,-93.4579439252336,4,2,77,5,0,0
196349,-93.4579439252336,4,2,77,87,0,0
196713,-93.4579439252336,4,2,77,5,0,0
196804,-93.4579439252336,4,2,77,87,0,0
199440,-93.4579439252336,4,2,77,5,0,0
199531,-93.4579439252336,4,2,77,87,0,0
199804,-93.4579439252336,4,2,77,5,0,0
199895,-93.4579439252336,4,2,77,87,0,0
205986,-93.4579439252336,4,2,77,5,0,0
206076,-93.4579439252336,4,2,77,87,0,0
206258,-93.4579439252336,4,2,77,5,0,0
206349,-93.4579439252336,4,2,77,87,0,0
206440,-175.438596491228,4,2,77,87,0,0
206667,-175.438596491228,4,2,77,5,0,0
206713,-93.4579439252336,4,2,77,87,0,0
207940,-93.4579439252336,4,2,77,5,0,0
207986,-93.4579439252336,4,2,77,87,0,0
216531,-93.4579439252336,4,2,77,87,0,0
216599,-93.4579439252336,4,2,77,5,0,0
216667,-93.4579439252336,4,2,77,87,0,0
216735,-93.4579439252336,4,2,77,5,0,0
216804,-93.4579439252336,4,2,77,87,0,0
216872,-93.4579439252336,4,2,77,5,0,0
216940,-93.4579439252336,4,2,77,87,0,0
217008,-93.4579439252336,4,2,77,5,0,0
217076,-93.4579439252336,4,2,77,87,0,0
218349,-93.4579439252336,4,2,77,5,0,0
218440,-93.4579439252336,4,2,77,87,0,0
218621,-93.4579439252336,4,2,77,5,0,0
218713,-93.4579439252336,4,2,77,87,0,0
218894,-93.4579439252336,4,2,77,5,0,0
218986,-93.4579439252336,4,2,77,87,0,0
223303,-93.4579439252336,4,2,77,5,0,0
223349,-93.4579439252336,4,2,77,87,0,0
225440,-93.4579439252336,4,2,77,5,0,0
225531,-93.4579439252336,4,2,77,87,0,0
227303,-93.4579439252336,4,2,77,5,0,0
227350,-93.4579439252336,4,2,77,87,0,0
228213,-93.4579439252336,4,2,77,5,0,0
228258,-93.4579439252336,4,2,77,87,0,0
229690,-93.4579439252336,4,2,77,5,0,0
229758,-93.4579439252336,4,2,77,87,0,0
229895,-93.4579439252336,4,2,77,87,0,0
229963,-93.4579439252336,4,2,77,5,0,0
230031,-93.4579439252336,4,2,77,87,0,0
230099,-93.4579439252336,4,2,77,5,0,0
230167,-93.4579439252336,4,2,77,87,0,0
232895,-129.87012987013,4,2,77,47,0,0
236167,-78.7401574803149,4,2,77,87,0,0
238622,-588.235294117647,4,2,77,27,0,0
238713,-588.235294117647,4,2,77,5,0,0

[Colours]
Combo1 : 255,248,191
Combo2 : 249,206,198

[HitObjects]
46,104,14440,5,2,0:0:0:0:
213,43,14577,1,2,0:0:0:0:
137,39,14713,5,2,0:0:0:0:
304,100,14850,1,2,0:0:0:0:
365,53,14986,5,2,0:0:0:0:
481,204,15259,5,2,0:0:0:0:
433,349,15395,1,2,0:0:0:0:
402,214,15531,5,2,0:0:0:0:
374,301,15667,1,2,0:0:0:0:
319,236,15804,5,2,0:0:0:0:
28,340,16077,6,0,P|39:284|52:212,3,112.289998629272,2|2|2|2,0:0|0:0|0:0|0:0,0:0:0:0:
164,358,17440,6,0,P|186:351|214:346,1,44.3250010821533,8|0,0:1|0:0,0:0:0:0:
282,368,17713,6,0,P|292:340|296:299,1,61.7266657247925,10|0,0:1|0:0,0:0:0:0:
382,291,17986,2,0,P|369:263|344:231,1,61.7266657247925,10|0,0:1|0:0,0:0:0:0:
400,164,18259,2,0,P|372:153|331:147,1,61.7266657247925,10|0,0:1|0:0,0:0:0:0:
281,201,18531,1,10,0:1:0:0:
23,48,18804,6,0,P|24:71|29:112,1,61.7266657247925,10|0,0:1|0:0,0:0:0:0:
137,104,19077,2,0,P|130:144|127:184,1,77.1583321559906,10|0,0:1|0:0,0:0:0:0:
134,190,19350,5,10,0:1:0:0:
315,38,19531,2,0,P|357:54|418:71,1,93.5749988577271,8|0,0:1|0:0,0:0:0:0:
412,60,19804,5,0,0:0:0:0:
260,251,19895,2,0,P|257:206|253:160,1,74.8599990861816,0|0,1:0|0:0,0:0:0:0:
380,338,20168,6,0,P|423:346|451:303,1,87.9933291710512,8|0,0:1|0:0,0:0:0:0:
397,259,20440,6,0,L|403:203,1,50.5633323303375
402,208,20622,1,8,0:0:0:0:
313,289,20713,6,0,L|307:233,1,50.5633323303375,8|0,0:0|0:0,0:0:0:0:
307,238,20895,1,8,0:0:0:0:
175,346,20986,6,0,B|125:351|110:305|110:305|24:338|-5:236|77:178|118:230,1,289.589986522683,6|8,1:0|0:0,0:0:0:0:
315,95,21440,1,8,0:0:0:0:
260,42,21531,2,0,P|198:27|123:9,1,127.393336346329,2|0,1:0|0:0,0:0:0:0:
14,136,21804,2,0,P|47:103|109:126,1,95.5450022597466,2|0,1:0|0:0,0:0:0:0:
95,121,21986,5,8,0:3:0:0:
263,268,22077,2,0,P|266:236|271:196,1,63.6966681731644,8|0,0:0|0:0,0:0:0:0:
213,147,22259,5,0,1:0:0:0:
354,264,22350,2,0,P|384:256|416:249,1,63.6966681731644,10|0,0:0|0:0,0:0:0:0:
347,182,22531,5,2,0:0:0:0:
185,318,22622,2,0,P|128:277|58:310,2,127.393336346329,2|0|0,1:0|0:0|0:0,0:0:0:0:
185,318,23077,5,10,0:0:0:0:
18,160,23168,2,0,B|1:127|34:94|34:94|18:127|34:160,1,127.393336346329,10|0,0:0|0:0,0:0:0:0:
168,66,23440,2,0,P|157:112|95:131,1,95.5450022597466,0|0,1:0|0:0,0:0:0:0:
104,126,23622,5,8,0:3:0:0:
199,269,23713,2,0,P|211:238|254:220,1,63.6966681731644,8|0,0:0|0:0,0:0:0:0:
355,259,23895,5,10,0:0:0:0:
350,234,23986,1,10,0:0:0:0:
512,41,24168,5,10,0:1:0:0:
452,90,24259,2,0,B|356:58|388:186|292:154,1,191.090004519493,2|8,1:0|0:0,0:0:0:0:
83,332,24713,5,8,0:0:0:0:
126,272,24804,2,0,L|203:254,1,63.6966681731644,10|0,0:0|0:0,0:0:0:0:
241,314,24986,5,2,0:0:0:0:
17,172,25077,2,0,P|53:197|41:264,1,95.5450022597466,2|0,1:0|0:0,0:0:0:0:
47,256,25259,5,8,0:3:0:0:
191,83,25350,2,0,P|229:90|281:100,1,63.6966681731644,8|0,0:0|0:0,0:0:0:0:
317,46,25531,5,8,0:0:0:0:
123,151,25622,2,0,P|148:105|101:31,1,127.393336346329,8|0,0:0|0:0,0:0:0:0:
119,40,25895,5,2,1:0:0:0:
233,254,26077,2,0,P|269:175|365:182,1,191.090004519493
387,350,26440,2,0,P|338:317|356:251,1,127.393336346329,10|0,0:0|0:0,0:0:0:0:
475,146,26713,2,0,P|476:205|411:228,1,127.393336346329,2|0,1:0|0:0,0:0:0:0:
361,179,26986,5,0,1:0:0:0:
366,154,27077,1,0,3:0:0:0:
292,92,27168,5,8,0:0:0:0:
287,67,27259,2,0,L|217:55,2,63.6966681731644,8|8|8,0:0|0:0|0:3,0:0:0:0:
287,67,27531,5,4,1:0:0:0:
64,320,27804,5,8,0:3:0:0:
64,320,28077,1,4,0:3:0:0:
257,234,28350,5,0,3:0:0:0:
448,320,28622,5,8,0:3:0:0:
448,320,28895,1,4,0:3:0:0:
257,234,29168,5,0,3:0:0:0:
448,64,29440,5,8,0:3:0:0:
448,64,29713,1,4,0:3:0:0:
446,78,29804,1,0,0:0:0:0:
444,92,29895,1,0,0:0:0:0:
442,106,29986,1,0,3:0:0:0:
301,92,30259,6,0,P|275:84|247:80,1,56.1449993146362,0|8,0:0|0:3,0:0:0:0:
246,79,30531,5,8,0:3:0:0:
171,122,30622,1,8,0:3:0:0:
177,32,30713,5,4,0:3:0:0:
249,183,30804,2,0,L|228:360,1,175.658327972667,6|0,1:0|0:0,0:0:0:0:
240,369,31077,5,8,0:3:0:0:
76,154,31259,2,0,B|16:130|-19:219|57:284|153:219,1,210.7899935672,10|8,0:0|0:3,0:0:0:0:
406,91,31622,6,0,B|361:93|338:142|338:142|342:88|303:65,1,175.658327972667,2|0,1:0|0:0,0:0:0:0:
294,73,31895,5,8,0:3:0:0:
388,380,32077,2,0,P|391:328|421:160,1,210.7899935672,10|0,0:0|0:0,0:0:0:0:
189,37,32440,6,0,B|153:143|295:108|260:214,1,210.7899935672,2|8,1:0|0:3,0:0:0:0:
46,349,32895,1,8,0:0:0:0:
26,277,32986,2,0,P|77:256|136:295,1,105.3949967836,2|0,0:0|0:0,0:0:0:0:
122,289,33168,1,8,0:3:0:0:
40,131,33259,5,10,0:1:0:0:
354,264,33440,5,8,0:1:0:0:
348,286,33531,2,0,L|336:142,1,142.825001198635
328,135,33804,2,0,L|338:272,1,131.989993756577,8|2,0:0|0:0,0:0:0:0:
451,59,34895,5,2,0:0:0:0:
451,59,35440,5,2,0:0:0:0:
385,104,35713,1,2,0:0:0:0:
308,82,35986,1,2,0:0:0:0:
238,120,36259,1,2,0:0:0:0:
242,41,36531,1,2,0:0:0:0:
47,302,37350,5,2,0:0:0:0:
47,302,38168,5,2,0:0:0:0:
47,302,38713,5,2,0:0:0:0:
111,347,38986,1,2,0:0:0:0:
432,281,39531,5,2,0:0:0:0:
368,326,39804,1,2,0:0:0:0:
105,108,40622,6,0,L|56:102,1,32.9974984391442,2|0,0:0|0:0,0:0:0:0:
209,121,40759,2,0,L|241:125,1,32.9974984391442,2|0,0:0|0:0,0:0:0:0:
74,181,40895,6,0,L|25:175,1,32.9974984391442,2|0,0:0|0:0,0:0:0:0:
226,199,41032,2,0,L|258:203,1,32.9974984391442,2|0,0:0|0:0,0:0:0:0:
140,255,41168,5,2,0:0:0:0:
158,54,41304,1,2,0:0:0:0:
141,242,41440,1,2,0:0:0:0:
444,237,41713,5,0,0:0:0:0:
443,242,41781,1,0,0:0:0:0:
442,248,41850,1,0,0:0:0:0:
441,254,41918,1,0,0:0:0:0:
439,260,41986,5,0,0:0:0:0:
415,236,42054,1,0,0:0:0:0:
384,227,42122,1,0,0:0:0:0:
352,232,42190,1,0,0:0:0:0:
326,252,42259,6,0,L|332:302,1,32.9974984391442,2|0,0:0|0:0,0:0:0:0:
307,112,42395,2,0,L|303:79,1,32.9974984391442,2|0,0:0|0:0,0:0:0:0:
246,246,42531,6,0,L|252:296,1,32.9974984391442,2|0,0:0|0:0,0:0:0:0:
235,151,42668,2,0,L|231:118,1,32.9974984391442,2|0,0:0|0:0,0:0:0:0:
163,206,42804,5,2,0:0:0:0:
366,178,42940,1,2,0:0:0:0:
171,205,43077,1,2,3:0:0:0:
47,255,43895,6,0,P|80:262|237:315,1,185.179997174377,6|2,0:0|0:0,0:0:0:0:
459,189,44713,2,0,P|415:212|351:109,1,185.179997174377,2|2,0:0|0:0,0:0:0:0:
54,5,45531,5,2,0:0:0:0:
54,5,45804,6,0,P|81:14|109:54,1,74.8599990861816
181,23,46077,2,0,P|189:50|174:94,1,61.7266657247925
243,121,46350,2,0,P|225:143|189:154,1,48.593334519694
212,224,46622,2,0,P|183:222|164:210,1,35.4600008657227
113,261,46895,2,0,P|107:250|103:233,1,22.3266668029378
185,314,47168,6,0,B|289:292|243:389|348:368,1,185.179997174377,2|2,0:0|0:0,0:0:0:0:
495,178,47986,2,0,B|498:100|407:65|407:65|372:157|431:206,1,277.769995761566,2|2,0:0|0:0,0:0:0:0:
250,187,49077,5,0,0:0:0:0:
250,187,49350,1,0,0:0:0:0:
250,187,49622,1,2,0:0:0:0:
83,52,49895,6,0,L|1:47,1,77.1583321559906,10|0,0:0|0:0,0:0:0:0:
5,37,50168,2,0,L|82:41,1,77.1583321559906,10|0,0:0|0:0,0:0:0:0:
96,43,50440,5,14,0:0:0:0:
392,350,50986,5,8,0:0:0:0:
392,350,51259,1,0,3:0:0:0:
320,334,51531,6,0,P|296:281|323:230,2,112.289998629272,10|2|2,0:0|3:0|3:0,0:0:0:0:
442,64,52350,5,0,0:0:0:0:
442,64,52622,1,8,0:0:0:0:
442,64,52895,1,0,3:0:0:0:
392,125,53168,6,0,P|337:115|277:106,2,112.289998629272,10|2|2,0:0|3:0|3:0,0:0:0:0:
39,238,54531,6,0,P|76:229|112:256,1,74.8599990861816,10|0,0:1|0:0,0:0:0:0:
132,320,54804,2,0,P|105:291|110:247,1,74.8599990861816,2|0,0:0|0:0,0:0:0:0:
152,192,55077,2,0,P|140:228|99:246,1,74.8599990861816,2|0,0:0|0:0,0:0:0:0:
114,77,55350,6,0,B|147:43|213:43|246:110|246:110|279:176|279:176|285:177|285:177|259:121,1,299.439996344727,2|0,3:0|1:0,0:0:0:0:
338,78,56168,5,10,0:0:0:0:
445,148,56440,5,10,0:0:0:0:
437,281,56713,5,10,0:0:0:0:
437,281,56986,6,0,B|477:291|486:256|486:256|370:228|428:373|312:344,1,281.053324756267,6|0,1:0|0:0,0:0:0:0:
312,344,57440,1,0,3:0:0:0:
175,224,57531,2,0,P|185:151|195:75,1,140.526662378133,8|0,0:0|3:0,0:0:0:0:
0,252,57804,2,0,P|60:268|169:324,1,175.658327972667,2|0,1:0|0:0,0:0:0:0:
170,337,58077,5,8,0:0:0:0:
350,181,58259,1,0,3:0:0:0:
284,144,58350,6,0,P|264:183|282:243,1,105.3949967836,8|0,0:0|0:0,0:0:0:0:
298,245,58531,1,0,3:0:0:0:
509,97,58622,6,0,B|462:118|451:165|451:165|441:53|339:29,1,281.053324756267,2|0,1:0|0:0,0:0:0:0:
341,29,59077,1,0,3:0:0:0:
89,110,59168,2,0,P|152:120|168:195,1,140.526662378133,8|0,0:0|3:0,0:0:0:0:
18,319,59440,2,0,B|-32:306|-13:230|68:224|99:312,1,175.658327972667,2|0,1:0|0:0,0:0:0:0:
95,306,59713,5,8,0:0:0:0:
346,344,59895,1,0,3:0:0:0:
290,295,59986,6,0,P|279:240|271:178,1,105.3949967836,8|0,0:0|0:0,0:0:0:0:
280,181,60168,1,8,0:1:0:0:
473,8,60259,6,0,B|501:36|501:94|443:119|443:119|443:123|443:123|386:152|386:210|414:239,1,281.053324756267,2|0,1:0|0:0,0:0:0:0:
413,236,60713,1,0,3:0:0:0:
283,61,60804,6,0,B|246:36|202:70|202:70|243:56|280:80,1,140.526662378133,10|0,0:0|3:0,0:0:0:0:
201,279,61077,2,0,B|240:259|232:203|232:203|224:247|185:267,1,140.526662378133,2|0,1:0|0:0,0:0:0:0:
66,96,61350,2,0,B|63:140|115:161|115:161|81:132|84:88,1,140.526662378133,10|0,0:0|3:0,0:0:0:0:
187,143,61622,5,10,0:0:0:0:
407,315,61804,1,0,3:0:0:0:
449,243,61895,6,0,B|396:248|380:295|380:295|371:225|307:205|307:205|319:245|349:253,1,281.053324756267,2|0,1:0|0:0,0:0:0:0:
347,252,62350,1,0,3:0:0:0:
412,166,62440,2,0,P|428:91|438:22,1,140.526662378133,8|0,0:0|3:0,0:0:0:0:
241,150,62713,2,0,B|209:165|177:134|177:134|209:150|241:134,1,105.3949967836,0|0,1:0|0:0,0:0:0:0:
225,135,62895,5,0,3:0:0:0:
84,57,62986,2,0,P|129:102|107:172,1,140.526662378133,8|0,0:0|3:0,0:0:0:0:
109,169,63259,1,8,0:0:0:0:
282,276,63440,5,0,3:0:0:0:
238,342,63531,2,0,B|131:377|166:235|60:270,1,210.7899935672,6|8,1:0|0:0,0:0:0:0:
317,347,63986,5,0,3:0:0:0:
274,270,64077,2,0,P|279:197|288:120,1,140.526662378133,10|0,0:0|0:0,0:0:0:0:
446,94,64350,2,0,B|509:101|497:197|398:217|346:114,1,210.7899935672,2|8,1:0|0:0,0:0:0:0:
279,45,64804,5,0,3:0:0:0:
217,85,64895,2,0,B|174:79|181:15|249:1|284:71,1,140.526662378133,10|0,0:0|3:0,0:0:0:0:
203,182,65168,6,0,P|166:166|-7:134,1,210.7899935672,2|8,1:0|0:0,0:0:0:0:
175,331,65622,1,0,3:0:0:0:
104,308,65713,2,0,P|79:250|139:192,1,140.526662378133,10|0,0:0|0:0,0:0:0:0:
267,347,65986,2,0,P|330:327|444:313,1,175.658327972667,2|0,1:0|0:0,0:0:0:0:
450,321,66259,5,8,0:0:0:0:
343,88,66440,1,0,3:0:0:0:
291,143,66531,2,0,B|312:168|349:167|349:167|305:184|281:155,1,140.526662378133,8|0,0:0|3:0,0:0:0:0:
416,122,66804,6,0,B|429:151|450:182|450:182|424:203|402:233,1,140.526662378133,2|0,1:0|0:0,0:0:0:0:
283,286,67077,2,0,B|195:275|195:275|188:266|188:266|236:272,1,140.526662378133,10|0,0:0|3:0,0:0:0:0:
65,117,67350,2,8,B|152:127|152:127|159:136|159:136|111:130,1,140.526662378133,10|0,0:0|0:0,0:0:0:0:
45,326,67622,6,0,B|19:248|96:274|70:197,1,140.526662378133,2|0,1:0|0:0,0:0:0:0:
13,19,67895,2,0,P|75:-3|119:49,1,140.526662378133,10|0,0:0|0:0,0:0:0:0:
284,170,68168,2,0,P|232:129|253:64,1,140.526662378133,10|0,0:0|3:0,0:0:0:0:
450,234,68440,6,0,B|420:204|362:204|332:263|332:263|303:321|245:321|215:292,1,281.053324756267,2|0,1:0|0:0,0:0:0:0:
218,294,68895,1,0,3:0:0:0:
415,112,68986,2,0,B|433:75|396:39|396:39|415:75|396:112,1,140.526662378133,8|0,0:0|3:0,0:0:0:0:
218,78,69259,6,0,P|273:71|332:66,1,105.3949967836,0|0,1:0|0:0,0:0:0:0:
331,74,69440,1,0,3:0:0:0:
142,292,69531,2,0,P|89:297|37:303,1,105.3949967836,8|0,0:0|0:0,0:0:0:0:
31,310,69712,1,8,0:0:0:0:
169,149,69804,6,0,P|206:120|214:72,1,93.5749988577271,8|0,0:3|0:0,0:0:0:0:
135,82,70077,6,0,B|87:224|277:176|229:318,1,281.053324756267,6|0,1:0|0:0,0:0:0:0:
230,316,70531,1,0,3:0:0:0:
432,249,70622,2,0,B|481:226|448:152|363:161|346:257,1,175.658327972667,8|0,0:0|0:0,0:0:0:0:
357,244,70895,5,2,1:0:0:0:
498,62,71077,1,0,3:0:0:0:
441,8,71168,6,0,P|386:18|316:28,1,105.3949967836,8|0,0:0|0:0,0:0:0:0:
326,18,71350,1,0,3:0:0:0:
286,111,71440,1,0,3:0:0:0:
102,2,71622,5,2,3:0:0:0:
49,60,71713,2,0,B|77:31|135:31|160:88|160:88|164:88|164:88|193:146|251:146|279:117,1,281.053324756267,2|0,1:0|0:0,0:0:0:0:
279,116,72168,1,0,3:0:0:0:
55,240,72259,2,0,B|37:205|72:170|72:170|55:205|72:240,1,140.526662378133,8|0,0:0|0:0,0:0:0:0:
131,309,72531,2,0,P|173:313|317:343,1,175.658327972667,2|0,1:0|0:0,0:0:0:0:
321,330,72804,5,8,0:0:0:0:
207,135,72986,1,0,3:0:0:0:
163,194,73077,5,8,0:0:0:0:
385,279,73259,1,0,3:0:0:0:
445,231,73350,6,0,P|459:154|473:92,1,140.526662378133,2|0,1:0|0:0,0:0:0:0:
247,79,73622,2,0,P|304:131|350:176,1,140.526662378133,10|0,0:0|0:0,0:0:0:0:
471,0,73895,2,0,P|395:21|333:35,1,140.526662378133,10|0,0:0|3:0,0:0:0:0:
186,240,74168,6,0,B|102:229|102:229|111:210|111:210|124:228|158:232,1,140.526662378133,2|0,1:0|0:0,0:0:0:0:
161,69,74440,2,0,B|193:146|193:146|172:148|172:148|181:128|167:96,1,140.526662378133,10|0,0:0|3:0,0:0:0:0:
11,172,74713,2,0,B|61:104|61:104|73:122|73:122|52:124|31:152,1,140.526662378133,10|0,0:0|3:0,0:0:0:0:
43,137,74986,5,2,1:0:0:0:
218,317,75168,1,0,3:0:0:0:
270,257,75259,6,0,B|383:231|332:357|446:332|446:332|443:329|443:329|407:334|384:306,1,281.053324756267,8|0,0:0|0:0,0:0:0:0:
383,305,75713,1,0,3:0:0:0:
399,146,75804,2,0,B|406:82|502:94|522:193|419:245,1,210.7899935672,0|8,1:0|0:0,0:0:0:0:
158,9,76259,5,0,3:0:0:0:
183,80,76350,2,0,P|233:88|324:110,1,140.526662378133,8|0,0:0|3:0,0:0:0:0:
377,53,76622,6,0,B|235:5|282:194|141:147,1,281.053324756267,6|0,1:0|0:0,0:0:0:0:
142,147,77077,1,0,3:0:0:0:
21,216,77168,2,0,B|44:247|32:299|32:299|46:272|75:262,1,140.526662378133,10|0,0:0|3:0,0:0:0:0:
261,341,77440,2,0,P|219:370|105:344,1,175.658327972667,2|0,1:0|0:0,0:0:0:0:
106,332,77713,1,10,0:0:0:0:
361,168,77895,5,0,3:0:0:0:
288,192,77986,2,0,P|272:257|258:336,1,140.526662378133,10|0,0:0|0:0,0:0:0:0:
35,175,78259,6,0,P|48:105|63:37,1,140.526662378133,2|0,1:0|0:0,0:0:0:0:
198,22,78531,2,0,P|185:75|175:129,1,105.3949967836,8|0,0:0|0:0,0:0:0:0:
180,134,78713,1,0,3:0:0:0:
438,92,78804,2,0,P|392:46|328:71,1,140.526662378133,10|0,0:0|3:0,0:0:0:0:
274,253,79077,2,0,P|320:299|384:274,1,140.526662378133,2|0,1:0|0:0,0:0:0:0:
262,244,79350,2,0,P|205:253|140:264,1,105.3949967836,8|0,0:0|0:0,0:0:0:0:
148,251,79531,5,0,3:0:0:0:
35,102,79622,2,0,P|60:132|54:178,1,74.8599990861816,8|8,0:0|0:3,0:0:0:0:
20,263,79895,6,0,P|52:255|72:234,1,52.6974983918,14|0,0:1|0:0,0:0:0:0:
195,72,80031,2,0,P|184:103|192:131,1,52.6974983918,10|0,0:1|0:0,0:0:0:0:
213,378,80168,6,0,P|222:354|220:328,1,52.6974983918,10|0,0:1|0:0,0:0:0:0:
341,208,80304,2,0,P|362:192|388:188,1,52.6974983918,10|0,0:1|0:0,0:0:0:0:
203,226,80440,5,10,0:3:0:0:
340,50,80577,1,10,0:3:0:0:
483,226,80713,1,14,0:3:0:0:
483,226,80986,5,8,0:0:0:0:
481,215,81054,1,8,0:0:0:0:
480,205,81122,1,8,0:0:0:0:
479,194,81190,1,8,0:0:0:0:
478,184,81258,1,8,0:3:0:0:
423,137,81350,5,8,0:3:0:0:
346,158,81440,5,8,0:3:0:0:
267,128,81531,6,0,B|241:90|277:44|277:44|322:80|307:123,1,140.526662378133,14|0,0:3|0:0,0:0:0:0:
244,302,81804,2,0,B|225:343|168:337|168:337|174:280|218:270,1,140.526662378133,10|0,0:3|0:0,0:0:0:0:
402,218,82077,2,0,B|446:212|472:263|472:263|420:288|388:256,1,140.526662378133,10|0,0:3|0:0,0:0:0:0:
306,218,82350,5,14,0:0:0:0:
306,218,82622,5,8,0:0:0:0:
295,220,82690,1,8,0:0:0:0:
285,221,82758,1,8,0:0:0:0:
274,222,82826,1,8,0:0:0:0:
264,223,82894,1,10,0:3:0:0:
190,191,82986,5,8,0:3:0:0:
117,255,83077,5,8,0:3:0:0:
14,186,83168,6,0,L|39:79,1,87.9933291710512,14|0,0:1|0:0,0:0:0:0:
156,56,83622,5,8,0:3:0:0:
161,81,83713,1,4,0:3:0:0:
323,202,83986,5,8,0:3:0:0:
349,46,84168,1,0,0:0:0:0:
349,46,84440,5,8,0:3:0:0:
344,71,84531,1,4,0:3:0:0:
504,230,84713,5,8,0:3:0:0:
499,204,84804,1,4,0:3:0:0:
385,325,84986,1,0,0:0:0:0:
385,325,85259,5,8,0:3:0:0:
359,320,85350,1,4,0:3:0:0:
147,351,85531,5,0,0:0:0:0:
213,313,85622,2,0,P|223:278|232:239,2,74.8599990861816,8|0|0,0:0|0:0|0:0,0:0:0:0:
213,313,86077,1,8,0:3:0:0:
95,218,86168,2,0,P|131:210|168:200,1,74.8599990861816,4|0,0:3|0:0,0:0:0:0:
32,276,86440,6,0,B|-1:242|-1:174|65:136|65:136|65:140|65:140|133:106|133:39|99:5|99:5|116:55|83:98,1,432.086660073547,12|8,0:3|0:3,0:0:0:0:
83,96,87804,1,4,0:3:0:0:
220,200,88077,6,0,B|162:192|173:106|262:88|309:181|309:181|326:136|374:131,1,308.633328623962,12|0,0:3|0:0,0:0:0:0:
401,280,89077,2,0,B|417:248|385:216|385:216|401:248|385:280,1,123.453331449585,0|4,0:0|0:3,0:0:0:0:
186,355,89622,5,0,0:0:0:0:
178,281,89713,1,12,0:3:0:0:
49,301,89895,5,0,0:0:0:0:
55,269,89986,1,0,0:0:0:0:
164,191,90168,5,0,0:0:0:0:
161,169,90259,1,0,0:0:0:0:
92,78,90531,5,4,0:3:0:0:
251,144,90713,5,0,0:0:0:0:
288,136,90804,1,0,0:0:0:0:
331,34,90986,5,8,0:3:0:0:
353,31,91077,1,4,0:3:0:0:
461,168,91259,5,8,0:3:0:0:
388,144,91350,2,0,P|372:180|378:220,1,74.8599990861816,4|0,0:3|0:0,0:0:0:0:
485,317,91622,2,0,P|463:284|425:268,1,74.8599990861816,0|8,0:0|0:3,0:0:0:0:
282,317,91895,2,0,P|321:315|354:291,1,74.8599990861816,4|8,0:3|0:3,0:0:0:0:
200,174,92168,6,0,P|212:229|176:267,2,112.289998629272,4|0|4,0:3|0:0|0:3,0:0:0:0:
69,60,92895,5,8,0:3:0:0:
4,93,92986,2,0,P|48:102|98:114,1,74.8599990861816,4|0,0:3|0:0,0:0:0:0:
266,189,93440,5,8,0:3:0:0:
331,222,93531,2,0,P|287:231|242:244,1,74.8599990861816,4|8,0:3|0:3,0:0:0:0:
258,238,93804,1,4,0:3:0:0:
452,334,93986,5,0,0:0:0:0:
431,325,94077,2,0,P|418:290|437:250,1,74.8599990861816,0|8,0:0|0:3,0:0:0:0:
430,256,94350,1,4,0:3:0:0:
497,84,94531,5,8,0:3:0:0:
452,148,94622,2,0,P|420:157|382:172,1,74.8599990861816,4|0,0:3|0:0,0:0:0:0:
237,7,95077,5,0,0:0:0:0:
274,74,95168,2,0,L|294:72,5,18.7149997715454
308,71,95440,1,8,0:3:0:0:
155,206,95622,5,0,0:0:0:0:
168,189,95713,2,0,P|170:150|176:105,1,74.8599990861816,0|8,0:0|0:3,0:0:0:0:
174,114,95986,1,4,0:3:0:0:
23,247,96259,5,2,0:0:0:0:
80,292,96531,1,0,0:0:0:0:
96,220,96804,1,0,0:0:0:0:
301,308,97077,5,2,0:0:0:0:
237,269,97350,1,0,0:0:0:0:
163,267,97622,1,0,0:0:0:0:
305,221,97895,5,2,0:0:0:0:
200,113,98168,5,0,0:0:0:0:
200,113,98440,1,0,0:0:0:0:
347,58,98713,5,2,0:0:0:0:
459,182,98986,5,0,0:0:0:0:
459,182,99258,1,0,0:0:0:0:
358,348,99531,5,2,0:0:0:0:
344,275,99804,1,0,0:0:0:0:
335,201,100077,1,0,0:0:0:0:
154,348,100350,5,2,0:0:0:0:
168,275,100623,1,0,0:0:0:0:
177,201,100896,1,0,0:0:0:0:
351,38,101168,5,2,0:0:0:0:
237,125,101440,1,0,0:0:0:0:
133,31,101713,1,0,0:0:0:0:
251,264,101986,6,0,B|290:212|359:225|383:292|383:292|407:360|471:368|507:340|515:276|487:241|423:233|383:292|383:292|287:411|160:395|129:246|129:246|109:145|109:145|83:93|19:85|-17:130|-17:130|7:182|71:190|109:145|109:145|203:43|295:131|295:131|236:74|274:-7|274:-7|224:63|131:31,1,1749.36004270899,2|14,3:0|0:3,0:0:0:0:
254,233,109349,5,6,0:3:0:0:
254,233,110167,5,6,0:3:0:0:
254,233,110440,1,2,3:0:0:0:
254,233,110713,1,2,3:0:0:0:
254,233,110986,1,6,0:3:0:0:
254,233,111804,6,0,P|259:210|270:190,2,46.2949992935944,2|0|0,0:0|0:0|0:0,0:0:0:0:
350,279,112213,2,0,P|338:258|331:236,2,46.2949992935944,2|0|0,0:0|0:0|0:0,0:0:0:0:
455,245,112622,2,0,P|432:238|412:227,2,46.2949992935944,2|0|0,0:0|0:0|0:0,0:0:0:0:
504,150,113031,2,0,P|483:160|461:166,2,46.2949992935944,2|0|0,0:0|0:0|0:0,0:0:0:0:
292,109,113440,5,2,0:0:0:0:
286,86,113576,1,0,0:0:0:0:
275,66,113713,1,0,0:0:0:0:
196,155,113850,5,2,0:0:0:0:
207,134,113986,1,0,0:0:0:0:
214,112,114122,1,0,0:0:0:0:
91,121,114258,5,2,0:0:0:0:
113,114,114395,1,0,0:0:0:0:
133,103,114531,1,0,0:0:0:0:
42,26,114667,5,2,0:0:0:0:
62,36,114804,1,0,0:0:0:0:
84,42,114940,1,0,0:0:0:0:
8,167,115076,6,0,P|33:256|52:372,1,185.179997174377,2|2,0:0|0:0,0:0:0:0:
327,150,115895,6,0,B|280:153|253:200|253:200|251:146|212:121,1,185.179997174377,2|2,0:0|0:0,0:0:0:0:
295,372,116713,6,0,P|352:355|318:242,1,185.179997174377,2|2,0:0|0:0,0:0:0:0:
452,105,117531,6,0,P|420:145|433:193,2,92.5899985871887,2|0|0,0:0|0:0|0:0,0:0:0:0:
344,50,118349,5,2,0:0:0:0:
282,90,118622,1,0,0:0:0:0:
216,55,118895,1,0,0:0:0:0:
154,95,119167,1,2,0:0:0:0:
99,44,119440,1,0,0:0:0:0:
74,114,119713,1,0,0:0:0:0:
109,231,119986,6,0,P|118:201|126:171,1,61.7266657247925,2|0,0:0|0:0,0:0:0:0:
246,300,120258,2,0,P|216:307|186:316,1,61.7266657247925,2|0,0:0|0:0,0:0:0:0:
242,136,120531,2,0,P|264:157|287:177,1,61.7266657247925,2|0,0:0|0:0,0:0:0:0:
200,222,120804,5,2,0:0:0:0:
329,281,120940,6,0,L|347:275,1,15.4316664311981
365,268,121076,1,0,0:0:0:0:
405,186,121213,6,0,L|423:180,1,15.4316664311981
441,173,121349,1,0,0:0:0:0:
135,90,121622,5,2,0:0:0:0:
214,114,121758,1,2,0:0:0:0:
331,17,121895,5,2,0:0:0:0:
252,41,122031,1,2,0:0:0:0:
298,193,122167,5,2,0:0:0:0:
314,95,122304,1,2,0:0:0:0:
298,201,122440,1,2,0:0:0:0:
37,368,122713,6,0,L|34:305,1,58.6075003577118,2|0,3:0|0:0,0:0:0:0:
29,234,123258,5,2,0:0:0:0:
42,231,123395,1,2,0:0:0:0:
121,278,123531,5,2,0:0:0:0:
134,281,123668,1,2,0:0:0:0:
232,229,123804,5,2,0:0:0:0:
230,242,123940,1,2,0:0:0:0:
228,255,124076,1,2,0:0:0:0:
466,59,124349,6,0,L|464:95,1,33.4900002044067
406,237,124895,6,0,B|440:134|337:168|371:65,1,185.179997174377,2|2,0:0|0:0,0:0:0:0:
139,159,125713,2,0,P|230:173|315:208,1,185.179997174377,2|2,0:0|0:0,0:0:0:0:
409,360,126531,5,2,0:0:0:0:
409,360,126804,6,0,P|419:362|430:363,1,22.3266668029378
428,285,127076,2,0,P|441:273|450:258,1,35.4600008657227
387,225,127349,2,0,P|388:200|379:178,1,48.593334519694
315,208,127622,2,0,P|293:186|264:177,1,61.7266657247925
248,254,127895,2,0,P|211:254|181:275,1,74.8599990861816
90,354,128167,6,0,B|122:257|-15:291|19:188,1,200.611663605576,2|2,0:0|0:0,0:0:0:0:
197,87,128986,2,0,B|248:74|229:-3|145:-9|113:80,1,200.611663605576,2|2,0:0|0:0,0:0:0:0:
304,209,129804,5,2,0:0:0:0:
304,209,130622,1,2,0:0:0:0:
473,47,130895,6,0,P|447:79|449:126,1,77.1583321559906,10|0,0:0|0:0,0:0:0:0:
436,108,131167,2,0,P|439:70|464:41,1,77.1583321559906,10|0,0:0|0:0,0:0:0:0:
473,47,131440,5,6,0:0:0:0:
170,43,131986,5,8,0:0:0:0:
170,43,132259,1,2,3:0:0:0:
117,112,132531,6,0,P|63:126|-3:137,2,112.289998629272,10|2|2,0:0|3:0|3:0,0:0:0:0:
250,286,133350,5,0,0:0:0:0:
250,286,133622,1,8,0:0:0:0:
250,286,133895,1,0,3:0:0:0:
179,237,134167,6,0,P|192:177|202:103,2,112.289998629272,10|2|2,0:0|3:0|3:0,0:0:0:0:
416,341,135531,6,0,P|439:302|432:255,1,93.5749988577271,10|0,0:1|0:0,0:0:0:0:
442,258,135804,2,0,P|448:303|425:343,1,93.5749988577271,2|0,0:0|0:0,0:0:0:0:
436,344,136076,2,0,P|459:304|453:261,1,74.8599990861816,2|0,0:0|0:0,0:0:0:0:
285,321,136349,6,0,B|324:338|349:292|349:292|280:263|252:309|252:309|225:355|177:352|155:326,1,299.439996344727,2|0,3:0|1:0,0:0:0:0:
208,214,137168,5,8,0:0:0:0:
142,100,137440,5,8,0:0:0:0:
231,13,137713,5,8,0:0:0:0:
409,134,137986,6,0,B|426:65|495:82|512:159|391:202|305:108,1,281.053324756267,6|0,1:0|0:0,0:0:0:0:
307,110,138440,1,0,3:0:0:0:
412,324,138531,2,0,B|457:329|484:283|484:283|482:313|506:333,1,140.526662378133,8|0,0:0|3:0,0:0:0:0:
410,239,138804,2,0,P|321:265|235:289,1,175.658327972667,2|0,1:0|0:0,0:0:0:0:
228,277,139077,5,8,0:0:0:0:
78,106,139259,1,0,3:0:0:0:
127,44,139349,6,0,P|177:36|230:24,1,105.3949967836,8|0,0:0|0:0,0:0:0:0:
246,17,139531,1,0,3:0:0:0:
134,163,139622,6,0,B|153:147|158:117|158:117|196:232|42:194|81:309,1,281.053324756267,2|0,1:0|0:0,0:0:0:0:
80,307,140077,1,0,3:0:0:0:
14,86,140167,2,0,B|49:68|85:103|85:103|49:86|14:103,1,140.526662378133,8|0,0:0|0:0,0:0:0:0:
162,290,140440,2,0,P|223:291|258:195,1,175.658327972667,2|0,1:0|0:0,0:0:0:0:
239,192,140713,5,8,0:0:0:0:
476,85,140895,1,0,3:0:0:0:
411,52,140986,6,0,P|393:87|424:147,1,105.3949967836,8|0,0:0|0:0,0:0:0:0:
430,145,141168,1,8,0:1:0:0:
347,331,141258,6,0,B|341:404|451:411|496:304|391:223,1,281.053324756267,2|0,1:0|0:0,0:0:0:0:
390,222,141713,1,0,3:0:0:0:
270,341,141804,6,0,P|204:317|126:293,1,140.526662378133,10|0,0:0|0:0,0:0:0:0:
172,91,142076,2,0,P|186:159|207:238,1,140.526662378133,2|0,1:0|0:0,0:0:0:0:
11,301,142349,2,0,P|61:252|117:192,1,140.526662378133,10|0,0:0|3:0,0:0:0:0:
203,227,142622,5,10,0:0:0:0:
100,17,142804,1,0,3:0:0:0:
34,57,142895,6,0,P|115:63|318:97,1,281.053324756267,2|0,1:0|0:0,0:0:0:0:
312,95,143350,1,0,3:0:0:0:
478,13,143440,2,0,P|427:43|460:114,1,140.526662378133,8|0,0:0|3:0,0:0:0:0:
449,109,143713,1,0,1:0:0:0:
381,321,143895,5,0,3:0:0:0:
286,282,143986,2,0,P|335:255|386:308,1,140.526662378133,8|0,0:0|0:0,0:0:0:0:
386,308,144259,5,8,0:0:0:0:
263,199,144349,1,0,3:0:0:0:
311,142,144440,5,0,3:0:0:0:
209,262,144531,2,0,B|180:245|144:237|144:237|163:163|174:84,1,210.7899935672,6|8,1:0|0:0,0:0:0:0:
397,51,144986,5,0,3:0:0:0:
331,26,145076,2,0,P|292:66|332:155,1,140.526662378133,10|0,0:0|0:0,0:0:0:0:
504,246,145349,2,0,B|471:220|414:227|396:288|396:288|392:288|392:288|370:349|313:356|281:331,1,281.053324756267,2|0,1:0|0:0,0:0:0:0:
281,332,145804,5,0,3:0:0:0:
203,192,145895,2,0,B|209:236|260:251|260:251|230:257|217:285,1,140.526662378133,10|0,0:0|0:0,0:0:0:0:
52,238,146167,2,0,B|-2:244|8:327|94:344|139:255,1,210.7899935672,2|8,1:0|0:0,0:0:0:0:
181,44,146622,5,0,3:0:0:0:
124,95,146713,2,0,B|82:104|54:57|54:57|87:85|129:76,1,140.526662378133,10|0,0:0|0:0,0:0:0:0:
253,0,146986,2,0,B|295:-9|323:37|323:37|290:9|248:18,1,140.526662378133,2|0,1:0|0:0,0:0:0:0:
273,16,147258,5,8,0:0:0:0:
362,210,147440,5,0,3:0:0:0:
286,212,147531,2,0,P|246:169|276:92,1,140.526662378133,8|0,0:0|0:0,0:0:0:0:
175,292,147804,6,0,B|97:266|123:343|45:317,1,140.526662378133,2|0,1:0|0:0,0:0:0:0:
9,118,148076,2,0,B|47:130|48:181|48:181|35:143|-4:131,1,140.526662378133,10|0,0:0|0:0,0:0:0:0:
211,384,148349,2,8,B|249:371|250:320|250:320|237:358|198:370,1,140.526662378133,10|0,0:0|3:0,0:0:0:0:
368,189,148622,6,0,B|332:207|332:259|332:259|318:230|294:220,1,140.526662378133,2|0,1:0|0:0,0:0:0:0:
264,33,148895,2,0,P|306:37|320:123,1,140.526662378133,10|0,0:0|0:0,0:0:0:0:
418,267,149167,2,0,P|483:256|491:191,1,140.526662378133,10|0,0:0|3:0,0:0:0:0:
362,353,149440,6,0,B|232:381|178:277|254:198|308:249,1,281.053324756267,2|0,1:0|0:0,0:0:0:0:
308,249,149895,1,0,3:0:0:0:
67,184,149986,2,0,P|56:110|44:39,1,140.526662378133,8|0,0:0|0:0,0:0:0:0:
293,95,150258,6,0,P|255:130|204:118,1,105.3949967836,0|0,1:0|0:0,0:0:0:0:
205,106,150440,1,0,3:0:0:0:
295,247,150531,2,0,P|332:282|383:270,1,105.3949967836,8|0,0:0|0:0,0:0:0:0:
383,258,150713,1,8,0:0:0:0:
366,107,150804,2,0,P|371:144|380:187,1,70.2633311890666,8|0,0:3|3:0,0:0:0:0:
377,176,150986,5,8,0:0:0:0:
386,26,151076,2,0,B|284:-7|318:127|216:93|216:93|234:53|282:65,1,281.053324756267,6|0,1:0|0:0,0:0:0:0:
280,64,151530,1,0,3:0:0:0:
164,169,151622,2,0,B|120:146|114:88|114:88|102:127|63:141,1,175.658327972667,8|0,0:0|0:0,0:0:0:0:
43,69,151894,5,2,1:0:0:0:
178,291,152076,1,0,3:0:0:0:
107,319,152167,6,0,P|66:283|95:210,1,140.526662378133,8|0,0:0|3:0,0:0:0:0:
92,211,152439,1,0,3:0:0:0:
404,235,152621,5,0,3:0:0:0:
341,273,152713,2,0,B|311:243|311:185|370:156|370:156|428:127|428:68|399:39,1,281.053324756267,2|0,1:0|0:0,0:0:0:0:
400,41,153167,1,0,3:0:0:0:
261,29,153258,2,0,P|276:79|337:85,1,105.3949967836,8|0,0:0|0:0,0:0:0:0:
340,86,153440,1,0,3:0:0:0:
419,229,153531,2,0,B|469:240|500:177|500:177|474:212|436:208,1,175.658327972667,2|0,1:0|0:0,0:0:0:0:
438,136,153803,5,8,0:0:0:0:
304,349,153985,1,0,3:0:0:0:
381,318,154076,5,8,0:0:0:0:
184,186,154258,1,0,3:0:0:0:
109,217,154349,6,0,P|213:239|317:262,1,210.7899935672,2|8,1:0|0:0,0:0:0:0:
86,131,154804,1,0,3:0:0:0:
30,184,154895,2,0,P|21:258|9:327,1,140.526662378133,10|0,0:0|0:0,0:0:0:0:
155,81,155167,6,0,B|190:68|219:105|219:105|188:85|152:97,1,140.526662378133,2|0,1:0|0:0,0:0:0:0:
184,311,155440,2,0,B|155:286|173:242|173:242|170:280|199:304,1,140.526662378133,10|0,0:0|0:0,0:0:0:0:
357,183,155713,2,0,B|350:219|303:226|303:226|336:209|343:172,1,140.526662378133,10|0,0:0|0:0,0:0:0:0:
231,186,155985,5,2,1:0:0:0:
504,327,156167,1,0,3:0:0:0:
435,359,156258,6,0,P|405:313|429:227,1,140.526662378133,8|0,0:0|3:0,0:0:0:0:
487,110,156531,2,0,P|465:140|417:135,1,70.2633311890666,8|0,0:0|0:0,0:0:0:0:
284,45,156712,1,0,3:0:0:0:
232,103,156804,6,0,B|126:67|161:208|56:173,1,210.7899935672,0|8,1:0|0:0,0:0:0:0:
241,264,157258,5,0,3:0:0:0:
187,318,157349,2,0,P|201:243|210:175,1,140.526662378133,8|0,0:0|0:0,0:0:0:0:
433,47,157622,6,0,B|429:79|400:102|400:102|349:12|261:34|255:120|312:124,1,281.053324756267,6|0,1:0|0:0,0:0:0:0:
308,124,158076,1,0,3:0:0:0:
454,258,158167,2,0,P|398:252|377:169,1,140.526662378133,10|0,0:0|3:0,0:0:0:0:
249,362,158440,2,0,P|160:341|67:330,1,175.658327972667,2|0,1:0|0:0,0:0:0:0:
66,340,158713,1,8,0:0:0:0:
228,127,158895,5,0,3:0:0:0:
161,161,158986,2,0,B|140:202|181:244|181:244|168:218|181:181,1,140.526662378133,10|0,0:0|3:0,0:0:0:0:
388,176,159258,6,0,P|324:186|252:213,1,140.526662378133,2|0,1:0|0:0,0:0:0:0:
458,29,159531,2,0,P|435:81|490:136,1,140.526662378133,8|0,0:0|0:0,0:0:0:0:
486,135,159804,1,10,0:0:0:0:
395,287,159986,5,0,3:0:0:0:
461,326,160076,2,0,B|474:290|488:261|488:261|460:240|433:216,1,140.526662378133,2|0,1:0|0:0,0:0:0:0:
278,346,160349,2,0,P|322:351|395:377,1,105.3949967836,8|0,0:0|0:0,0:0:0:0:
392,364,160530,5,0,3:0:0:0:
236,269,160622,2,0,P|201:274|158:290,1,74.8599990861816,8|8,0:0|0:3,0:0:0:0:
48,328,160895,6,0,P|57:303|66:277,1,52.6974983918,14|0,0:1|0:0,0:0:0:0:
289,173,161031,2,0,P|298:148|307:122,1,52.6974983918,10|0,0:1|0:0,0:0:0:0:
430,319,161167,6,0,P|420:294|412:268,1,52.6974983918,10|0,0:1|0:0,0:0:0:0:
189,164,161303,2,0,P|179:139|171:113,1,52.6974983918,10|0,0:1|0:0,0:0:0:0:
380,48,161440,5,10,0:3:0:0:
236,269,161576,1,10,0:3:0:0:
115,35,161713,1,14,0:3:0:0:
115,35,161986,5,8,0:0:0:0:
113,46,162054,1,8,0:0:0:0:
112,56,162122,1,8,0:0:0:0:
111,67,162190,1,8,0:0:0:0:
110,77,162258,1,8,0:3:0:0:
60,135,162350,5,8,0:3:0:0:
113,215,162440,5,8,0:3:0:0:
68,297,162531,6,0,P|23:281|70:288,1,140.526662378133,14|0,0:3|0:0,0:0:0:0:
260,333,162804,2,0,P|268:379|251:335,1,140.526662378133,10|0,0:3|3:0,0:0:0:0:
212,149,163076,2,0,P|247:118|218:154,1,140.526662378133,10|0,0:3|0:0,0:0:0:0:
184,253,163349,5,14,0:0:0:0:
184,253,163622,5,8,0:0:0:0:
194,252,163690,1,8,0:0:0:0:
205,251,163758,1,8,0:0:0:0:
215,250,163826,1,8,0:0:0:0:
226,248,163894,1,10,0:3:0:0:
299,279,163986,5,8,0:3:0:0:
375,219,164077,5,8,0:3:0:0:
498,277,164167,6,0,P|465:314|413:295,1,87.9933291710512,14|0,0:1|0:0,0:0:0:0:
504,102,164622,5,8,0:3:0:0:
444,41,164713,2,0,P|407:35|359:26,1,74.8599990861816,4|0,0:3|0:0,0:0:0:0:
370,28,164986,1,8,0:3:0:0:
226,193,165167,2,0,P|249:165|283:128,1,74.8599990861816
154,4,165440,5,8,0:3:0:0:
92,53,165531,2,0,P|102:88|115:135,1,74.8599990861816,4|8,0:3|0:3,0:0:0:0:
112,124,165804,1,4,0:3:0:0:
34,296,165986,2,0,P|73:303|110:321,1,74.8599990861816
279,272,166258,5,8,0:3:0:0:
217,226,166349,2,0,P|201:260|195:296,1,74.8599990861816,4|0,0:3|0:0,0:0:0:0:
194,296,166622,1,4,0:3:0:0:
490,297,166804,2,0,P|455:285|419:276,1,74.8599990861816
416,129,167076,5,8,0:3:0:0:
375,62,167167,2,0,P|336:52|296:38,1,74.8599990861816,4|0,0:3|0:0,0:0:0:0:
303,40,167440,1,12,0:3:0:0:
36,96,167622,2,0,P|71:107|107:117,1,74.8599990861816,8|0,0:3|0:0,0:0:0:0:
194,250,167895,5,8,0:3:0:0:
131,286,167986,2,0,P|117:256|129:212,1,74.8599990861816,4|8,0:3|0:3,0:0:0:0:
125,216,168258,1,4,0:3:0:0:
270,350,168440,2,0,P|233:340|197:333,1,74.8599990861816,8|0,0:3|0:0,0:0:0:0:
355,279,168713,5,8,0:3:0:0:
400,344,168804,2,0,P|436:351|472:360,1,74.8599990861816,4|8,0:3|0:3,0:0:0:0:
472,360,169076,1,12,0:3:0:0:
512,130,169258,2,0,P|496:167|469:189,1,74.8599990861816,8|0,0:3|0:0,0:0:0:0:
318,75,169531,5,8,0:3:0:0:
362,137,169622,2,0,P|400:123|440:114,1,74.8599990861816,4|8,0:3|0:3,0:0:0:0:
433,115,169895,1,4,0:3:0:0:
234,6,170076,2,0,P|197:14|162:27,1,74.8599990861816,8|0,0:3|0:0,0:0:0:0:
101,152,170349,5,8,0:3:0:0:
34,116,170440,2,0,P|14:78|21:21,1,93.5749988577271,4|0,0:3|0:0,0:0:0:0:
32,30,170713,5,12,0:3:0:0:
60,302,170986,5,0,3:0:0:0:
152,231,171167,5,0,1:0:0:0:
150,244,171258,1,0,1:0:0:0:
274,323,171440,5,0,0:0:0:0:
272,310,171531,1,0,1:0:0:0:
417,141,171804,5,0,3:0:0:0:
417,141,172076,1,0,1:0:0:0:
417,141,172349,1,0,1:0:0:0:
273,51,172622,5,8,0:0:0:0:
128,124,172804,5,0,1:0:0:0:
115,122,172895,1,0,1:0:0:0:
257,214,173076,5,0,0:0:0:0:
270,212,173167,1,0,1:0:0:0:
70,317,173440,5,8,0:3:0:0:
70,317,173713,1,0,3:0:0:0:
70,317,173986,5,0,3:0:0:0:
219,362,174167,5,0,0:0:0:0:
236,366,174258,2,0,P|272:355|329:342,1,74.8599990861816,0|8,0:0|0:3,0:0:0:0:
71,307,174805,5,0,0:0:0:0:
220,352,174986,5,0,0:0:0:0:
237,356,175077,2,0,P|273:345|330:332,1,74.8599990861816,8|8,0:1|0:3,0:0:0:0:
309,336,175349,1,8,0:1:0:0:
419,194,175622,6,0,L|419:177,6,9.35749988577271
354,243,175804,2,0,L|340:251,14,9.35749988577271
425,278,176167,5,0,0:0:0:0:
325,130,176349,1,0,0:0:0:0:
265,182,176440,6,0,P|203:166|144:154,3,112.289998629272,8|0|0|6,0:1|3:0|3:0|0:0,0:0:0:0:
256,192,190349,12,0,191349,0:0:0:0:
407,257,191440,6,0,P|419:220|420:181,1,77.1583321559906,8|0,0:0|0:0,0:0:0:0:
428,182,191713,2,0,P|426:220|415:257,1,77.1583321559906,8|0,0:0|0:0,0:0:0:0:
347,295,191986,6,0,P|287:268|189:245,1,154.316664311981,8|0,0:1|0:0,0:0:0:0:
93,353,192531,2,0,P|119:325|116:282,1,77.1583321559906,8|0,0:1|0:0,0:0:0:0:
128,203,192804,6,0,B|96:107|192:139|160:43,2,171.390001438362,10|8|8,0:0|0:0|0:0,0:0:0:0:
454,88,193622,6,0,B|476:97|493:74|493:74|435:56|399:125|399:125|334:81|292:125,1,281.053324756267,6|0,1:0|0:0,0:0:0:0:
292,124,194076,1,0,3:0:0:0:
345,277,194167,2,0,B|371:245|344:201|344:201|353:241|327:272,1,140.526662378133,8|0,0:0|0:0,0:0:0:0:
135,261,194440,2,0,P|180:196|276:225,1,175.658327972667,2|0,1:0|0:0,0:0:0:0:
271,221,194713,5,8,0:0:0:0:
143,60,194895,1,0,3:0:0:0:
79,104,194986,6,0,P|71:155|60:217,1,105.3949967836,8|0,0:0|0:0,0:0:0:0:
52,217,195167,1,0,3:0:0:0:
221,296,195258,6,0,B|327:260|291:402|397:366,1,210.7899935672,2|8,1:0|0:0,0:0:0:0:
487,139,195713,1,0,3:0:0:0:
419,101,195804,6,0,P|395:148|450:215,1,140.526662378133,8|0,0:0|3:0,0:0:0:0:
256,44,196076,2,0,B|170:58|162:134|228:164|248:120,1,175.658327972667,2|0,1:0|0:0,0:0:0:0:
246,117,196349,5,8,0:0:0:0:
83,249,196531,1,0,3:0:0:0:
42,190,196622,2,0,P|100:204|169:228,1,105.3949967836,8|0,0:0|0:0,0:0:0:0:
155,213,196804,1,8,0:1:0:0:
368,380,196895,6,0,B|397:360|432:348|432:348|400:284|368:188,1,210.7899935672,2|8,1:0|0:0,0:0:0:0:
378,219,197349,1,0,3:0:0:0:
192,152,197440,6,0,B|113:142|113:142|102:150|102:150|151:156,1,140.526662378133,10|0,0:0|0:0,0:0:0:0:
224,8,197713,2,0,B|254:80|254:80|267:86|267:86|248:40,1,140.526662378133,2|0,1:0|0:0,0:0:0:0:
72,56,197986,2,0,B|119:-7|119:-7|117:-21|117:-21|87:18,1,140.526662378133,10|0,0:0|0:0,0:0:0:0:
162,67,198258,5,10,0:0:0:0:
269,288,198440,1,0,3:0:0:0:
238,223,198531,6,0,B|210:195|152:195|127:253|127:253|123:253|123:253|94:310|36:310|7:282,1,281.053324756267,2|0,1:0|0:0,0:0:0:0:
6,281,198986,1,0,3:0:0:0:
74,64,199076,2,0,P|103:128|41:172,1,140.526662378133,8|0,0:0|0:0,0:0:0:0:
235,21,199349,2,0,P|290:29|361:37,1,105.3949967836,0|0,1:0|0:0,0:0:0:0:
350,26,199531,5,0,3:0:0:0:
437,256,199622,2,0,B|484:272|523:215|523:215|482:250|434:233,1,175.658327972667,8|0,0:0|0:0,0:0:0:0:
468,162,199895,5,8,0:0:0:0:
303,321,200076,5,0,3:0:0:0:
243,271,200167,2,0,B|223:215|289:169|289:169|249:218|269:274,1,210.7899935672,6|8,1:0|0:0,0:0:0:0:
74,289,200622,5,0,3:0:0:0:
16,342,200713,2,0,P|90:326|160:313,1,140.526662378133,10|0,0:0|0:0,0:0:0:0:
341,67,200986,2,0,P|231:87|122:111,1,210.7899935672,2|8,1:0|0:0,0:0:0:0:
423,203,201440,5,0,3:0:0:0:
363,161,201531,2,0,P|375:118|412:17,1,140.526662378133,10|0,0:0|3:0,0:0:0:0:
185,189,201804,2,0,P|160:254|140:322,1,140.526662378133,2|0,1:0|0:0,0:0:0:0:
140,322,202076,1,8,0:0:0:0:
18,95,202258,5,0,3:0:0:0:
11,169,202349,2,0,P|74:163|106:94,1,140.526662378133,10|0,0:0|0:0,0:0:0:0:
285,255,202622,2,0,P|256:194|189:185,1,140.526662378133,2|0,1:0|0:0,0:0:0:0:
189,185,202895,5,8,0:0:0:0:
480,64,203076,1,0,3:0:0:0:
416,26,203167,6,0,B|406:56|389:89|389:89|417:107|444:135,1,140.526662378133,8|0,0:0|0:0,0:0:0:0:
372,345,203440,6,0,B|331:359|297:316|297:316|333:340|374:325,1,140.526662378133,2|0,1:0|0:0,0:0:0:0:
243,111,203713,2,0,B|276:137|258:189|258:189|259:145|225:119,1,140.526662378133,10|0,0:0|0:0,0:0:0:0:
108,339,203986,2,8,B|112:296|166:284|166:284|129:306|124:349,1,140.526662378133,10|0,0:0|0:0,0:0:0:0:
20,139,204258,6,0,B|50:160|47:203|47:203|63:164|101:159,1,140.526662378133,2|0,1:0|0:0,0:0:0:0:
138,13,204531,2,0,B|103:27|69:1|69:1|93:36|77:71,1,140.526662378133,10|0,0:0|3:0,0:0:0:0:
191,173,204804,2,0,B|197:136|236:120|236:120|194:122|173:91,1,140.526662378133,10|0,0:0|0:0,0:0:0:0:
285,216,205076,6,0,B|379:249|428:176|378:110|334:143,1,210.7899935672,2|8,1:0|0:0,0:0:0:0:
471,348,205531,1,0,3:0:0:0:
512,287,205622,2,0,P|479:262|391:310,1,140.526662378133,8|0,0:0|3:0,0:0:0:0:
164,340,205895,6,0,P|218:360|267:380,1,105.3949967836,0|0,1:0|0:0,0:0:0:0:
275,374,206076,1,0,3:0:0:0:
181,181,206167,2,0,P|127:161|78:141,1,105.3949967836,8|0,0:0|0:0,0:0:0:0:
70,147,206348,1,8,0:0:0:0:
300,9,206440,6,0,P|336:18|395:31,1,93.5749988577271,8|0,0:3|0:0,0:0:0:0:
487,50,206713,6,0,P|379:64|204:100,1,281.053324756267,6|0,1:0|0:0,0:0:0:0:
210,98,207167,1,0,3:0:0:0:
384,288,207258,2,0,P|398:211|406:142,1,140.526662378133,8|0,0:0|0:0,0:0:0:0:
405,149,207531,5,2,1:0:0:0:
263,335,207713,1,0,3:0:0:0:
215,280,207804,2,0,P|171:270|103:263,1,105.3949967836,8|0,0:0|0:0,0:0:0:0:
102,274,207986,5,0,3:0:0:0:
59,160,208076,1,0,3:0:0:0:
269,6,208258,5,0,3:0:0:0:
269,77,208349,2,0,P|209:38|141:45,1,140.526662378133,2|0,1:0|0:0,0:0:0:0:
112,260,208622,2,0,P|145:181|192:149,1,140.526662378133,10|0,0:0|0:0,0:0:0:0:
343,281,208895,2,0,P|293:241|219:256,1,140.526662378133,10|0,0:0|0:0,0:0:0:0:
439,374,209167,6,0,B|474:268|333:303|368:197,1,210.7899935672,2|8,1:0|0:0,0:0:0:0:
84,313,209622,1,0,3:0:0:0:
143,364,209713,5,8,0:0:0:0:
101,172,209895,1,0,3:0:0:0:
188,210,209986,6,0,B|222:232|252:208|252:208|228:178|190:191,1,140.526662378133,2|0,1:0|0:0,0:0:0:0:
48,258,210258,2,0,B|12:277|18:315|18:315|56:308|62:268,1,140.526662378133,10|0,0:0|3:0,0:0:0:0:
73,69,210531,2,0,B|75:28|39:13|39:13|25:49|56:76,1,140.526662378133,10|0,0:0|0:0,0:0:0:0:
101,172,210804,5,2,1:0:0:0:
444,27,211076,5,10,0:0:0:0:
393,315,211258,5,0,3:0:0:0:
324,275,211349,2,0,P|310:197|293:127,1,140.526662378133,10|0,0:0|3:0,0:0:0:0:
117,320,211622,6,0,B|53:327|41:232|133:189|208:276,1,210.7899935672,2|8,1:0|0:0,0:0:0:0:
387,360,212076,1,0,3:0:0:0:
451,317,212167,2,0,P|416:281|344:292,1,105.3949967836,8|0,0:0|0:0,0:0:0:0:
357,290,212349,1,0,3:0:0:0:
484,153,212440,2,0,B|502:115|465:78|465:78|484:115|465:153,1,140.526662378133,0|0,1:0|0:0,0:0:0:0:
472,135,212713,1,8,0:0:0:0:
275,262,212895,5,0,3:0:0:0:
223,209,212986,2,0,B|204:171|241:134|241:134|223:171|241:209,1,140.526662378133,8|0,0:0|0:0,0:0:0:0:
386,353,213258,6,0,B|408:344|425:367|425:367|367:385|331:316|331:316|266:360|224:316,1,281.053324756267,6|0,1:0|0:0,0:0:0:0:
224,316,213713,1,0,3:0:0:0:
75,149,213804,2,0,P|117:196|83:263,1,140.526662378133,10|0,0:0|0:0,0:0:0:0:
215,61,214076,2,0,P|270:30|327:78,1,140.526662378133,2|0,1:0|0:0,0:0:0:0:
326,72,214349,1,8,0:0:0:0:
500,298,214531,5,0,3:0:0:0:
438,250,214622,2,0,B|395:263|385:315|385:315|375:289|346:276,1,140.526662378133,10|0,0:0|0:0,0:0:0:0:
179,306,214895,6,0,P|219:320|323:361,1,140.526662378133,2|0,1:0|0:0,0:0:0:0:
209,84,215167,2,0,P|175:110|86:176,1,140.526662378133,10|0,0:0|3:0,0:0:0:0:
371,194,215440,2,0,P|366:151|357:40,1,140.526662378133,10|0,0:0|0:0,0:0:0:0:
245,201,215713,5,2,1:0:0:0:
25,45,215895,1,0,0:0:0:0:
92,14,215986,2,0,P|103:64|108:153,1,140.526662378133,8|0,0:0|0:0,0:0:0:0:
107,153,216258,5,8,0:0:0:0:
210,309,216440,1,8,0:3:0:0:
277,270,216531,6,0,P|312:277|356:289,1,52.6974983918,14|0,0:1|0:0,0:0:0:0:
512,155,216667,2,0,P|478:146|443:139,1,52.6974983918,10|0,0:1|0:0,0:0:0:0:
448,329,216804,6,0,P|455:294|467:250,1,52.6974983918,10|0,0:1|0:0,0:0:0:0:
333,94,216940,2,0,P|324:127|317:162,1,52.6974983918,10|0,0:1|0:0,0:0:0:0:
388,216,217076,5,10,0:3:0:0:
434,26,217213,1,10,0:3:0:0:
234,89,217349,1,14,0:3:0:0:
234,89,217622,5,8,0:0:0:0:
222,85,217690,1,8,0:0:0:0:
213,83,217758,1,8,0:0:0:0:
202,82,217826,1,8,0:0:0:0:
191,80,217894,1,8,0:3:0:0:
123,127,217986,5,8,0:3:0:0:
161,210,218076,5,8,0:3:0:0:
84,258,218167,6,0,B|32:259|9:200|9:200|70:176|102:215,1,140.526662378133,14|0,0:3|0:0,0:0:0:0:
228,286,218440,2,0,B|256:328|218:379|218:379|166:340|182:292,1,140.526662378133,10|0,0:3|0:0,0:0:0:0:
205,140,218713,2,0,B|225:92|289:98|289:98|283:163|234:175,1,140.526662378133,10|0,0:3|0:0,0:0:0:0:
406,284,218986,5,14,0:0:0:0:
406,284,219258,5,8,0:0:0:0:
407,273,219326,1,8,0:0:0:0:
408,263,219394,1,8,0:0:0:0:
409,252,219462,1,8,0:0:0:0:
410,242,219530,1,10,0:3:0:0:
361,175,219622,5,8,0:3:0:0:
440,108,219713,5,8,0:3:0:0:
280,65,219804,6,0,B|174:29|209:170|103:135,1,210.7899935672,6|8,1:0|0:0,0:0:0:0:
26,334,220258,1,2,3:0:0:0:
89,373,220349,2,0,P|142:328|122:252,1,140.526662378133,10|0,0:0|0:0,0:0:0:0:
13,98,220622,2,0,P|4:164|56:207,1,140.526662378133,0|0,1:0|0:0,0:0:0:0:
280,65,220895,6,0,L|353:77,1,70.2633311890666,10|0,0:0|0:0,0:0:0:0:
415,41,221077,5,0,3:0:0:0:
238,154,221167,2,0,L|168:142,1,70.2633311890666,8|0,0:0|0:0,0:0:0:0:
134,73,221349,5,0,3:0:0:0:
255,247,221440,2,0,P|262:183|333:161,2,140.526662378133,2|2|0,1:0|0:0|0:0,0:0:0:0:
255,247,221895,5,2,3:0:0:0:
493,315,221986,2,0,P|429:300|343:285,1,140.526662378133,10|0,0:0|3:0,0:0:0:0:
159,53,222258,2,0,P|228:65|296:81,1,140.526662378133,2|0,1:0|0:0,0:0:0:0:
60,229,222531,2,0,P|55:192|45:149,1,70.2633311890666,10|0,0:0|0:0,0:0:0:0:
206,142,222713,5,0,3:0:0:0:
201,167,222804,1,8,0:0:0:0:
402,265,222986,5,0,3:0:0:0:
341,219,223076,2,0,B|332:173|264:185|253:258|330:291,1,175.658327972667,0|0,1:0|0:0,0:0:0:0:
402,265,223349,6,0,B|444:266|464:216|464:216|436:249|394:247,1,140.526662378133,10|0,0:0|0:0,0:0:0:0:
236,330,223622,2,0,B|250:370|304:368|304:368|263:356|249:316,1,140.526662378133,10|0,0:0|0:0,0:0:0:0:
111,202,223895,2,0,B|75:225|89:277|89:277|91:235|127:211,1,140.526662378133,2|0,1:0|0:0,0:0:0:0:
291,206,224167,2,0,P|256:213|219:226,1,70.2633311890666,10|0,0:0|0:0,0:0:0:0:
166,279,224349,5,0,3:0:0:0:
50,90,224440,2,0,P|123:107|206:124,1,140.526662378133,10|0,0:0|0:0,0:0:0:0:
376,58,224713,6,0,B|387:18|346:2|346:2|311:109|454:73|418:181,1,281.053324756267,2|0,1:0|0:0,0:0:0:0:
419,177,225167,1,0,3:0:0:0:
300,312,225258,2,0,B|248:297|236:231|236:231|224:276|172:280,1,175.658327972667,8|0,0:0|0:0,0:0:0:0:
163,202,225531,6,0,P|157:161|147:112,1,70.2633311890666,2|0,1:0|0:0,0:0:0:0:
152,133,225713,1,0,3:0:0:0:
324,231,225804,2,0,P|330:190|353:74,1,140.526662378133,10|0,0:0|3:0,0:0:0:0:
348,92,226076,5,10,0:0:0:0:
265,107,226167,1,0,3:0:0:0:
292,26,226258,5,8,0:0:0:0:
244,195,226349,2,0,P|182:213|43:260,1,210.7899935672,6|8,1:0|0:0,0:0:0:0:
357,315,226804,1,2,3:0:0:0:
288,292,226895,2,0,P|283:220|341:173,1,140.526662378133,10|0,0:0|3:0,0:0:0:0:
476,88,227167,2,0,P|432:115|384:81,1,105.3949967836,0|0,1:0|0:0,0:0:0:0:
388,78,227350,5,2,3:0:0:0:
466,216,227441,2,0,P|462:251|454:293,1,70.2633311890666,10|0,0:0|0:0,0:0:0:0:
392,328,227622,5,2,3:0:0:0:
211,234,227713,2,0,P|242:218|282:203,1,70.2633311890666,10|0,0:0|0:0,0:0:0:0:
332,263,227895,5,0,3:0:0:0:
113,363,227986,2,0,P|115:294|133:170,1,175.658327972667,0|0,1:0|0:0,0:0:0:0:
114,111,228258,6,0,P|65:66|-3:99,1,140.526662378133,2|8,1:0|0:0,0:0:0:0:
204,262,228531,2,0,P|266:286|316:241,1,140.526662378133,10|8,0:0|3:0,0:0:0:0:
286,2,228804,2,0,P|296:68|359:89,1,140.526662378133,2|0,1:0|0:0,0:0:0:0:
512,279,229076,2,0,P|501:212|438:191,1,140.526662378133,10|0,0:0|0:0,0:0:0:0:
382,349,229349,2,0,P|386:313|394:266,1,70.2633311890666,10|0,0:0|0:0,0:0:0:0:
360,174,229531,1,0,3:0:0:0:
266,338,229622,6,0,P|247:320|209:302,1,52.6974983918,10|0,0:3|0:0,0:0:0:0:
238,214,229758,2,0,P|213:214|173:227,1,52.6974983918,8|0,0:3|0:0,0:0:0:0:
2,308,229895,2,0,P|23:295|64:287,1,52.6974983918,8|0,0:3|0:0,0:0:0:0:
57,195,230031,2,0,P|81:201|116:224,1,52.6974983918,8|0,0:3|0:0,0:0:0:0:
139,300,230167,5,8,0:1:0:0:
158,136,230304,1,8,0:1:0:0:
138,310,230440,1,8,0:1:0:0:
138,310,230713,5,8,0:0:0:0:
149,311,230781,1,8,0:0:0:0:
159,312,230849,1,8,0:0:0:0:
170,313,230917,1,8,0:0:0:0:
181,314,230985,1,8,0:3:0:0:
245,363,231076,5,8,0:3:0:0:
327,302,231167,5,8,0:3:0:0:
441,373,231258,6,0,B|405:267|546:302|511:197,1,210.7899935672,14|8,2:3|0:0,0:0:0:0:
279,93,231713,1,2,3:0:0:0:
219,52,231804,2,0,P|147:41|73:29,1,140.526662378133,10|0,0:0|0:0,0:0:0:0:
197,272,232076,2,0,P|266:283|335:293,1,140.526662378133,14|0,0:0|0:0,0:0:0:0:
128,169,232349,5,8,0:3:0:0:
107,162,232417,1,8,0:3:0:0:
107,141,232486,1,8,0:3:0:0:
128,134,232554,1,8,0:3:0:0:
140,151,232622,1,4,0:3:0:0:
203,198,232713,5,4,0:3:0:0:
275,173,232804,5,4,0:3:0:0:
292,183,232895,6,0,P|328:171|373:161,2,75.8449984955063,2|0|0,0:0|0:0|0:0,0:0:0:0:
159,305,233304,2,0,P|123:293|78:283,2,75.8449984955063,2|0|0,0:0|0:0|0:0,0:0:0:0:
159,305,233713,1,0,0:0:0:0:
317,369,233849,5,2,0:0:0:0:
348,297,233986,1,0,0:0:0:0:
314,226,234122,1,0,0:0:0:0:
468,206,234258,6,0,P|432:216|389:234,2,75.8449984955063,2|0|0,0:0|0:0|0:0,0:0:0:0:
278,81,234667,5,2,0:0:0:0:
324,142,234804,1,0,0:0:0:0:
360,73,234940,1,0,0:0:0:0:
203,182,235076,5,2,0:0:0:0:
132,152,235213,1,0,0:0:0:0:
190,100,235349,1,0,0:0:0:0:
132,234,235486,5,2,0:0:0:0:
195,340,235622,1,0,0:0:0:0:
122,236,235758,1,0,0:0:0:0:
276,334,235895,5,2,0:0:0:0:
405,240,236031,1,0,0:0:0:0:
300,73,236167,6,0,B|306:21|383:31|399:111|316:153,1,166.793332060801,6|0,1:0|0:0,0:0:0:0:
122,236,236440,2,0,B|75:257|42:187|101:131|181:179,1,166.793332060801,8|0,0:0|0:0,0:0:0:0:
364,282,236713,2,0,B|407:310|365:375|286:355|284:261,1,166.793332060801,8|0,0:0|0:0,0:0:0:0:
176,74,236986,6,0,B|136:47|89:84|89:84|133:68|173:95,1,166.793332060801,4|0,1:0|0:0,0:0:0:0:
411,193,237258,2,0,B|454:173|447:113|447:113|437:160|394:179,1,166.793332060801,8|0,0:0|0:0,0:0:0:0:
200,309,237531,2,0,B|193:356|247:382|247:382|213:349|220:302,1,166.793332060801,8|0,0:0|0:0,0:0:0:0:
275,181,237804,5,4,1:0:0:0:
257,291,238622,6,0,B|326:237|336:141|340:86|291:107|249:56|249:56|258:104|219:147|219:147|289:119|309:177|361:126|401:83|420:140|490:114|490:114|455:152|461:207|461:207|418:147|370:177|357:146|327:221|390:294,1,1004.7000061322,2|0,3:0|0:0,0:0:0:0:
