osu file format v14

[General]
AudioFilename: audio.mp3
AudioLeadIn: 0
PreviewTime: 177258
Countdown: 0
SampleSet: Soft
StackLeniency: 0.4
Mode: 0
LetterboxInBreaks: 0
WidescreenStoryboard: 1

[Editor]
DistanceSpacing: 0.5
BeatDivisor: 4
GridSize: 32
TimelineZoom: 1.399999

[Metadata]
Title:Urami no Waltz
TitleUnicode:うらみのワルツ
Artist:KikuoHana
ArtistUnicode:きくおはな
Creator:SMOKELIND
Version:Crissa's Extra
Source:
Tags:Waltz of Malice Hanatan 花たん YURiCa ユリカ 第一幕 1 First Act Daiichi Maku Japanese Rock Jazz iljaaz FuJu frozz -Keqing Keqing Crissa Eula-
BeatmapID:3239477
BeatmapSetID:1552723

[Difficulty]
HPDrainRate:5.2
CircleSize:4
OverallDifficulty:8.6
ApproachRate:9.2
SliderMultiplier:1.97
SliderTickRate:1

[Events]
//Background and Video events
0,0,"89693204_p0.jpg",0,0
//Break Periods
2,83640,85052
//Storyboard Layer 0 (Background)
//Storyboard Layer 1 (Fail)
//Storyboard Layer 2 (Pass)
//Storyboard Layer 3 (Foreground)
//Storyboard Layer 4 (Overlay)
//Storyboard Sound Samples

[TimingPoints]
1350,272.727272727273,6,2,77,47,1,0
1350,-212.765957446809,6,2,77,47,0,0
3077,-270.270270270271,6,2,77,47,0,0
5031,-212.765957446809,6,2,77,47,0,0
5440,-175.438596491228,6,2,77,47,0,0
7077,-370.37037037037,6,2,77,47,0,0
8304,-212.765957446809,6,2,77,47,0,0
14440,-85.4700854700855,6,2,77,47,0,0
16895,-114.942528735632,6,2,77,47,0,0
17440,-114.942528735632,6,2,77,57,0,0
17713,-85.4700854700854,6,2,77,57,0,0
20986,-85.4700854700854,6,2,77,87,0,0
27531,-85.4700854700854,6,2,77,57,0,0
30804,-72.992700729927,6,2,77,87,0,0
31259,-85.4700854700855,6,2,77,87,0,0
31622,-72.992700729927,6,2,77,87,0,0
32077,-85.4700854700855,6,2,77,87,0,0
32440,-78.7401574803149,6,2,77,87,0,0
32986,-85.4700854700855,6,2,77,87,0,0
33259,-68.0272108843537,6,2,77,87,0,0
33531,-78.7401574803149,6,2,77,87,0,0
34077,-149.253731343284,6,2,77,47,0,0
40622,-149.253731343284,6,2,77,57,0,0
42259,-68.0272108843537,6,2,77,57,0,0
43077,-114.942528735632,6,2,77,57,0,0
43895,-149.253731343283,6,2,77,47,0,0
49895,-114.942528735632,6,2,77,47,0,0
50168,-93.4579439252336,6,2,77,47,0,0
50440,-114.942528735632,6,2,77,57,0,0
53168,-78.7401574803149,6,2,77,57,0,0
53713,-114.942528735632,6,2,77,57,0,0
54122,-212.765957446808,6,2,77,57,0,0
54531,-103.092783505155,6,2,77,57,0,0
55350,-129.87012987013,6,2,77,57,0,0
56168,-103.092783505155,6,2,77,57,0,0
56986,-85.4700854700857,6,2,77,87,0,0
60259,-72.992700729927,6,2,77,87,0,0
61622,-85.4700854700855,6,2,77,87,0,0
64350,-72.992700729927,6,2,77,87,0,0
64804,-85.4700854700855,6,2,77,87,0,0
66804,-68.0272108843537,6,2,77,87,0,0
67077,-72.992700729927,6,2,77,87,0,0
67350,-85.4700854700855,6,2,77,87,0,0
69259,-68.0272108843537,6,2,77,87,0,0
69804,-93.4579439252336,6,2,77,87,0,0
70077,-68.0272108843537,6,2,77,87,0,0
70531,-72.992700729927,6,2,77,87,0,0
72531,-63.6942675159236,6,2,77,87,0,0
72986,-72.992700729927,6,2,77,87,0,0
73350,-63.6942675159236,6,2,77,87,0,0
74440,-72.992700729927,6,2,77,87,0,0
75713,-85.4700854700855,6,2,77,87,0,0
76622,-72.992700729927,6,2,77,87,0,0
78259,-59.8802395209581,6,2,77,87,0,0
78622,-63.6942675159236,6,2,77,87,0,0
79077,-72.992700729927,6,2,77,87,0,0
79895,-59.8802395209581,6,2,77,87,0,0
80986,-114.942528735632,6,2,77,87,0,0
81531,-85.4700854700855,6,2,77,87,0,0
81804,-78.7401574803149,6,2,77,87,0,0
82077,-68.0272108843537,6,2,77,87,0,0
82350,-149.253731343284,6,2,77,87,0,0
82622,-93.4579439252338,6,2,77,87,0,0
83168,-72.992700729927,6,2,77,87,0,0
83350,-72.992700729927,6,2,77,57,0,0
85622,-212.765957446809,6,2,77,57,0,0
96122,-114.942528735632,6,2,77,57,0,0
96259,-114.942528735632,6,2,77,47,0,0
97077,-93.4579439252336,6,2,77,47,0,0
97622,-114.942528735632,6,2,77,47,0,0
97895,-175.438596491228,6,2,77,47,0,0
99531,-129.87012987013,6,2,77,47,0,0
100077,-114.942528735632,6,2,77,47,0,0
100350,-103.092783505155,6,2,77,47,0,0
101713,-114.942528735633,6,2,77,47,0,0
101986,272.727272727273,6,2,77,47,1,0
101986,-166.666666666667,6,2,77,47,0,0
103622,-125,6,2,77,47,0,0
105258,-166.666666666667,6,2,77,47,0,0
106895,-111.111111111111,6,2,77,47,0,0
108531,-166.666666666666,6,2,77,57,0,0
109895,-111.111111111111,6,2,77,57,0,0
110167,-142.857142857143,6,2,77,57,0,0
111804,-142.857142857143,6,2,77,47,0,0
117531,-200,6,2,77,47,0,0
118349,-142.857142857143,6,2,77,47,0,0
121622,-90.9090909090908,6,2,77,47,0,0
122713,-588.235294117647,6,2,77,47,0,0
124349,-78.7401574803149,6,2,77,47,0,0
124622,-212.765957446809,6,2,77,47,0,0
124895,-114.942528735632,6,2,77,47,0,0
125713,-149.253731343284,6,2,77,47,0,0
126258,-212.765957446809,6,2,77,47,0,0
126531,-129.87012987013,6,2,77,47,0,0
127349,-175.438596491228,6,2,77,47,0,0
128167,-149.253731343284,6,2,77,47,0,0
128713,-129.87012987013,6,2,77,47,0,0
128986,-114.942528735632,6,2,77,47,0,0
129804,-129.87012987013,6,2,77,47,0,0
130622,-175.438596491228,6,2,77,47,0,0
130895,-129.87012987013,6,2,77,47,0,0
131167,-103.092783505155,6,2,77,47,0,0
131440,-370.370370370374,6,2,77,57,0,0
134167,-175.438596491229,6,2,77,57,0,0
134440,-129.87012987013,6,2,77,57,0,0
134713,-270.270270270271,6,2,77,57,0,0
135531,-588.23529411765,6,2,77,57,0,0
135804,-114.942528735632,6,2,77,57,0,0
136076,-78.7401574803149,6,2,77,57,0,0
136349,-270.270270270271,6,2,77,57,0,0
137167,-72.992700729927,6,2,77,57,0,0
137440,-85.4700854700855,6,2,77,57,0,0
137713,-114.942528735632,6,2,77,57,0,0
137986,-85.4700854700854,6,2,77,87,0,0
138804,-78.7401574803149,6,2,77,87,0,0
140440,-72.992700729927,6,2,77,87,0,0
142349,-78.7401574803149,6,2,77,87,0,0
142531,-93.4579439252336,6,2,77,87,0,0
143440,-78.7401574803149,6,2,77,87,0,0
144258,-114.942528735632,6,2,77,87,0,0
144531,-72.992700729927,6,2,77,87,0,0
145804,-85.4700854700855,6,2,77,87,0,0
146167,-78.7401574803149,6,2,77,87,0,0
146713,-85.4700854700855,6,2,77,87,0,0
146986,-72.992700729927,6,2,77,87,0,0
147804,-63.6942675159236,6,2,77,87,0,0
148258,-78.7401574803149,6,2,77,87,0,0
148622,-63.6942675159236,6,2,77,87,0,0
148895,-72.992700729927,6,2,77,87,0,0
149167,-85.4700854700855,6,2,77,87,0,0
150258,-68.0272108843537,6,2,77,87,0,0
150804,-78.7401574803149,6,2,77,87,0,0
151076,-85.4700854700855,6,2,77,87,0,0
152713,-78.7401574803149,6,2,77,87,0,0
153531,-72.992700729927,6,2,77,87,0,0
154349,-68.0272108843537,6,2,77,87,0,0
155440,-78.7401574803149,6,2,77,87,0,0
155622,-85.4700854700855,6,2,77,87,0,0
157622,-72.992700729927,6,2,77,87,0,0
158986,-85.4700854700855,6,2,77,87,0,0
159258,-72.992700729927,6,2,77,87,0,0
159804,-63.6942675159236,6,2,77,87,0,0
160895,-59.8802395209581,6,2,77,87,0,0
161986,-270.27027027027,6,2,77,87,0,0
162531,-78.7401574803149,6,2,77,87,0,0
163349,-270.27027027027,6,2,77,87,0,0
164167,-103.092783505155,6,2,77,87,0,0
164349,-103.092783505155,6,2,77,57,0,0
170713,-129.87012987013,6,2,77,57,0,0
176167,-129.87012987013,6,2,77,57,0,0
176713,-370.370370370372,6,2,77,57,0,0
177258,-270.270270270271,6,2,77,27,0,0
178895,-212.765957446809,6,2,77,27,0,0
180531,-175.438596491228,6,2,77,27,0,0
181349,-212.765957446809,6,2,77,27,0,0
182167,-212.765957446809,6,2,77,27,0,0
183804,-270.270270270271,6,2,77,27,0,0
184622,-212.765957446809,6,2,77,27,0,0
190349,-588.235294117647,6,2,77,27,0,0
191440,-149.253731343284,6,2,77,57,0,0
191986,-103.092783505155,6,2,77,57,0,0
192804,-72.992700729927,6,2,77,57,0,0
193622,-85.4700854700855,6,2,77,87,0,0
194713,-78.7401574803149,6,2,77,87,0,0
195258,-72.992700729927,6,2,77,87,0,0
195804,-78.7401574803149,6,2,77,87,0,0
196895,-72.992700729927,6,2,77,87,0,0
200713,-63.6942675159236,6,2,77,87,0,0
201440,-78.7401574803149,6,2,77,87,0,0
202076,-72.992700729927,6,2,77,87,0,0
202804,-68.0272108843537,6,2,77,87,0,0
203440,-59.8802395209581,6,2,77,87,0,0
203895,-78.7401574803149,6,2,77,87,0,0
204258,-59.8802395209581,6,2,77,87,0,0
204531,-72.992700729927,6,2,77,87,0,0
205076,-78.7401574803149,6,2,77,87,0,0
205895,-68.0272108843537,6,2,77,87,0,0
206440,-78.7401574803149,6,2,77,87,0,0
206713,-85.4700854700855,6,2,77,87,0,0
208349,-78.7401574803149,6,2,77,87,0,0
209167,-68.0272108843537,6,2,77,87,0,0
209622,-78.7401574803149,6,2,77,87,0,0
209986,-68.0272108843537,6,2,77,87,0,0
211258,-78.7401574803149,6,2,77,87,0,0
211622,-85.4700854700855,6,2,77,87,0,0
212167,-72.992700729927,6,2,77,87,0,0
212713,-78.7401574803149,6,2,77,87,0,0
213713,-72.992700729927,6,2,77,87,0,0
214076,-68.0272108843537,6,2,77,87,0,0
214622,-78.7401574803149,6,2,77,87,0,0
214895,-68.0272108843537,6,2,77,87,0,0
215440,-56.4971751412429,6,2,77,87,0,0
217622,-212.765957446809,6,2,77,87,0,0
218167,-68.0272108843537,6,2,77,87,0,0
218440,-53.475935828877,6,2,77,87,0,0
218713,-59.8802395209581,6,2,77,87,0,0
219258,-212.765957446809,6,2,77,87,0,0
219804,-68.0272108843537,6,2,77,87,0,0
220349,-85.4700854700855,6,2,77,87,0,0
222531,-72.992700729927,6,2,77,87,0,0
224167,-68.0272108843537,6,2,77,87,0,0
224713,-63.6942675159236,6,2,77,87,0,0
225258,-78.7401574803149,6,2,77,87,0,0
226076,-68.0272108843537,6,2,77,87,0,0
226349,-78.7401574803149,6,2,77,87,0,0
228531,-63.6942675159236,6,2,77,87,0,0
229076,-72.992700729927,6,2,77,87,0,0
229349,-85.4700854700855,6,2,77,87,0,0
229622,-129.87012987013,6,2,77,87,0,0
230031,-78.7401574803149,6,2,77,87,0,0
230713,-270.27027027027,6,2,77,87,0,0
231258,-68.0272108843537,6,2,77,87,0,0
232349,-270.27027027027,6,2,77,87,0,0
232622,-114.942528735632,6,2,77,87,0,0
232895,-114.942528735632,6,2,77,47,0,0
236167,-68.0272108843537,6,2,77,87,0,0
236713,-85.4700854700855,6,2,77,87,0,0
236986,-59.8802395209581,6,2,77,87,0,0
237258,-50.761421319797,6,2,77,87,0,0
238622,-1000,6,2,77,27,0,0
238713,-1000,6,2,77,5,0,0

[Colours]
Combo1 : 255,248,191
Combo2 : 249,206,198

[HitObjects]
58,51,1350,6,0,P|158:58|470:254,1,462.949992935944,2|0,0:0|0:0,0:0:0:0:
319,372,3077,2,0,P|333:272|369:184,1,194.373338078776,2|0,0:0|0:0,0:0:0:0:
371,105,3940,2,0,B|346:95|327:127|298:122,1,72.8900017795411,2|0,0:0|0:0,0:0:0:0:
96,274,4622,6,0,P|127:260|153:223,1,72.8900017795411,2|0,0:0|0:0,0:0:0:0:
237,230,5031,2,0,P|231:187|183:140,1,92.5899985871887,2|0,0:0|0:0,0:0:0:0:
86,87,5440,6,0,B|120:93|140:73|135:71|152:42|188:48,1,112.289998629272,2|0,0:0|0:0,0:0:0:0:
293,208,5850,2,0,B|253:201|236:161|242:160|232:134|219:127,1,112.289998629272,2|0,0:0|0:0,0:0:0:0:
368,6,6259,6,0,P|329:39|263:59,1,112.289998629272,2|0,0:0|0:0,0:0:0:0:
245,192,6668,2,0,P|212:151|192:82,1,112.289998629272,2|0,0:0|0:0,0:0:0:0:
95,9,7077,2,0,B|118:-2|137:30|120:70|97:77|72:94|76:138,1,159.570003895752,2|0,0:0|0:0,0:0:0:0:
37,345,8304,6,0,P|78:348|94:287,1,92.5899985871887,2|0,0:0|0:0,0:0:0:0:
88,160,8713,2,0,P|64:194|109:238,1,92.5899985871887,2|0,0:0|0:0,0:0:0:0:
222,296,9122,2,0,P|204:258|143:275,1,92.5899985871887,2|0,0:0|0:0,0:0:0:0:
177,375,9531,6,0,P|214:343|306:313,2,138.884997880783,2|2|2,0:0|0:0|0:0,0:0:0:0:
287,227,10759,2,0,P|317:229|370:267,1,92.5899985871887,2|0,0:0|0:0,0:0:0:0:
472,283,11168,6,0,B|503:298|488:341|500:363|500:363|470:355|468:326,1,138.884997880783,2|0,0:0|0:0,0:0:0:0:
427,213,11986,2,0,B|424:178|469:170|482:148|482:148|490:178|466:194,1,138.884997880783,2|0,0:0|0:0,0:0:0:0:
389,287,12804,2,0,B|360:306|330:271|305:271|305:271|327:249|353:262,1,138.884997880783,2|0,0:0|0:0,0:0:0:0:
369,35,14440,5,2,0:0:0:0:
321,100,14577,1,2,0:0:0:0:
385,35,14713,5,2,0:0:0:0:
337,100,14850,1,2,0:0:0:0:
338,180,14986,1,2,0:0:0:0:
439,326,15259,5,2,0:0:0:0:
363,299,15395,1,2,0:0:0:0:
442,342,15531,5,2,0:0:0:0:
366,315,15667,1,2,0:0:0:0:
289,340,15804,1,2,0:0:0:0:
178,321,16077,6,0,B|155:335|147:355|147:355|134:325|154:304|156:309|181:292|186:261,1,153.660000586166,2|0,0:0|0:0,0:0:0:0:
178,122,16350,2,0,B|155:108|147:88|147:88|134:118|154:139|156:134|181:151|186:182,1,153.660000586166,2|0,0:0|0:0,0:0:0:0:
86,227,16622,2,0,B|68:199|30:198|30:198|81:184|109:222,1,153.660000586166,2|0,0:0|0:0,0:0:0:0:
185,262,16895,6,0,B|229:284|259:241|256:235|286:189|338:213,2,171.390001438362,2|0|8,0:0|0:0|0:1,0:0:0:0:
189,33,17713,6,0,B|185:31|185:31|183:35|183:35|180:34|180:34|178:37|178:37|173:36|173:36|169:35|169:35|166:32|166:32|164:36|164:36|160:33|160:33|158:37|158:37|156:35|156:35|152:40|152:40|148:36|148:36|146:37|146:37|145:34|145:34|141:32|141:32|140:33|140:33|136:32|136:32|134:35|134:35|131:35|131:35|131:39|131:39|127:40|127:40|130:45|130:45|126:45|126:45|126:51|126:51|123:53|123:53|123:57|123:57|121:59|121:59|124:63|124:63|119:65|119:65|123:69|123:69|120:72|120:72|124:77|124:77|121:82|121:82|127:84|127:84|126:87|126:87|129:89|129:89|126:94|126:94|130:96|130:96|129:99,1,153.660000586166,10|0,0:1|0:0,0:0:0:0:
58,189,17986,2,0,B|80:176|80:176|86:179|86:179|106:168|106:168|108:163|108:163|140:168|140:168|142:173|142:173|162:154|162:154|166:156|166:156|191:156,1,153.660000586166,10|0,0:1|0:0,0:0:0:0:
277,222,18259,2,0,B|264:198|264:198|297:100|297:100|282:73,1,153.660000586166,10|0,0:1|0:0,0:0:0:0:
360,197,18531,2,0,B|398:174|398:174|399:167|399:167|483:187|483:187|516:141|516:141|470:148,2,230.49000087925,10|10|10,0:1|0:1|0:1,0:0:0:0:
170,328,19350,6,0,B|165:246|5:286|47:86|182:92|212:185|185:254|185:254|160:321|184:368|232:380|260:373|281:333|285:308|254:280,1,614.640002344666,10|0,0:1|3:0,0:0:0:0:
43,308,20168,6,0,B|-10:325|-85:376|33:350|91:322,1,153.660000586166,8|0,0:1|0:0,0:0:0:0:
136,200,20440,2,0,B|189:217|264:268|146:242|88:214,1,153.660000586166,0|8,0:0|0:0,0:0:0:0:
9,183,20713,1,8,0:0:0:0:
90,71,20895,5,8,0:0:0:0:
62,101,20986,2,0,B|51:78|24:61|24:61|59:88|115:91,1,153.660000586166,6|0,1:0|0:0,0:0:0:0:
201,64,21259,1,8,0:0:0:0:
328,64,21440,5,8,0:0:0:0:
297,31,21531,2,0,B|300:61|285:65|285:65|338:103|350:168,1,153.660000586166,2|0,1:0|0:0,0:0:0:0:
328,355,21804,2,0,P|338:263|411:231,1,153.660000586166,2|0,1:0|0:0,0:0:0:0:
462,259,22077,1,8,0:0:0:0:
457,359,22259,1,0,1:0:0:0:
477,371,22350,2,0,B|509:368|530:340|507:323|469:356,1,76.8300002930832,10|0,0:0|0:0,0:0:0:0:
252,313,22531,5,2,0:0:0:0:
320,349,22622,2,0,B|342:362|356:387|356:387|324:337|330:284,1,153.660000586166,2|0,1:0|0:0,0:0:0:0:
359,219,22895,1,8,0:0:0:0:
161,124,23077,1,10,0:0:0:0:
204,207,23168,2,0,P|255:145|342:134,1,153.660000586166,10|0,0:0|0:0,0:0:0:0:
417,164,23440,6,0,L|448:13,1,153.660000586166,0|0,1:0|0:0,0:0:0:0:
502,170,23713,2,0,L|472:85,1,76.8300002930832,8|0,0:0|0:0,0:0:0:0:
292,15,23895,1,10,0:0:0:0:
260,89,23986,2,0,B|301:95|324:130|324:130|325:88|352:61,1,153.660000586166,10|10,0:0|0:1,0:0:0:0:
417,164,24259,6,0,P|285:174|228:274,1,230.49000087925,2|8,1:0|0:0,0:0:0:0:
367,342,24713,1,8,0:0:0:0:
412,351,24804,2,0,P|423:274|361:247,1,153.660000586166,10|2,0:0|0:0,0:0:0:0:
241,353,25077,6,0,B|176:387|134:326|140:322|105:260|40:282,1,230.49000087925,2|8,1:0|0:0,0:0:0:0:
225,276,25531,1,8,0:0:0:0:
264,265,25622,2,0,P|254:183|188:195,1,153.660000586166,8|0,0:0|0:0,0:0:0:0:
126,278,25895,6,0,P|102:193|69:123,1,153.660000586166,2|0,1:0|0:0,0:0:0:0:
6,78,26168,1,8,0:0:0:0:
164,100,26350,1,0,0:0:0:0:
199,91,26440,2,0,B|248:83|289:16|212:26|175:73,1,153.660000586166,10|0,0:0|0:0,0:0:0:0:
134,190,26713,6,0,P|232:207|294:219,1,153.660000586166,2|0,1:0|0:0,0:0:0:0:
346,272,26986,1,0,1:0:0:0:
439,128,27168,1,8,0:0:0:0:
444,52,27259,2,0,B|431:32|432:2|432:2|428:10|421:10|421:10|434:46|439:106,1,153.660000586166,8|8,0:0|0:3,0:0:0:0:
443,214,27531,5,4,1:0:0:0:
299,290,27804,1,8,0:3:0:0:
221,269,28077,1,4,0:3:0:0:
151,307,28259,1,0,0:0:0:0:
155,325,28350,5,0,3:0:0:0:
18,228,28622,1,8,0:3:0:0:
48,153,28895,1,4,0:3:0:0:
4,85,29077,1,0,0:0:0:0:
11,67,29168,5,0,3:0:0:0:
164,119,29440,1,8,0:3:0:0:
230,73,29713,1,4,0:3:0:0:
305,101,29895,1,0,0:0:0:0:
311,119,29986,5,0,3:0:0:0:
264,269,30259,1,0,0:0:0:0:
266,295,30327,1,4,0:3:0:0:
285,313,30440,1,4,0:3:0:0:
322,319,30531,1,8,0:3:0:0:
372,300,30622,1,8,0:3:0:0:
406,239,30713,1,4,0:3:0:0:
385,164,30804,6,0,B|202:181|384:158|200:176,1,179.926671745773,6|0,1:0|0:0,0:0:0:0:
122,237,31077,2,0,B|131:271|148:267|111:150,1,89.9633358728867,8|0,0:3|0:0,0:0:0:0:
48,22,31259,1,10,0:0:0:0:
8,89,31350,2,0,B|8:190|20:191|52:91,1,153.660000586166,0|8,0:0|0:3,0:0:0:0:
129,7,31622,6,0,B|311:24|129:1|313:19,1,179.926671745773,2|0,1:0|0:0,0:0:0:0:
362,124,31895,2,0,B|353:158|336:154|373:37,1,89.9633358728867,8|0,0:3|0:0,0:0:0:0:
469,11,32077,1,10,0:0:0:0:
509,78,32168,2,0,B|509:179|497:180|465:80,1,153.660000586166,0|0,0:0|0:3,0:0:0:0:
307,19,32440,6,0,B|330:97|344:93|320:100|331:97|357:177,1,166.793332060801,2|0,1:0|0:0,0:0:0:0:
427,228,32713,2,0,B|456:216|461:229|382:257,1,83.3966660304006,8|0,0:3|0:0,0:0:0:0:
220,304,32895,1,8,0:0:0:0:
287,349,32986,2,0,B|381:363|387:332|294:298,1,153.660000586166,2|8,0:0|0:3,0:0:0:0:
27,238,33259,6,0,B|4:248|16:267|79:249|90:225,1,96.5299955075609,10|0,0:1|0:0,0:0:0:0:
232,139,33440,1,8,0:1:0:0:
155,108,33531,2,0,B|143:123|152:190|173:193,1,83.3966660304006
164,187,33804,2,0,B|153:180|142:122|155:108,1,83.3966660304006,8|0,0:0|0:0,0:0:0:0:
382,31,34077,6,0,B|447:36|395:168|463:183|532:180|555:110|533:57|471:52|431:76|431:76|385:97|350:95|329:62|337:58|324:15|255:6|206:39|201:96|267:153|305:103,1,659.949968782884,2|2,0:0|0:0,0:0:0:0:
467,288,35713,2,0,B|431:237|381:224|271:262|334:357|470:356|442:179|353:220|351:233|320:221|226:184|381:74|443:212|308:271|239:222,1,395.969981269731,2|2,0:0|0:0,0:0:0:0:
75,177,37350,6,0,B|42:114|64:34|139:-3|183:36|183:94|151:109,1,263.979987513154,2|0,0:0|0:0,0:0:0:0:
131,285,38168,2,0,B|212:289|270:256|269:180|206:155|157:169|144:221,1,263.979987513154,2|2,0:0|0:0,0:0:0:0:
237,375,38986,6,0,B|288:268|400:273|445:282|483:327|477:359|383:380|369:334|368:256|446:268|468:261|466:229,1,395.969981269731,2|2,0:0|0:0,0:0:0:0:
258,93,40622,5,2,0:0:0:0:
198,188,40759,1,2,0:0:0:0:
123,127,40895,5,2,0:0:0:0:
219,183,41031,1,2,0:0:0:0:
251,291,41168,1,2,0:0:0:0:
239,179,41304,1,2,0:0:0:0:
289,78,41440,1,2,0:0:0:0:
371,44,41713,5,0,0:0:0:0:
384,46,41781,1,0,0:0:0:0:
393,54,41850,1,0,0:0:0:0:
397,66,41918,1,0,0:0:0:0:
436,90,41986,5,0,0:0:0:0:
399,94,42054,1,0,0:0:0:0:
366,121,42122,1,0,0:0:0:0:
355,168,42190,1,0,0:0:0:0:
379,219,42259,6,0,P|347:207|307:206,1,72.3974966306707,2|0,0:0|0:0,0:0:0:0:
212,156,42395,2,0,P|178:168|145:206,1,72.3974966306707,2|0,0:0|0:0,0:0:0:0:
52,236,42531,6,0,P|42:271|78:286,1,72.3974966306707,2|0,0:0|0:0,0:0:0:0:
68,287,42668,2,0,P|78:252|42:237,1,72.3974966306707,2|0,0:0|0:0,0:0:0:0:
27,108,42804,6,0,P|48:137|97:155,1,72.3974966306707,2|0,0:0|0:0,0:0:0:0:
170,271,42940,2,0,P|207:263|239:226,1,72.3974966306707,2|0,0:0|0:0,0:0:0:0:
285,101,43077,2,0,P|280:84|252:90,10,42.8475003595905,2|0|0|0|0|0|0|0|0|0|0,3:0|0:0|0:0|0:0|0:0|0:0|0:0|0:0|0:0|0:0|0:0,0:0:0:0:
297,289,43895,6,0,B|291:239|315:192|358:171|398:194|426:158|414:90|329:116|346:174,1,263.979987513154,6|2,0:0|0:0,0:0:0:0:
501,366,44713,2,0,B|542:332|536:235|431:181|361:239|389:291|434:298,1,263.979987513154,2|2,0:0|0:0,0:0:0:0:
507,155,45531,6,0,B|519:110|420:105|407:158,2,131.989993756577,2|0|0,0:0|0:0|0:0,0:0:0:0:
348,244,46350,2,0,B|318:228|311:210|320:152|242:157|275:201,2,131.989993756577
121,353,47168,6,0,B|206:368|138:317|133:244|166:159|289:241|225:290|175:291,1,263.979987513154,2|2,0:0|0:0,0:0:0:0:
45,239,47986,6,0,B|32:159|-104:177|-4:38|117:70|-16:203|23:215|77:205|96:194,1,263.979987513154,2|0,0:0|0:0,0:0:0:0:
213,96,48804,2,0,B|132:94|169:311|88:304,1,263.979987513154,2|0,0:0|0:0,0:0:0:0:
246,213,49622,2,0,B|280:191|315:203|289:229|249:228,1,98.9924953174326,2|0,0:0|0:0,0:0:0:0:
223,243,49895,6,0,B|195:235|159:245|159:245|195:236|219:208,1,128.542501078772,10|0,0:0|0:0,0:0:0:0:
272,151,50168,2,0,B|305:141|349:153|349:153|305:142|276:108,1,158.0924951754,10|0,0:0|0:0,0:0:0:0:
200,36,50440,6,0,B|226:132|247:209|247:209|249:198|249:198|268:273|290:375,1,342.780002876724,14|8,0:0|0:0,0:0:0:0:
348,156,51259,2,0,B|347:150|347:150|356:147|356:147|356:133,4,21.4237501797953,0|0|0|0|0,3:0|0:0|0:0|0:0|0:0,0:0:0:0:
388,245,51531,6,0,P|344:196|286:201,1,128.542501078772,10|0,0:0|0:0,0:0:0:0:
266,221,51804,2,0,L|245:130,1,85.6950007191811,2|0,3:0|0:0,0:0:0:0:
154,319,52077,6,0,B|161:327|161:327|181:320,4,21.4237501797953,2|0|0|0|0,3:0|0:0|0:0|0:0|0:0,0:0:0:0:
80,261,52350,2,0,P|66:214|66:135,1,128.542501078772
81,121,52622,2,0,P|125:131|169:137,1,85.6950007191811,8|0,0:0|0:0,0:0:0:0:
347,106,52895,2,0,B|340:103|340:103|347:97|347:97|337:90,4,21.4237501797953,0|0|0|0|0,3:0|0:0|0:0|0:0|0:0,0:0:0:0:
410,42,53168,6,0,B|394:46|394:46|344:223,1,187.642498568401,10|0,0:0|0:0,0:0:0:0:
270,271,53440,2,0,B|301:306|322:362|322:362|319:301,1,166.793332060801,2|0,3:0|0:0,0:0:0:0:
250,155,53713,2,0,B|236:161|236:161|245:174,4,21.4237501797953,2|0|0|0|0,3:0|0:0|0:0|0:0|0:0,0:0:0:0:
250,155,54122,2,0,B|228:134|194:147|199:151|166:163|136:143,1,115.737498233986
93,82,54531,6,0,P|115:176|130:252,1,143.31750338962,10|0,0:1|0:0,0:0:0:0:
101,336,54804,2,0,P|70:323|57:265,1,95.5450022597466,2|0,0:0|0:0,0:0:0:0:
286,235,55077,2,0,P|222:241|170:313,1,143.31750338962,2|0,0:0|0:0,0:0:0:0:
237,371,55350,6,0,B|303:377|303:377|290:371|290:371|348:377|348:377|338:370|338:370|397:373|397:373|381:368|381:368|435:371|435:371|421:366|421:366|497:370,1,341.302493229778,2|0,3:0|0:0,0:0:0:0:
505,279,56031,1,0,0:0:0:0:
495,261,56100,1,0,0:0:0:0:
464,249,56168,6,0,B|423:255|369:280|369:280|400:250,1,127.393336346329,10|0,0:0|0:0,0:0:0:0:
423,164,56440,2,0,B|458:123|483:102|483:102|456:111|437:114,1,127.393336346329,10|0,0:0|0:0,0:0:0:0:
293,185,56713,2,0,B|319:182|345:192|345:192|312:168|298:133,1,127.393336346329,10|0,0:0|0:0,0:0:0:0:
263,25,56986,6,0,B|289:-3|357:25|283:96|226:64|224:63|187:40|135:70,1,230.49000087925,6|8,1:0|0:0,0:0:0:0:
168,227,57440,1,0,3:0:0:0:
186,245,57531,2,0,B|230:229|177:147|97:157,1,153.660000586166,8|0,0:0|3:0,0:0:0:0:
31,192,57804,1,2,1:0:0:0:
53,379,58077,6,0,B|68:349|160:309|195:336,1,153.660000586166,8|0,0:0|3:0,0:0:0:0:
253,384,58350,1,8,0:0:0:0:
137,171,58622,6,0,B|133:134|61:179|55:125|124:64|186:145|195:243,1,230.49000087925,2|8,1:0|0:0,0:0:0:0:
242,64,59077,1,0,3:0:0:0:
256,45,59168,2,0,B|260:15|205:7|208:54|263:101|255:141,1,153.660000586166,8|0,0:0|3:0,0:0:0:0:
292,300,59440,6,0,B|267:279|263:218|329:174|347:199,1,153.660000586166,2|0,1:0|0:0,0:0:0:0:
455,307,59713,2,0,B|427:335|382:320|383:300,1,76.8300002930832,8|0,0:0|0:0,0:0:0:0:
429,182,59895,1,0,3:0:0:0:
437,105,59986,2,0,B|452:62|517:20|511:89|481:146,1,153.660000586166,8|8,0:0|0:1,0:0:0:0:
402,292,60259,6,0,B|383:214|265:293|185:217|214:171|288:146|279:214,1,269.89000761866,2|8,1:0|0:0,0:0:0:0:
109,332,60713,1,0,3:0:0:0:
184,353,60804,2,0,B|206:324|187:253|119:229|88:297|123:321,1,179.926671745773,10|0,0:0|3:0,0:0:0:0:
280,372,61077,6,0,B|287:338|366:332|402:366|429:310|376:274|332:307|328:333,1,179.926671745773,2|0,1:0|0:0,0:0:0:0:
232,223,61350,2,0,B|229:254|282:271|301:247,1,89.9633358728867,10|0,0:0|0:0,0:0:0:0:
301,141,61531,1,0,3:0:0:0:
266,74,61622,2,0,B|249:40|283:13|330:84|316:173,1,153.660000586166,10|0,0:0|3:0,0:0:0:0:
393,250,61895,6,0,B|370:234|377:165|423:125|450:134,1,153.660000586166,2|0,1:0|0:0,0:0:0:0:
505,280,62168,2,0,B|504:302|462:326|430:308,1,76.8300002930832,8|0,0:0|0:0,0:0:0:0:
297,317,62350,1,0,3:0:0:0:
298,343,62440,2,0,B|307:371|379:364|355:301|282:259,1,153.660000586166,8|0,0:0|3:0,0:0:0:0:
180,223,62713,6,0,B|159:243|125:252|110:231|142:212,1,76.8300002930832,0|0,1:0|0:0,0:0:0:0:
285,150,62895,1,0,3:0:0:0:
258,166,62986,2,0,B|202:161|149:133|135:96|198:72|204:124,1,153.660000586166,8|0,0:0|3:0,0:0:0:0:
351,205,63259,1,8,0:0:0:0:
183,311,63440,1,0,3:0:0:0:
203,240,63531,6,0,B|285:180|346:336|426:257,1,230.49000087925,6|8,1:0|0:0,0:0:0:0:
285,150,63986,1,0,3:0:0:0:
287,66,64077,2,0,B|294:34|341:-8|354:-2|357:54|338:87,1,153.660000586166,10|0,0:0|0:0,0:0:0:0:
196,183,64350,6,0,B|238:211|188:315|265:344|293:270|232:256|219:214,1,179.926671745773,2|0,1:0|0:0,0:0:0:0:
117,193,64622,1,8,0:0:0:0:
8,297,64804,1,0,3:0:0:0:
33,367,64895,2,0,B|50:421|68:330|57:328|39:295|73:255,1,153.660000586166,10|0,0:0|3:0,0:0:0:0:
207,188,65168,6,0,B|234:203|240:255|157:254|129:183,1,153.660000586166,2|0,1:0|0:0,0:0:0:0:
39,72,65440,2,0,B|51:42|170:83|167:119,1,153.660000586166,8|0,0:0|3:0,0:0:0:0:
71,256,65713,2,0,B|49:248|37:203|50:190,1,76.8300002930832,10|0,0:0|0:0,0:0:0:0:
188,194,65895,1,0,0:0:0:0:
207,188,65986,2,0,B|223:214|144:302|155:329,1,153.660000586166,2|0,1:0|0:0,0:0:0:0:
298,362,66259,2,0,B|304:351|259:333|214:327,1,76.8300002930832,8|0,0:0|0:0,0:0:0:0:
47,345,66440,1,0,3:0:0:0:
62,368,66531,2,0,B|101:381|97:334|5:284|36:235,1,153.660000586166,8|0,0:0|3:0,0:0:0:0:
158,168,66804,6,0,B|189:192|166:237|98:156|111:127|56:107|22:149,1,193.059991015122,2|0,1:0|0:0,0:0:0:0:
30,247,67077,2,0,B|49:319|116:342|122:271|34:204,1,179.926671745773,10|0,0:0|3:0,0:0:0:0:
0,74,67350,2,8,B|23:74|48:100|46:130,1,76.8300002930832,10|0,0:0|0:0,0:0:0:0:
30,247,67531,1,0,3:0:0:0:
117,272,67622,6,0,B|99:225|55:202|-3:200|1:250|43:248,1,153.660000586166,2|0,1:0|0:0,0:0:0:0:
147,365,67895,2,0,B|169:341|201:337|208:347|265:339|296:328|267:278,1,153.660000586166,10|0,0:0|3:0,0:0:0:0:
238,192,68168,2,0,B|193:144|147:140|161:191|217:226,1,153.660000586166,10|0,0:0|3:0,0:0:0:0:
344,365,68440,6,0,B|349:336|484:339|482:308,1,153.660000586166,2|0,1:0|0:0,0:0:0:0:
465,179,68713,2,0,B|481:158|435:150|400:195|442:195,1,76.8300002930832,8|0,0:0|0:0,0:0:0:0:
504,322,68895,1,0,3:0:0:0:
482,311,68986,2,0,B|464:285|475:197|505:153,1,153.660000586166,8|0,0:0|3:0,0:0:0:0:
358,40,69259,6,0,B|374:26|402:119|402:146,1,96.5299955075609,0|0,1:0|0:0,0:0:0:0:
386,249,69440,1,0,3:0:0:0:
347,316,69531,2,0,B|299:371|291:240|346:149|372:243,1,193.059991015122,8|8,0:0|0:0,0:0:0:0:
426,349,69804,2,0,B|459:387|527:354|470:287|428:324,1,140.526662378133,8|8,0:3|0:0,0:0:0:0:
194,365,70077,6,0,B|202:399|259:418|296:318|195:295|185:293|146:335|81:258|140:189,1,289.589986522683,6|8,1:0|0:0,0:0:0:0:
296,154,70531,1,0,3:0:0:0:
302,177,70622,2,0,B|286:154|195:97|133:129,1,179.926671745773,8|0,0:0|3:0,0:0:0:0:
15,171,70895,2,0,B|-17:179|0:253|39:212|60:162|26:92,1,179.926671745773,2|0,1:0|3:0,0:0:0:0:
149,22,71168,2,0,B|122:41|120:87|127:122,1,89.9633358728867,8|0,0:0|0:0,0:0:0:0:
138,254,71350,1,0,3:0:0:0:
164,273,71440,2,0,B|204:263|303:216|194:212|139:230,1,179.926671745773,0|2,3:0|3:0,0:0:0:0:
3,335,71713,6,0,B|8:369|167:334|171:366,1,179.926671745773,2|0,1:0|0:0,0:0:0:0:
288,343,71986,2,0,B|257:343|217:341|252:322|292:303,1,89.9633358728867,8|0,0:0|0:0,0:0:0:0:
397,272,72168,1,0,3:0:0:0:
429,285,72259,2,0,B|451:304|454:359|321:309|243:254,1,179.926671745773,8|0,0:0|3:0,0:0:0:0:
266,151,72531,6,0,B|300:114|265:124|252:69|341:56|357:177|234:231,1,206.193334119898,2|0,1:0|0:0,0:0:0:0:
176,333,72804,2,0,B|202:344|174:395|215:421|234:347|199:283|193:297|171:263|189:201,1,206.193334119898,8|0,0:0|3:0,0:0:0:0:
194,110,73077,2,0,B|189:84|149:49|113:71|127:93,1,89.9633358728867,8|0,0:0|0:0,0:0:0:0:
184,250,73259,1,0,3:0:0:0:
185,226,73350,6,0,B|224:162|332:126|363:152,1,206.193334119898,2|0,1:0|0:0,0:0:0:0:
392,271,73622,2,0,B|383:318|361:337|353:309|382:250,1,103.096667059949,10|0,0:0|0:0,0:0:0:0:
484,190,73804,1,0,3:0:0:0:
454,113,73895,2,0,B|456:23|402:-12|382:48|445:127,1,206.193334119898,10|0,0:0|3:0,0:0:0:0:
511,276,74168,6,0,B|495:303|337:206|315:231,1,206.193334119898,2|0,1:0|0:0,0:0:0:0:
242,298,74440,2,0,B|245:334|269:374|285:373|281:335,1,89.9633358728867,10|0,0:0|0:0,0:0:0:0:
312,246,74622,1,0,3:0:0:0:
252,180,74713,2,0,B|191:160|134:195|157:223|124:260|51:245,1,179.926671745773,10|0,0:0|3:0,0:0:0:0:
10,139,74986,6,0,B|16:116|51:149|59:202|36:189,1,89.9633358728867,2|0,1:0|0:0,0:0:0:0:
34,351,75168,1,0,3:0:0:0:
48,372,75259,2,0,B|40:337|52:277|122:288|130:218,1,179.926671745773,8|0,0:0|3:0,0:0:0:0:
161,104,75531,2,0,B|198:97|179:189|207:176,1,89.9633358728867,8|0,0:0|0:0,0:0:0:0:
285,319,75713,5,0,3:0:0:0:
339,260,75804,2,0,B|326:223|211:235|201:275,1,153.660000586166,0|0,1:0|3:0,0:0:0:0:
135,318,76077,2,0,B|173:342|212:303|153:229|104:205,1,153.660000586166,8|0,0:0|3:0,0:0:0:0:
42,155,76350,2,0,B|20:136|39:48|127:118|41:192,1,153.660000586166,8|0,0:0|3:0,0:0:0:0:
21,285,76622,6,0,B|-19:329|32:360|96:254|194:170|223:248,1,269.89000761866,6|8,1:0|0:0,0:0:0:0:
169,66,77077,1,0,3:0:0:0:
95,97,77168,2,0,B|36:77|40:172|156:106|186:81,1,179.926671745773,10|0,0:0|3:0,0:0:0:0:
319,32,77440,6,0,B|332:84|232:250|264:89,1,179.926671745773,2|0,1:0|0:0,0:0:0:0:
395,90,77713,2,0,B|427:87|455:117|415:126|388:97,1,89.9633358728867,10|0,0:0|0:0,0:0:0:0:
241,144,77895,1,0,3:0:0:0:
185,82,77986,2,0,B|139:87|147:22|251:21|260:138,1,179.926671745773,10|0,0:0|3:0,0:0:0:0:
259,296,78259,6,0,B|185:349|180:233|256:226|334:283|324:292|405:303|476:259|428:159|386:242,1,328.989989709023,2|8,1:0|0:0,0:0:0:0:
158,146,78713,1,0,3:0:0:0:
230,182,78804,2,0,B|338:197|391:115|302:77|294:142,1,206.193334119898,10|0,0:0|3:0,0:0:0:0:
328,296,79077,6,0,B|378:240|464:222|500:273,1,179.926671745773,2|0,1:0|0:0,0:0:0:0:
505,374,79350,2,0,B|468:382|448:348|427:303,1,89.9633358728867,8|0,0:0|0:0,0:0:0:0:
436,141,79531,1,0,3:0:0:0:
444,122,79622,2,0,B|489:102|544:196|419:228,1,179.926671745773,8|8,0:0|0:3,0:0:0:0:
328,296,79895,6,0,P|343:184|369:117,2,164.494994854511,14|10|10,0:1|0:1|0:1,0:0:0:0:
248,145,80304,1,10,0:1:0:0:
176,73,80440,2,0,P|226:173|245:264,1,164.494994854511,10|10,0:3|0:3,0:0:0:0:
89,333,80713,2,0,B|47:330|26:361|26:361|65:266|164:287|181:347|178:397,1,246.742492281767,14|0,0:3|0:0,0:0:0:0:
249,384,80986,6,0,P|247:337|300:288,1,114.260000958908,8|0,0:0|0:0,0:0:0:0:
371,219,81259,1,8,0:3:0:0:
346,203,81350,1,8,0:3:0:0:
386,177,81440,1,8,0:3:0:0:
343,152,81531,6,0,B|289:143|242:205|196:198|211:172,1,153.660000586166,14|0,0:3|0:0,0:0:0:0:
321,51,81804,2,0,B|380:46|471:93|453:140,1,166.793332060801,10|0,0:3|3:0,0:0:0:0:
404,278,82077,2,0,B|310:273|274:181|337:145|358:148,1,193.059991015122,10|0,0:3|0:0,0:0:0:0:
512,184,82350,6,0,P|488:229|481:283,1,87.9933291710512,14|0,0:0|0:0,0:0:0:0:
412,298,82622,2,0,P|425:333|465:345,3,52.6974983918,8|8|8|8,0:0|0:0|0:0|0:0,0:0:0:0:
355,220,82895,5,10,0:3:0:0:
365,202,82963,1,8,0:3:0:0:
360,177,83031,1,8,0:3:0:0:
378,144,83100,1,8,0:3:0:0:
366,93,83168,6,0,B|252:88|203:229|285:309,1,269.89000761866,14|8,0:1|0:3,0:0:0:0:
83,72,85622,6,0,P|114:94|135:153,2,92.5899985871887,8|0|4,0:0|0:0|0:3,0:0:0:0:
208,242,86440,2,0,B|183:157|263:45|362:33|420:97|420:221|301:219|232:197|212:90,1,509.244992229538,12|0,0:3|0:0,0:0:0:0:
70,35,88077,6,0,P|132:13|184:140,1,231.474996467972,12|0,0:3|0:0,0:0:0:0:
60,233,88895,2,0,B|-9:233|-12:126|112:123|109:202|98:264,1,231.474996467972,4|0,0:3|0:0,0:0:0:0:
74,384,89713,6,0,P|107:344|161:333,2,92.5899985871887,12|0|0,0:3|0:0|0:0,0:0:0:0:
148,244,90531,2,0,P|205:251|222:295,2,92.5899985871887,4|0|4,0:3|0:0|0:3,0:0:0:0:
259,365,91350,6,0,P|286:351|297:326,1,46.2949992935944,4|0,0:3|0:0,0:0:0:0:
372,324,91622,2,0,P|383:295|376:269,1,46.2949992935944
432,219,91895,2,0,P|422:189|400:174,1,46.2949992935944,4|0,0:3|0:0,0:0:0:0:
316,119,92168,6,0,P|300:136|327:151,1,46.2949992935944,4|0,0:3|0:0,0:0:0:0:
415,167,92440,2,0,P|408:144|381:160,1,46.2949992935944
335,235,92713,2,0,P|350:243|347:221,1,46.2949992935944,4|0,0:3|0:0,0:0:0:0:
125,240,92986,6,0,P|171:236|210:202,2,92.5899985871887,4|0|4,0:3|0:0|0:3,0:0:0:0:
1,158,93713,1,8,0:3:0:0:
5,141,93804,2,0,P|44:140|75:183,2,92.5899985871887,4|0|4,0:3|0:0|0:3,0:0:0:0:
80,0,94622,6,0,P|102:28|109:100,1,92.5899985871887,4|0,0:3|0:0,0:0:0:0:
135,227,95077,1,0,0:0:0:0:
120,212,95168,2,0,P|125:181|163:167,1,61.7266657247925
202,114,95440,6,0,L|223:123,4,15.4316664311981,8|0|0|0|0,0:3|0:0|0:0|0:0|0:0,0:0:0:0:
278,196,95713,2,0,P|299:185|345:177,1,61.7266657247925,0|8,0:0|0:3,0:0:0:0:
409,207,95986,1,4,0:3:0:0:
386,28,96190,6,0,P|322:21|299:105,1,157.107501318499,2|0,0:0|0:0,0:0:0:0:
242,197,96531,2,0,B|298:235|351:198|332:147,1,114.260000958908
200,109,96804,2,0,P|164:152|154:230,1,114.260000958908
250,368,97077,6,0,P|261:321|169:287,1,140.526662378133,2|0,0:0|0:0,0:0:0:0:
120,338,97350,2,0,B|74:395|-13:361|33:331,1,140.526662378133
95,252,97622,2,0,P|131:254|116:318,1,114.260000958908
17,205,97895,6,0,P|13:154|58:115,2,112.289998629272,2|0|0,0:0|0:0|0:0,0:0:0:0:
197,220,98713,2,0,P|138:223|83:268,2,112.289998629272,2|0|0,0:0|0:0|0:0,0:0:0:0:
251,347,99531,6,0,P|310:358|351:304,1,101.126664660675,2|0,0:0|0:0,0:0:0:0:
422,327,99804,2,0,P|425:273|382:229,1,101.126664660675
327,199,100077,2,0,P|326:146|392:134,1,114.260000958908
466,211,100350,6,0,P|378:209|290:277,2,191.090004519493,2|0|0,0:0|0:0|0:0,0:0:0:0:
221,198,101168,2,0,P|243:120|298:109,1,127.393336346329,2|0,0:0|0:0,0:0:0:0:
286,31,101440,2,0,P|368:44|389:85,1,127.393336346329
462,99,101713,2,0,P|426:163|366:159,1,114.260000958908
125,91,101986,6,0,B|206:72|206:72|182:109,2,118.199996392822,2|0|0,3:0|0:0|0:0,0:0:0:0:
216,266,102804,2,0,B|210:245|210:245|59:218|59:218|51:197,1,196.999993988037
172,165,103349,2,0,L|254:179,1,78.7999975952149
54,101,103622,6,0,B|8:71|8:71|181:44|181:44|201:87,1,262.666666666667,2|0,3:0|0:0,0:0:0:0:
289,127,104167,2,0,B|268:200|268:200|242:169,1,105.066666666667
282,27,104440,2,0,B|413:38|413:38|436:88,2,157.6
373,165,105258,6,0,B|394:191|394:191|511:148|511:148|517:51,1,236.399992785645,2|0,3:0|0:0,0:0:0:0:
340,49,106076,2,0,B|314:82|314:82|346:165,2,118.199996392822
509,226,106895,6,0,B|468:252|468:252|342:217|342:217|332:198|332:198|237:221|237:221|223:277,1,354.599989178467,2|0,3:0|0:0,0:0:0:0:
276,127,107713,2,0,B|251:72|251:72|189:78|189:78|172:132|172:132|252:216|252:216|231:302,1,354.599989178467
27,177,108531,5,14,0:3:0:0:
100,121,108804,2,0,P|142:147|132:226,1,118.199996392822,2|2,3:0|3:0,0:0:0:0:
92,29,109349,1,6,0:3:0:0:
194,81,109622,6,0,L|178:129,2,39.3999987976075
263,34,109895,2,0,L|220:90,2,59.0999981964112
415,79,110167,6,0,P|380:127|302:123,2,137.899995791626,6|2|2,0:3|3:0|3:0,0:0:0:0:
195,210,110986,2,0,P|268:218|299:274,1,137.899995791626,6|0,0:3|0:0,0:0:0:0:
93,309,111804,5,2,0:0:0:0:
74,200,111940,1,0,0:0:0:0:
23,102,112076,1,0,0:0:0:0:
88,216,112213,5,2,0:0:0:0:
139,118,112349,1,0,0:0:0:0:
158,9,112486,1,0,0:0:0:0:
148,135,112622,5,2,0:0:0:0:
261,199,112758,1,0,0:0:0:0:
284,189,112895,1,0,0:0:0:0:
85,238,113031,1,2,0:0:0:0:
98,253,113167,1,0,0:0:0:0:
219,296,113304,1,0,0:0:0:0:
356,121,113440,5,2,0:0:0:0:
269,140,113576,1,0,0:0:0:0:
201,309,113713,5,0,0:0:0:0:
289,255,113849,1,2,0:0:0:0:
270,152,113986,1,0,0:0:0:0:
9,318,114122,5,0,0:0:0:0:
35,211,114258,1,2,0:0:0:0:
139,181,114395,1,0,0:0:0:0:
155,194,114531,1,0,0:0:0:0:
148,47,114667,5,2,0:0:0:0:
218,120,114804,1,0,0:0:0:0:
346,144,114940,1,0,0:0:0:0:
499,76,115076,6,0,P|438:82|399:214,1,206.849993687439,2|0,0:0|0:0,0:0:0:0:
360,293,115622,2,0,P|384:319|426:325,1,68.9499978958131,2|0,0:0|0:0,0:0:0:0:
503,232,115895,6,0,P|387:235|319:308,1,206.849993687439,2|0,0:0|0:0,0:0:0:0:
220,377,116440,2,0,P|258:375|283:354,1,68.9499978958131,2|0,0:0|0:0,0:0:0:0:
344,169,116713,6,0,P|305:89|173:98,1,206.849993687439,2|0,0:0|0:0,0:0:0:0:
117,195,117258,2,0,P|178:222|198:216,1,68.9499978958131,2|0,0:0|0:0,0:0:0:0:
324,184,117531,2,0,P|251:185|240:297,1,197,2|0,0:0|0:0,0:0:0:0:
432,246,118349,6,0,P|437:194|490:111,2,137.899995791626,2|0|0,0:0|0:0|0:0,0:0:0:0:
455,376,119167,2,0,P|416:336|328:303,2,137.899995791626,2|0|0,0:0|0:0|0:0,0:0:0:0:
354,212,119986,6,0,P|298:218|285:241,1,68.9499978958131,2|0,0:0|0:0,0:0:0:0:
217,202,120258,2,0,P|196:233|201:269,1,68.9499978958131,2|0,0:0|0:0,0:0:0:0:
185,376,120531,2,0,P|236:335|237:309,1,68.9499978958131,2|0,0:0|0:0,0:0:0:0:
156,149,120804,6,0,L|86:132,3,68.9499978958131,2|0|0|0,0:0|0:0|0:0|0:0,0:0:0:0:
227,180,121349,2,0,L|171:132,1,68.9499978958131
339,37,121622,6,0,B|336:48|336:48|328:63|328:63|322:77|322:77|318:80|318:80|321:107|321:107|318:112|318:112|311:147,3,108.35000330658,2|2|2|2,0:0|0:0|0:0|0:0,0:0:0:0:
433,257,122167,2,0,B|438:242|438:242|433:224|433:224|431:224|431:224|418:205|418:205|415:203|415:203|411:165|411:165|408:157,2,108.35000330658,2|2|2,0:0|0:0|0:0,0:0:0:0:
0,32,122713,6,0,B|43:43|43:43|48:57,1,58.6075003577118,2|0,3:0|0:0,0:0:0:0:
66,64,123258,5,2,0:0:0:0:
12,185,123395,1,2,0:0:0:0:
26,316,123531,1,2,0:0:0:0:
43,321,123667,5,2,0:0:0:0:
171,280,123804,1,2,0:0:0:0:
241,165,123940,1,2,0:0:0:0:
220,34,124076,1,2,0:0:0:0:
141,61,124349,6,0,P|227:74|329:103,1,187.642498568401
344,85,124622,2,0,P|308:94|273:107,1,69.4424989403916
208,157,124895,6,0,B|159:239|219:350|333:266|273:199,1,257.085002157543,2|0,0:0|0:0,0:0:0:0:
157,88,125440,2,0,B|136:72|80:132|46:140|24:115,1,128.542501078772,2|0,0:0|0:0,0:0:0:0:
44,107,125713,2,0,B|97:122|153:233|94:293,1,197.984990634865,2|0,0:0|0:0,0:0:0:0:
270,298,126258,2,0,B|261:262|236:252|208:252,1,69.4424989403916,2|0,0:0|0:0,0:0:0:0:
209,261,126531,6,0,B|225:274|344:225|356:240,2,151.689996991013,2|0|0,0:0|0:0|0:0,0:0:0:0:
91,153,127349,2,0,B|71:125|157:131|173:188,2,112.289998629272
64,344,128167,6,0,B|61:403|155:283|25:218,1,197.984990634865,2|0,0:0|0:0,0:0:0:0:
11,94,128713,2,0,B|-8:89|-24:123|14:143|62:114|89:86,1,113.767497743259
91,113,128986,2,0,B|116:25|235:4|319:49|286:177|199:144,1,342.780002876724,2|0,0:0|0:0,0:0:0:0:
452,236,129804,6,0,B|463:191|412:165|411:174|365:206|323:166|315:96|353:52|435:54|446:124,1,303.379993982025,2|0,0:0|0:0,0:0:0:0:
392,314,130622,2,0,P|359:303|333:257,1,74.8599990861816,2|0,0:0|0:0,0:0:0:0:
256,250,130895,2,0,P|252:194|292:149,1,101.126664660675,10|0,0:0|0:0,0:0:0:0:
262,62,131167,2,0,P|339:50|381:89,1,127.393336346329,10|0,0:0|0:0,0:0:0:0:
512,218,131440,6,0,B|503:212|503:212|437:228|437:228|432:241,1,88.6500021643067,6|0,0:0|0:0,0:0:0:0:
418,241,131986,1,8,0:0:0:0:
19,325,132258,6,0,L|28:328,4,6.648750162323,2|0|0|0|0,3:0|0:0|0:0|0:0|0:0,0:0:0:0:
116,286,132531,1,10,0:0:0:0:
289,360,132804,2,0,B|285:364|285:364|291:347|293:328,1,39.892500973938,2|0,3:0|0:0,0:0:0:0:
242,262,133076,6,0,L|244:271,4,6.648750162323,2|0|0|0|0,3:0|0:0|0:0|0:0|0:0,0:0:0:0:
185,209,133622,1,8,0:0:0:0:
337,46,133895,6,0,L|339:34,4,6.648750162323,0|0|0|0|0,3:0|0:0|0:0|0:0|0:0,0:0:0:0:
396,94,134167,2,0,B|394:87|394:87|313:69,1,74.8599990861816,10|0,0:0|0:0,0:0:0:0:
259,18,134440,2,0,B|255:28|255:28|141:50,1,101.126664660675,2|0,3:0|0:0,0:0:0:0:
119,117,134713,6,0,L|121:105,4,9.11125022244263,2|0|0|0|0,3:0|0:0|0:0|0:0|0:0,0:0:0:0:
32,333,135531,6,0,L|39:358,1,22.3266668029378,10|0,0:1|0:0,0:0:0:0:
51,362,135804,6,0,P|79:334|64:257,1,114.260000958908,2|0,0:0|0:0,0:0:0:0:
8,215,136076,2,0,P|-2:169|100:139,1,166.793332060801,2|0,0:0|0:0,0:0:0:0:
220,241,136349,2,0,B|243:216|246:177|218:129|163:148|139:182|149:221,1,194.373338078776,2|0,3:0|1:0,0:0:0:0:
132,300,137167,6,0,B|174:256|250:230|296:261,1,179.926671745773,8|0,0:0|0:0,0:0:0:0:
413,327,137440,2,0,B|371:368|296:341|295:276,1,153.660000586166,8|0,0:0|0:0,0:0:0:0:
339,197,137713,2,0,B|348:154|397:180|409:244|366:234,1,114.260000958908,8|0,0:0|0:0,0:0:0:0:
294,260,137986,6,0,B|269:197|327:155|331:161|365:135|349:61|295:69,1,230.49000087925,6|8,1:0|0:0,0:0:0:0:
177,195,138440,1,0,3:0:0:0:
201,199,138531,2,0,B|216:183|214:150|129:146|94:218,1,153.660000586166,8|0,0:0|3:0,0:0:0:0:
55,384,138804,6,0,B|85:347|-19:264|18:225,1,166.793332060801,2|0,1:0|0:0,0:0:0:0:
36,116,139076,2,0,B|39:80|80:125|26:159,1,83.3966660304006,8|0,0:0|0:0,0:0:0:0:
21,252,139258,1,0,3:0:0:0:
13,230,139349,2,0,B|72:215|143:252|146:304,1,166.793332060801,8|0,0:0|3:0,0:0:0:0:
207,378,139622,6,0,B|190:390|161:338|170:268|224:236|227:246|289:245|283:182,1,250.189998091202,2|8,1:0|0:0,0:0:0:0:
119,83,140076,1,0,3:0:0:0:
96,82,140167,2,0,B|61:86|47:147|149:102|213:60,1,166.793332060801,8|0,0:0|3:0,0:0:0:0:
334,29,140440,6,0,B|302:-5|233:89|335:166,1,179.926671745773,2|0,1:0|0:0,0:0:0:0:
432,222,140713,2,0,B|466:236|533:225|493:136|401:198,1,179.926671745773,8|0,0:0|3:0,0:0:0:0:
323,245,140986,1,8,0:0:0:0:
397,370,141167,5,8,0:1:0:0:
462,330,141258,2,0,B|389:284|338:341|321:419|213:388|251:315|299:341,1,269.89000761866,2|8,1:0|0:0,0:0:0:0:
191,243,141713,1,0,3:0:0:0:
163,170,141804,2,0,B|135:161|116:59|224:178|212:259,1,179.926671745773,10|0,0:0|3:0,0:0:0:0:
193,372,142076,6,0,B|104:352|50:310|81:280|133:336,1,179.926671745773,2|0,1:0|0:0,0:0:0:0:
250,316,142349,2,0,B|260:315|315:283|309:270|274:294,1,83.3966660304006,10|0,0:0|0:0,0:0:0:0:
158,244,142531,1,0,3:0:0:0:
139,234,142622,2,0,B|109:194|82:159|111:159|129:190|155:229,1,140.526662378133,10|0,0:0|3:0,0:0:0:0:
125,328,142895,5,2,1:0:0:0:
349,269,143076,1,0,0:0:0:0:
367,267,143167,2,0,B|396:240|314:206|272:300,1,140.526662378133,8|0,0:0|3:0,0:0:0:0:
235,379,143440,2,0,B|254:331|164:244|180:211|227:241,1,166.793332060801,8|0,0:0|3:0,0:0:0:0:
258,171,143713,1,0,1:0:0:0:
446,267,143895,6,0,B|424:309|365:241|339:159|377:147|408:127|381:76,1,250.189998091202,0|0,3:0|3:0,0:0:0:0:
332,0,144258,2,0,B|296:1|278:80|310:117,1,114.260000958908,8|0,0:0|3:0,0:0:0:0:
336,216,144531,6,0,B|386:223|326:103|246:202|263:202|182:273|123:203,1,269.89000761866,6|8,1:0|0:0,0:0:0:0:
35,111,144986,1,0,3:0:0:0:
28,36,145076,2,0,B|9:-22|-11:70|48:179,1,179.926671745773,10|0,0:0|0:0,0:0:0:0:
130,315,145349,2,0,B|136:356|23:385|20:200|173:197,1,269.89000761866,2|8,1:0|0:0,0:0:0:0:
335,248,145804,1,0,3:0:0:0:
358,251,145895,2,0,B|385:275|383:322|294:262|233:238,1,153.660000586166,10|0,0:0|3:0,0:0:0:0:
121,112,146167,6,0,B|157:75|257:131|249:173,1,166.793332060801,2|0,1:0|0:0,0:0:0:0:
173,292,146440,2,0,B|152:272|162:212|205:214,1,83.3966660304006,8|0,0:0|0:0,0:0:0:0:
332,162,146622,1,0,3:0:0:0:
346,148,146713,2,0,B|370:143|342:225|317:218|275:242|292:300|322:247,1,153.660000586166,10|0,0:0|0:0,0:0:0:0:
417,237,146986,6,0,B|377:174|355:68|407:75,1,179.926671745773,2|0,1:0|0:0,0:0:0:0:
461,124,147258,1,8,0:0:0:0:
512,332,147440,1,0,3:0:0:0:
455,379,147531,2,0,B|413:378|380:335|388:329|361:275|284:285|284:359,1,179.926671745773,8|0,0:0|3:0,0:0:0:0:
229,380,147804,6,0,B|262:418|280:350|256:270|225:215|201:257,1,206.193334119898,2|0,1:0|0:0,0:0:0:0:
129,341,148076,1,10,0:0:0:0:
60,184,148258,1,0,3:0:0:0:
41,171,148349,2,8,B|5:110|23:49|64:100|64:177,1,166.793332060801,10|0,0:0|3:0,0:0:0:0:
25,273,148622,6,0,B|-25:286|41:169|145:187|178:201,1,206.193334119898,2|0,1:0|0:0,0:0:0:0:
266,233,148895,2,0,B|288:257|282:304|248:269|248:213,1,89.9633358728867,10|0,0:0|0:0,0:0:0:0:
199,127,149076,1,0,3:0:0:0:
222,55,149167,2,0,B|211:-10|270:-37|285:18|228:67,1,153.660000586166,10|0,0:0|3:0,0:0:0:0:
123,192,149440,6,0,B|157:147|285:116|307:135|318:153|377:134,1,230.49000087925,2|8,1:0|0:0,0:0:0:0:
476,39,149895,1,0,3:0:0:0:
464,21,149986,2,0,B|429:9|427:79|480:166,1,153.660000586166,8|0,0:0|3:0,0:0:0:0:
495,269,150258,6,0,B|477:250|433:225|404:240,1,96.5299955075609,0|0,1:0|0:0,0:0:0:0:
245,221,150440,1,0,3:0:0:0:
231,303,150531,2,0,B|235:346|285:396|330:373|333:300|299:265,1,193.059991015122,8|8,0:0|0:0,0:0:0:0:
186,162,150804,2,0,B|157:137|160:76|197:60|243:102|243:139,1,166.793332060801,8|8,0:3|0:0,0:0:0:0:
245,221,151076,6,0,B|173:169|30:158|37:231,1,230.49000087925,6|8,1:0|0:0,0:0:0:0:
192,317,151531,1,0,3:0:0:0:
214,326,151622,2,0,B|250:312|223:255|160:286|159:341|125:347,1,153.660000586166,8|0,0:0|3:0,0:0:0:0:
43,323,151895,1,2,1:0:0:0:
120,80,152167,6,0,B|121:68|110:28|74:19,1,76.8300002930832,8|0,0:0|0:0,0:0:0:0:
6,75,152349,1,0,3:0:0:0:
19,96,152440,1,0,3:0:0:0:
256,304,152713,6,0,B|241:272|193:261|181:276|104:307|71:197|148:145|191:211,1,250.189998091202,2|8,1:0|0:0,0:0:0:0:
162,348,153167,1,0,3:0:0:0:
180,360,153258,2,0,B|195:396|69:356|26:300,1,166.793332060801,8|0,0:0|3:0,0:0:0:0:
8,162,153531,6,0,B|3:118|66:81|112:170|54:217,1,179.926671745773,2|0,1:0|0:0,0:0:0:0:
5,354,153804,2,0,B|-13:346|8:295|57:300,1,89.9633358728867,8|0,0:0|0:0,0:0:0:0:
262,267,153986,1,0,3:0:0:0:
285,284,154076,2,0,B|220:337|155:293|152:275|162:258|89:257,1,179.926671745773,8|0,0:0|3:0,0:0:0:0:
43,121,154349,6,0,B|71:89|-5:92|5:22|99:-2|162:101|87:185|12:177|35:240,1,289.589986522683,2|8,1:0|0:0,0:0:0:0:
133,337,154804,1,0,3:0:0:0:
155,334,154895,2,0,B|184:331|135:397|195:438|250:348|202:304|158:281,1,193.059991015122,10|0,0:0|3:0,0:0:0:0:
49,254,155167,1,2,1:0:0:0:
276,302,155440,6,0,B|314:304|344:275|349:250,1,83.3966660304006,10|0,0:0|0:0,0:0:0:0:
311,141,155622,1,0,3:0:0:0:
305,115,155713,2,0,B|273:92|249:176|334:240,1,153.660000586166,10|0,0:0|3:0,0:0:0:0:
431,280,155986,5,2,1:0:0:0:
499,146,156167,1,0,3:0:0:0:
508,128,156258,2,0,B|486:101|384:186|367:164,1,153.660000586166,8|0,0:0|3:0,0:0:0:0:
305,115,156531,2,0,B|274:77|294:8|352:-14|321:77,1,153.660000586166,8|0,0:0|3:0,0:0:0:0:
290,212,156804,6,0,B|260:172|187:137|150:163,1,153.660000586166,0|0,1:0|3:0,0:0:0:0:
78,213,157076,2,0,B|54:211|10:253|169:199,1,76.8300002930832,8|0,0:0|0:0,0:0:0:0:
196,262,157258,1,0,3:0:0:0:
203,238,157349,1,8,0:0:0:0:
455,212,157531,5,0,3:0:0:0:
420,127,157622,2,0,B|391:98|272:158|360:292|442:303,1,269.89000761866,6|8,1:0|0:0,0:0:0:0:
277,356,158076,1,0,3:0:0:0:
194,336,158167,2,0,B|163:310|199:231|299:302|272:356|252:380,1,179.926671745773,10|0,0:0|3:0,0:0:0:0:
123,381,158440,6,0,B|81:337|20:181|117:142,1,269.89000761866,2|8,1:0|0:0,0:0:0:0:
266,206,158895,1,0,3:0:0:0:
284,208,158986,2,0,B|303:232|294:281|208:287|184:229,1,153.660000586166,10|0,0:0|3:0,0:0:0:0:
80,144,159258,6,0,B|-20:76|108:1|198:43|310:98|292:110|299:190|427:178|365:92,1,449.816679364434,2|0,1:0|3:0,0:0:0:0:
289,22,159804,2,0,B|257:7|235:115|296:234,1,206.193334119898,10|0,0:0|3:0,0:0:0:0:
468,306,160076,6,0,B|558:243|469:116|342:239|417:288|428:309|451:334|461:338|405:414|276:458|187:355|287:264|378:324|381:334|417:301|411:260,1,515.483335299746,2|0,1:0|3:0,0:0:0:0:
367,198,160622,1,8,0:0:0:0:
131,237,160804,5,8,0:3:0:0:
148,247,160895,2,0,P|130:120|100:59,2,164.494994854511,14|10|10,0:1|0:1|0:1,0:0:0:0:
271,359,161304,1,10,0:1:0:0:
282,222,161440,2,0,P|208:307|185:356,1,164.494994854511,10|10,0:3|0:3,0:0:0:0:
243,106,161713,5,14,0:3:0:0:
361,58,161986,2,0,P|330:61|306:70,1,48.593334519694,8|0,0:0|0:0,0:0:0:0:
240,128,162258,1,8,0:3:0:0:
284,146,162349,1,8,0:3:0:0:
257,199,162440,1,8,0:3:0:0:
306,231,162531,6,0,B|377:251|429:194|429:194|375:289,1,166.793332060801,14|0,0:3|0:0,0:0:0:0:
290,322,162804,2,0,B|217:317|179:250|179:250|182:286,1,166.793332060801,10|0,0:3|3:0,0:0:0:0:
373,365,163076,2,0,B|384:386|384:386|385:294|334:233,1,166.793332060801,10|0,0:3|0:0,0:0:0:0:
319,159,163349,6,0,L|264:151,1,48.593334519694,14|0,0:0|0:0,0:0:0:0:
239,164,163622,1,8,0:0:0:0:
234,150,163690,1,8,0:0:0:0:
229,136,163758,1,8,0:0:0:0:
224,122,163827,1,8,0:0:0:0:
219,108,163895,5,10,0:3:0:0:
217,78,163963,1,8,0:3:0:0:
239,49,164031,1,8,0:3:0:0:
286,44,164099,1,8,0:3:0:0:
329,88,164167,6,0,P|289:168|266:282,1,191.090004519493,14|8,0:1|0:3,0:0:0:0:
419,360,164622,1,8,0:3:0:0:
441,350,164713,2,0,P|457:285|344:259,1,191.090004519493,4|8,0:3|0:3,0:0:0:0:
178,331,165167,5,0,0:0:0:0:
197,349,165258,2,0,P|260:340|277:272,1,127.393336346329,12|8,0:3|0:3,0:0:0:0:
255,200,165531,1,4,0:3:0:0:
39,272,165804,6,0,B|-6:258|-6:258|112:227,1,127.393336346329,4|0,0:3|0:0,0:0:0:0:
146,220,166076,1,12,0:3:0:0:
22,122,166258,1,8,0:3:0:0:
11,96,166349,1,4,0:3:0:0:
155,2,166622,6,0,B|143:7|143:7|120:127,1,127.393336346329,4|0,0:3|0:0,0:0:0:0:
58,199,166895,2,0,B|67:200|67:200|84:265,1,63.6966681731644,4|0,0:3|0:0,0:0:0:0:
152,338,167076,1,8,0:3:0:0:
137,367,167167,1,4,0:3:0:0:
190,229,167349,5,0,0:0:0:0:
204,208,167440,2,0,B|217:202|217:202|314:223|314:223|328:212,1,127.393336346329,12|8,0:3|0:3,0:0:0:0:
378,160,167713,1,4,0:3:0:0:
458,288,167895,1,8,0:3:0:0:
420,275,167986,1,4,0:3:0:0:
487,64,168258,6,0,P|497:76|465:177,1,127.393336346329,4|8,0:3|0:3,0:0:0:0:
397,178,168531,1,4,0:3:0:0:
331,69,168713,1,8,0:3:0:0:
346,23,168804,1,4,0:3:0:0:
293,196,168986,5,8,0:3:0:0:
285,178,169076,2,0,P|229:140|163:133,1,127.393336346329,12|8,0:3|0:3,0:0:0:0:
98,165,169349,1,4,0:3:0:0:
164,310,169531,1,8,0:3:0:0:
185,268,169622,1,4,0:3:0:0:
7,359,169895,5,4,0:3:0:0:
42,196,170076,1,8,0:3:0:0:
47,174,170167,2,0,P|74:193|85:225,1,63.6966681731644,4|0,0:3|0:0,0:0:0:0:
108,373,170349,1,8,0:3:0:0:
102,330,170440,1,4,0:3:0:0:
271,179,170622,5,0,0:0:0:0:
251,255,170713,2,0,P|240:167|205:110,1,151.689996991013,12|0,0:3|3:0,0:0:0:0:
58,45,171167,1,0,1:0:0:0:
52,48,171258,2,0,P|106:34|169:27,1,101.126664660675,0|0,1:0|0:0,0:0:0:0:
314,46,171531,6,0,P|253:56|221:110,1,101.126664660675,0|0,1:0|0:0,0:0:0:0:
153,108,171804,2,0,P|131:165|161:220,1,101.126664660675,0|0,3:0|0:0,0:0:0:0:
110,287,172076,2,0,P|149:334|211:335,1,101.126664660675,0|0,1:0|0:0,0:0:0:0:
359,242,172349,6,0,B|355:237|355:237|200:260,1,151.689996991013,0|8,1:0|0:0,0:0:0:0:
414,367,172804,1,0,1:0:0:0:
412,373,172895,2,0,L|442:259,1,101.126664660675,0|0,1:0|0:0,0:0:0:0:
503,197,173167,6,0,B|491:196|491:196|462:101,1,101.126664660675,0|0,1:0|0:0,0:0:0:0:
476,16,173440,2,0,B|473:27|473:27|400:51|400:51|385:44,1,101.126664660675,8|0,0:3|0:0,0:0:0:0:
339,117,173713,2,0,B|336:111|336:111|225:90,1,101.126664660675,0|0,3:0|0:0,0:0:0:0:
66,128,173986,5,0,3:0:0:0:
199,259,174167,1,0,0:0:0:0:
162,249,174258,1,0,0:0:0:0:
351,220,174440,1,8,0:3:0:0:
0,334,174804,5,0,0:0:0:0:
185,197,174986,1,0,0:0:0:0:
126,209,175076,1,8,0:1:0:0:
361,255,175258,1,8,0:3:0:0:
190,357,175622,5,0,0:0:0:0:
140,271,175804,1,0,0:0:0:0:
142,266,175895,1,0,0:0:0:0:
218,193,176167,5,0,0:0:0:0:
155,62,176349,1,0,0:0:0:0:
151,66,176440,2,0,L|275:43,1,101.126664660675,8|0,0:1|0:0,0:0:0:0:
343,34,176713,2,0,P|354:56|329:74,1,53.190001298584,0|0,3:0|3:0,0:0:0:0:
474,206,177258,6,0,B|431:194|410:234|416:235|394:277|348:260,1,145.780003559082,6|0,0:0|0:0,0:0:0:0:
249,363,178076,2,0,P|243:332|264:295,2,72.8900017795411,2|0|0,0:0|0:0|0:0,0:0:0:0:
248,39,178895,6,0,B|297:79|268:124|264:122|239:172|280:210,1,185.179997174377,2|0,0:0|0:0,0:0:0:0:
432,135,179713,2,0,P|410:102|356:91,2,92.5899985871887,2|0|0,0:0|0:0|0:0,0:0:0:0:
452,342,180531,6,0,P|405:350|364:280,2,112.289998629272,2|0|0,0:0|0:0|0:0,0:0:0:0:
251,293,181349,2,0,P|268:253|315:232,2,92.5899985871887,2|0|0,0:0|0:0|0:0,0:0:0:0:
110,384,182167,2,0,B|136:334|91:298|86:302|45:267|63:217,1,185.179997174377,2|0,0:0|0:0,0:0:0:0:
177,110,182986,5,0,0:0:0:0:
202,91,183258,1,0,0:0:0:0:
208,187,183531,1,0,0:0:0:0:
208,289,183804,6,0,P|157:287|134:227,1,109.335002669312,2|0,0:0|0:0,0:0:0:0:
167,82,184349,1,2,0:0:0:0:
4,171,184622,2,0,P|46:186|91:114,1,138.884997880783,2|0,0:0|0:0,0:0:0:0:
43,42,185167,1,2,0:0:0:0:
233,144,185440,6,0,P|206:146|177:170,1,46.2949992935944,2|0,0:0|0:0,0:0:0:0:
111,142,185713,2,0,P|99:166|105:203,1,46.2949992935944,2|0,0:0|0:0,0:0:0:0:
48,246,185986,2,0,P|63:268|98:281,1,46.2949992935944,2|0,0:0|0:0,0:0:0:0:
252,306,186258,2,0,B|205:287|164:330|171:335|136:380|79:352,1,185.179997174377,2|0,0:0|0:0,0:0:0:0:
33,156,187076,6,0,P|60:169|71:189,2,46.2949992935944,2|0|0,0:0|0:0|0:0,0:0:0:0:
49,82,187486,1,2,0:0:0:0:
49,82,187622,2,0,P|65:112|64:128,1,46.2949992935944,2|0,0:0|0:0,0:0:0:0:
5,227,187895,2,0,P|20:276|34:333,2,92.5899985871887,2|0|0,0:0|0:0|0:0,0:0:0:0:
236,363,188713,6,0,P|228:332|231:314,1,46.2949992935944,2|0,0:0|0:0,0:0:0:0:
278,260,188986,2,0,P|286:229|283:211,1,46.2949992935944,2|0,0:0|0:0,0:0:0:0:
200,174,189258,2,0,P|176:158|164:144,1,46.2949992935944,2|0,0:0|0:0,0:0:0:0:
337,76,189531,2,0,P|306:125|261:136,2,92.5899985871887,2|0|0,0:0|0:0|0:0,0:0:0:0:
136,10,190349,6,0,P|185:18|211:81,1,117.215000715424,2|0,0:0|0:0,0:0:0:0:
183,148,191440,6,0,P|121:155|49:200,1,131.989993756577,8|8,0:0|0:0,0:0:0:0:
386,347,191986,6,0,P|375:208|231:62,1,318.483340865822,8|0,0:1|0:0,0:0:0:0:
176,62,192531,1,8,0:1:0:0:
121,354,192804,6,0,B|174:412|316:351|285:233|238:148|162:155|72:180|67:82|117:7|184:44,1,539.78001523732,10|8,0:0|0:0,0:0:0:0:
483,352,193622,6,0,B|403:414|287:309|354:251,1,230.49000087925,6|8,1:0|0:0,0:0:0:0:
468,149,194076,1,0,3:0:0:0:
489,156,194167,2,0,B|514:186|496:283|430:278,1,153.660000586166,8|0,0:0|3:0,0:0:0:0:
346,258,194440,1,2,1:0:0:0:
302,77,194713,6,0,B|295:51|269:29|263:64|288:93,1,83.3966660304006,8|0,0:0|0:0,0:0:0:0:
333,156,194895,1,0,3:0:0:0:
352,172,194986,2,0,B|401:215|388:289|333:242|333:174,1,166.793332060801,8|0,0:0|3:0,0:0:0:0:
383,38,195258,6,0,B|373:16|434:2|437:78|362:143|220:142,1,269.89000761866,2|8,1:0|0:0,0:0:0:0:
71,89,195713,1,0,3:0:0:0:
51,83,195804,2,0,B|13:67|54:16|116:82|104:180,1,166.793332060801,8|0,0:0|3:0,0:0:0:0:
123,368,196076,6,0,B|107:382|91:298|197:210,1,166.793332060801,2|0,1:0|0:0,0:0:0:0:
226,141,196349,2,0,B|260:138|301:164|301:196|263:194,1,83.3966660304006,8|0,0:0|0:0,0:0:0:0:
175,229,196531,1,0,3:0:0:0:
156,240,196622,2,0,B|104:243|38:216|25:172|52:152|100:210,1,166.793332060801,8|8,0:0|0:1,0:0:0:0:
47,331,196895,6,0,B|26:349|1:253|63:228|62:234|133:205|148:158|163:0|33:-21|-63:89|37:131|78:106|97:141|77:192,1,449.816679364434,2|0,1:0|3:0,0:0:0:0:
175,304,197440,2,0,B|157:341|111:284|159:224|289:235,1,179.926671745773,10|0,0:0|3:0,0:0:0:0:
432,288,197713,2,0,B|383:313|311:221|351:151,1,179.926671745773,2|0,1:0|0:0,0:0:0:0:
379,78,197986,2,0,B|416:59|442:64|423:89|362:91,1,89.9633358728867,10|0,0:0|0:0,0:0:0:0:
263,146,198167,1,0,3:0:0:0:
237,148,198258,2,0,B|159:154|125:83|213:78|249:128,1,179.926671745773,10|0,0:0|3:0,0:0:0:0:
356,186,198531,5,2,1:0:0:0:
202,311,198713,1,0,0:0:0:0:
198,288,198804,2,0,B|173:242|80:202|45:263|90:282,1,179.926671745773,8|0,0:0|3:0,0:0:0:0:
184,384,199076,2,0,B|215:309|286:283|341:304,1,179.926671745773,8|0,0:0|3:0,0:0:0:0:
404,354,199349,5,0,1:0:0:0:
429,139,199531,2,0,B|427:102|382:85|337:189|436:242|434:237|498:249|488:318,1,269.89000761866,0|0,3:0|3:0,0:0:0:0:
396,369,199895,2,0,B|382:375|324:346|326:312,1,89.9633358728867,8|0,0:0|0:0,0:0:0:0:
270,173,200076,1,0,3:0:0:0:
330,223,200167,6,0,B|343:254|285:247|199:138|123:135|97:172|134:211,1,269.89000761866,6|8,1:0|0:0,0:0:0:0:
24,310,200622,1,0,3:0:0:0:
66,372,200713,2,0,B|49:393|111:422|96:259|-7:208,1,206.193334119898,10|0,0:0|0:0,0:0:0:0:
21,110,200986,6,0,B|13:82|-53:90|-49:170|67:189|106:95|99:92|93:66|120:30|175:26|215:58,1,309.290001179848,2|8,1:0|0:0,0:0:0:0:
285,199,201440,1,0,3:0:0:0:
299,218,201531,2,0,B|298:264|226:258|195:187|220:142,1,166.793332060801,10|0,0:0|3:0,0:0:0:0:
292,55,201804,6,0,B|346:59|359:142|353:144|356:175|393:192,1,166.793332060801,2|0,1:0|0:0,0:0:0:0:
501,201,202076,2,0,B|479:167|383:180|381:282,1,179.926671745773,8|0,0:0|3:0,0:0:0:0:
263,360,202349,2,0,B|319:400|373:247|310:248,1,179.926671745773,10|0,0:0|0:0,0:0:0:0:
222,277,202622,5,2,1:0:0:0:
77,122,202804,1,0,0:0:0:0:
82,103,202895,2,0,B|150:129|169:222|149:272|110:255,1,193.059991015122,8|0,0:0|3:0,0:0:0:0:
44,221,203167,1,8,0:0:0:0:
290,189,203349,5,0,3:0:0:0:
289,169,203440,2,0,B|226:107|303:387|213:412|144:386|153:310|214:313,1,328.989989709023,2|10,1:0|0:0,0:0:0:0:
389,277,203895,1,0,3:0:0:0:
411,274,203986,2,8,B|469:268|525:317|452:335|401:293,1,166.793332060801,10|0,0:0|3:0,0:0:0:0:
323,376,204258,6,0,B|282:375|320:171|287:167,1,219.326659806015,2|0,1:0|0:0,0:0:0:0:
290,80,204531,2,0,B|258:48|189:64|224:106,1,89.9633358728867,10|0,0:0|0:0,0:0:0:0:
368,149,204713,1,0,3:0:0:0:
384,166,204804,2,0,B|445:184|515:115|488:53|448:70,1,179.926671745773,10|0,0:0|3:0,0:0:0:0:
288,168,205076,6,0,B|226:226|270:279|277:274|365:324|309:429|202:439|123:327|198:246|204:250|243:226|228:185,1,416.983330152003,2|0,1:0|3:0,0:0:0:0:
234,93,205622,2,0,B|187:40|105:61|92:127|147:138,1,166.793332060801,8|0,0:0|3:0,0:0:0:0:
297,257,205895,6,0,B|326:274|375:263|397:234,1,96.5299955075609,0|0,1:0|0:0,0:0:0:0:
483,126,206076,1,0,3:0:0:0:
502,57,206167,2,0,B|521:51|479:9|413:97|510:219,1,193.059991015122,8|8,0:0|0:0,0:0:0:0:
463,352,206440,2,0,B|470:405|552:360|511:287|452:267,1,166.793332060801,8|8,0:3|0:0,0:0:0:0:
392,213,206713,6,0,B|344:188|302:220|249:291|206:286|187:240|222:227,1,230.49000087925,6|8,1:0|0:0,0:0:0:0:
314,89,207167,1,0,3:0:0:0:
307,72,207258,2,0,B|336:35|373:83|315:144|262:149,1,153.660000586166,8|0,0:0|3:0,0:0:0:0:
140,173,207531,6,0,B|118:134|34:91|15:101|18:129|35:129,1,153.660000586166,2|0,1:0|3:0,0:0:0:0:
1,247,207804,2,0,B|7:233|48:209|70:221,1,76.8300002930832,8|0,0:0|0:0,0:0:0:0:
175,294,207986,1,0,3:0:0:0:
164,312,208076,1,0,3:0:0:0:
430,305,208349,6,0,B|388:279|297:326|291:370|345:364,1,166.793332060801,2|0,1:0|0:0,0:0:0:0:
490,366,208622,2,0,B|508:352|520:322|518:287,1,83.3966660304006,10|0,0:0|0:0,0:0:0:0:
423,197,208804,1,0,3:0:0:0:
401,196,208895,2,0,B|366:183|340:113|357:76|400:67|424:105,1,166.793332060801,10|0,0:0|3:0,0:0:0:0:
508,212,209167,6,0,B|415:170|337:332|245:302,1,289.589986522683,2|8,1:0|0:0,0:0:0:0:
282,81,209622,1,0,3:0:0:0:
293,74,209713,2,0,B|345:97|322:195|272:231,1,166.793332060801,8|0,0:0|3:0,0:0:0:0:
182,368,209986,6,0,B|182:308|124:292|125:302|45:299|48:202|108:174|169:194|167:245,1,289.589986522683,2|10,1:0|0:0,0:0:0:0:
29,372,210440,1,0,3:0:0:0:
13,379,210531,2,0,B|-26:369|-36:257|26:191,1,193.059991015122,10|0,0:0|3:0,0:0:0:0:
0,115,210804,6,0,B|28:77|73:84|81:88|167:127|267:2|109:-51|123:20,1,289.589986522683,2|10,1:0|0:0,0:0:0:0:
228,205,211258,1,0,3:0:0:0:
217,188,211349,2,0,B|202:148|285:84|353:95,1,166.793332060801,10|0,0:0|3:0,0:0:0:0:
466,150,211622,6,0,B|402:188|348:118|364:61,1,153.660000586166,2|0,1:0|3:0,0:0:0:0:
399,7,211895,1,8,0:0:0:0:
222,48,212076,1,0,3:0:0:0:
206,42,212167,2,0,B|190:91|286:185|262:210,1,179.926671745773,8|0,0:0|3:0,0:0:0:0:
300,361,212440,6,0,B|283:341|294:303|316:273,1,89.9633358728867,0|0,1:0|0:0,0:0:0:0:
498,186,212622,1,0,3:0:0:0:
512,194,212713,2,0,B|501:216|384:158|349:205,1,166.793332060801,8|0,0:0|3:0,0:0:0:0:
327,289,212986,1,8,0:0:0:0:
241,80,213167,5,0,3:0:0:0:
232,65,213258,2,0,B|216:38|294:13|276:108|211:152|207:141|134:181|165:236,1,250.189998091202,6|8,1:0|0:0,0:0:0:0:
38,337,213713,1,0,3:0:0:0:
8,266,213804,2,0,B|-14:243|88:224|136:333,1,179.926671745773,10|0,0:0|3:0,0:0:0:0:
242,379,214076,6,0,B|198:343|197:250|257:211|350:203|323:116,1,289.589986522683,2|8,1:0|0:0,0:0:0:0:
144,56,214531,1,0,3:0:0:0:
140,77,214622,2,0,B|166:36|254:9|298:57,1,166.793332060801,10|0,0:0|3:0,0:0:0:0:
454,152,214895,6,0,B|380:220|296:151|301:149|238:98|178:164,1,289.589986522683,2|10,1:0|0:0,0:0:0:0:
289,353,215349,1,0,3:0:0:0:
307,359,215440,2,0,B|340:324|306:221|238:222,1,174.345005653124,10|0,0:0|0:0,0:0:0:0:
11,179,215713,6,0,B|-7:201|75:239|140:184|140:131|110:118|95:119|41:9|127:-109|481:-145|338:131|264:127|213:99|215:89|149:45|121:122,1,581.150018843747,2|0,1:0|3:0,0:0:0:0:
85,216,216258,1,8,0:0:0:0:
234,383,216531,5,14,0:1:0:0:
230,261,216667,1,10,0:1:0:0:
281,149,216804,1,10,0:1:0:0:
336,270,216940,5,10,0:1:0:0:
270,167,217076,1,10,0:3:0:0:
152,132,217213,1,10,0:3:0:0:
37,174,217349,6,0,P|173:159|252:282,1,261.517508479686,14|0,0:3|0:0,0:0:0:0:
318,280,217622,6,0,P|310:305|276:325,1,61.7266657247925,8|0,0:0|0:0,0:0:0:0:
214,359,217895,2,0,L|187:350,3,23.1474996467972,8|8|8|8,0:3|0:3|0:3|0:3,0:0:0:0:
107,337,218167,6,0,P|192:307|209:184,1,193.059991015122,14|0,0:3|0:0,0:0:0:0:
87,111,218440,2,0,P|242:91|280:159,1,245.59332846164,10|0,0:3|3:0,0:0:0:0:
334,283,218713,2,0,B|263:329|207:263|213:259|189:209|132:224,1,219.326659806015,10|0,0:3|0:0,0:0:0:0:
7,384,218986,6,0,B|29:379|29:379|72:179,1,219.326659806015,14|0,0:0|0:0,0:0:0:0:
12,103,219258,2,0,L|-1:38,1,61.7266657247925,8|0,0:0|0:0,0:0:0:0:
63,0,219531,2,0,L|97:6,3,23.1474996467972,10|8|8|8,0:3|0:3|0:3|0:3,0:0:0:0:
112,104,219804,6,0,P|179:37|299:58,1,193.059991015122,6|0,1:0|0:0,0:0:0:0:
340,90,220076,1,8,0:0:0:0:
256,252,220258,1,2,3:0:0:0:
237,268,220349,2,0,B|207:241|222:156|281:135,1,153.660000586166,10|0,0:0|0:0,0:0:0:0:
354,115,220622,1,0,1:0:0:0:
493,339,220895,6,0,B|480:320|357:392|344:368,1,153.660000586166,10|0,0:0|3:0,0:0:0:0:
296,315,221167,1,8,0:0:0:0:
459,196,221440,6,0,B|504:169|517:81|457:56,1,153.660000586166,2|2,1:0|0:0,0:0:0:0:
395,65,221713,1,10,0:0:0:0:
318,222,221895,1,2,3:0:0:0:
325,242,221986,2,0,B|275:225|242:142|295:105,1,153.660000586166,10|0,0:0|3:0,0:0:0:0:
310,28,222258,6,0,B|292:16|246:32|223:49,1,76.8300002930832,2|0,1:0|0:0,0:0:0:0:
139,113,222440,1,0,3:0:0:0:
148,39,222531,2,0,B|101:61|58:178|94:200,1,179.926671745773,10|0,0:0|3:0,0:0:0:0:
26,259,222804,2,0,B|105:258|171:325|144:372,1,179.926671745773,8|0,0:0|3:0,0:0:0:0:
79,384,223076,5,0,1:0:0:0:
206,217,223258,1,0,0:0:0:0:
190,204,223349,2,0,B|236:180|279:207|276:213|319:246|362:212,1,179.926671745773,10|0,0:0|3:0,0:0:0:0:
417,279,223622,2,0,P|459:218|429:111,1,179.926671745773,10|0,0:0|3:0,0:0:0:0:
427,41,223895,6,0,B|362:19|322:76|329:81|315:119|274:111,1,179.926671745773,2|0,1:0|0:0,0:0:0:0:
114,49,224167,2,0,P|140:45|194:103,1,96.5299955075609,10|0,0:0|0:0,0:0:0:0:
277,272,224349,1,0,3:0:0:0:
262,287,224440,2,0,P|242:166|292:97,1,193.059991015122,10|0,0:0|3:0,0:0:0:0:
444,31,224713,6,0,B|487:122|399:157|395:152|299:208|371:313,1,309.290001179848,2|8,1:0|0:0,0:0:0:0:
490,357,225167,1,0,3:0:0:0:
512,350,225258,2,0,P|522:309|440:228,1,166.793332060801,8|0,0:0|3:0,0:0:0:0:
265,174,225531,6,0,B|233:220|158:222|158:222|184:228|201:240,1,166.793332060801,2|0,1:0|3:0,0:0:0:0:
304,355,225804,2,0,B|280:304|315:238|315:238|297:257|278:266,1,166.793332060801,10|0,0:0|3:0,0:0:0:0:
109,298,226076,2,0,B|173:303|218:376|218:376|209:347|211:323,1,193.059991015122,10|8,0:0|0:0,0:0:0:0:
248,183,226349,6,0,B|212:198|199:239|199:239|208:153|144:136|138:140|59:115|76:-21|228:5|199:96,1,416.983330152003,6|2,1:0|3:0,0:0:0:0:
99,215,226895,2,0,B|27:260|30:339|61:359|70:324,1,166.793332060801,10|0,0:0|3:0,0:0:0:0:
22,248,227167,1,0,1:0:0:0:
16,31,227349,1,2,3:0:0:0:
0,41,227440,2,0,B|5:103|77:131|144:127,1,166.793332060801,10|2,0:0|3:0,0:0:0:0:
193,192,227713,2,0,B|282:183|294:84|241:80,1,166.793332060801,10|0,0:0|3:0,0:0:0:0:
125,127,227986,5,0,1:0:0:0:
208,335,228167,1,0,0:0:0:0:
188,326,228258,2,0,B|184:288|254:242|339:250,1,166.793332060801,2|8,1:0|0:0,0:0:0:0:
413,343,228531,2,0,B|374:323|492:175|454:154,1,206.193334119898,10|8,0:0|3:0,0:0:0:0:
421,65,228804,6,0,B|409:93|312:141|241:135|253:82,1,206.193334119898,2|0,1:0|0:0,0:0:0:0:
195,24,229076,2,0,B|175:-24|246:-38|276:32|204:123,1,179.926671745773,10|0,0:0|3:0,0:0:0:0:
138,166,229349,2,0,B|103:211|137:283|185:280|186:238|159:224,1,153.660000586166,10|0,0:0|3:0,0:0:0:0:
82,77,229622,6,0,B|53:71|53:71|45:74|45:74|-3:67,2,75.8449984955063,10|8|8,0:3|0:3|0:3,0:0:0:0:
227,177,230031,2,0,B|269:168|269:168|280:173|280:173|350:161,2,125.094999045601,8|8|8,0:3|0:1|0:1,0:0:0:0:
0,289,230440,1,8,0:1:0:0:
280,361,230713,6,0,L|288:309,1,48.593334519694,8|0,0:0|0:0,0:0:0:0:
237,253,230986,2,0,L|232:226,3,18.2225004448853,8|8|8|8,0:3|0:3|0:3|0:3,0:0:0:0:
317,170,231258,6,0,B|228:244|131:209|62:126|84:37|170:-16|255:33|255:95|235:127|229:127|241:160|275:168,1,482.649977537805,14|2,2:3|3:0,0:0:0:0:
376,110,231804,2,0,B|469:73|546:179|480:259|392:223|402:153,1,289.589986522683,10|14,0:0|0:0,0:0:0:0:
278,49,232349,6,0,L|282:31,3,18.2225004448853,8|8|8|8,0:3|0:3|0:3|0:3,0:0:0:0:
207,89,232622,2,0,L|220:151,3,42.8475003595905,4|0|0|0,0:3|0:0|0:0|0:0,0:0:0:0:
128,62,232895,5,2,0:0:0:0:
40,92,233031,1,0,0:0:0:0:
116,80,233167,1,0,0:0:0:0:
65,255,233304,5,2,0:0:0:0:
34,187,233440,2,0,P|84:218|77:249,1,85.6950007191811
15,368,233713,5,0,0:0:0:0:
47,329,233849,1,2,0:0:0:0:
130,306,233986,1,0,0:0:0:0:
241,348,234122,5,0,0:0:0:0:
335,303,234258,1,2,0:0:0:0:
250,329,234395,1,0,0:0:0:0:
400,375,234531,5,0,0:0:0:0:
415,347,234667,1,2,0:0:0:0:
454,334,234804,1,0,0:0:0:0:
415,259,234940,5,0,0:0:0:0:
325,283,235076,1,2,0:0:0:0:
264,352,235213,1,0,0:0:0:0:
161,365,235349,5,0,0:0:0:0:
98,322,235486,1,2,0:0:0:0:
115,249,235622,1,0,0:0:0:0:
275,204,235758,5,0,0:0:0:0:
275,309,235895,1,2,0:0:0:0:
178,348,236031,1,0,0:0:0:0:
64,306,236167,6,0,B|75:286|75:286|176:278|279:230,1,193.059991015122,6|0,1:0|0:0,0:0:0:0:
299,320,236440,2,0,B|360:266|344:175|344:175|370:230,1,193.059991015122,8|0,0:0|0:0,0:0:0:0:
457,214,236713,2,0,B|486:252|494:314|494:314|466:323|453:350,1,153.660000586166,8|0,0:0|0:0,0:0:0:0:
357,384,236986,6,0,B|347:369|347:369|242:372|145:327,1,219.326659806015,4|0,1:0|0:0,0:0:0:0:
59,206,237258,2,0,B|55:176|30:154|30:154|84:130|139:149|172:199|152:254,1,258.726667258845,8|0,0:0|0:0,0:0:0:0:
54,384,237531,2,0,P|95:317|274:260,1,258.726667258845,8|0,0:0|0:0,0:0:0:0:
373,293,237804,5,4,1:0:0:0:
451,10,238622,5,2,3:0:0:0:
