osu file format v14

[General]
AudioFilename: audio.mp3
AudioLeadIn: 0
PreviewTime: 186730
Countdown: 0
SampleSet: Soft
StackLeniency: 0.4
Mode: 0
LetterboxInBreaks: 0
WidescreenStoryboard: 1

[Editor]
DistanceSpacing: 0.5
BeatDivisor: 6
GridSize: 32
TimelineZoom: 1.8

[Metadata]
Title:Soko ni wa Mata Meikyou
TitleUnicode:そこにはまた迷宮
Artist:KikuoHana
ArtistUnicode:きくおはな
Creator:SMOKELIND
Version:Kujinn's Insane
Source:
Tags:It's Another Maze There Hanatan 花たん YURiCa ユリカ 第二幕 2 Second Act Rock Japanese Kowari Reform Kujinn
BeatmapID:3263279
BeatmapSetID:1581399

[Difficulty]
HPDrainRate:5
CircleSize:4
OverallDifficulty:8
ApproachRate:9
SliderMultiplier:2.44
SliderTickRate:1

[Events]
//Background and Video events
0,0,"91689568_p4.jpg",0,0
Video,50,"vid.mp4"
//Break Periods
2,187036,193094
2,252408,254765
//Storyboard Layer 0 (Background)
//Storyboard Layer 1 (Fail)
//Storyboard Layer 2 (Pass)
//Storyboard Layer 3 (Foreground)
//Storyboard Layer 4 (Overlay)
//Storyboard Sound Samples

[TimingPoints]
-20,428.571428571429,4,2,7,47,1,0
1694,-117.647058823529,4,2,7,47,0,0
11980,-181.818181818181,4,2,7,37,0,0
29122,-181.818181818181,4,2,7,47,0,0
29551,-133.333333333333,4,2,7,47,0,0
46265,-105.263157894737,4,2,7,57,0,0
61051,-68.9655172413794,4,2,7,67,0,0
61694,-86.9565217391304,4,2,77,77,0,0
73694,-153.846153846154,4,2,77,77,0,0
74122,-153.846153846154,4,2,77,57,0,0
75408,-86.9565217391305,4,2,77,77,0,0
85694,-153.846153846154,4,2,77,67,0,0
87408,-153.846153846154,4,2,77,37,0,0
89122,-181.818181818182,4,2,77,37,0,0
93837,-181.818181818182,4,2,77,47,0,0
94265,-117.64705882353,4,2,77,47,0,0
95551,-117.64705882353,4,2,7,47,0,0
107980,-181.818181818183,4,2,7,37,0,0
108301,-181.818181818183,4,2,7,17,0,0
108408,-105.263157894737,4,2,7,37,0,0
110122,-222.222222222223,4,2,7,37,0,0
110551,-400.000000000003,4,2,7,37,0,0
111408,-153.846153846154,4,2,7,47,0,0
124694,-95.2380952380956,4,2,7,47,0,0
125122,-117.64705882353,4,2,7,57,0,0
139908,-68.9655172413795,4,2,7,67,0,0
140551,-86.9565217391304,4,2,77,77,0,0
152551,-153.846153846154,4,2,77,77,0,0
152979,-153.846153846154,4,2,77,57,0,0
154265,-86.9565217391305,4,2,77,77,0,0
164551,-153.846153846154,4,2,77,67,0,0
166265,-153.846153846154,4,2,77,37,0,0
173122,-153.846153846154,4,2,7,57,0,0
173337,-95.2380952380953,4,2,7,57,0,0
180087,-95.2380952380953,4,2,77,57,0,0
183408,-95.2380952380953,4,2,7,67,0,0
186836,-95.2380952380953,4,2,777,37,0,0
193694,-181.818181818182,4,2,7,37,0,0
197122,-250,4,2,7,37,0,0
202265,-181.818181818182,4,2,7,37,0,0
217051,-68.9655172413794,4,2,7,67,0,0
217694,-86.9565217391304,4,2,77,77,0,0
229694,-153.846153846154,4,2,77,77,0,0
230122,-153.846153846154,4,2,77,57,0,0
231408,-86.9565217391305,4,2,77,77,0,0
241694,-222.222222222223,4,2,77,67,0,0
243408,-166.666666666667,4,2,77,67,0,0
245122,-117.647058823529,4,2,7,67,0,0
248551,-333.333333333333,4,2,7,57,0,0
255408,-117.647058823529,4,2,7,57,0,0
262265,-117.647058823529,4,2,7,47,0,0

[Colours]
Combo1 : 255,191,206
Combo2 : 233,233,233

[HitObjects]
55,339,1265,5,10,2:0:0:0:
64,355,1694,6,0,B|-30:317|52:187|143:273|131:284|120:294|196:374|281:342|289:267,1,380.233340585709,10|0,1:2|2:0,2:0:0:0:
281,271,2551,2,0,L|295:227,2,34.5666673259735,0|0|0,2:0|2:0|2:0,2:0:0:0:
281,231,2765,2,0,L|267:187,2,34.5666673259735,0|0|0,3:2|3:2|3:2,2:0:0:0:
278,186,2980,1,10,3:1:0:0:
463,51,3408,6,0,B|424:67|390:34|390:34|313:72|325:160|396:171|402:168|407:163|477:204|420:287,1,380.233340585709,10|0,1:2|2:0,2:0:0:0:
420,273,4265,2,0,P|407:268|362:266,2,34.5666673259735,0|0|0,2:0|2:0|2:0,2:0:0:0:
379,256,4480,2,0,P|368:264|343:302,2,34.5666673259735,0|0|0,3:0|3:0|3:0,2:0:0:0:
340,285,4694,1,10,3:1:0:0:
44,326,5122,6,0,B|18:265|67:223|74:224|81:223|113:187|127:101|51:49|51:49|90:75|123:59,1,380.233340585709,10|0,1:2|2:0,2:0:0:0:
120,54,5980,2,0,P|145:56|176:70,2,34.5666673259735,0|0|0,2:0|2:0|2:0,2:0:0:0:
168,57,6194,2,0,P|190:67|215:90,2,34.5666673259735,0|0|0,3:0|3:0|3:0,2:0:0:0:
209,74,6408,1,10,3:1:0:0:
296,357,6837,6,0,B|253:303|192:314|192:314|257:230|356:280|356:280|334:223|281:222,1,380.233340585709,10|0,1:2|2:0,2:0:0:0:
308,218,7694,2,0,P|270:208|269:142,1,103.700001977921,8|4,2:3|2:3,2:0:0:0:
310,86,8015,1,0,2:0:0:0:
321,80,8122,2,0,P|311:27|246:35,1,103.700001977921,14|0,2:3|2:0,2:0:0:0:
199,49,8551,5,12,2:0:0:0:
27,182,8765,5,2,2:0:0:0:
33,219,8980,1,2,2:0:0:0:
49,240,9194,1,2,2:0:0:0:
145,338,9408,5,2,2:0:0:0:
166,318,9622,1,2,2:0:0:0:
184,309,9837,1,10,2:0:0:0:
205,305,10051,1,10,2:0:0:0:
360,365,10265,5,8,2:0:0:0:
360,365,10694,5,8,2:0:0:0:
355,349,10801,1,8,2:3:0:0:
350,330,10908,1,8,2:3:0:0:
344,312,11015,1,8,2:0:0:0:
340,292,11122,1,8,1:2:0:0:
464,57,11980,6,0,P|472:101|479:128,1,67.1000020477296,2|0,2:0|2:0,2:0:0:0:
500,185,12408,2,0,P|492:141|485:114,1,67.1000020477296,2|0,2:0|2:0,2:0:0:0:
343,93,12837,6,0,P|335:137|328:164,1,67.1000020477296,2|0,2:0|2:0,2:0:0:0:
303,218,13265,2,0,P|311:174|318:147,1,67.1000020477296,2|0,2:0|2:0,2:0:0:0:
459,223,13694,6,0,P|467:267|474:294,1,67.1000020477296,2|0,2:0|2:0,2:0:0:0:
499,348,14122,2,0,P|491:304|484:277,1,67.1000020477296,2|0,2:0|2:0,2:0:0:0:
329,253,14551,6,0,P|321:297|314:324,1,67.1000020477296,2|0,2:0|2:0,2:0:0:0:
289,378,14979,2,0,P|297:334|304:307,1,67.1000020477296,2|0,2:0|2:0,2:0:0:0:
200,220,15408,6,0,P|145:229|73:275,1,134.200004095459,2|2,2:0|2:0,2:0:0:0:
78,269,16051,1,2,2:0:0:0:
7,187,16265,2,0,P|28:155|77:144,1,67.1000020477296,2|0,2:0|2:0,2:0:0:0:
54,49,16694,2,0,P|93:46|133:74,1,67.1000020477296,0|0,2:0|2:0,2:0:0:0:
214,179,17122,5,2,2:0:0:0:
259,49,17337,1,2,2:0:0:0:
208,171,17551,5,2,2:0:0:0:
253,301,17766,1,2,2:0:0:0:
451,336,17980,6,0,P|402:352|358:369,1,67.1000020477296,2|0,2:0|2:0,2:0:0:0:
445,222,18408,2,0,P|494:206|538:189,1,67.1000020477296,0|0,2:0|2:0,2:0:0:0:
353,15,18837,5,2,2:0:0:0:
292,101,19051,1,2,2:0:0:0:
198,192,19265,5,2,2:0:0:0:
137,106,19479,1,2,2:0:0:0:
27,19,19694,6,0,P|17:91|5:163,1,134.200004095459,2|2,2:0|2:0,2:0:0:0:
7,151,20337,1,2,2:0:0:0:
128,328,20551,5,2,2:0:0:0:
47,305,20765,1,0,2:0:0:0:
128,328,20980,5,0,2:0:0:0:
47,305,21194,1,0,2:0:0:0:
231,262,21408,5,0,2:0:0:0:
312,239,21622,1,0,2:0:0:0:
150,204,21837,5,0,2:0:0:0:
105,187,22051,1,0,2:0:0:0:
212,84,22265,5,2,2:0:0:0:
307,33,22480,1,2,2:0:0:0:
358,132,22694,1,2,2:0:0:0:
259,192,22908,1,2,2:0:0:0:
131,137,23122,6,0,P|88:122|56:104,1,67.1000020477296,2|0,2:0|2:0,2:0:0:0:
29,195,23551,2,0,P|72:210|104:228,1,67.1000020477296,0|0,2:0|2:0,2:0:0:0:
212,300,23980,5,2,2:0:0:0:
307,351,24195,1,2,2:0:0:0:
358,252,24409,1,2,2:0:0:0:
259,192,24623,1,2,2:0:0:0:
131,247,24837,6,0,P|88:262|56:280,1,67.1000020477296,2|0,2:0|2:0,2:0:0:0:
29,189,25266,2,0,P|72:174|104:156,1,67.1000020477296,0|0,2:0|2:0,2:0:0:0:
187,18,25694,6,0,P|231:17|267:108,1,134.200004095459,2|2,2:0|2:0,2:0:0:0:
201,182,26337,1,2,2:0:0:0:
201,182,26551,2,0,P|236:207|268:241,1,67.1000020477296,2|2,2:0|2:0,2:0:0:0:
280,340,26980,1,2,2:0:0:0:
273,336,27194,1,2,2:0:0:0:
442,279,27408,6,0,P|455:224|466:189,1,67.1000020477296,2|2,2:0|2:0,2:0:0:0:
411,126,27837,2,0,P|398:71|387:36,1,67.1000020477296,2|2,2:0|2:0,2:0:0:0:
413,348,28265,5,6,2:3:0:0:
413,348,28694,5,8,3:2:0:0:
397,341,28801,1,0,3:0:0:0:
381,334,28908,1,0,3:0:0:0:
365,327,29015,1,0,3:0:0:0:
349,321,29122,1,2,1:0:0:0:
118,347,29337,5,2,3:0:0:0:
118,347,29551,2,0,P|106:302|100:242,1,91.5000034904481,10|0,2:0|2:0,2:0:0:0:
190,116,29980,1,2,1:0:0:0:
195,126,30087,2,0,P|152:133|105:82,1,91.5000034904481,0|0,3:0|3:0,2:0:0:0:
103,32,30408,2,0,P|91:77|85:137,1,91.5000034904481,10|0,2:0|3:0,2:0:0:0:
42,209,30730,1,0,3:0:0:0:
33,200,30837,6,0,B|99:186|130:219|115:222|163:264|217:244,1,183.000006980896,2|10,1:0|2:0,2:0:0:0:
402,366,31587,1,0,2:0:0:0:
389,358,31694,1,2,1:0:0:0:
376,348,31801,2,0,P|393:304|450:296,1,91.5000034904481,0|0,3:0|3:0,2:0:0:0:
497,333,32122,2,0,P|480:276|461:233,1,91.5000034904481,10|0,2:0|3:0,2:0:0:0:
439,176,32444,1,0,2:0:0:0:
444,167,32551,6,0,P|423:134|356:140,1,91.5000034904481,2|2,1:0|2:0,2:0:0:0:
234,197,32980,1,10,2:0:0:0:
296,239,33194,1,2,2:0:0:0:
183,344,33408,1,2,1:0:0:0:
187,334,33515,2,0,P|129:353|85:379,1,91.5000034904481,0|0,3:0|3:0,2:0:0:0:
33,341,33837,2,0,P|48:291|60:221,1,91.5000034904481,8|0,2:0|3:0,2:0:0:0:
110,193,34158,1,0,3:0:0:0:
102,182,34265,6,0,P|85:129|68:67,1,91.5000034904481,2|2,1:0|2:0,2:0:0:0:
242,14,34694,1,10,2:0:0:0:
303,64,34908,1,2,2:0:0:0:
420,224,35122,1,2,1:0:0:0:
410,215,35230,2,0,P|425:168|451:96,1,91.5000034904481,0|0,3:0|3:0,2:0:0:0:
501,84,35551,2,0,P|468:52|405:67,1,91.5000034904481,8|0,2:0|3:0,2:0:0:0:
359,99,35872,1,0,3:0:0:0:
350,93,35980,5,2,1:0:0:0:
266,32,36194,1,2,2:0:0:0:
320,200,36408,5,10,2:0:0:0:
224,256,36622,1,2,2:0:0:0:
451,366,36837,5,2,1:0:0:0:
460,351,36944,1,0,3:0:0:0:
471,338,37051,2,0,L|454:283,1,45.7500017452241,2|0,2:0|3:0,2:0:0:0:
377,182,37265,2,0,P|433:200|487:228,1,91.5000034904481,10|2,2:0|3:0,2:0:0:0:
503,155,37587,1,0,3:0:0:0:
512,148,37694,6,0,P|448:144|402:249,1,183.000006980896,2|8,1:0|2:0,2:0:0:0:
196,314,38337,1,0,2:0:0:0:
214,320,38444,1,0,3:0:0:0:
210,300,38551,2,0,P|171:326|136:362,1,91.5000034904481,0|0,1:0|2:0,2:0:0:0:
64,348,38872,1,0,2:0:0:0:
63,335,38980,2,0,P|42:272|25:226,1,91.5000034904481,8|0,2:0|3:0,2:0:0:0:
58,50,39408,5,2,1:0:0:0:
153,9,39622,1,2,2:0:0:0:
191,100,39837,1,10,2:0:0:0:
101,144,40051,1,2,2:0:0:0:
73,293,40265,5,2,1:0:0:0:
66,286,40372,2,0,P|119:301|162:328,1,91.5000034904481,0|0,3:0|3:0,2:0:0:0:
215,374,40694,2,0,P|265:361|280:299,1,91.5000034904481,8|0,2:0|3:0,2:0:0:0:
259,259,41015,1,0,2:0:0:0:
254,251,41122,5,2,1:0:0:0:
349,292,41336,1,2,2:0:0:0:
387,201,41551,1,10,2:0:0:0:
297,157,41765,1,2,2:0:0:0:
165,16,41980,5,2,1:0:0:0:
155,15,42087,2,0,P|173:70|187:121,1,91.5000034904481,0|0,3:0|3:0,2:0:0:0:
150,167,42408,2,0,P|107:149|48:130,1,91.5000034904481,8|0,2:0|3:0,2:0:0:0:
11,189,42730,1,0,2:0:0:0:
6,181,42837,5,2,1:0:0:0:
126,360,43051,1,2,2:0:0:0:
126,360,43265,2,0,P|159:321|140:263,1,91.5000034904481,2|2,3:0|2:0,2:0:0:0:
29,344,43694,5,2,1:0:0:0:
215,172,43908,1,2,2:0:0:0:
215,172,44122,2,0,P|248:211|229:269,1,91.5000034904481,2|2,2:0|3:0,2:0:0:0:
422,353,44551,5,14,2:1:0:0:
103,223,44980,5,14,2:1:0:0:
100,213,45194,1,2,2:0:0:0:
420,100,45408,5,14,2:1:0:0:
352,55,45622,6,0,L|339:9,3,30.5000011634827,12|12|12|12,2:3|2:3|2:3|2:1,2:0:0:0:
59,259,46265,6,0,B|120:239|158:287|149:292|140:298|181:343|229:320,1,173.849995357704,2|0,1:0|2:0,2:0:0:0:
268,372,46694,2,0,P|329:336|406:320,1,115.899996905136,8|2,2:0|2:0,2:0:0:0:
478,319,47122,5,2,1:0:0:0:
460,331,47337,1,0,2:0:0:0:
403,286,47551,1,8,2:0:0:0:
403,208,47765,1,0,1:0:0:0:
477,170,47980,1,0,1:0:0:0:
252,35,48194,6,0,P|196:56|134:84,2,115.899996905136,2|10|2,2:0|2:0|3:0,2:0:0:0:
318,91,48730,1,0,3:0:0:0:
324,95,48837,2,0,P|288:102|231:52,1,115.899996905136,2|2,1:0|2:0,2:0:0:0:
160,32,49158,1,0,2:0:0:0:
155,24,49265,1,10,2:0:0:0:
215,201,49480,1,2,1:0:0:0:
28,367,49694,6,0,P|72:309|232:311,1,231.799993810272,2|8,1:0|2:0,2:0:0:0:
235,296,50337,1,2,2:0:0:0:
268,326,50551,1,2,1:0:0:0:
346,359,50765,1,0,2:0:0:0:
413,319,50980,1,8,2:0:0:0:
433,233,51194,1,0,1:0:0:0:
372,163,51408,1,0,1:0:0:0:
124,25,51622,6,0,P|114:90|98:173,2,115.899996905136,2|10|2,2:0|2:0|3:0,2:0:0:0:
140,22,52158,1,0,3:0:0:0:
149,20,52265,1,2,1:0:0:0:
89,140,52480,2,0,L|100:198,2,57.9499984525681,2|0|10,2:0|3:0|2:0,2:0:0:0:
48,330,52908,1,2,1:0:0:0:
186,154,53122,6,0,P|91:201|-1:282,1,173.849995357704,6|8,1:0|2:3,2:0:0:0:
26,239,53551,1,10,2:3:0:0:
145,337,53765,1,10,2:3:0:0:
279,174,53980,5,8,2:1:0:0:
293,259,54194,1,0,2:0:0:0:
293,259,54301,1,4,2:3:0:0:
293,259,54408,1,8,2:3:0:0:
307,344,54622,1,8,2:3:0:0:
217,228,54837,6,0,P|245:157|307:38,1,173.849995357704,6|8,1:0|2:3,2:0:0:0:
286,44,55265,1,10,2:3:0:0:
337,179,55480,1,10,2:3:0:0:
169,55,55694,5,8,2:1:0:0:
294,92,55908,1,8,2:1:0:0:
427,132,56122,1,8,2:1:0:0:
427,132,56230,1,0,3:0:0:0:
427,132,56337,1,8,2:1:0:0:
247,352,56551,5,10,2:1:0:0:
247,352,56765,6,0,L|260:287,1,57.9499984525681,10|0,2:3|2:0,2:0:0:0:
268,333,56980,6,0,L|255:268,1,57.9499984525681,10|0,2:3|2:0,2:0:0:0:
228,312,57194,6,0,L|241:247,1,57.9499984525681,6|0,2:3|2:0,2:0:0:0:
292,268,57408,6,0,L|279:203,1,57.9499984525681,6|0,2:3|2:0,2:0:0:0:
203,216,57622,6,0,L|216:151,1,57.9499984525681,10|0,2:1|2:0,2:0:0:0:
301,142,57837,6,0,L|288:77,1,57.9499984525681,10|0,2:1|2:0,2:0:0:0:
194,95,58051,6,0,L|207:30,1,57.9499984525681,10|0,2:1|2:0,2:0:0:0:
292,4,58265,6,0,P|222:53|96:87,1,173.849995357704,10|0,2:1|2:0,2:0:0:0:
50,142,58694,2,0,P|46:122|56:142,1,57.9499984525681,10|0,2:1|2:0,2:0:0:0:
178,211,58908,2,0,P|168:170|142:104,1,57.9499984525681,2|0,2:0|2:0,2:0:0:0:
123,5,59122,5,10,2:1:0:0:
368,310,61051,6,0,B|469:229|463:442|617:286|523:101|338:124|330:267|385:337|251:336,1,442.250013496399,10|8,2:1|2:0,2:0:0:0:
252,363,61694,6,0,P|189:324|49:287,1,210.450004014015,6|0,1:2|3:0,2:0:0:0:
45,309,62122,1,8,1:2:0:0:
181,209,62337,1,2,2:0:0:0:
16,77,62551,2,0,P|37:138|135:130,1,140.30000267601,2|0,1:2|2:0,2:0:0:0:
167,106,62872,1,0,3:0:0:0:
168,98,62980,2,0,P|234:109|257:172,1,140.30000267601,8|0,1:2|3:0,2:0:0:0:
23,340,63408,6,0,B|59:291|123:323|117:330|115:335|189:382|232:304,1,210.450004014015,0|0,1:0|3:0,2:0:0:0:
264,258,63837,2,0,P|315:268|339:315,1,70.1500013380051,10|0,1:2|2:0,2:0:0:0:
395,369,64051,2,0,P|407:315|428:268,1,70.1500013380051,2|0,2:0|2:0,2:0:0:0:
372,133,64265,6,0,P|414:114|461:107,1,70.1500013380051,2|0,1:2|2:0,2:0:0:0:
447,20,64480,2,0,P|480:28|512:44,1,70.1500013380051,2|0,2:0|2:0,2:0:0:0:
256,207,64694,6,0,P|247:156|231:96,1,70.1500013380051,10|0,1:2|3:0,2:0:0:0:
250,130,64908,2,0,P|257:164|263:198,1,70.1500013380051,2|0,3:2|3:0,2:0:0:0:
42,326,65122,6,0,B|22:311|-17:315|-17:315|32:268|114:300|129:373,1,210.450004014015,0|0,1:0|3:0,2:0:0:0:
196,354,65551,2,0,P|147:339|146:240,1,140.30000267601,8|0,1:2|2:0,2:0:0:0:
297,27,65980,6,0,P|216:53|139:120,1,140.30000267601,0|0,1:0|3:0,2:0:0:0:
59,56,66301,1,0,3:0:0:0:
52,49,66408,2,0,P|84:29|138:41,1,70.1500013380051,8|0,1:2|3:0,2:0:0:0:
197,100,66622,2,0,L|173:186,1,70.1500013380051,2|0,2:3|2:0,2:0:0:0:
248,310,66837,6,0,P|290:374|413:330,1,210.450004014015,0|0,1:0|3:0,2:0:0:0:
483,340,67265,2,0,P|485:297|455:234,1,70.1500013380051,10|0,1:2|2:0,2:0:0:0:
505,193,67480,2,0,P|484:161|438:142,1,70.1500013380051,0|0,2:0|2:0,2:0:0:0:
361,206,67694,6,0,P|315:227|271:254,1,70.1500013380051,2|0,1:2|2:0,2:0:0:0:
272,311,67908,2,0,P|241:294|208:280,1,70.1500013380051,0|0,3:0|3:0,2:0:0:0:
81,340,68122,6,0,L|101:261,1,70.1500013380051,10|0,1:2|2:0,2:0:0:0:
73,330,68337,2,0,L|93:251,1,70.1500013380051,0|0,3:0|2:0,2:0:0:0:
81,30,68551,6,0,P|96:70|166:66,1,93.5333351173401,2|2,1:2|2:0,2:0:0:0:
215,47,68837,1,2,2:0:0:0:
136,163,68980,6,0,P|178:170|209:107,1,93.5333351173401,10|2,1:2|2:0,2:0:0:0:
217,55,69266,1,2,2:0:0:0:
273,187,69408,6,0,P|300:154|261:95,1,93.5333351173401,2|2,1:2|2:0,2:0:0:0:
219,62,69694,1,2,2:0:0:0:
162,209,69837,6,0,P|183:283|201:368,1,140.30000267601,10|0,1:2|3:0,2:0:0:0:
465,334,70265,6,0,P|454:308|386:300,1,93.5333351173401,2|2,1:2|2:0,2:0:0:0:
307,363,70551,1,2,2:0:0:0:
362,202,70694,6,0,P|333:198|293:253,1,93.5333351173401,10|2,1:2|2:0,2:0:0:0:
308,353,70980,1,2,2:0:0:0:
205,221,71122,6,0,P|187:243|215:306,1,93.5333351173401,2|2,1:2|2:0,2:0:0:0:
308,343,71408,1,2,2:0:0:0:
378,197,71551,6,0,P|366:107|355:26,1,140.30000267601,10|0,1:2|3:0,2:0:0:0:
59,26,71980,6,0,P|82:55|128:57,1,70.1500013380051,0|0,1:0|2:0,2:0:0:0:
199,40,72194,2,0,L|177:123,1,70.1500013380051,0|0,2:0|3:0,2:0:0:0:
287,159,72408,6,0,P|264:188|218:190,1,70.1500013380051,10|0,1:2|2:0,2:0:0:0:
147,173,72622,2,0,L|169:256,1,70.1500013380051,2|0,2:0|2:0,2:0:0:0:
49,360,72837,6,0,P|81:342|128:323,1,70.1500013380051,2|0,1:0|2:0,2:0:0:0:
109,316,73051,2,0,P|79:299|47:285,1,70.1500013380051,2|0,2:0|3:0,2:0:0:0:
316,383,73265,6,0,P|284:365|237:346,1,70.1500013380051,10|0,1:2|3:0,2:0:0:0:
255,339,73479,2,0,P|285:321|317:307,1,70.1500013380051,2|0,3:2|3:0,2:0:0:0:
505,366,73694,6,0,P|491:313|466:204,1,158.599992739868,10|2,2:3|2:3,2:0:0:0:
437,48,74551,5,2,3:0:0:0:
421,32,74765,1,2,2:3:0:0:
216,138,74980,5,0,2:0:0:0:
227,115,75194,1,2,3:0:0:0:
417,232,75408,6,0,B|430:150|360:134|358:164|287:115|323:31,1,210.450004014015,6|0,1:2|3:0,2:0:0:0:
329,0,75837,2,0,P|294:70|283:174,1,140.30000267601,8|2,1:2|2:0,2:0:0:0:
53,274,76265,6,0,P|98:342|171:315,1,140.30000267601,2|0,1:2|2:0,2:0:0:0:
222,360,76587,1,0,3:0:0:0:
228,351,76694,2,0,P|207:275|175:206,1,140.30000267601,8|0,1:2|3:0,2:0:0:0:
432,57,77122,6,0,B|438:31|471:13|471:13|379:54|376:174,1,210.450004014015,0|0,1:0|3:0,2:0:0:0:
352,238,77551,6,0,P|385:284|431:292,1,70.1500013380051,10|0,1:2|2:0,2:0:0:0:
389,367,77765,2,0,P|445:361|475:325,1,70.1500013380051,2|0,2:0|2:0,2:0:0:0:
483,207,77980,6,0,L|462:106,1,70.1500013380051,2|0,1:2|2:0,2:0:0:0:
421,72,78194,2,0,L|442:173,1,70.1500013380051,2|0,2:0|2:0,2:0:0:0:
306,242,78408,6,0,P|290:267|239:283,1,70.1500013380051,10|0,1:2|3:0,2:0:0:0:
248,301,78622,2,0,P|218:299|178:263,1,70.1500013380051,2|0,3:2|3:0,2:0:0:0:
34,276,78837,6,0,P|100:220|247:174,1,210.450004014015,0|0,1:0|3:0,2:0:0:0:
230,161,79265,2,0,P|209:111|121:144,1,140.30000267601,8|0,1:2|2:0,2:0:0:0:
259,295,79694,6,0,P|325:307|384:370,1,140.30000267601,0|0,1:0|3:0,2:0:0:0:
463,343,80015,1,0,3:0:0:0:
470,351,80122,2,0,P|500:325|493:271,1,70.1500013380051,8|0,1:2|3:0,2:0:0:0:
474,224,80337,1,2,0:3:0:0:
216,17,80551,6,0,P|259:98|258:237,1,210.450004014015,0|0,1:0|3:0,2:0:0:0:
280,297,80980,6,0,P|251:318|194:323,1,70.1500013380051,10|0,1:2|2:0,2:0:0:0:
144,366,81194,2,0,P|99:349|78:305,1,70.1500013380051,0|0,2:0|2:0,2:0:0:0:
32,194,81408,6,0,P|49:143|63:92,1,70.1500013380051,2|0,1:2|2:0,2:0:0:0:
73,130,81622,2,0,P|62:96|51:63,1,70.1500013380051,0|0,3:0|3:0,2:0:0:0:
224,6,81837,6,0,P|276:10|310:56,1,70.1500013380051,10|0,1:2|2:0,2:0:0:0:
299,7,82051,2,0,P|328:21|345:79,1,70.1500013380051,0|0,3:0|2:0,2:0:0:0:
462,192,82265,6,0,L|365:223,1,93.5333351173401,2|2,1:2|2:0,2:0:0:0:
344,324,82551,1,2,2:0:0:0:
344,338,82694,6,0,L|247:307,1,93.5333351173401,10|2,1:2|2:0,2:0:0:0:
216,196,82980,1,2,2:0:0:0:
207,186,83122,6,0,L|110:217,1,93.5333351173401,2|2,1:2|2:0,2:0:0:0:
55,333,83408,1,2,2:0:0:0:
44,345,83551,6,0,P|24:234|11:174,1,140.30000267601,10|0,1:2|3:2,2:0:0:0:
140,25,83980,6,0,P|167:69|236:60,1,93.5333351173401,2|2,1:2|2:0,2:0:0:0:
286,49,84265,1,2,2:0:0:0:
282,37,84408,2,0,P|367:66|466:111,1,140.30000267601,10|0,1:2|2:0,2:0:0:0:
457,238,84837,6,0,P|403:252|353:274,1,93.5333351173401,2|0,1:2|2:0,2:0:0:0:
312,345,85122,1,2,0:2:0:0:
305,335,85265,2,0,P|259:323|213:313,1,93.5333351173401,10|0,1:2|3:2,2:0:0:0:
110,305,85551,1,2,2:0:0:0:
96,300,85694,6,0,B|56:348|-31:326|-10:208|70:181|140:210|140:215|141:221|225:249|314:216|324:111|290:39|198:31|161:90|161:90|199:66|241:100,1,634.399970959474,4|0,3:2|2:0,2:0:0:0:
96,300,87837,5,0,2:0:0:0:
109,276,88051,1,0,2:0:0:0:
144,253,88265,1,0,2:0:0:0:
196,236,88480,1,0,2:0:0:0:
281,247,88694,1,0,2:0:0:0:
351,308,88908,1,0,2:0:0:0:
433,297,89122,6,0,P|415:253|395:159,1,134.200004095459,0|0,2:0|2:0,2:0:0:0:
168,279,89980,6,0,P|154:213|130:150,1,134.200004095459,0|0,2:0|2:0,2:0:0:0:
461,185,90837,6,0,P|404:198|326:239,1,134.200004095459,0|0,2:0|2:0,2:0:0:0:
130,150,91694,6,0,P|73:163|-5:204,1,134.200004095459,0|0,2:0|2:0,2:0:0:0:
256,19,92551,5,4,2:0:0:0:
35,314,93837,5,8,2:0:0:0:
50,319,93944,1,8,2:3:0:0:
66,323,94051,1,8,2:3:0:0:
82,327,94158,1,8,2:0:0:0:
99,331,94265,6,0,P|91:272|79:213,1,103.700001977921,12|0,1:2|2:0,2:0:0:0:
32,169,94587,1,0,2:0:0:0:
35,160,94694,2,0,L|24:105,1,51.8500009889603,8|0,2:0|2:0,2:0:0:0:
92,49,94908,2,0,L|107:128,1,51.8500009889603,0|0,2:0|2:0,2:0:0:0:
174,141,95122,1,0,1:0:0:0:
227,312,95337,6,0,L|284:300,1,51.8500009889603,2|0,3:0|3:0,2:0:0:0:
316,236,95551,2,0,L|373:224,1,51.8500009889603,10|0,2:0|2:0,2:0:0:0:
441,293,95765,6,0,L|456:372,1,51.8500009889603,2|0,3:0|2:0,2:0:0:0:
433,287,95980,6,0,L|471:75,1,207.400003955841,2|10,1:0|2:0,2:0:0:0:
332,20,96622,1,2,2:0:0:0:
332,20,96730,1,2,3:0:0:0:
332,20,96837,2,0,L|264:43,1,51.8500009889603,2|0,1:0|3:0,2:0:0:0:
200,127,97051,5,2,2:0:0:0:
186,122,97158,1,2,3:0:0:0:
174,117,97265,2,0,L|185:183,1,51.8500009889603,10|0,2:0|2:0,2:0:0:0:
124,246,97480,5,2,3:0:0:0:
110,241,97587,1,2,2:0:0:0:
98,236,97694,2,0,L|109:302,1,51.8500009889603,2|0,1:0|2:0,2:0:0:0:
74,363,97908,5,2,2:0:0:0:
163,346,98122,1,10,2:0:0:0:
324,242,98337,5,2,2:0:0:0:
324,242,98444,1,0,2:0:0:0:
324,242,98551,2,0,L|208:217,1,103.700001977921,2|2,1:0|3:0,2:0:0:0:
163,165,98872,1,0,3:0:0:0:
153,161,98980,2,0,L|164:92,3,51.8500009889603,10|0|2|0,2:0|2:0|3:0|3:0,2:0:0:0:
78,24,99408,6,0,P|76:59|95:92,1,51.8500009889603,2|0,1:0|2:0,2:0:0:0:
230,137,99622,2,0,L|297:147,1,51.8500009889603,2|0,3:0|2:0,2:0:0:0:
87,279,99837,6,0,P|85:244|104:211,1,51.8500009889603,10|0,2:0|2:0,2:0:0:0:
249,131,100051,2,0,L|300:138,1,51.8500009889603,2|2,3:0|3:0,2:0:0:0:
461,67,100265,6,0,P|451:132|461:202,1,103.700001977921,2|2,1:0|2:0,2:0:0:0:
408,233,100587,1,2,2:0:0:0:
412,242,100694,2,0,P|436:267|471:276,1,51.8500009889603,10|0,2:0|2:0,2:0:0:0:
473,345,100908,2,0,P|495:333|512:313,1,51.8500009889603,0|0,2:0|2:0,2:0:0:0:
329,310,101122,6,0,P|274:298|202:284,1,103.700001977921,2|0,1:0|2:0,2:0:0:0:
0,334,101551,6,0,P|55:346|127:360,1,103.700001977921,10|0,2:0|2:0,2:0:0:0:
144,294,101872,1,0,2:0:0:0:
151,297,101980,6,0,P|140:235|126:165,1,103.700001977921,2|0,1:0|3:0,2:0:0:0:
264,18,102408,6,0,P|275:80|289:150,1,103.700001977921,10|0,2:0|3:0,2:0:0:0:
512,289,102837,6,0,B|457:261|412:310|420:316|427:321|374:383|303:326,1,207.400003955841,2|8,1:0|2:0,2:0:0:0:
328,341,103480,1,2,2:0:0:0:
252,287,103694,5,2,1:0:0:0:
180,88,103908,1,2,3:0:0:0:
145,167,104122,5,10,2:0:0:0:
115,249,104337,1,2,3:0:0:0:
0,328,104551,6,0,B|-4:283|38:262|83:280|83:280|245:347|245:347|301:369|337:338|336:302,1,414.800007911682,2|0,1:0|1:0,2:0:0:0:
336,302,105622,1,0,3:0:0:0:
243,144,105837,2,0,P|203:170|214:234,1,103.700001977921,2|0,2:0|3:0,2:0:0:0:
304,32,106265,6,0,B|349:54|348:98|310:128|310:128|171:235|171:235|123:273|132:319|164:336,1,414.800007911682,2|2,1:0|2:0,2:0:0:0:
329,360,107337,1,0,2:0:0:0:
342,354,107444,1,0,2:0:0:0:
355,351,107551,2,0,L|338:294,1,51.8500009889603,0|0,2:0|2:0,2:0:0:0:
393,243,107765,2,0,L|376:186,1,51.8500009889603,0|0,2:0|2:0,2:0:0:0:
471,135,107980,6,0,P|413:120|353:102,1,100.650003071594,0|0,1:0|1:0,2:0:0:0:
321,51,108408,6,0,B|237:72|237:72|238:75|238:75|116:105,1,173.849995357704,8|0,2:0|3:0,2:0:0:0:
73,78,108837,5,0,1:0:0:0:
69,69,108944,1,0,3:0:0:0:
65,60,109051,1,8,2:3:0:0:
101,158,109265,2,0,L|92:213,3,38.6333323017121,0|0|0|0,3:0|3:0|3:0|3:0,2:0:0:0:
23,241,109587,1,8,3:0:0:0:
28,250,109694,6,0,L|216:203,1,173.849995357704,8|0,3:2|2:0,2:0:0:0:
233,138,110122,6,0,P|262:156|267:223,1,82.3499974868775,0|0,3:0|2:0,2:0:0:0:
311,284,110551,6,0,L|364:299,1,45.75,0|0,1:0|2:0,2:0:0:0:
422,360,110980,5,2,2:0:0:0:
431,361,111194,1,2,3:0:0:0:
497,280,111408,6,0,L|477:175,1,79.2999963699342,2|2,1:0|2:0,2:0:0:0:
427,67,111837,5,10,2:0:0:0:
494,8,112051,1,2,2:0:0:0:
355,131,112265,5,2,1:0:0:0:
359,139,112372,2,0,P|311:119|256:96,1,79.2999963699342,0|0,3:0|3:0,2:0:0:0:
213,81,112694,2,0,L|200:40,3,39.6499981849671,8|0|0|0,2:0|3:0|3:0|3:0,2:0:0:0:
226,159,113122,5,2,1:0:0:0:
193,236,113337,1,2,3:0:0:0:
33,275,113551,5,10,2:0:0:0:
66,352,113766,1,2,3:0:0:0:
121,195,113980,5,2,1:0:0:0:
127,202,114087,2,0,L|47:185,1,79.2999963699342,0|0,3:0|3:0,2:0:0:0:
2,249,114408,2,0,L|16:299,3,39.6499981849671,8|0|0|0,2:0|3:0|3:0|3:0,2:0:0:0:
22,87,114837,5,2,1:0:0:0:
110,110,115051,1,2,3:0:0:0:
236,203,115265,5,10,2:0:0:0:
333,179,115480,1,2,3:0:0:0:
402,26,115694,6,0,P|427:112|452:211,1,158.599992739868,2|10,1:0|2:0,2:0:0:0:
444,178,116337,1,2,3:0:0:0:
381,331,116551,6,0,P|433:346|476:360,1,79.2999963699342,2|0,1:0|3:0,2:0:0:0:
261,284,116980,5,8,2:0:0:0:
169,327,117194,1,0,3:0:0:0:
22,212,117408,6,0,P|43:280|74:384,1,158.599992739868,0|8,1:0|2:1,2:0:0:0:
68,363,118051,1,0,3:0:0:0:
199,229,118265,5,2,1:0:0:0:
245,142,118480,1,2,2:0:0:0:
152,94,118694,1,10,2:0:0:0:
106,181,118909,1,2,2:0:0:0:
108,342,119122,6,0,P|67:358|34:377,1,79.2999963699342,2|0,1:0|3:0,2:0:0:0:
0,301,119551,2,0,P|41:285|74:266,1,79.2999963699342,8|0,2:0|3:0,2:0:0:0:
222,237,119980,5,2,1:0:0:0:
176,150,120195,1,2,2:0:0:0:
269,102,120409,1,10,2:0:0:0:
315,189,120622,1,2,2:0:0:0:
313,350,120837,6,0,P|354:366|387:385,1,79.2999963699342,2|0,1:0|3:0,2:0:0:0:
421,309,121266,2,0,P|380:293|347:274,1,79.2999963699342,8|0,2:0|3:0,2:0:0:0:
469,39,121694,6,0,P|511:77|483:179,1,158.599992739868,10|10,2:1|2:1,2:0:0:0:
440,221,122337,1,2,2:0:0:0:
149,77,122551,5,14,2:1:0:0:
66,131,122765,1,8,2:1:0:0:
199,165,122980,5,10,2:1:0:0:
116,219,123194,1,2,2:0:0:0:
16,306,123408,5,10,2:1:0:0:
114,332,123622,1,10,2:0:0:0:
219,367,123837,1,10,2:1:0:0:
219,367,123944,1,0,2:0:0:0:
373,261,124158,5,0,3:0:0:0:
373,261,124265,1,10,2:1:0:0:
274,232,124480,1,4,2:3:0:0:
92,215,124694,6,0,P|160:188|284:111,1,192.149994136048,12|0,2:1|2:0,2:0:0:0:
270,105,125122,6,0,P|257:56|161:76,1,155.550002966881,2|0,1:0|2:0,2:0:0:0:
154,82,125551,2,0,P|115:108|55:69,1,103.700001977921,8|2,2:0|2:0,2:0:0:0:
5,16,125980,5,2,1:0:0:0:
20,68,126194,1,0,2:0:0:0:
38,142,126408,1,8,2:0:0:0:
58,232,126622,1,0,1:0:0:0:
83,334,126837,1,0,1:0:0:0:
328,344,127051,5,2,2:0:0:0:
395,293,127265,1,10,2:0:0:0:
462,356,127480,1,2,3:0:0:0:
462,356,127587,1,0,3:0:0:0:
462,356,127694,1,2,1:0:0:0:
398,212,127908,1,2,2:0:0:0:
328,344,128122,1,10,2:0:0:0:
395,293,128337,1,2,1:0:0:0:
167,365,128551,6,0,P|150:309|142:174,1,155.550002966881,2|0,1:0|2:0,2:0:0:0:
118,180,128980,1,8,2:0:0:0:
139,133,129194,1,2,2:0:0:0:
195,95,129408,1,2,1:0:0:0:
277,94,129622,1,0,2:0:0:0:
349,136,129837,1,8,2:0:0:0:
422,187,130051,1,0,1:0:0:0:
501,163,130265,1,0,1:0:0:0:
449,22,130480,6,0,P|392:40|327:62,2,103.700001977921,2|10|2,2:0|2:0|3:0,2:0:0:0:
512,78,131015,1,0,3:0:0:0:
502,73,131122,1,2,1:0:0:0:
297,140,131337,2,0,P|263:125|230:112,2,51.8500009889603,2|0|10,2:0|3:0|2:0,2:0:0:0:
385,240,131765,1,2,1:0:0:0:
184,311,131980,6,0,P|119:328|-6:368,1,155.550002966881,6|8,1:0|2:3,2:0:0:0:
13,345,132408,1,10,2:3:0:0:
248,373,132622,1,10,2:3:0:0:
119,298,132837,5,8,2:1:0:0:
107,222,133051,1,0,2:0:0:0:
107,222,133158,1,4,2:3:0:0:
107,222,133265,1,8,2:3:0:0:
87,134,133480,1,8,2:3:0:0:
236,19,133694,6,0,P|288:12|322:124,1,155.550002966881,6|8,1:0|2:3,2:0:0:0:
325,82,134122,1,10,2:3:0:0:
204,161,134337,1,10,2:3:0:0:
421,151,134551,5,8,2:1:0:0:
325,82,134765,1,8,2:1:0:0:
245,28,134980,1,8,2:1:0:0:
245,28,135087,1,0,3:0:0:0:
245,28,135194,1,8,2:1:0:0:
58,188,135408,5,10,2:1:0:0:
58,188,135622,6,0,L|139:214,1,51.8500009889603,10|0,2:3|2:0,2:0:0:0:
100,183,135837,6,0,L|149:167,1,51.8500009889603,10|0,2:3|2:0,2:0:0:0:
185,203,136051,6,0,L|266:229,1,51.8500009889603,6|0,2:3|2:0,2:0:0:0:
253,172,136265,6,0,L|302:156,1,51.8500009889603,6|0,2:3|2:0,2:0:0:0:
337,224,136480,6,0,L|386:239,1,51.8500009889603,10|0,2:1|2:0,2:0:0:0:
403,154,136694,6,0,L|452:138,1,51.8500009889603,10|0,2:1|2:0,2:0:0:0:
463,229,136908,6,0,L|512:244,1,51.8500009889603,10|0,2:1|2:0,2:0:0:0:
185,156,137122,6,0,B|229:100|315:106|422:207|466:-9|292:-156|132:-45|186:124|237:176|242:172|260:174|284:290|220:410|104:409|30:334|39:268|64:216|154:225,1,829.600015823365,10|0,1:2|2:0,2:0:0:0:
358,339,139908,6,0,B|409:321|439:362|439:362|416:271|312:281|307:296|304:311|272:373|210:387|148:375|140:301,1,442.250013496399,10|8,2:1|2:0,2:0:0:0:
97,276,140551,6,0,P|115:192|190:63,1,210.450004014015,6|0,1:2|3:0,2:0:0:0:
164,62,140980,1,8,1:2:0:0:
241,162,141194,1,2,2:0:0:0:
331,22,141408,2,0,P|359:97|375:201,1,140.30000267601,2|0,1:2|2:0,2:0:0:0:
316,222,141730,1,0,3:0:0:0:
313,213,141837,2,0,P|380:206|428:288,1,140.30000267601,8|0,1:2|3:0,2:0:0:0:
263,313,142265,6,0,P|188:328|49:386,1,210.450004014015,0|0,1:0|3:0,2:0:0:0:
45,349,142694,2,0,P|63:304|105:288,1,70.1500013380051,10|0,1:2|2:0,2:0:0:0:
62,208,142908,2,0,P|97:201|137:222,1,70.1500013380051,2|0,2:0|2:0,2:0:0:0:
210,63,143122,6,0,L|227:143,1,70.1500013380051,2|0,1:2|2:0,2:0:0:0:
324,12,143337,2,0,L|307:95,1,70.1500013380051,2|0,2:0|2:0,2:0:0:0:
380,286,143551,6,0,L|397:206,1,70.1500013380051,10|0,1:2|3:0,2:0:0:0:
411,351,143766,2,0,L|394:268,1,70.1500013380051,2|0,3:2|3:0,2:0:0:0:
237,208,143980,6,0,B|182:183|147:233|149:240|151:247|130:319|50:279,1,210.450004014015,0|0,1:0|3:0,2:0:0:0:
67,272,144408,2,0,P|118:271|169:346,1,140.30000267601,8|0,1:2|2:0,2:0:0:0:
321,171,144837,6,0,P|303:246|287:334,1,140.30000267601,0|0,1:0|3:0,2:0:0:0:
346,366,145158,1,0,3:0:0:0:
355,373,145265,2,0,P|377:335|360:284,1,70.1500013380051,8|0,1:2|3:0,2:0:0:0:
302,181,145480,2,0,L|228:199,1,70.1500013380051,2|0,2:3|2:0,2:0:0:0:
51,25,145694,6,0,P|120:18|140:149,1,210.450004014015,0|0,1:0|3:0,2:0:0:0:
153,173,146122,2,0,P|136:200|86:213,1,70.1500013380051,10|0,1:2|2:0,2:0:0:0:
108,289,146337,2,0,P|76:287|39:250,1,70.1500013380051,0|0,2:0|2:0,2:0:0:0:
200,266,146551,6,0,L|221:356,1,70.1500013380051,2|0,1:2|2:0,2:0:0:0:
315,199,146765,2,0,L|296:277,1,70.1500013380051,0|0,3:0|3:0,2:0:0:0:
257,130,146980,6,0,P|299:104|337:113,1,70.1500013380051,10|0,1:2|2:0,2:0:0:0:
312,90,147194,2,0,P|346:92|373:114,1,70.1500013380051,0|0,3:0|2:0,2:0:0:0:
408,239,147408,6,0,P|309:216|185:189,1,187.06667023468,2|2,1:2|2:0,2:0:0:0:
204,181,147837,1,10,1:2:0:0:
143,246,147980,2,0,L|164:350,1,93.5333351173401,2|2,2:0|2:0,2:0:0:0:
320,362,148265,5,2,1:2:0:0:
349,349,148408,1,2,2:0:0:0:
380,337,148551,1,2,2:0:0:0:
407,322,148694,2,0,P|337:326|305:255,1,140.30000267601,10|0,1:2|3:2,2:0:0:0:
77,168,149122,6,0,P|156:193|208:97,1,187.06667023468,2|2,1:2|2:0,2:0:0:0:
196,103,149551,1,10,1:2:0:0:
261,46,149694,2,0,L|362:72,1,93.5333351173401,2|2,2:0|2:0,2:0:0:0:
477,13,149980,5,2,1:2:0:0:
469,43,150122,1,2,2:0:0:0:
461,70,150265,1,2,2:0:0:0:
453,99,150408,2,0,L|498:251,1,140.30000267601,10|0,1:2|3:0,2:0:0:0:
322,337,150837,6,0,P|348:369|387:368,1,70.1500013380051,0|0,1:0|2:0,2:0:0:0:
367,221,151051,2,0,P|333:227|314:256,1,70.1500013380051,0|0,2:0|3:0,2:0:0:0:
235,384,151265,6,0,L|219:299,1,70.1500013380051,10|0,1:2|2:0,2:0:0:0:
244,170,151480,2,0,L|231:238,1,70.1500013380051,2|0,2:0|2:0,2:0:0:0:
139,305,151694,6,0,P|113:337|74:336,1,70.1500013380051,2|0,1:0|2:0,2:0:0:0:
94,189,151908,2,0,P|127:195|146:224,1,70.1500013380051,2|0,2:0|3:0,2:0:0:0:
222,315,152122,6,0,L|238:230,1,70.1500013380051,10|0,1:2|3:0,2:0:0:0:
231,101,152337,2,0,L|243:169,1,70.1500013380051,2|0,3:2|3:0,2:0:0:0:
362,286,152551,6,0,P|412:280|457:372,1,158.599992739868,10|2,2:3|2:3,2:0:0:0:
133,338,153408,5,2,3:0:0:0:
56,369,153622,1,2,2:3:0:0:
66,291,153837,5,0,2:0:0:0:
62,279,154051,1,2,3:0:0:0:
172,368,154265,6,0,P|146:294|204:144,1,210.450004014015,6|0,1:2|3:0,2:0:0:0:
167,146,154694,2,0,P|86:145|77:226,1,140.30000267601,8|2,1:2|2:0,2:0:0:0:
260,259,155122,6,0,P|329:271|390:312,1,140.30000267601,2|0,1:2|2:0,2:0:0:0:
404,339,155444,1,0,3:0:0:0:
404,339,155551,2,0,P|455:318|430:232,1,140.30000267601,8|0,1:2|3:0,2:0:0:0:
342,6,155980,6,0,B|301:42|336:109|373:79|412:143|363:198,1,210.450004014015,0|0,1:0|3:0,2:0:0:0:
299,234,156408,6,0,P|292:222|229:207,1,70.1500013380051,10|0,1:2|2:0,2:0:0:0:
235,131,156622,2,0,P|201:136|177:162,1,70.1500013380051,2|0,2:0|2:0,2:0:0:0:
53,184,156837,6,0,L|72:271,1,70.1500013380051,2|0,1:2|2:0,2:0:0:0:
146,262,157051,2,0,L|127:349,1,70.1500013380051,2|0,2:0|2:0,2:0:0:0:
256,364,157265,6,0,P|290:366|320:340,1,70.1500013380051,10|0,1:2|3:0,2:0:0:0:
307,335,157480,2,0,P|325:306|318:267,1,70.1500013380051,2|0,3:2|3:0,2:0:0:0:
266,35,157694,6,0,P|183:55|46:129,1,210.450004014015,0|0,1:0|3:0,2:0:0:0:
54,103,158122,2,0,P|91:48|161:64,1,140.30000267601,8|0,1:2|2:0,2:0:0:0:
307,163,158551,6,0,P|383:189|430:231,1,140.30000267601,0|0,1:0|3:0,2:0:0:0:
497,176,158872,1,0,3:0:0:0:
504,166,158980,2,0,P|473:136|424:146,1,70.1500013380051,8|0,1:2|3:0,2:0:0:0:
337,214,159194,2,0,L|361:299,1,70.1500013380051,2|0,2:3|2:0,2:0:0:0:
224,374,159408,6,0,P|141:369|115:234,1,210.450004014015,0|0,1:0|3:0,2:0:0:0:
168,214,159837,6,0,L|145:124,1,70.1500013380051,10|0,1:2|2:0,2:0:0:0:
212,56,160051,2,0,L|234:144,1,70.1500013380051,0|0,2:0|2:0,2:0:0:0:
310,232,160265,6,0,P|277:246|237:269,1,70.1500013380051,2|0,1:2|2:0,2:0:0:0:
245,345,160480,2,0,P|278:359|318:382,1,70.1500013380051,0|0,3:0|3:0,2:0:0:0:
442,370,160694,6,0,L|458:291,1,70.1500013380051,10|0,1:2|2:0,2:0:0:0:
434,349,160908,2,0,L|450:266,1,70.1500013380051,0|0,3:0|2:0,2:0:0:0:
463,108,161122,6,0,P|444:87|379:103,1,93.5333351173401,2|2,1:2|2:0,2:0:0:0:
319,142,161408,1,2,2:0:0:0:
351,3,161551,6,0,P|323:8|304:73,1,93.5333351173401,10|2,1:2|2:0,2:0:0:0:
308,144,161837,1,2,2:0:0:0:
197,40,161980,6,0,P|188:66|234:115,1,93.5333351173401,2|2,1:2|2:0,2:0:0:0:
297,147,162266,1,2,2:0:0:0:
236,225,162408,6,0,P|248:315|255:379,1,140.30000267601,10|0,1:2|3:2,2:0:0:0:
4,334,162837,6,0,L|115:304,1,93.5333351173401,2|2,1:2|2:0,2:0:0:0:
117,183,163122,1,2,2:0:0:0:
124,172,163265,6,0,L|235:202,1,93.5333351173401,10|2,1:2|2:0,2:0:0:0:
322,293,163550,1,2,2:0:0:0:
339,291,163694,6,0,L|311:189,1,93.5333351173401,2|2,1:2|2:0,2:0:0:0:
347,100,163980,1,2,2:0:0:0:
356,91,164122,6,0,L|335:-13,2,93.5333351173401,10|2|2,1:2|2:0|2:0,2:0:0:0:
189,179,164551,6,0,B|171:95|56:107|33:217|93:283|169:311|247:256|247:246|245:235|314:217|384:235|402:301|373:359|373:359|376:303|321:283,1,634.399970959474,4|0,3:2|2:0,2:0:0:0:
296,359,166480,5,0,2:0:0:0:
286,345,166694,1,0,2:0:0:0:
266,316,166908,1,0,2:0:0:0:
251,255,167122,1,0,2:0:0:0:
260,176,167337,1,0,2:0:0:0:
287,100,167551,1,0,2:0:0:0:
340,41,167765,1,0,2:0:0:0:
418,19,167980,6,0,P|357:28|241:31,1,158.599992739868,0|0,2:0|2:0,2:0:0:0:
63,123,168837,6,0,P|115:133|235:141,1,158.599992739868,0|0,2:0|2:0,2:0:0:0:
383,206,169694,6,0,P|403:267|428:364,1,158.599992739868,0|0,2:0|2:0,2:0:0:0:
129,206,170551,6,0,P|109:267|84:364,1,158.599992739868,0|0,2:0|2:0,2:0:0:0:
85,358,171408,5,4,2:0:0:0:
109,52,173122,5,6,1:0:0:0:
175,109,173337,2,0,L|157:178,1,64.0499980453492,0|0,2:0|2:0,2:0:0:0:
245,57,173551,2,0,L|263:126,1,64.0499980453492,10|0,2:0|2:0,2:0:0:0:
350,17,173765,2,0,L|333:78,1,64.0499980453492,0|0,2:0|2:0,2:0:0:0:
406,164,173980,6,0,L|472:183,2,64.0499980453492,2|0|0,1:0|2:0|2:0,2:0:0:0:
280,256,174408,6,0,L|214:275,2,64.0499980453492,10|0|0,2:0|2:0|3:0,2:0:0:0:
438,366,174837,6,0,L|458:272,1,64.0499980453492,2|0,1:0|2:0,2:0:0:0:
376,260,175051,2,0,L|447:324,1,64.0499980453492,0|0,2:0|2:0,2:0:0:0:
496,267,175265,2,0,L|404:296,1,64.0499980453492,10|0,2:0|2:0,2:0:0:0:
426,368,175480,2,0,L|446:274,1,64.0499980453492,0|0,2:0|3:0,2:0:0:0:
297,155,175694,5,2,1:0:0:0:
288,148,175801,2,0,P|257:186|302:267,1,128.099996090698,0|0,2:0|2:0,2:0:0:0:
322,322,176122,2,0,P|253:340|167:367,1,128.099996090698,10|0,2:0|2:0,2:0:0:0:
65,299,176551,5,2,1:0:0:0:
122,191,176765,1,2,2:0:0:0:
116,170,176872,1,2,2:0:0:0:
110,149,176980,1,10,2:0:0:0:
178,57,177194,1,2,2:0:0:0:
27,45,177408,6,0,L|93:69,1,64.0499980453492,2|0,1:0|3:0,2:0:0:0:
205,139,177622,2,0,L|265:117,1,64.0499980453492,2|0,3:0|3:0,2:0:0:0:
29,55,177837,6,0,L|95:79,1,64.0499980453492,10|0,2:0|3:0,2:0:0:0:
207,149,178051,2,0,L|267:127,1,64.0499980453492,2|0,3:0|3:0,2:0:0:0:
369,23,178265,6,0,P|390:96|408:156,1,128.099996090698,2|2,1:0|2:0,2:0:0:0:
394,163,178587,1,2,2:0:0:0:
488,265,178801,1,2,2:0:0:0:
495,261,178908,2,0,L|412:241,1,64.0499980453492,2|0,2:0|3:0,2:0:0:0:
266,361,179122,2,0,L|331:327,1,64.0499980453492,2|0,1:0|3:0,2:0:0:0:
309,199,179337,1,0,3:0:0:0:
297,192,179444,1,0,3:0:0:0:
285,186,179551,2,0,L|307:270,1,64.0499980453492,8|0,2:0|2:0,2:0:0:0:
392,384,179765,2,0,L|408:322,1,64.0499980453492,0|0,3:0|3:0,2:0:0:0:
455,141,179980,5,2,1:0:0:0:
452,128,180087,1,2,2:0:0:0:
449,114,180194,1,2,2:0:0:0:
447,101,180301,1,2,2:0:0:0:
461,72,180408,5,10,2:0:0:0:
416,42,180515,1,2,2:0:0:0:
370,49,180622,1,2,2:0:0:0:
336,85,180730,1,2,2:0:0:0:
312,128,180837,5,2,1:0:0:0:
267,162,180944,1,2,2:0:0:0:
217,148,181051,1,2,2:0:0:0:
186,101,181158,1,2,2:0:0:0:
196,53,181265,2,0,P|226:35|271:50,3,64.0499980453492,10|2|2|2,2:0|2:0|2:0|2:0,2:0:0:0:
312,128,181694,5,2,1:0:0:0:
305,164,181801,1,2,2:0:0:0:
298,200,181908,1,2,2:0:0:0:
291,236,182015,1,2,2:0:0:0:
263,269,182122,5,10,2:0:0:0:
267,290,182230,1,2,2:0:0:0:
271,311,182337,1,2,2:0:0:0:
275,332,182444,1,2,2:0:0:0:
257,364,182551,6,0,L|192:384,1,64.0499980453492,2|2,1:0|2:0,2:0:0:0:
356,286,182765,2,0,L|424:301,1,64.0499980453492,2|2,2:0|2:0,2:0:0:0:
249,180,182980,2,0,L|164:200,3,64.0499980453492,8|0|0|0,2:0|2:0|3:0|2:0,2:0:0:0:
104,174,183408,5,8,2:1:0:0:
188,44,183622,1,10,2:0:0:0:
100,21,183837,5,10,2:0:0:0:
186,194,184051,1,10,2:0:0:0:
241,114,184265,5,8,2:0:0:0:
49,103,184480,1,8,2:0:0:0:
84,208,184694,5,8,2:0:0:0:
196,22,184908,1,8,2:0:0:0:
133,89,185122,6,0,L|155:137,2,42.6999986968995,8|8|8,2:0|2:0|2:0,2:0:0:0:
180,148,185337,2,0,L|154:233,1,64.0499980453492,10|0,2:0|3:0,2:0:0:0:
199,287,185551,1,8,2:0:0:0:
199,287,185658,1,2,3:0:0:0:
199,287,185765,2,0,L|224:360,1,64.0499980453492,0|2,3:0|3:0,2:0:0:0:
317,368,185980,5,8,2:0:0:0:
335,359,186087,1,8,2:0:0:0:
352,349,186194,1,10,2:0:0:0:
369,339,186301,1,8,2:0:0:0:
389,329,186408,6,0,L|380:373,6,42.6999986968995,10|0|0|0|0|0|4,2:0|3:0|3:0|3:0|3:0|3:0|3:2,2:0:0:0:
43,155,193694,6,0,P|83:169|121:191,1,67.1000020477296,2|2,2:0|2:0,2:0:0:0:
284,337,194337,6,0,P|276:295|276:251,1,67.1000020477296,2|2,2:0|2:0,2:0:0:0:
307,29,194980,6,0,P|274:56|236:78,1,67.1000020477296,2|2,2:0|2:0,2:0:0:0:
51,174,195622,6,0,P|91:188|129:210,1,67.1000020477296,2|2,2:0|2:0,2:0:0:0:
332,207,196908,5,0,2:0:0:0:
343,197,197015,1,0,2:0:0:0:
354,185,197122,2,0,B|429:205|454:277|397:299|460:354|460:354|399:333|334:271|393:186|413:122|315:37|207:57|207:57|287:63|299:133,1,780.8,2|0,2:0|2:0,2:0:0:0:
51,334,202265,6,0,P|89:347|123:369,1,67.1000020477296,2|0,2:0|2:0,2:0:0:0:
148,280,202694,2,0,P|110:267|76:245,1,67.1000020477296,2|0,2:0|2:0,2:0:0:0:
281,351,203122,6,0,P|299:295|314:262,1,67.1000020477296,2|2,2:0|2:0,2:0:0:0:
271,222,203444,2,0,P|318:243|377:246,1,100.650003071594,2|0,2:0|2:0,2:0:0:0:
226,31,203980,6,0,P|208:71|197:119,1,67.1000020477296,2|0,2:0|2:0,2:0:0:0:
117,64,204408,2,0,P|135:24|146:-24,1,67.1000020477296,2|0,2:0|2:0,2:0:0:0:
44,153,204837,6,0,P|77:160|108:173,1,67.1000020477296,2|0,2:0|2:0,2:0:0:0:
198,213,205158,1,0,0:0:0:0:
198,213,205265,2,0,P|236:197|281:184,1,67.1000020477296,2|0,2:0|2:0,2:0:0:0:
480,74,205694,6,0,P|473:35|460:-2,1,67.1000020477296,2|0,2:0|2:0,2:0:0:0:
491,215,206122,2,0,P|498:176|511:139,1,67.1000020477296,2|0,2:0|2:0,2:0:0:0:
472,355,206551,2,0,P|465:316|452:279,1,67.1000020477296,2|2,2:0|2:0,2:0:0:0:
402,233,206872,2,0,P|358:246|289:280,1,100.650003071594,2|0,2:0|2:0,2:0:0:0:
101,340,207408,6,0,P|141:354|174:371,1,67.1000020477296,2|0,2:0|2:0,2:0:0:0:
217,305,207837,5,2,2:0:0:0:
197,229,208051,1,2,2:0:0:0:
240,71,208265,5,2,2:0:0:0:
224,149,208480,1,2,2:0:0:0:
224,149,208587,1,2,2:0:0:0:
224,149,208694,1,2,2:0:0:0:
197,229,208908,1,2,2:0:0:0:
267,333,209122,5,2,2:0:0:0:
276,324,209265,2,0,L|335:339,1,44.7333346984864,0|0,2:0|2:0,2:0:0:0:
420,380,209551,5,2,2:0:0:0:
407,376,209694,2,0,L|390:317,1,44.7333346984864,0|0,2:0|2:0,2:0:0:0:
385,221,209980,5,2,2:0:0:0:
388,234,210123,2,0,L|345:277,1,44.7333346984864,0|0,2:0|2:0,2:0:0:0:
290,354,210408,6,0,P|241:343|196:333,1,67.1000020477296,2|0,2:0|2:0,2:0:0:0:
209,213,210837,5,2,2:0:0:0:
200,204,210980,2,0,L|141:219,1,44.7333346984864,0|0,2:0|2:0,2:0:0:0:
56,260,211266,5,2,2:0:0:0:
69,256,211409,2,0,L|85:197,1,44.7333346984864,0|0,2:0|2:0,2:0:0:0:
91,101,211695,5,2,2:0:0:0:
88,114,211838,2,0,L|130:157,1,44.7333346984864,0|0,2:0|2:0,2:0:0:0:
186,234,212123,6,0,P|235:223|280:213,1,67.1000020477296,2|0,2:0|2:0,2:0:0:0:
317,56,212551,5,2,2:0:0:0:
399,101,212765,1,0,2:0:0:0:
305,144,212980,5,2,2:0:0:0:
403,111,213194,1,2,2:0:0:0:
365,216,213408,5,2,2:0:0:0:
408,123,213622,1,2,2:0:0:0:
447,223,213837,5,2,2:0:0:0:
411,134,214051,1,2,2:0:0:0:
487,320,214265,5,2,2:0:0:0:
129,95,217051,6,0,B|73:73|102:-31|194:-44|264:61|227:120|183:161|178:157|167:149|118:202|137:267|207:299,1,442.250013496399,10|8,2:1|2:0,2:0:0:0:
163,366,217694,6,0,P|219:308|360:330,1,210.450004014015,6|0,1:2|3:0,2:0:0:0:
360,331,218122,1,8,1:2:0:0:
443,244,218337,1,2,2:0:0:0:
353,94,218551,2,0,P|290:121|312:210,1,140.30000267601,2|0,1:2|2:0,2:0:0:0:
243,245,218872,1,0,3:0:0:0:
243,245,218980,2,0,P|239:311|177:336,1,140.30000267601,8|0,1:2|3:0,2:0:0:0:
51,384,219408,6,0,P|71:311|130:182,1,210.450004014015,0|0,1:0|3:0,2:0:0:0:
81,123,219837,6,0,P|125:107|167:120,1,70.1500013380051,10|0,1:2|2:0,2:0:0:0:
183,37,220051,2,0,P|218:67|228:109,1,70.1500013380051,2|0,2:0|2:0,2:0:0:0:
352,65,220265,6,0,L|329:144,1,70.1500013380051,2|0,1:2|2:0,2:0:0:0:
264,191,220480,2,0,L|290:259,1,70.1500013380051,2|0,2:0|2:0,2:0:0:0:
415,316,220694,6,0,P|387:342|341:343,1,70.1500013380051,10|0,1:2|3:0,2:0:0:0:
345,367,220908,2,0,P|311:360|286:336,1,70.1500013380051,2|0,3:2|3:0,2:0:0:0:
196,264,221122,6,0,P|111:281|19:384,1,210.450004014015,0|0,1:0|3:0,2:0:0:0:
50,359,221551,2,0,P|81:308|33:242,1,140.30000267601,8|0,1:2|2:0,2:0:0:0:
139,19,221980,6,0,P|108:70|156:136,1,140.30000267601,0|0,1:0|3:0,2:0:0:0:
224,175,222301,1,0,3:0:0:0:
234,180,222408,2,0,P|280:158|330:148,1,70.1500013380051,8|0,1:2|3:0,2:0:0:0:
417,221,222622,1,2,2:3:0:0:
451,16,222837,6,0,P|417:94|407:238,1,210.450004014015,0|0,1:0|3:0,2:0:0:0:
339,258,223265,6,0,P|370:295|415:295,1,70.1500013380051,10|0,1:2|2:0,2:0:0:0:
436,363,223480,2,0,P|481:345|537:325,1,70.1500013380051,0|0,2:0|2:0,2:0:0:0:
404,217,223694,6,0,P|373:180|328:180,1,70.1500013380051,2|0,1:2|2:0,2:0:0:0:
311,113,223909,2,0,P|266:131|210:151,1,70.1500013380051,0|0,3:0|3:0,2:0:0:0:
158,292,224122,6,0,L|84:271,1,70.1500013380051,10|0,1:2|2:0,2:0:0:0:
156,280,224337,2,0,L|82:259,1,70.1500013380051,0|0,3:0|2:0,2:0:0:0:
47,167,224551,6,0,P|53:120|112:95,1,93.5333351173401,2|2,1:2|2:0,2:0:0:0:
172,126,224837,1,2,2:0:0:0:
84,21,224980,6,0,P|127:2|178:41,1,93.5333351173401,10|2,1:2|2:0,2:0:0:0:
173,113,225266,1,2,2:0:0:0:
241,0,225408,6,0,P|278:28|270:92,1,93.5333351173401,2|2,1:2|2:0,2:0:0:0:
174,100,225694,1,2,2:0:0:0:
255,176,225837,6,0,P|334:195|403:218,1,140.30000267601,10|0,1:2|3:2,2:0:0:0:
488,368,226265,6,0,P|471:324|450:282,1,93.5333351173401,2|2,1:2|2:0,2:0:0:0:
466,159,226551,1,2,2:0:0:0:
307,267,226694,6,0,P|336:230|362:191,1,93.5333351173401,10|2,1:2|2:0,2:0:0:0:
458,152,226980,1,2,2:0:0:0:
300,42,227122,6,0,P|344:56|390:66,1,93.5333351173401,2|2,1:2|2:0,2:0:0:0:
450,147,227408,1,2,2:0:0:0:
307,267,227551,6,0,P|209:299|135:330,1,140.30000267601,10|0,1:2|3:0,2:0:0:0:
46,347,227980,6,0,P|33:303|65:255,1,70.1500013380051,0|0,1:0|2:0,2:0:0:0:
107,204,228194,2,0,P|150:212|183:225,1,70.1500013380051,0|0,2:0|3:0,2:0:0:0:
187,25,228408,6,0,P|174:69|206:117,1,70.1500013380051,10|0,1:2|2:0,2:0:0:0:
248,168,228622,2,0,P|291:160|324:147,1,70.1500013380051,2|0,2:0|2:0,2:0:0:0:
424,236,228837,6,0,P|439:307|446:329,1,70.1500013380051,2|0,1:0|2:0,2:0:0:0:
360,356,229051,2,0,P|345:285|338:263,1,70.1500013380051,2|0,2:0|3:0,2:0:0:0:
107,204,229265,6,0,P|92:275|85:297,1,70.1500013380051,10|0,1:2|3:0,2:0:0:0:
171,324,229479,2,0,P|186:253|193:231,1,70.1500013380051,2|0,3:2|3:0,2:0:0:0:
267,97,229694,6,0,B|236:192|303:158|266:263,1,158.599992739868,10|2,2:3|2:3,2:0:0:0:
51,368,230551,5,2,3:0:0:0:
82,314,230765,1,2,2:3:0:0:
166,295,230980,1,0,2:0:0:0:
239,348,231194,1,2,3:0:0:0:
335,359,231408,6,0,P|419:359|399:222,1,210.450004014015,6|0,1:2|3:0,2:0:0:0:
408,237,231837,2,0,P|391:193|458:125,1,140.30000267601,8|2,1:2|2:0,2:0:0:0:
323,19,232265,6,0,P|301:82|218:85,1,140.30000267601,2|0,1:2|2:0,2:0:0:0:
167,63,232587,1,0,3:0:0:0:
170,55,232694,2,0,P|95:35|20:26,1,140.30000267601,8|0,1:2|3:0,2:0:0:0:
20,305,233122,6,0,P|104:283|235:255,1,210.450004014015,0|0,1:0|3:0,2:0:0:0:
251,186,233551,6,0,P|288:213|294:267,1,70.1500013380051,10|0,1:2|2:0,2:0:0:0:
371,223,233765,2,0,P|366:268|322:300,1,70.1500013380051,2|0,2:0|2:0,2:0:0:0:
245,323,233980,6,0,P|229:276|219:229,1,70.1500013380051,2|0,1:2|2:0,2:0:0:0:
115,367,234194,2,0,P|124:333|136:301,1,70.1500013380051,2|0,2:0|2:0,2:0:0:0:
36,203,234408,6,0,P|64:175|116:178,1,70.1500013380051,10|0,1:2|3:0,2:0:0:0:
99,148,234622,2,0,P|132:155|156:180,1,70.1500013380051,2|0,3:2|3:0,2:0:0:0:
245,323,234837,6,0,P|261:257|326:99,1,210.450004014015,0|0,1:0|3:0,2:0:0:0:
359,92,235265,2,0,P|320:77|269:161,1,140.30000267601,8|0,1:2|2:0,2:0:0:0:
371,355,235694,6,0,P|308:310|231:302,1,140.30000267601,0|0,1:0|3:0,2:0:0:0:
192,341,236015,1,0,3:0:0:0:
188,350,236122,2,0,P|214:372|269:365,1,70.1500013380051,8|0,1:2|3:0,2:0:0:0:
351,291,236337,2,0,P|340:248|327:210,1,70.1500013380051,2|0,2:3|2:0,2:0:0:0:
500,24,236551,6,0,P|420:49|310:141,1,210.450004014015,0|0,1:0|3:0,2:0:0:0:
246,137,236980,6,0,P|250:97|282:63,1,70.1500013380051,10|0,1:2|2:0,2:0:0:0:
188,192,237194,2,0,P|169:162|167:128,1,70.1500013380051,0|0,2:0|2:0,2:0:0:0:
250,281,237408,6,0,L|170:309,1,70.1500013380051,2|0,1:2|2:0,2:0:0:0:
327,335,237622,2,0,L|260:311,1,70.1500013380051,0|0,3:0|3:0,2:0:0:0:
397,186,237837,6,0,L|417:267,1,70.1500013380051,10|0,1:2|2:0,2:0:0:0:
404,178,238051,2,0,L|424:259,1,70.1500013380051,0|0,3:0|2:0,2:0:0:0:
213,175,238265,6,0,L|235:79,1,93.5333351173401,2|2,1:2|2:0,2:0:0:0:
300,27,238551,1,2,2:0:0:0:
210,186,238694,6,0,L|137:118,1,93.5333351173401,10|2,1:2|2:0,2:0:0:0:
125,36,238980,1,2,2:0:0:0:
205,197,239122,6,0,L|110:225,1,93.5333351173401,2|2,1:2|2:0,2:0:0:0:
32,195,239408,1,2,2:0:0:0:
114,328,239551,6,0,P|214:353|272:366,1,140.30000267601,10|0,1:2|3:2,2:0:0:0:
375,312,239980,6,0,P|357:270|395:219,1,93.5333351173401,2|2,1:2|2:0,2:0:0:0:
463,198,240265,1,2,2:0:0:0:
325,170,240408,6,0,P|352:133|415:140,1,93.5333351173401,10|2,1:2|2:0,2:0:0:0:
467,189,240693,1,2,2:0:0:0:
259,64,240837,2,0,P|155:51|43:27,1,187.06667023468,2|0,1:2|3:2,2:0:0:0:
0,49,241265,5,10,1:2:0:0:
62,109,241408,5,2,2:0:0:0:
14,171,241551,5,2,2:0:0:0:
58,240,241694,6,0,B|101:169|197:167|225:251|220:258|215:263|239:347|340:378|392:281,1,411.749987434388,4|0,3:2|2:0,2:0:0:0:
317,208,243408,6,0,B|447:224|477:112|398:30|294:55|235:124|209:221|224:289|281:377,1,548.99998324585,4|0,3:2|2:0,2:0:0:0:
287,340,245122,6,0,P|205:350|104:371,1,155.550002966881,6|0,1:0|3:0,2:0:0:0:
76,319,245551,1,2,3:0:0:0:
148,234,245765,1,2,3:0:0:0:
49,150,245980,6,0,P|93:128|130:122,1,51.8500009889603,8|0,2:1|2:0,2:0:0:0:
145,50,246194,2,0,P|169:59|191:72,1,51.8500009889603,0|0,3:0|2:0,2:0:0:0:
267,204,246408,6,0,P|280:168|292:130,1,51.8500009889603,0|0,3:0|2:0,2:0:0:0:
363,55,246622,2,0,P|376:91|388:129,1,51.8500009889603,0|0,3:0|2:0,2:0:0:0:
505,172,246837,6,0,P|449:162|418:263,1,155.550002966881,2|0,1:0|3:0,2:0:0:0:
386,259,247265,1,2,3:0:0:0:
459,325,247480,1,2,3:0:0:0:
356,376,247694,6,0,P|287:356|187:332,1,155.550002966881,10|0,2:1|2:0,2:0:0:0:
135,369,248122,1,2,3:0:0:0:
119,364,248230,1,0,3:0:0:0:
104,360,248337,1,0,3:0:0:0:
89,355,248444,1,0,3:0:0:0:
28,305,248551,6,0,B|87:385|194:373|238:273|201:195|197:191|194:186|165:126|200:18|346:21|382:116,1,585.599982128907,14|14,2:1|2:1,2:0:0:0:
319,108,255408,6,0,B|352:37|445:62|445:62|363:59|327:129|316:185|334:240,1,362.950006922722,6|0,1:0|2:0,2:0:0:0:
331,224,256265,2,0,P|355:236|374:239,2,34.5666673259735,0|0|0,2:0|2:0|2:0,2:0:0:0:
375,256,256480,2,0,P|391:250|406:242,2,34.5666673259735,0|0|0,3:0|3:0|3:0,2:0:0:0:
424,225,256694,1,10,3:1:0:0:
179,331,257122,6,0,B|237:320|268:378|268:378|238:288|156:291|156:291|124:367|30:332,1,362.950006922722,10|0,1:2|2:0,2:0:0:0:
51,320,257980,2,0,L|41:273,2,34.5666673259735,0|0|0,2:0|2:0|2:0,2:0:0:0:
52,272,258194,2,0,L|62:225,2,34.5666673259735,0|0|0,3:0|3:0|3:0,2:0:0:0:
53,217,258408,1,10,3:1:0:0:
152,93,258837,6,0,B|83:128|47:47|70:-27|207:-21|286:71|296:160,1,362.950006922722,10|0,1:2|2:0,2:0:0:0:
302,130,259694,2,0,P|309:153|314:186,2,34.5666673259735,0|0|0,2:0|2:0|2:0,2:0:0:0:
323,168,259908,2,0,P|319:184|313:201,2,34.5666673259735,0|0|0,3:0|3:0|3:0,2:0:0:0:
321,214,260122,1,10,3:1:0:0:
226,356,260551,6,0,B|210:282|264:227|320:221|320:221|369:284|462:276|488:182,1,362.950006922722,10|0,1:2|2:0,2:0:0:0:
476,198,261408,6,0,P|419:222|414:281,1,103.700001977921,8|4,2:3|2:3,2:0:0:0:
418,276,261730,1,0,2:0:0:0:
422,286,261837,2,0,P|402:332|354:346,1,103.700001977921,14|0,2:3|2:0,2:0:0:0:
115,193,262265,5,12,2:1:0:0:
115,193,262694,5,2,3:0:0:0:
191,151,262908,1,2,3:0:0:0:
195,166,262980,1,0,3:0:0:0:
200,182,263051,1,0,3:0:0:0:
205,198,263122,1,2,3:0:0:0:
295,121,263337,1,10,2:0:0:0:
356,257,263551,1,10,2:0:0:0:
420,83,263765,1,10,2:1:0:0:
498,285,263980,1,10,2:1:0:0:
498,285,264408,5,8,2:1:0:0:
484,277,264515,1,8,2:3:0:0:
470,269,264622,1,4,2:3:0:0:
456,260,264730,1,12,2:3:0:0:
441,252,264837,1,4,3:2:0:0:
