osu file format v14

[General]
AudioFilename: audio.mp3
AudioLeadIn: 0
PreviewTime: 186730
Countdown: 0
SampleSet: Soft
StackLeniency: 0.7
Mode: 0
LetterboxInBreaks: 0
WidescreenStoryboard: 1

[Editor]
DistanceSpacing: 1.2
BeatDivisor: 6
GridSize: 32
TimelineZoom: 2

[Metadata]
Title:Soko ni wa Mata Meikyou
TitleUnicode:そこにはまた迷宮
Artist:KikuoHana
ArtistUnicode:きくおはな
Creator:SMOKELIND
Version:Kowari's Expert
Source:
Tags:It's Another Maze There Hanatan 花たん YURiCa ユリカ 第二幕 2 Second Act Rock Japanese Kowari Reform Kujinn
BeatmapID:3316536
BeatmapSetID:1581399

[Difficulty]
HPDrainRate:6
CircleSize:4
OverallDifficulty:8.5
ApproachRate:9.2
SliderMultiplier:3
SliderTickRate:1

[Events]
//Background and Video events
0,0,"91689568_p4.jpg",0,0
Video,50,"vid.mp4"
//Break Periods
2,187037,193124
//Storyboard Layer 0 (Background)
//Storyboard Layer 1 (Fail)
//Storyboard Layer 2 (Pass)
//Storyboard Layer 3 (Foreground)
//Storyboard Layer 4 (Overlay)
//Storyboard Sound Samples

[TimingPoints]
-20,428.571428571429,4,2,7,47,1,0
1694,-166.666666666667,4,2,7,47,0,0
9622,-125,4,2,7,47,0,0
9837,-100,4,2,7,47,0,0
10051,-83.3333333333334,4,2,7,47,0,0
11980,-83.3333333333334,4,2,7,37,0,0
29122,-83.3333333333334,4,2,7,47,0,0
29551,-166.666666666667,4,2,7,47,0,0
44551,-125,4,2,7,47,0,0
44980,-100,4,2,7,47,0,0
45408,-83.3333333333333,4,2,7,47,0,0
45837,-100,4,2,7,47,0,0
46265,-100,4,2,7,57,0,0
46694,-166.666666666667,4,2,7,57,0,0
59765,-166.666666666667,4,2,7,17,0,0
60408,-166.666666666667,4,2,7,27,0,0
60622,-166.666666666667,4,2,7,37,0,0
60837,-166.666666666667,4,2,7,47,0,0
61051,-166.666666666667,4,2,7,67,0,0
61694,-100,4,2,77,77,0,0
73265,-125,4,2,77,77,0,0
74551,-125,4,2,77,57,0,0
75408,-100,4,2,77,77,0,0
85694,-333.333333333333,4,2,77,67,0,0
87408,-333.333333333333,4,2,77,37,0,0
93837,-333.333333333333,4,2,77,47,0,0
94265,-125,4,2,77,47,0,0
95551,-125,4,2,7,47,0,0
107980,-125,4,2,7,37,0,0
110551,-100,4,2,7,37,0,0
111408,-125,4,2,7,47,0,0
125122,-125,4,2,7,57,0,0
139265,-125,4,2,7,27,0,0
139480,-125,4,2,7,37,0,0
139694,-125,4,2,7,47,0,0
139908,-125,4,2,7,67,0,0
140551,-100,4,2,77,77,0,0
153408,-100,4,2,77,57,0,0
154265,-100,4,2,77,77,0,0
164551,-125,4,2,77,67,0,0
166265,-125,4,2,77,37,0,0
173123,-125,4,2,7,57,0,0
180087,-125,4,2,77,57,0,0
183408,-125,4,2,7,67,0,0
186837,-125,4,2,777,37,0,0
193694,-125,4,2,7,37,0,0
215765,-125,4,2,7,17,0,0
216408,-125,4,2,7,27,0,0
216623,-125,4,2,7,37,0,0
216837,-125,4,2,7,47,0,0
217051,-100,4,2,7,67,0,0
217694,-100,4,2,77,77,0,0
230551,-100,4,2,77,57,0,0
231408,-100,4,2,77,77,0,0
241694,-125,4,2,77,67,0,0
245122,-125,4,2,7,67,0,0
248551,-125,4,2,7,57,0,0
254980,-100,4,2,7,57,0,0
255409,-166.666666666667,4,2,7,57,0,0
262266,-166.666666666667,4,2,7,47,0,0
263337,-125,4,2,7,47,0,0
263552,-100,4,2,7,47,0,0
263766,-83.3333333333334,4,2,7,47,0,0

[Colours]
Combo1 : 255,191,206
Combo2 : 233,233,233

[HitObjects]
134,372,1265,5,10,2:0:0:0:
134,372,1694,2,0,P|115:179|96:36,1,329.9999899292,10|0,1:2|2:0,2:0:0:0:
14,23,2551,2,0,L|21:73,3,29.9999990844727,0|0|0|0,2:0|2:0|2:0|3:2,2:0:0:0:
31,136,2837,1,0,3:2:0:0:
31,136,2908,1,0,3:2:0:0:
31,136,2980,1,10,3:1:0:0:
378,372,3409,6,0,P|397:179|416:36,1,329.9999899292,10|0,1:2|2:0,2:0:0:0:
498,23,4266,2,0,L|491:73,3,29.9999990844727,0|0|0|0,2:0|2:0|2:0|3:0,2:0:0:0:
481,136,4551,1,0,3:0:0:0:
481,136,4623,1,0,3:0:0:0:
481,136,4694,1,10,3:1:0:0:
205,302,5122,6,0,P|208:216|-6:153,1,329.9999899292,10|0,1:2|2:0,2:0:0:0:
51,207,5980,2,0,L|46:251,3,29.9999990844727,0|0|0|0,2:0|2:0|2:0|3:0,2:0:0:0:
48,319,6265,1,0,3:0:0:0:
48,319,6337,1,0,3:0:0:0:
48,319,6408,1,10,3:1:0:0:
307,302,6837,6,0,P|304:216|518:153,1,329.9999899292,10|0,1:2|2:0,2:0:0:0:
461,207,7695,2,0,L|466:251,3,29.9999990844727,8|8|8|4,2:3|2:3|2:3|2:3,2:0:0:0:
464,319,7980,1,4,2:3:0:0:
464,319,8052,1,4,2:3:0:0:
464,319,8123,1,14,2:3:0:0:
255,379,8551,5,12,2:0:0:0:
256,3,8765,5,2,2:0:0:0:
214,76,8980,1,2,2:0:0:0:
294,134,9193,1,2,2:0:0:0:
299,145,9265,1,0,2:0:0:0:
301,158,9336,1,0,2:0:0:0:
299,171,9408,1,2,2:0:0:0:
198,231,9622,6,0,L|160:223,1,30,2|0,2:0|2:0,2:0:0:0:
343,295,9837,2,0,L|381:303,1,37.5,10|0,2:0|2:0,2:0:0:0:
124,340,10051,2,0,L|76:350,1,44.999998626709,10|0,2:0|2:0,2:0:0:0:
255,379,10266,5,8,2:0:0:0:
255,379,10694,5,8,2:0:0:0:
223,312,10801,1,8,2:3:0:0:
258,248,10908,1,8,2:3:0:0:
283,177,11015,1,8,2:0:0:0:
253,106,11122,1,8,1:2:0:0:
507,324,11980,5,2,2:0:0:0:
458,234,12194,1,0,2:0:0:0:
420,384,12408,5,2,2:0:0:0:
458,234,12622,1,0,2:0:0:0:
507,324,12837,5,2,2:0:0:0:
458,234,13051,1,0,2:0:0:0:
420,384,13265,5,2,2:0:0:0:
458,234,13479,1,0,2:0:0:0:
507,324,13694,5,2,2:0:0:0:
458,234,13908,1,0,2:0:0:0:
420,384,14122,5,2,2:0:0:0:
458,234,14336,1,0,2:0:0:0:
507,324,14552,5,2,2:0:0:0:
458,234,14766,1,0,2:0:0:0:
420,384,14980,5,2,2:0:0:0:
458,234,15194,1,0,2:0:0:0:
358,290,15408,5,2,2:0:0:0:
292,329,15622,1,2,2:0:0:0:
216,330,15837,1,2,2:0:0:0:
148,288,16051,1,2,2:0:0:0:
5,324,16265,5,2,2:0:0:0:
54,234,16479,1,0,2:0:0:0:
92,384,16693,5,0,2:0:0:0:
54,234,16907,1,0,2:0:0:0:
154,290,17123,5,2,2:0:0:0:
220,329,17337,1,2,2:0:0:0:
296,330,17551,1,2,2:0:0:0:
364,288,17765,1,2,2:0:0:0:
507,324,17980,5,2,2:0:0:0:
458,234,18194,1,0,2:0:0:0:
420,384,18408,5,0,2:0:0:0:
458,234,18623,1,0,2:0:0:0:
507,60,18837,5,2,2:0:0:0:
458,150,19051,1,2,2:0:0:0:
420,0,19265,5,2,2:0:0:0:
458,150,19480,1,2,2:0:0:0:
294,43,19694,5,2,2:0:0:0:
381,99,19908,1,0,2:0:0:0:
218,43,20122,5,2,2:0:0:0:
131,99,20336,1,2,2:0:0:0:
5,60,20551,5,2,2:0:0:0:
54,150,20765,1,0,2:0:0:0:
92,0,20980,5,0,2:0:0:0:
54,150,21194,1,0,2:0:0:0:
5,60,21408,5,0,2:0:0:0:
54,150,21622,1,0,2:0:0:0:
92,0,21837,5,0,2:0:0:0:
40,234,22051,1,0,2:0:0:0:
4,378,22265,5,2,2:0:0:0:
21,305,22480,1,2,2:0:0:0:
99,290,22694,1,2,2:0:0:0:
82,363,22909,1,2,2:0:0:0:
176,266,23122,5,2,2:0:0:0:
321,319,23337,1,0,2:0:0:0:
342,223,23551,5,0,2:0:0:0:
321,319,23765,1,0,2:0:0:0:
508,378,23980,5,2,2:0:0:0:
491,305,24195,1,2,2:0:0:0:
413,290,24409,1,2,2:0:0:0:
430,363,24622,1,2,2:0:0:0:
331,272,24837,5,2,2:0:0:0:
188,316,25052,1,0,2:0:0:0:
167,220,25266,5,0,2:0:0:0:
188,316,25480,1,0,2:0:0:0:
256,155,25694,5,2,2:0:0:0:
321,319,25908,1,0,2:0:0:0:
342,223,26123,1,2,2:0:0:0:
254,383,26337,5,2,2:0:0:0:
256,155,26551,5,2,2:0:0:0:
188,316,26765,1,2,2:0:0:0:
167,220,26980,1,2,2:0:0:0:
254,383,27408,5,2,2:0:0:0:
255,191,27837,1,2,2:0:0:0:
256,0,28265,1,6,2:3:0:0:
256,0,28694,5,8,3:2:0:0:
217,65,28801,1,0,3:0:0:0:
256,131,28908,1,0,3:0:0:0:
295,200,29015,1,0,3:0:0:0:
256,268,29122,5,2,1:0:0:0:
195,335,29337,1,2,3:0:0:0:
266,384,29551,2,0,P|317:378|358:370,1,89.9999972534181,10|0,2:0|2:0,2:0:0:0:
495,266,29980,1,2,1:0:0:0:
495,266,30087,2,0,L|444:260,1,44.999998626709,0|0,3:0|2:0,2:0:0:0:
408,299,30301,1,0,3:0:0:0:
408,299,30408,2,0,P|406:234|420:172,1,89.9999972534181,10|0,2:0|3:0,2:0:0:0:
417,160,30730,1,0,3:0:0:0:
432,110,30837,5,2,1:0:0:0:
380,25,31051,1,0,2:0:0:0:
297,86,31265,2,0,L|194:75,1,89.9999972534181,10|0,2:0|2:0,2:0:0:0:
99,65,31694,1,2,1:0:0:0:
99,65,31801,2,0,L|47:60,1,44.999998626709,0|0,3:0|2:0,2:0:0:0:
121,234,32015,1,0,3:0:0:0:
121,234,32123,2,0,P|133:180|128:137,1,89.9999972534181,10|0,2:0|3:0,2:0:0:0:
8,297,32551,5,2,1:0:0:0:
102,320,32765,1,2,2:0:0:0:
197,338,32980,2,0,L|349:354,1,134.999995880127,10|0,2:0|2:0,2:0:0:0:
363,381,33408,1,2,1:0:0:0:
363,381,33515,2,0,P|375:328|371:279,1,89.9999972534181,0|0,3:0|3:0,2:0:0:0:
312,244,33837,2,0,L|319:184,1,44.999998626709,8|0,2:0|2:0,2:0:0:0:
354,128,34051,1,0,3:0:0:0:
347,86,34158,1,0,3:0:0:0:
340,44,34265,5,2,1:0:0:0:
437,21,34480,1,2,2:0:0:0:
489,116,34694,1,10,2:0:0:0:
392,139,34909,1,2,2:0:0:0:
468,242,35122,1,2,1:0:0:0:
468,242,35230,2,0,L|544:228,1,44.999998626709,0|0,3:0|2:0,2:0:0:0:
428,324,35444,1,0,3:0:0:0:
428,324,35551,2,0,L|316:343,1,89.9999972534181,8|0,2:0|3:0,2:0:0:0:
205,269,35980,5,2,1:0:0:0:
99,342,36194,1,2,2:0:0:0:
21,244,36408,1,10,2:0:0:0:
231,159,36622,5,2,2:0:0:0:
125,232,36836,1,2,1:0:0:0:
125,232,36944,2,0,L|132:171,1,44.999998626709,0|2,3:0|2:0,2:0:0:0:
47,134,37158,1,0,3:0:0:0:
47,134,37265,2,0,L|54:69,1,44.999998626709,10|0,2:0|2:0,2:0:0:0:
21,10,37480,1,2,3:0:0:0:
66,5,37587,1,0,3:0:0:0:
109,22,37694,5,2,1:0:0:0:
158,80,37908,1,0,3:0:0:0:
228,106,38123,1,8,2:0:0:0:
301,82,38337,1,0,2:0:0:0:
335,45,38444,1,0,3:0:0:0:
382,37,38551,2,0,L|448:44,1,44.999998626709,0|0,1:0|2:0,2:0:0:0:
384,144,38765,1,0,2:0:0:0:
384,144,38872,1,0,2:0:0:0:
384,144,38980,2,0,L|485:150,1,89.9999972534181,8|0,2:0|3:0,2:0:0:0:
495,198,39301,1,0,3:0:0:0:
477,247,39408,5,2,1:0:0:0:
460,347,39623,1,2,2:0:0:0:
362,336,39837,1,10,2:0:0:0:
379,236,40052,1,2,2:0:0:0:
256,373,40265,5,2,1:0:0:0:
256,373,40372,2,0,L|252:311,1,44.999998626709,0|0,3:0|2:0,2:0:0:0:
229,209,40587,1,0,3:0:0:0:
229,209,40694,2,0,L|235:319,1,89.9999972534181,8|0,2:0|3:0,2:0:0:0:
194,323,41015,1,0,2:0:0:0:
146,314,41122,5,2,1:0:0:0:
50,329,41337,1,2,2:0:0:0:
131,215,41551,1,10,2:0:0:0:
35,230,41766,1,2,2:0:0:0:
127,117,41980,5,2,1:0:0:0:
127,117,42087,2,0,L|187:108,1,44.999998626709,0|0,3:0|2:0,2:0:0:0:
73,57,42301,1,0,3:0:0:0:
73,57,42408,2,0,P|72:114|85:156,1,89.9999972534181,8|0,2:0|3:0,2:0:0:0:
256,192,42837,5,2,1:0:0:0:
345,46,43051,2,0,L|410:55,1,44.999998626709,2|0,2:0|2:0,2:0:0:0:
367,127,43265,2,0,L|469:138,1,89.9999972534181,2|2,3:0|2:0,2:0:0:0:
256,192,43694,5,2,1:0:0:0:
167,46,43908,2,0,L|102:55,1,44.999998626709,2|0,2:0|2:0,2:0:0:0:
145,127,44122,2,0,L|43:138,1,89.9999972534181,2|2,2:0|3:0,2:0:0:0:
302,374,44551,6,0,L|341:371,1,30,14|0,2:1|2:0,2:0:0:0:
153,228,44980,2,0,L|114:231,1,37.5,14|0,2:1|2:0,2:0:0:0:
357,110,45408,2,0,L|434:104,1,44.999998626709,14|0,2:1|2:0,2:0:0:0:
260,246,45622,5,12,2:3:0:0:
244,24,45837,2,0,B|226:142|289:140|254:268,1,225,12|0,2:1|2:0,2:0:0:0:
251,334,46265,5,2,1:0:0:0:
155,378,46480,1,0,2:0:0:0:
71,320,46694,2,0,P|64:266|72:215,1,89.9999972534181,8|2,2:0|2:0,2:0:0:0:
58,193,47015,1,0,2:0:0:0:
50,149,47122,2,0,L|41:86,1,44.999998626709,2|0,1:0|2:0,2:0:0:0:
28,28,47337,1,0,2:0:0:0:
150,143,47551,2,0,L|141:80,1,44.999998626709,8|0,2:0|2:0,2:0:0:0:
122,5,47766,1,0,1:0:0:0:
256,192,47980,5,0,1:0:0:0:
343,244,48194,1,2,2:0:0:0:
433,192,48408,2,0,P|437:141|432:91,1,89.9999972534181,10|2,2:0|3:0,2:0:0:0:
421,70,48730,1,0,3:0:0:0:
405,34,48837,2,0,L|332:43,1,44.999998626709,2|0,1:0|2:0,2:0:0:0:
295,87,49051,1,2,2:0:0:0:
255,80,49158,1,0,2:0:0:0:
216,73,49265,1,10,2:0:0:0:
347,168,49480,2,0,L|274:177,1,44.999998626709,2|0,1:0|2:0,2:0:0:0:
255,245,49694,5,2,1:0:0:0:
167,351,49908,2,0,B|259:406|368:332,1,179.999994506836,0|2,2:0|2:0,2:0:0:0:
369,318,50444,1,0,2:0:0:0:
396,279,50551,2,0,L|465:291,1,44.999998626709,2|0,1:0|2:0,2:0:0:0:
456,196,50765,2,0,L|525:208,1,44.999998626709,0|0,2:0|2:0,2:0:0:0:
384,91,50980,2,0,P|369:144|373:205,1,89.9999972534181,8|0,2:0|1:0,2:0:0:0:
499,28,51408,5,0,1:0:0:0:
403,2,51622,1,2,2:0:0:0:
288,64,51837,2,0,L|191:51,1,89.9999972534181,10|2,2:0|3:0,2:0:0:0:
160,43,52158,1,0,3:0:0:0:
115,42,52265,1,2,1:0:0:0:
115,42,52372,2,0,P|109:87|113:115,1,44.999998626709,0|2,3:0|2:0,2:0:0:0:
49,137,52587,1,0,3:0:0:0:
49,137,52694,2,0,L|34:249,1,89.9999972534181,10|2,2:0|1:0,2:0:0:0:
20,316,53122,5,6,1:0:0:0:
98,382,53444,1,8,2:3:0:0:
122,285,53551,1,10,2:3:0:0:
20,316,53765,1,10,2:3:0:0:
255,384,53980,5,8,2:1:0:0:
390,285,54301,5,4,2:3:0:0:
414,382,54408,1,8,2:3:0:0:
492,316,54623,1,8,2:3:0:0:
255,384,54837,5,6,1:0:0:0:
310,149,55158,5,8,2:3:0:0:
210,149,55265,1,10,2:3:0:0:
255,242,55480,1,10,2:3:0:0:
255,0,55694,5,8,2:1:0:0:
169,140,55908,1,8,2:1:0:0:
341,140,56122,1,8,2:1:0:0:
298,67,56230,1,0,3:0:0:0:
255,0,56337,1,8,2:1:0:0:
257,190,56551,5,10,2:1:0:0:
255,0,56765,5,10,2:3:0:0:
216,73,56980,1,10,2:3:0:0:
294,143,57194,1,6,2:3:0:0:
256,218,57408,1,6,2:3:0:0:
110,290,57622,5,10,2:1:0:0:
254,384,57837,1,10,2:1:0:0:
405,291,58051,1,10,2:1:0:0:
255,184,58265,5,10,2:1:0:0:
289,247,58480,1,2,2:0:0:0:
219,275,58694,1,10,2:1:0:0:
193,341,58908,1,2,2:0:0:0:
254,384,59122,1,10,2:1:0:0:
254,384,59765,5,0,2:0:0:0:
254,384,59873,1,0,2:0:0:0:
254,384,59980,1,0,2:0:0:0:
177,367,60194,1,0,2:0:0:0:
420,305,60408,5,2,2:0:0:0:
344,298,60622,1,2,2:0:0:0:
266,290,60837,1,2,2:0:0:0:
512,183,61051,6,0,L|444:174,1,44.999998626709,10|0,2:1|2:0,2:0:0:0:
374,123,61265,2,0,L|306:114,1,44.999998626709,10|8,2:0|2:0,2:0:0:0:
201,178,61480,1,10,2:0:0:0:
122,166,61587,1,8,2:0:0:0:
44,154,61694,6,0,B|21:71|75:1,1,150,6|0,1:2|2:0,2:0:0:0:
141,62,62015,1,0,3:0:0:0:
141,62,62122,2,0,L|232:73,1,75,8|0,1:2|2:0,2:0:0:0:
300,167,62337,1,2,2:0:0:0:
377,156,62444,1,0,2:0:0:0:
454,136,62551,6,0,P|474:212|467:289,1,150,2|0,1:2|2:0,2:0:0:0:
508,373,62872,1,0,3:0:0:0:
508,373,62980,2,0,L|417:361,1,75,8|0,1:2|3:0,2:0:0:0:
335,275,63194,2,0,L|244:263,1,75,0|0,3:0|3:0,2:0:0:0:
61,194,63408,6,0,B|4:265|35:364,1,150,0|0,1:0|2:0,2:0:0:0:
91,379,63730,1,0,3:0:0:0:
171,372,63837,2,0,P|190:319|189:278,1,75,10|0,1:2|2:0,2:0:0:0:
128,236,64051,2,0,P|109:289|110:330,1,75,2|0,2:0|2:0,2:0:0:0:
312,192,64265,6,0,L|166:155,1,150,2|2,1:2|2:0,2:0:0:0:
88,158,64587,1,0,2:0:0:0:
16,135,64694,2,0,P|8:93|10:47,1,75,10|0,1:2|3:0,2:0:0:0:
81,0,64908,2,0,P|89:42|87:88,1,75,2|0,3:2|3:0,2:0:0:0:
35,295,65122,6,0,L|141:312,1,75,0|0,1:0|2:0,2:0:0:0:
139,346,65337,2,0,B|171:286|159:208,1,112.5,0|0,2:0|2:0,2:0:0:0:
161,237,65551,2,0,L|339:278,1,150,8|0,1:2|2:0,2:0:0:0:
364,327,65872,1,0,2:0:0:0:
447,272,65980,5,0,1:0:0:0:
451,276,66087,2,0,B|491:207|468:110,1,150,0|0,3:0|3:0,2:0:0:0:
394,50,66408,2,0,L|380:139,1,75,8|0,1:2|3:0,2:0:0:0:
251,240,66622,2,0,L|274:113,1,112.5,2|0,2:3|2:0,2:0:0:0:
296,115,66837,6,0,B|225:92|216:136|92:101,1,150,0|0,1:0|2:0,2:0:0:0:
70,102,67158,1,0,3:0:0:0:
0,70,67265,2,0,L|12:-12,1,75,10|0,1:2|2:0,2:0:0:0:
10,166,67480,2,0,L|0:240,1,75,0|0,2:0|2:0,2:0:0:0:
180,143,67694,6,0,P|184:106|179:69,1,75,2|0,1:2|2:0,2:0:0:0:
99,112,67908,2,0,P|95:149|100:187,1,75,0|0,3:0|3:0,2:0:0:0:
319,289,68122,6,0,P|330:253|333:216,1,75,10|0,1:2|2:0,2:0:0:0:
262,157,68336,2,0,P|250:192|247:229,1,75,0|0,3:0|2:0,2:0:0:0:
472,128,68551,5,2,1:2:0:0:
441,40,68694,1,2,2:0:0:0:
386,108,68837,1,2,2:0:0:0:
494,146,68980,5,10,1:2:0:0:
450,13,69123,1,2,2:0:0:0:
359,119,69266,1,2,2:0:0:0:
320,211,69409,5,2,1:2:0:0:
418,189,69551,1,2,2:0:0:0:
512,166,69694,1,2,2:0:0:0:
512,166,69837,2,0,P|514:93|488:14,1,150,10|0,1:2|3:0,2:0:0:0:
176,74,70265,5,2,1:2:0:0:
103,133,70409,1,2,2:0:0:0:
190,167,70551,1,2,2:0:0:0:
100,52,70693,5,10,1:2:0:0:
121,217,70837,1,2,2:0:0:0:
248,104,70980,1,2,2:0:0:0:
39,190,71122,5,2,1:2:0:0:
206,249,71265,1,2,2:0:0:0:
39,190,71408,1,2,2:0:0:0:
87,353,71551,6,0,P|155:349|241:338,1,150,10|0,1:2|3:0,2:0:0:0:
484,384,71980,6,0,B|514:299|457:202,1,150,0|0,1:0|2:0,2:0:0:0:
396,193,72301,1,0,3:0:0:0:
362,107,72408,2,0,P|364:62|373:9,1,75,10|0,1:2|2:0,2:0:0:0:
468,7,72622,2,0,P|465:48|457:105,1,75,2|0,2:0|2:0,2:0:0:0:
210,216,72837,6,0,P|197:166|200:122,1,75,2|0,1:0|2:0,2:0:0:0:
273,94,73051,2,0,P|286:144|283:188,1,75,2|0,2:0|3:0,2:0:0:0:
80,350,73265,6,0,P|56:304|49:260,1,60,10|0,1:2|3:0,2:0:0:0:
112,227,73479,2,0,P|135:272|142:316,1,60,2|0,3:2|3:0,2:0:0:0:
0,384,73694,5,10,2:3:0:0:
0,384,74551,2,0,P|12:269|18:203,1,180,2|2,3:0|2:3,2:0:0:0:
59,133,74980,1,0,2:0:0:0:
52,81,75087,1,0,3:0:0:0:
45,29,75194,1,2,3:0:0:0:
45,29,75408,6,0,P|120:10|203:27,1,150,6|0,1:2|2:0,2:0:0:0:
240,83,75730,1,0,3:0:0:0:
231,160,75837,2,0,L|215:260,1,75,8|0,1:2|2:0,2:0:0:0:
138,363,76051,1,2,2:0:0:0:
211,383,76158,1,0,2:0:0:0:
281,343,76265,6,0,L|455:369,1,150,2|0,1:2|2:0,2:0:0:0:
367,306,76587,1,0,3:0:0:0:
367,306,76694,2,0,P|381:251|379:209,1,75,8|0,1:2|3:0,2:0:0:0:
317,175,76908,2,0,P|303:230|305:272,1,75,0|0,3:0|3:0,2:0:0:0:
512,94,77122,5,0,1:0:0:0:
455,141,77230,2,0,P|411:127|369:115,1,75,0|0,2:0|2:0,2:0:0:0:
203,51,77444,1,0,3:0:0:0:
278,4,77551,6,0,P|285:39|281:96,1,75,10|0,1:2|2:0,2:0:0:0:
209,125,77765,2,0,P|202:90|206:33,1,75,2|0,2:0|2:0,2:0:0:0:
278,190,77980,2,0,L|102:156,1,150,2|2,1:2|2:0,2:0:0:0:
130,161,78301,1,0,2:0:0:0:
63,70,78408,2,0,L|38:159,1,75,10|0,1:2|3:0,2:0:0:0:
134,264,78622,2,0,L|109:353,1,75,2|0,3:2|3:0,2:0:0:0:
37,384,78837,5,0,1:0:0:0:
15,308,78944,2,0,P|27:256|42:226,1,75,0|0,2:0|2:0,2:0:0:0:
144,122,79158,1,0,3:0:0:0:
42,142,79265,2,0,L|204:192,1,150,8|0,1:2|2:0,2:0:0:0:
185,186,79587,1,0,2:0:0:0:
299,168,79694,5,0,1:0:0:0:
299,168,79801,2,0,P|332:86|328:16,1,150,0|0,3:0|3:0,2:0:0:0:
251,61,80122,2,0,L|156:27,1,75,8|0,1:2|3:0,2:0:0:0:
321,265,80337,2,0,L|454:312,1,112.5,2|0,2:3|2:0,2:0:0:0:
434,327,80551,6,0,P|465:260|464:177,1,150,0|0,1:0|2:0,2:0:0:0:
408,125,80872,1,0,3:0:0:0:
425,45,80980,2,0,L|513:27,1,75,10|0,1:2|2:0,2:0:0:0:
407,124,81194,2,0,L|334:140,1,75,0|0,2:0|2:0,2:0:0:0:
175,85,81408,6,0,P|224:66|272:65,1,75,2|0,1:2|2:0,2:0:0:0:
366,220,81622,2,0,P|317:239|269:240,1,75,0|0,3:0|3:0,2:0:0:0:
95,157,81837,6,0,L|69:64,1,75,10|0,1:2|2:0,2:0:0:0:
210,265,82051,2,0,L|236:358,1,75,0|0,3:0|2:0,2:0:0:0:
0,351,82265,5,2,1:2:0:0:
72,279,82409,1,2,2:0:0:0:
98,373,82552,1,2,2:0:0:0:
4,225,82694,5,10,1:2:0:0:
160,291,82837,1,2,2:0:0:0:
4,225,82980,1,2,2:0:0:0:
189,176,83122,5,2,1:2:0:0:
72,279,83265,1,2,2:0:0:0:
58,128,83408,1,2,2:0:0:0:
135,61,83551,2,0,P|237:52|317:78,1,150,10|0,1:2|3:2,2:0:0:0:
456,182,83980,5,2,1:2:0:0:
333,155,84123,1,2,2:0:0:0:
303,278,84265,1,2,2:0:0:0:
402,303,84408,5,10,1:2:0:0:
311,259,84551,1,0,2:0:0:0:
254,350,84694,1,2,2:0:0:0:
160,305,84837,2,0,P|145:195|161:106,1,200,2|2,1:2|2:0,2:0:0:0:
238,14,85265,5,10,1:2:0:0:
418,59,85408,1,2,2:0:0:0:
238,14,85551,1,2,2:0:0:0:
331,115,85694,6,0,P|346:213|331:311,1,179.999994506836,4|0,3:2|2:0,2:0:0:0:
242,323,86980,1,0,3:0:0:0:
249,352,87087,1,0,2:0:0:0:
252,376,87194,1,0,2:0:0:0:
252,376,87301,1,0,2:0:0:0:
252,376,87408,5,0,2:0:0:0:
181,347,87622,1,0,2:0:0:0:
212,275,87837,1,0,2:0:0:0:
333,242,88051,5,0,2:0:0:0:
406,193,88265,1,0,2:0:0:0:
331,123,88480,1,0,2:0:0:0:
162,54,88694,5,0,2:0:0:0:
331,14,88908,1,0,2:0:0:0:
210,118,89122,5,0,2:0:0:0:
318,89,89551,1,0,2:0:0:0:
206,278,89980,1,0,2:0:0:0:
316,263,90408,1,0,2:0:0:0:
256,192,90837,5,0,2:0:0:0:
256,192,91265,5,0,2:0:0:0:
256,192,91694,5,0,2:0:0:0:
256,192,92122,5,0,2:0:0:0:
256,384,92551,5,4,2:0:0:0:
255,379,93837,5,8,2:0:0:0:
223,312,93944,1,8,2:3:0:0:
258,248,94051,1,8,2:3:0:0:
283,177,94158,1,8,2:0:0:0:
253,106,94265,6,0,P|189:98|122:101,1,120,12|0,1:2|2:0,2:0:0:0:
26,40,94694,5,8,2:0:0:0:
18,79,94801,1,0,2:0:0:0:
21,118,94908,1,0,2:0:0:0:
35,156,95015,1,0,2:0:0:0:
122,194,95122,5,0,1:0:0:0:
119,223,95229,1,0,3:0:0:0:
116,253,95336,1,2,3:0:0:0:
114,283,95443,1,0,3:0:0:0:
81,364,95551,6,0,P|43:361|-3:351,1,60,10|0,2:0|2:0,2:0:0:0:
0,262,95765,2,0,P|37:264|84:275,1,60,2|0,3:0|2:0,2:0:0:0:
183,338,95980,5,2,1:0:0:0:
236,330,96087,1,2,2:0:0:0:
281,319,96194,2,0,L|410:301,1,120,0|10,2:0|2:0,2:0:0:0:
494,333,96515,1,0,2:0:0:0:
494,333,96622,2,0,P|483:273|476:249,1,60,2|2,2:0|3:0,2:0:0:0:
511,125,96837,5,2,1:0:0:0:
511,125,96944,1,0,3:0:0:0:
511,125,97051,2,0,L|422:141,1,60,2|2,2:0|3:0,2:0:0:0:
365,221,97265,1,10,2:0:0:0:
365,221,97372,1,0,2:0:0:0:
365,221,97479,2,0,L|276:238,1,60,2|2,3:0|2:0,2:0:0:0:
255,132,97694,6,0,P|245:72|254:22,1,90,2|0,1:0|2:0,2:0:0:0:
319,6,97908,6,0,L|368:1,1,30,2|0,2:0|2:0,2:0:0:0:
150,99,98122,2,0,L|101:94,1,30,10|0,2:0|2:0,2:0:0:0:
368,183,98337,2,0,L|417:188,1,30,2|0,2:0|2:0,2:0:0:0:
254,370,98551,5,2,1:0:0:0:
254,370,98605,1,0,2:0:0:0:
254,370,98658,1,0,3:0:0:0:
196,307,98765,5,2,3:0:0:0:
165,278,98873,1,0,3:0:0:0:
127,268,98980,1,10,2:0:0:0:
89,273,99087,1,0,2:0:0:0:
14,211,99194,5,2,3:0:0:0:
33,196,99301,1,0,3:0:0:0:
56,187,99408,1,2,1:0:0:0:
79,182,99515,1,0,2:0:0:0:
140,120,99622,5,2,3:0:0:0:
159,112,99730,1,0,2:0:0:0:
184,37,99837,5,10,2:0:0:0:
167,19,99944,1,0,2:0:0:0:
89,45,100051,5,2,3:0:0:0:
83,68,100158,1,2,3:0:0:0:
156,79,100265,6,0,P|240:93|301:103,1,120,2|2,1:0|2:0,2:0:0:0:
358,44,100587,1,2,2:0:0:0:
358,44,100640,1,0,2:0:0:0:
358,44,100694,1,10,2:0:0:0:
412,98,100801,5,0,2:0:0:0:
403,150,100908,1,0,2:0:0:0:
393,194,101015,1,0,2:0:0:0:
440,265,101122,5,2,1:0:0:0:
440,265,101230,1,0,2:0:0:0:
440,265,101337,2,0,P|478:260|510:250,1,60,0|0,2:0|2:0,2:0:0:0:
341,377,101551,5,10,2:0:0:0:
341,377,101659,1,0,2:0:0:0:
341,377,101766,2,0,P|370:369|399:366,1,60,0|0,2:0|2:0,2:0:0:0:
236,223,101980,5,2,1:0:0:0:
236,223,102088,1,2,3:0:0:0:
236,223,102195,2,0,P|265:219|294:212,1,60,0|0,3:0|3:0,2:0:0:0:
83,329,102408,5,10,2:0:0:0:
83,329,102516,1,0,2:0:0:0:
83,329,102623,2,0,P|112:321|141:318,1,60,0|0,3:0|3:0,2:0:0:0:
257,381,102837,6,0,L|238:246,2,120,2|0|8,1:0|2:0|2:0,2:0:0:0:
83,233,103480,2,0,L|67:138,1,90,2|0,2:0|2:0,2:0:0:0:
32,121,103694,6,0,P|71:111|98:111,1,60,2|0,1:0|3:0,2:0:0:0:
238,226,103909,2,0,P|267:224|296:215,1,60,2|0,3:0|3:0,2:0:0:0:
412,118,104122,2,0,L|455:108,2,30,10|0|2,2:0|2:0|2:0,2:0:0:0:
359,65,104337,2,0,L|373:130,1,60,2|0,3:0|2:0,2:0:0:0:
487,209,104551,6,0,P|515:273|471:392,1,180,2|0,1:0|2:0,2:0:0:0:
407,338,104980,1,8,2:0:0:0:
377,334,105087,1,0,2:0:0:0:
347,331,105194,1,0,2:0:0:0:
317,326,105301,1,0,2:0:0:0:
230,361,105408,5,0,1:0:0:0:
230,361,105515,2,0,P|148:351|75:343,1,120,0|0,3:0|2:0,2:0:0:0:
39,384,105837,2,0,P|28:309|61:229,1,120,2|0,2:0|3:0,2:0:0:0:
156,142,106265,6,0,L|150:0,2,120,2|0|8,1:0|2:0|2:0,2:0:0:0:
39,91,106908,2,0,P|78:84|113:81,1,60,0|0,2:0|2:0,2:0:0:0:
244,116,107122,1,2,2:0:0:0:
280,128,107230,1,0,2:0:0:0:
321,122,107337,1,0,2:0:0:0:
356,104,107444,1,0,2:0:0:0:
416,39,107551,5,0,2:0:0:0:
416,39,107658,1,0,2:0:0:0:
416,39,107765,1,0,2:0:0:0:
416,39,107872,1,0,2:0:0:0:
504,67,107980,5,0,1:0:0:0:
504,67,108408,2,0,P|491:163|488:255,1,180,8|0,2:0|3:0,2:0:0:0:
424,293,108837,1,0,1:0:0:0:
434,326,108944,1,0,3:0:0:0:
444,360,109051,1,8,2:3:0:0:
346,314,109265,5,0,3:0:0:0:
346,314,109337,1,0,3:0:0:0:
346,314,109408,1,0,3:0:0:0:
346,314,109480,1,0,3:0:0:0:
259,319,109587,1,8,3:0:0:0:
186,375,109694,6,0,P|107:358|5:343,1,180,8|0,3:2|2:0,2:0:0:0:
182,277,110123,2,0,P|103:260|1:245,1,180,0|0,3:0|2:0,2:0:0:0:
193,179,110551,2,0,P|114:162|19:148,2,150,0|0|2,1:0|2:0|2:0,2:0:0:0:
261,113,111194,1,2,3:0:0:0:
254,69,111301,1,0,3:0:0:0:
247,30,111408,6,0,P|293:13|377:20,1,120,2|2,1:0|2:0,2:0:0:0:
363,15,111730,1,0,2:0:0:0:
425,107,111837,6,0,L|492:100,1,60,10|0,2:0|2:0,2:0:0:0:
452,194,112051,2,0,L|519:187,1,60,2|0,2:0|2:0,2:0:0:0:
349,238,112266,6,0,L|282:231,1,60,2|0,1:0|3:0,2:0:0:0:
322,325,112480,2,0,L|255:318,1,60,0|0,3:0|3:0,2:0:0:0:
424,384,112694,5,8,2:0:0:0:
423,369,112801,1,0,3:0:0:0:
422,354,112908,1,0,3:0:0:0:
422,339,113015,1,0,3:0:0:0:
422,323,113122,2,0,P|421:260|411:160,1,120,2|2,1:0|3:0,2:0:0:0:
416,203,113444,1,0,2:0:0:0:
462,125,113551,6,0,P|411:120|368:122,1,60,10|0,2:0|2:0,2:0:0:0:
422,29,113765,2,0,P|392:30|362:34,1,60,2|0,3:0|3:0,2:0:0:0:
283,159,113980,6,0,P|232:164|189:162,1,60,2|0,1:0|3:0,2:0:0:0:
243,255,114194,2,0,P|213:253|183:249,1,60,0|0,3:0|3:0,2:0:0:0:
48,129,114408,5,8,2:0:0:0:
48,129,114515,1,0,3:0:0:0:
48,129,114622,1,0,3:0:0:0:
48,129,114730,1,0,3:0:0:0:
48,129,114837,2,0,P|117:111|187:120,1,120,2|2,1:0|3:0,2:0:0:0:
223,164,115158,1,0,2:0:0:0:
236,251,115265,6,0,L|225:322,1,60,10|0,2:0|2:0,2:0:0:0:
135,336,115480,2,0,L|146:265,1,60,2|0,3:0|3:0,2:0:0:0:
311,183,115694,5,2,1:0:0:0:
311,183,115801,2,0,P|322:262|313:322,1,120,0|0,3:0|3:0,2:0:0:0:
274,373,116122,2,0,L|347:382,1,60,10|0,2:0|2:0,2:0:0:0:
403,317,116337,2,0,L|462:324,1,60,2|0,3:0|2:0,2:0:0:0:
511,191,116551,5,2,1:0:0:0:
435,216,116765,1,0,3:0:0:0:
383,156,116980,1,8,2:0:0:0:
310,140,117194,1,0,3:0:0:0:
251,191,117408,1,0,1:0:0:0:
222,206,117515,1,0,3:0:0:0:
190,213,117622,1,0,2:0:0:0:
159,210,117730,1,0,3:0:0:0:
130,194,117837,2,0,P|55:174|-4:179,1,120,8|0,2:1|3:0,2:0:0:0:
13,175,118158,1,0,3:0:0:0:
81,88,118265,6,0,L|93:23,1,60,2|0,1:0|2:0,2:0:0:0:
162,111,118480,2,0,L|174:46,1,60,2|0,2:0|2:0,2:0:0:0:
239,218,118694,6,0,L|251:283,1,60,10|0,2:0|2:0,2:0:0:0:
320,195,118908,2,0,L|332:260,1,60,2|0,2:0|2:0,2:0:0:0:
397,120,119122,5,2,1:0:0:0:
424,107,119229,1,0,3:0:0:0:
453,101,119336,1,0,3:0:0:0:
483,102,119443,1,0,3:0:0:0:
503,195,119551,5,8,2:0:0:0:
475,207,119658,1,0,3:0:0:0:
446,213,119765,1,0,3:0:0:0:
416,212,119872,1,0,3:0:0:0:
330,254,119980,6,0,L|340:313,1,60,2|0,1:0|2:0,2:0:0:0:
249,277,120194,2,0,L|259:336,1,60,2|0,2:0|2:0,2:0:0:0:
151,170,120408,6,0,L|161:110,1,60,10|0,2:0|2:0,2:0:0:0:
70,147,120623,2,0,L|80:87,1,60,2|0,2:0|2:0,2:0:0:0:
69,273,120837,5,2,1:0:0:0:
97,262,120944,1,0,3:0:0:0:
126,258,121051,1,0,3:0:0:0:
156,259,121158,1,0,3:0:0:0:
170,345,121265,5,8,2:0:0:0:
141,355,121372,1,0,3:0:0:0:
112,359,121479,1,0,3:0:0:0:
82,358,121586,1,0,3:0:0:0:
8,329,121694,5,10,2:1:0:0:
238,289,121908,1,8,2:1:0:0:
463,251,122122,1,10,2:1:0:0:
463,251,122337,1,2,2:0:0:0:
465,136,122551,5,14,2:1:0:0:
235,96,122765,1,8,2:1:0:0:
10,58,122979,1,10,2:1:0:0:
10,58,123194,1,2,2:0:0:0:
87,18,123408,5,10,2:1:0:0:
153,187,123622,1,10,2:0:0:0:
216,355,123837,5,10,2:1:0:0:
216,355,123944,1,0,2:0:0:0:
306,197,124158,1,0,3:0:0:0:
306,197,124265,1,10,2:1:0:0:
367,39,124480,2,0,P|398:43|442:64,1,60,4|4,2:3|2:3,2:0:0:0:
474,192,124694,6,0,B|391:255|296:190,1,180,12|0,2:1|2:0,2:0:0:0:
248,143,125122,5,2,1:0:0:0:
121,243,125337,2,0,L|135:385,2,120,0|8|2,2:0|2:0|2:0,2:0:0:0:
113,203,125872,1,0,2:0:0:0:
106,164,125980,1,2,1:0:0:0:
99,129,126087,1,0,2:0:0:0:
93,92,126194,2,0,P|43:100|10:109,1,60,0|0,2:0|2:0,2:0:0:0:
209,19,126408,2,0,L|195:88,1,60,8|0,2:0|2:0,2:0:0:0:
254,233,126622,2,0,L|268:164,1,60,0|0,1:0|2:0,2:0:0:0:
346,118,126837,5,0,1:0:0:0:
471,57,127051,2,0,B|483:118|452:187,2,120,2|10|2,2:0|2:0|3:0,2:0:0:0:
476,14,127587,1,0,3:0:0:0:
425,32,127694,1,2,1:0:0:0:
379,35,127801,1,0,2:0:0:0:
338,21,127908,2,0,L|262:11,1,60,2|0,2:0|2:0,2:0:0:0:
288,107,128122,2,0,B|265:172|270:235,1,120,10|2,2:0|1:0,2:0:0:0:
368,368,128551,5,2,1:0:0:0:
368,368,128765,2,0,L|233:344,2,120,0|8|2,2:0|2:0|2:0,2:0:0:0:
400,353,129301,1,0,2:0:0:0:
424,320,129408,1,2,1:0:0:0:
422,279,129515,1,0,2:0:0:0:
406,240,129622,2,0,L|314:223,1,60,0|0,2:0|2:0,2:0:0:0:
241,143,129837,6,0,P|232:183|232:214,1,60,8|0,2:0|2:0,2:0:0:0:
142,351,130051,2,0,P|151:311|151:280,1,60,0|0,1:0|2:0,2:0:0:0:
0,185,130265,5,0,1:0:0:0:
0,185,130480,2,0,L|121:205,2,120,2|10|2,2:0|2:0|3:0,2:0:0:0:
69,27,131122,2,0,P|85:80|87:115,1,60,2|0,1:0|3:0,2:0:0:0:
172,81,131337,2,0,P|165:110|155:138,1,60,2|0,2:0|3:0,2:0:0:0:
52,250,131551,6,0,L|58:324,1,60,10|0,2:0|2:0,2:0:0:0:
103,384,131765,2,0,L|97:310,1,60,2|0,1:0|2:0,2:0:0:0:
256,192,131980,5,6,1:0:0:0:
304,379,132301,5,8,2:3:0:0:
208,379,132408,1,10,2:3:0:0:
255,291,132622,1,10,2:3:0:0:
256,192,132837,5,8,2:1:0:0:
303,5,133158,5,4,2:3:0:0:
207,5,133265,1,8,2:3:0:0:
256,93,133479,1,8,2:3:0:0:
256,192,133694,5,6,1:0:0:0:
467,244,134015,5,8,2:3:0:0:
467,148,134122,1,10,2:3:0:0:
380,195,134337,1,10,2:3:0:0:
256,192,134551,5,8,2:1:0:0:
130,193,134765,1,8,2:1:0:0:
8,102,134980,1,8,2:1:0:0:
7,194,135087,1,0,3:0:0:0:
7,285,135194,1,8,2:1:0:0:
130,193,135408,1,10,2:1:0:0:
197,121,135622,5,10,2:3:0:0:
187,270,135837,1,10,2:3:0:0:
322,123,136051,1,6,2:3:0:0:
312,272,136266,1,6,2:3:0:0:
261,57,136480,5,10,2:1:0:0:
248,335,136694,1,10,2:1:0:0:
130,193,136908,1,10,2:1:0:0:
382,193,137122,2,0,L|486:197,2,80,10|0|0,1:2|2:0|2:0,2:0:0:0:
323,111,137551,2,0,L|219:107,2,80,2|0|0,0:2|2:0|2:0,2:0:0:0:
349,284,137980,2,0,L|453:288,2,80,2|0|0,0:2|2:0|2:0,2:0:0:0:
290,202,138408,2,0,L|186:198,2,80,2|0|0,0:2|2:0|2:0,2:0:0:0:
382,193,138837,1,2,0:0:0:0:
56,370,139265,5,2,2:0:0:0:
133,355,139480,1,2,2:0:0:0:
212,341,139694,1,2,2:0:0:0:
27,112,139908,2,0,L|35:175,1,60,10|0,2:1|2:0,2:0:0:0:
0,246,140122,5,10,2:0:0:0:
87,231,140230,1,8,2:0:0:0:
173,217,140337,1,10,2:0:0:0:
258,197,140444,1,8,2:0:0:0:
327,128,140551,6,0,B|371:198|346:302,1,150,6|0,1:2|2:0,2:0:0:0:
298,352,140872,1,0,3:0:0:0:
261,268,140980,1,8,1:2:0:0:
352,273,141087,1,0,2:0:0:0:
398,361,141194,2,0,P|451:367|501:367,1,75,2|0,2:0|2:0,2:0:0:0:
495,201,141408,5,2,1:2:0:0:
450,277,141515,2,0,L|432:99,1,150,0|0,2:0|3:0,2:0:0:0:
509,67,141837,2,0,P|502:32|501:-26,1,75,8|0,1:2|3:0,2:0:0:0:
348,218,142051,2,0,P|346:180|338:143,1,75,0|0,3:0|3:0,2:0:0:0:
341,2,142265,6,0,B|264:46|168:21,1,150,0|0,1:0|2:0,2:0:0:0:
196,26,142587,1,0,3:0:0:0:
116,5,142694,5,10,1:2:0:0:
116,5,142747,1,0,2:0:0:0:
116,5,142801,1,0,2:0:0:0:
48,73,142908,2,0,P|40:119|38:162,1,75,2|0,2:0|2:0,2:0:0:0:
145,255,143123,2,0,P|153:209|155:166,1,75,2|0,1:2|2:0,2:0:0:0:
0,366,143337,5,2,2:0:0:0:
95,382,143444,1,0,2:0:0:0:
67,290,143551,2,0,L|-40:267,1,75,10|0,1:2|3:0,2:0:0:0:
228,196,143766,2,0,L|154:180,1,75,2|0,3:2|3:0,2:0:0:0:
256,374,143980,5,0,1:0:0:0:
333,313,144087,2,0,B|376:257|347:138,1,150,0|0,2:0|3:0,2:0:0:0:
438,140,144408,2,0,L|265:115,1,150,8|0,1:2|2:0,2:0:0:0:
289,118,144730,1,0,2:0:0:0:
206,69,144837,5,0,1:0:0:0:
206,69,144944,2,0,P|201:26|210:-13,1,75,0|0,3:0|3:0,2:0:0:0:
55,195,145158,1,0,3:0:0:0:
55,195,145265,2,0,P|61:158|55:121,1,75,8|0,1:2|3:0,2:0:0:0:
201,241,145480,2,0,L|292:255,1,75,2|0,2:3|2:0,2:0:0:0:
40,344,145694,6,0,B|109:396|205:367,1,150,0|0,1:0|2:0,2:0:0:0:
182,372,146015,1,0,3:0:0:0:
253,335,146122,2,0,L|340:348,1,75,10|0,1:2|2:0,2:0:0:0:
408,272,146337,2,0,L|495:285,1,75,0|0,2:0|2:0,2:0:0:0:
209,222,146551,6,0,P|249:218|302:245,1,75,2|0,1:2|2:0,2:0:0:0:
428,146,146765,2,0,P|463:157|500:152,1,75,0|0,3:0|3:0,2:0:0:0:
375,0,146980,6,0,L|368:93,1,75,10|0,1:2|2:0,2:0:0:0:
281,139,147194,2,0,L|288:46,1,75,0|0,3:0|2:0,2:0:0:0:
121,17,147408,5,2,1:2:0:0:
152,148,147551,1,2,2:0:0:0:
121,17,147694,1,2,2:0:0:0:
64,104,147837,5,10,1:2:0:0:
114,233,147980,1,2,2:0:0:0:
234,177,148122,1,2,2:0:0:0:
29,196,148265,5,2,1:2:0:0:
98,340,148408,1,2,2:0:0:0:
222,265,148551,1,2,2:0:0:0:
295,322,148694,2,0,P|399:336|475:297,1,150,10|0,1:2|3:2,2:0:0:0:
512,185,149122,6,0,P|391:160|287:140,1,200,2|2,1:2|2:0,2:0:0:0:
208,128,149550,5,10,1:2:0:0:
344,63,149693,1,2,2:0:0:0:
211,0,149836,1,2,2:0:0:0:
237,218,149980,5,2,1:2:0:0:
406,123,150122,1,2,2:0:0:0:
237,218,150266,1,2,2:0:0:0:
144,197,150408,2,0,P|82:180|-8:122,1,150,10|0,1:2|3:0,2:0:0:0:
8,136,150837,6,0,L|26:310,1,150,0|0,1:0|2:0,2:0:0:0:
23,285,151158,1,0,3:0:0:0:
80,363,151265,2,0,P|138:361|188:338,1,75,10|0,1:2|2:0,2:0:0:0:
204,257,151480,2,0,P|166:255|130:263,1,75,2|0,2:0|2:0,2:0:0:0:
285,384,151694,6,0,L|273:299,1,75,2|0,1:0|2:0,2:0:0:0:
330,160,151908,2,0,L|342:245,1,75,2|0,2:0|3:0,2:0:0:0:
498,352,152122,6,0,P|506:301|501:261,1,75,10|0,1:2|3:0,2:0:0:0:
428,227,152337,2,0,P|420:278|425:318,1,75,2|0,3:2|3:0,2:0:0:0:
510,188,152551,5,10,2:3:0:0:
510,188,153408,2,0,P|370:177|244:174,1,225,2|2,3:0|2:3,2:0:0:0:
221,223,153837,1,0,2:0:0:0:
183,229,153944,1,0,3:0:0:0:
146,235,154051,1,2,3:0:0:0:
106,243,154158,1,0,3:0:0:0:
35,305,154265,6,0,B|-5:228|33:135,1,150,6|0,1:2|2:0,2:0:0:0:
24,159,154587,1,0,3:0:0:0:
0,66,154694,2,0,L|95:80,1,75,8|0,1:2|2:0,2:0:0:0:
203,11,154908,2,0,L|277:21,1,75,2|0,2:0|2:0,2:0:0:0:
403,115,155122,5,2,1:2:0:0:
441,16,155230,2,0,P|451:115|422:171,1,150,0|0,2:0|3:0,2:0:0:0:
309,214,155551,2,0,P|271:198|207:211,1,75,8|0,1:2|3:0,2:0:0:0:
75,358,155765,2,0,P|107:375|145:373,1,75,0|0,3:0|3:0,2:0:0:0:
252,301,155980,2,0,L|86:268,1,150,0|0,1:0|2:0,2:0:0:0:
104,271,156301,1,0,3:0:0:0:
49,212,156408,5,10,1:2:0:0:
49,212,156462,1,0,2:0:0:0:
49,212,156516,1,0,2:0:0:0:
103,130,156622,2,0,P|116:86|122:36,1,75,2|0,2:0|2:0,2:0:0:0:
45,0,156837,2,0,P|32:44|26:94,1,75,2|0,1:2|2:0,2:0:0:0:
198,197,157051,5,2,2:0:0:0:
276,218,157158,1,0,2:0:0:0:
353,237,157265,2,0,L|452:255,1,75,10|0,1:2|3:0,2:0:0:0:
263,102,157480,2,0,L|336:115,1,75,2|0,3:2|3:0,2:0:0:0:
473,0,157694,6,0,P|473:89|439:161,1,150,0|0,1:0|2:0,2:0:0:0:
450,144,158015,1,0,3:0:0:0:
372,195,158122,1,8,1:2:0:0:
372,286,158230,1,0,2:0:0:0:
430,343,158337,2,0,L|537:330,1,75,0|0,2:0|2:0,2:0:0:0:
294,232,158551,5,0,1:0:0:0:
208,269,158658,2,0,B|138:250|124:299|31:267,1,150,0|0,3:0|3:0,2:0:0:0:
128,183,158980,2,0,L|119:89,1,75,8|0,1:2|3:0,2:0:0:0:
189,14,159194,2,0,L|198:108,1,75,2|0,2:3|2:0,2:0:0:0:
375,205,159408,6,0,P|375:127|350:73,1,112.5,0|0,1:0|2:0,2:0:0:0:
384,62,159622,2,0,L|283:80,1,75,0|0,2:0|3:0,2:0:0:0:
212,179,159837,2,0,L|313:161,1,75,10|0,1:2|2:0,2:0:0:0:
405,304,160051,2,0,P|344:303|313:285,1,75,0|0,2:0|2:0,2:0:0:0:
512,230,160265,5,2,1:2:0:0:
503,329,160372,2,0,L|485:167,1,150,0|0,2:0|3:0,2:0:0:0:
414,110,160694,2,0,P|426:76|426:33,1,75,10|0,1:2|2:0,2:0:0:0:
316,194,160908,2,0,L|411:214,1,75,0|0,3:0|2:0,2:0:0:0:
218,376,161122,5,2,1:2:0:0:
328,290,161265,1,2,2:0:0:0:
406,384,161408,1,2,2:0:0:0:
240,280,161551,5,10,1:2:0:0:
413,215,161694,1,2,2:0:0:0:
240,280,161837,1,2,2:0:0:0:
148,157,161980,5,2,1:2:0:0:
312,204,162122,1,2,2:0:0:0:
157,321,162265,1,2,2:0:0:0:
73,271,162408,2,0,P|44:184|53:97,1,150,10|0,1:2|3:2,2:0:0:0:
276,41,162837,5,2,1:2:0:0:
195,187,162980,1,2,2:0:0:0:
128,55,163122,1,2,2:0:0:0:
295,163,163265,5,10,1:2:0:0:
109,202,163408,1,2,2:0:0:0:
295,163,163551,1,2,2:0:0:0:
197,97,163694,5,2,1:2:0:0:
214,222,163837,1,2,2:0:0:0:
236,353,163980,1,2,2:0:0:0:
144,322,164122,5,10,1:2:0:0:
299,255,164265,1,2,2:0:0:0:
395,363,164408,1,2,2:0:0:0:
481,315,164551,2,0,P|491:243|480:111,1,180,4|0,3:2|2:0,2:0:0:0:
390,105,164980,5,8,2:3:0:0:
396,67,165087,2,0,L|404:2,2,60,0|0|0,3:0|3:0|3:0,0:0:0:0:
284,88,165408,5,8,2:0:0:0:
248,101,165515,2,0,L|187:126,2,60,0|0|0,3:0|3:0|3:0,0:0:0:0:
327,178,165837,5,8,1:2:0:0:
356,202,165944,2,0,L|408:241,2,60,0|0|0,3:0|3:0|3:0,0:0:0:0:
277,245,166265,5,0,2:0:0:0:
356,301,166479,1,0,2:0:0:0:
308,380,166694,1,0,2:0:0:0:
192,256,166908,5,0,2:0:0:0:
111,168,167122,1,0,2:0:0:0:
158,54,167337,1,0,2:0:0:0:
255,3,167551,5,0,2:0:0:0:
255,193,167765,1,0,2:0:0:0:
256,370,167979,5,0,2:0:0:0:
310,293,168408,1,0,2:0:0:0:
256,14,168837,1,0,2:0:0:0:
202,91,169265,1,0,2:0:0:0:
255,192,169694,5,0,2:0:0:0:
255,192,170122,5,0,2:0:0:0:
255,192,170551,5,0,2:0:0:0:
255,192,170979,5,0,2:0:0:0:
256,370,171408,5,4,2:0:0:0:
254,366,173123,2,0,P|299:357|336:358,1,60,6|0,1:0|2:0,2:0:0:0:
472,292,173337,5,0,2:0:0:0:
416,278,173444,1,0,2:0:0:0:
368,263,173551,1,10,2:0:0:0:
350,220,173658,2,0,L|364:146,1,60,0|0,2:0|2:0,2:0:0:0:
240,10,173872,1,0,2:0:0:0:
289,80,173980,5,2,1:0:0:0:
286,94,174087,1,0,2:0:0:0:
283,109,174194,1,0,2:0:0:0:
281,124,174301,1,0,2:0:0:0:
200,165,174408,5,10,2:0:0:0:
188,192,174515,1,0,2:0:0:0:
185,222,174622,1,0,3:0:0:0:
191,251,174729,1,0,2:0:0:0:
274,308,174837,6,0,P|321:297|351:292,1,60,2|0,1:0|2:0,2:0:0:0:
370,371,175051,2,0,P|323:382|293:387,1,60,0|0,2:0|2:0,2:0:0:0:
105,267,175265,6,0,P|58:256|28:251,1,60,10|0,2:0|2:0,2:0:0:0:
9,330,175479,2,0,P|56:341|86:346,1,60,0|0,2:0|3:0,2:0:0:0:
191,251,175694,5,2,1:0:0:0:
191,251,175801,2,0,P|211:173|196:111,1,120,0|0,2:0|2:0,2:0:0:0:
107,160,176122,2,0,P|114:105|120:80,1,60,10|0,2:0|2:0,2:0:0:0:
286,11,176337,2,0,P|279:66|273:91,1,60,0|0,2:0|2:0,2:0:0:0:
335,160,176551,5,2,1:0:0:0:
445,22,176765,1,2,2:0:0:0:
435,63,176872,1,2,2:0:0:0:
425,106,176980,1,10,2:0:0:0:
286,11,177194,2,0,P|279:66|273:91,1,60,2|0,2:0|2:0,2:0:0:0:
382,218,177408,5,2,1:0:0:0:
405,212,177515,1,0,3:0:0:0:
474,266,177622,5,2,3:0:0:0:
480,289,177729,1,0,3:0:0:0:
421,357,177837,5,10,2:0:0:0:
398,363,177944,1,0,3:0:0:0:
327,310,178051,5,2,3:0:0:0:
321,287,178158,1,0,3:0:0:0:
239,247,178265,6,0,P|168:251|111:283,1,120,2|2,1:0|2:0,2:0:0:0:
224,135,178587,2,0,P|163:141|108:158,1,120,2|2,2:0|2:0,2:0:0:0:
180,36,178908,2,0,P|145:42|116:50,1,60,2|0,2:0|3:0,2:0:0:0:
8,124,179122,5,2,1:0:0:0:
20,177,179230,1,0,3:0:0:0:
97,236,179337,5,0,3:0:0:0:
109,289,179444,1,0,3:0:0:0:
59,366,179551,6,0,P|28:375|-10:376,1,60,8|0,2:0|2:0,2:0:0:0:
97,236,179765,2,0,P|128:227|166:226,1,60,0|0,3:0|3:0,2:0:0:0:
204,326,179980,5,2,1:0:0:0:
213,344,180087,1,2,2:0:0:0:
222,357,180194,1,2,2:0:0:0:
239,366,180301,1,2,2:0:0:0:
255,213,180408,5,10,2:0:0:0:
253,236,180515,1,2,2:0:0:0:
258,260,180622,1,2,2:0:0:0:
271,281,180730,1,2,2:0:0:0:
367,125,180837,5,2,1:0:0:0:
350,152,180944,1,2,2:0:0:0:
343,184,181051,1,2,2:0:0:0:
349,216,181158,1,2,2:0:0:0:
507,107,181265,5,10,2:0:0:0:
476,122,181372,1,2,2:0:0:0:
454,153,181480,1,2,2:0:0:0:
446,190,181587,1,2,2:0:0:0:
367,125,181694,5,2,1:0:0:0:
350,98,181801,1,2,2:0:0:0:
343,66,181908,1,2,2:0:0:0:
349,34,182015,1,2,2:0:0:0:
254,88,182122,5,10,2:0:0:0:
223,103,182229,1,2,2:0:0:0:
201,134,182337,1,2,2:0:0:0:
193,171,182444,1,2,2:0:0:0:
122,91,182551,5,2,1:0:0:0:
92,80,182658,1,2,2:0:0:0:
76,62,182765,1,2,2:0:0:0:
67,35,182872,1,2,2:0:0:0:
29,140,182980,5,8,2:0:0:0:
29,140,183033,1,0,2:0:0:0:
29,140,183087,2,0,L|-10:148,4,30,0|0|0|0|0,2:0|2:0|3:0|2:0|2:0,2:0:0:0:
99,191,183408,5,8,2:1:0:0:
99,191,183622,1,10,2:0:0:0:
89,244,183730,1,0,2:0:0:0:
80,293,183837,1,10,2:0:0:0:
129,378,184051,1,10,2:0:0:0:
198,265,184265,1,8,2:0:0:0:
278,384,184480,1,8,2:0:0:0:
317,215,184694,1,8,2:0:0:0:
423,381,184908,1,8,2:0:0:0:
451,162,185122,5,8,2:0:0:0:
451,162,185176,1,0,2:0:0:0:
451,162,185230,1,0,2:0:0:0:
467,79,185337,2,0,P|472:49|479:20,1,60,10|0,2:0|3:0,2:0:0:0:
311,115,185551,1,8,2:0:0:0:
377,62,185658,2,0,P|315:76|245:42,1,120,2|2,3:0|3:0,2:0:0:0:
186,7,185980,5,8,2:0:0:0:
128,73,186087,1,8,2:0:0:0:
145,149,186194,1,10,2:0:0:0:
102,224,186301,1,8,2:0:0:0:
131,303,186408,5,10,3:2:0:0:
127,317,186461,1,0,3:2:0:0:
124,332,186515,1,0,3:2:0:0:
121,347,186568,1,0,3:2:0:0:
118,361,186622,1,0,3:0:0:0:
14,378,186837,5,4,3:2:0:0:
209,79,193694,5,2,2:0:0:0:
140,144,193908,1,2,2:0:0:0:
369,145,194337,5,2,2:0:0:0:
304,76,194551,1,2,2:0:0:0:
303,305,194980,5,2,2:0:0:0:
372,240,195194,1,2,2:0:0:0:
143,239,195622,5,2,2:0:0:0:
208,308,195836,1,2,2:0:0:0:
256,192,197122,5,2,2:0:0:0:
256,192,197230,12,0,200551,2:0:0:0:
15,366,202265,5,2,2:0:0:0:
70,308,202480,1,0,2:0:0:0:
149,310,202694,1,2,2:0:0:0:
203,368,202908,1,0,2:0:0:0:
304,366,203122,5,2,2:0:0:0:
297,250,203337,1,2,2:0:0:0:
297,250,203444,1,2,2:0:0:0:
304,366,203765,1,0,2:0:0:0:
390,272,203980,5,2,2:0:0:0:
464,237,204194,1,0,2:0:0:0:
468,159,204408,1,2,2:0:0:0:
400,119,204622,1,0,2:0:0:0:
326,35,204837,5,2,2:0:0:0:
462,35,205051,1,2,2:0:0:0:
462,35,205158,1,2,2:0:0:0:
326,35,205480,1,0,2:0:0:0:
305,115,205694,5,2,2:0:0:0:
212,111,205908,1,0,2:0:0:0:
209,202,206122,1,2,2:0:0:0:
302,206,206336,1,0,2:0:0:0:
342,284,206551,5,2,2:0:0:0:
257,377,206765,1,2,2:0:0:0:
257,377,206872,1,2,2:0:0:0:
164,290,207194,1,0,2:0:0:0:
79,336,207408,5,2,2:0:0:0:
8,373,207622,1,0,2:0:0:0:
131,205,207837,5,2,2:0:0:0:
0,193,208051,1,2,2:0:0:0:
83,53,208265,5,2,2:0:0:0:
19,15,208480,1,2,2:0:0:0:
19,15,208587,1,2,2:0:0:0:
83,53,208908,1,2,2:0:0:0:
184,88,209122,5,2,2:0:0:0:
224,70,209265,1,0,2:0:0:0:
266,75,209408,1,0,2:0:0:0:
344,52,209551,5,2,2:0:0:0:
350,94,209694,1,0,2:0:0:0:
329,130,209837,1,0,2:0:0:0:
312,214,209980,5,2,2:0:0:0:
270,200,210122,1,0,2:0:0:0:
245,157,210265,1,0,2:0:0:0:
266,75,210408,5,2,2:0:0:0:
433,17,210837,5,2,2:0:0:0:
441,68,210980,1,0,2:0:0:0:
448,117,211122,1,0,2:0:0:0:
356,104,211265,5,2,2:0:0:0:
354,147,211408,1,0,2:0:0:0:
352,189,211551,1,0,2:0:0:0:
421,253,211694,5,2,2:0:0:0:
426,281,211837,1,0,2:0:0:0:
430,308,211980,1,0,2:0:0:0:
378,367,212122,5,2,2:0:0:0:
378,367,212337,2,0,L|310:357,1,60,0|0,2:0|2:0,2:0:0:0:
137,324,212551,5,2,2:0:0:0:
349,268,212765,1,0,2:0:0:0:
173,172,212980,5,2,2:0:0:0:
304,194,213194,1,2,2:0:0:0:
139,86,213408,5,2,2:0:0:0:
350,37,213622,1,2,2:0:0:0:
179,5,213837,5,2,2:0:0:0:
263,21,214051,1,2,2:0:0:0:
350,37,214265,1,2,2:0:0:0:
91,278,215765,5,0,2:0:0:0:
91,278,215873,1,0,2:0:0:0:
91,278,215980,1,0,2:0:0:0:
68,365,216194,1,0,2:0:0:0:
255,136,216408,5,2,2:0:0:0:
232,225,216623,1,2,2:0:0:0:
209,313,216837,1,2,2:0:0:0:
412,46,217051,6,0,P|416:73|406:128,1,75,10|0,2:1|2:0,2:0:0:0:
450,362,217265,2,0,P|446:335|456:280,1,75,10|8,2:0|2:0,2:0:0:0:
508,186,217480,5,10,2:0:0:0:
405,201,217587,1,8,2:0:0:0:
307,220,217694,2,0,B|208:236|127:161,1,150,6|0,1:2|2:0,2:0:0:0:
149,94,218015,1,0,3:0:0:0:
55,55,218122,1,8,1:2:0:0:
67,161,218229,1,0,2:0:0:0:
149,94,218337,2,0,L|175:-18,1,75,2|0,2:0|2:0,2:0:0:0:
357,117,218551,5,2,1:2:0:0:
256,72,218658,2,0,B|340:48|335:103|437:62,1,150,0|0,2:0|3:0,2:0:0:0:
276,254,218979,2,0,L|293:174,1,75,8|0,1:2|3:0,2:0:0:0:
494,119,219194,2,0,L|511:39,1,75,0|0,3:0|3:0,2:0:0:0:
512,248,219408,6,0,B|458:191|351:211,1,150,0|0,1:0|2:0,2:0:0:0:
373,208,219729,1,0,3:0:0:0:
337,294,219837,5,10,1:2:0:0:
340,304,219890,1,0,2:0:0:0:
343,315,219944,1,0,2:0:0:0:
264,374,220051,2,0,P|218:382|175:384,1,75,2|0,2:0|2:0,2:0:0:0:
118,313,220265,5,2,1:2:0:0:
88,228,220372,1,0,2:0:0:0:
166,158,220479,1,2,2:0:0:0:
187,255,220587,1,0,2:0:0:0:
88,228,220694,2,0,L|-19:205,1,75,10|0,1:2|3:0,2:0:0:0:
0,25,220908,2,0,L|74:41,1,75,2|0,3:2|3:0,2:0:0:0:
269,155,221122,5,0,1:0:0:0:
164,177,221229,2,0,P|155:86|197:22,1,150,0|0,2:0|3:0,2:0:0:0:
249,258,221551,2,0,L|401:292,1,150,8|0,1:2|2:0,2:0:0:0:
395,290,221872,1,0,2:0:0:0:
512,169,221979,5,0,1:0:0:0:
512,169,222087,2,0,P|469:164|430:173,1,75,0|0,3:0|3:0,2:0:0:0:
361,34,222301,1,0,3:0:0:0:
361,34,222408,2,0,P|398:40|435:34,1,75,8|0,1:2|3:0,2:0:0:0:
244,138,222622,2,0,L|335:124,1,75,2|0,2:3|2:0,2:0:0:0:
134,8,222837,6,0,B|114:85|157:157,1,150,0|0,1:0|2:0,2:0:0:0:
154,152,223158,1,0,3:0:0:0:
77,209,223265,2,0,P|74:247|64:296,1,75,10|0,1:2|2:0,2:0:0:0:
136,384,223480,2,0,P|139:346|149:297,1,75,0|0,2:0|2:0,2:0:0:0:
317,143,223694,6,0,P|328:178|325:228,1,75,2|0,1:2|2:0,2:0:0:0:
255,367,223909,2,0,P|243:331|247:282,1,75,0|0,3:0|3:0,2:0:0:0:
154,152,224122,6,0,L|168:59,1,75,10|0,1:2|2:0,2:0:0:0:
256,0,224337,2,0,L|243:82,1,75,0|0,3:0|2:0,2:0:0:0:
234,206,224551,5,2,1:2:0:0:
69,148,224694,1,2,2:0:0:0:
234,206,224837,1,2,2:0:0:0:
180,286,224979,5,10,1:2:0:0:
154,152,225122,1,2,2:0:0:0:
295,141,225265,1,2,2:0:0:0:
291,349,225408,5,2,1:2:0:0:
267,225,225551,1,2,2:0:0:0:
393,205,225694,1,2,2:0:0:0:
479,239,225837,2,0,P|493:343|454:419,1,150,10|0,1:2|3:2,2:0:0:0:
288,68,226265,5,2,1:2:0:0:
433,137,226408,1,2,2:0:0:0:
277,216,226551,1,2,2:0:0:0:
383,46,226694,5,10,1:2:0:0:
382,229,226837,1,2,2:0:0:0:
231,142,226980,1,2,2:0:0:0:
335,140,227122,5,2,1:2:0:0:
301,330,227265,1,2,2:0:0:0:
335,140,227408,1,2,2:0:0:0:
288,68,227551,2,0,P|194:49|98:83,1,150,10|0,1:2|3:0,2:0:0:0:
3,305,227979,6,0,L|177:287,1,150,0|0,1:0|2:0,2:0:0:0:
152,289,228301,1,0,3:0:0:0:
117,188,228408,2,0,P|80:196|43:194,1,75,10|0,1:2|2:0,2:0:0:0:
125,384,228622,2,0,P|161:375|198:378,1,75,2|0,2:0|2:0,2:0:0:0:
253,217,228837,6,0,L|241:132,1,75,2|0,1:0|2:0,2:0:0:0:
327,300,229051,2,0,L|339:385,1,75,2|0,2:0|3:0,2:0:0:0:
512,264,229265,6,0,P|461:272|421:267,1,75,10|0,1:2|3:0,2:0:0:0:
392,191,229479,2,0,P|443:183|483:188,1,75,2|0,3:2|3:0,2:0:0:0:
327,300,229694,5,10,2:3:0:0:
327,300,230551,2,0,L|350:61,1,225,2|2,3:0|2:3,2:0:0:0:
286,10,230979,1,0,2:0:0:0:
247,0,231087,1,0,3:0:0:0:
176,56,231194,1,2,3:0:0:0:
130,46,231301,1,0,3:0:0:0:
57,0,231408,6,0,B|17:77|55:170,1,150,6|0,1:2|2:0,2:0:0:0:
116,184,231729,1,0,3:0:0:0:
171,241,231837,2,0,L|160:315,1,75,8|0,1:2|2:0,2:0:0:0:
62,372,232051,2,0,L|72:298,1,75,2|0,2:0|2:0,2:0:0:0:
205,65,232265,5,2,1:2:0:0:
270,133,232372,2,0,P|285:203|273:299,1,150,0|0,2:0|3:0,2:0:0:0:
220,374,232694,2,0,L|294:382,1,75,8|0,1:2|3:0,2:0:0:0:
446,329,232908,2,0,L|371:320,1,75,0|0,3:0|3:0,2:0:0:0:
248,129,233122,2,0,P|320:115|403:140,1,150,0|0,1:0|2:0,2:0:0:0:
392,134,233444,1,0,3:0:0:0:
457,227,233551,5,10,1:2:0:0:
457,227,233605,1,0,2:0:0:0:
457,227,233658,1,0,2:0:0:0:
495,149,233765,2,0,P|508:105|514:55,1,75,2|0,2:0|2:0,2:0:0:0:
372,8,233980,5,2,1:2:0:0:
288,56,234087,1,0,2:0:0:0:
337,135,234194,1,2,2:0:0:0:
418,91,234301,1,0,2:0:0:0:
287,55,234409,2,0,P|244:45|214:42,1,75,10|0,1:2|3:0,2:0:0:0:
137,203,234622,2,0,P|99:198|63:189,1,75,2|0,3:2|3:0,2:0:0:0:
2,89,234837,6,0,P|91:89|163:123,1,150,0|0,1:0|2:0,2:0:0:0:
146,111,235158,1,0,3:0:0:0:
213,186,235265,1,8,1:2:0:0:
307,215,235372,1,0,2:0:0:0:
393,192,235480,1,0,2:0:0:0:
434,103,235587,1,0,2:0:0:0:
342,112,235694,5,0,1:0:0:0:
393,192,235801,2,0,B|412:262|363:276|395:369,1,150,0|0,3:0|3:0,2:0:0:0:
256,370,236122,2,0,P|210:380|162:379,1,75,8|0,1:2|3:0,2:0:0:0:
52,272,236337,2,0,P|98:262|146:263,1,75,2|0,2:3|2:0,2:0:0:0:
239,30,236551,6,0,P|254:83|250:139,1,112.5,0|0,1:0|2:0,2:0:0:0:
291,155,236765,2,0,L|190:173,1,75,0|0,2:0|3:0,2:0:0:0:
89,117,236979,2,0,L|190:99,1,75,10|0,1:2|2:0,2:0:0:0:
338,0,237194,2,0,P|352:35|355:75,1,75,0|0,2:0|2:0,2:0:0:0:
268,278,237408,5,2,1:2:0:0:
347,239,237515,2,0,B|434:216|426:259|511:232,1,150,0|0,2:0|3:0,2:0:0:0:
397,309,237837,2,0,L|389:405,1,75,10|0,1:2|2:0,2:0:0:0:
268,170,238051,2,0,L|248:265,1,75,0|0,3:0|2:0,2:0:0:0:
191,384,238265,5,2,1:2:0:0:
49,310,238408,1,2,2:0:0:0:
176,216,238551,1,2,2:0:0:0:
152,298,238694,5,10,1:2:0:0:
59,167,238837,1,2,2:0:0:0:
199,133,238980,1,2,2:0:0:0:
176,216,239122,5,2,1:2:0:0:
134,54,239265,1,2,2:0:0:0:
176,216,239408,1,2,2:0:0:0:
273,179,239551,2,0,P|352:170|459:194,1,150,10|0,1:2|3:2,2:0:0:0:
502,16,239979,5,2,1:2:0:0:
376,72,240122,1,2,2:0:0:0:
502,16,240265,1,2,2:0:0:0:
295,41,240408,5,10,1:2:0:0:
457,114,240551,1,2,2:0:0:0:
295,41,240694,1,2,2:0:0:0:
411,27,240837,5,2,1:2:0:0:
332,158,240980,1,2,2:0:0:0:
483,222,241122,1,2,2:0:0:0:
457,114,241265,5,10,1:2:0:0:
393,269,241408,1,2,2:0:0:0:
250,234,241551,1,2,2:0:0:0:
166,304,241694,2,0,P|140:186|156:100,1,180,4|0,3:2|2:0,2:0:0:0:
233,74,242122,5,0,3:0:0:0:
235,93,242229,1,0,2:0:0:0:
238,113,242336,1,0,2:0:0:0:
241,133,242443,1,0,2:0:0:0:
318,178,242551,5,0,3:0:0:0:
315,197,242658,1,0,2:0:0:0:
312,217,242765,1,0,2:0:0:0:
309,237,242872,1,0,2:0:0:0:
252,336,242980,5,0,3:0:0:0:
252,336,243087,1,0,2:0:0:0:
252,336,243194,1,0,2:0:0:0:
252,336,243301,1,0,2:0:0:0:
336,378,243408,6,0,P|431:384|519:337,1,180,4|0,3:2|2:0,2:0:0:0:
507,248,243837,5,0,3:0:0:0:
470,226,243944,1,0,2:0:0:0:
430,216,244051,1,0,2:0:0:0:
388,219,244158,1,0,2:0:0:0:
315,264,244265,5,0,3:0:0:0:
268,301,244372,1,0,2:0:0:0:
211,309,244480,1,0,2:0:0:0:
155,289,244587,1,0,2:0:0:0:
121,203,244694,5,0,3:0:0:0:
94,188,244801,1,0,2:0:0:0:
65,182,244908,1,0,2:0:0:0:
35,183,245015,1,0,2:0:0:0:
0,256,245122,5,6,1:0:0:0:
192,146,245337,1,0,3:0:0:0:
181,100,245444,1,0,3:0:0:0:
169,58,245551,1,2,3:0:0:0:
70,6,245765,2,0,P|56:39|57:83,1,60,2|0,3:0|2:0,2:0:0:0:
106,137,245980,6,0,L|258:119,1,120,8|0,2:1|3:0,2:0:0:0:
225,122,246301,1,0,2:0:0:0:
311,69,246408,2,0,P|301:35|300:2,1,60,0|0,3:0|2:0,2:0:0:0:
268,214,246622,2,0,P|278:248|279:281,1,60,0|0,3:0|2:0,2:0:0:0:
218,354,246837,5,2,1:0:0:0:
416,252,247051,1,2,3:0:0:0:
416,252,247158,1,0,3:0:0:0:
416,252,247265,1,2,3:0:0:0:
241,187,247480,1,2,3:0:0:0:
351,383,247694,5,10,2:1:0:0:
509,182,247908,1,0,3:0:0:0:
461,167,248015,1,0,3:0:0:0:
420,154,248122,1,2,3:0:0:0:
214,88,248337,1,0,3:0:0:0:
304,274,248551,5,14,2:1:0:0:
304,274,248980,5,0,3:0:0:0:
304,274,249408,5,0,3:0:0:0:
304,274,249837,5,0,3:0:0:0:
304,274,250265,2,0,L|229:259,1,60,0|0,3:0|2:0,2:0:0:0:
397,195,250480,2,0,L|322:180,1,60,0|0,3:0|3:0,2:0:0:0:
432,384,250694,2,0,L|357:369,1,60,0|0,3:0|2:0,2:0:0:0:
512,113,250908,2,0,L|437:98,1,60,0|0,3:0|2:0,2:0:0:0:
248,10,251122,5,0,3:0:0:0:
248,10,251176,1,0,2:0:0:0:
248,10,251230,1,0,2:0:0:0:
275,55,251337,1,0,3:0:0:0:
282,109,251444,1,0,3:0:0:0:
265,155,251551,1,0,3:0:0:0:
206,213,251658,5,0,3:0:0:0:
172,282,251765,1,2,3:0:0:0:
194,352,251872,1,0,3:0:0:0:
264,383,251980,5,14,2:1:0:0:
251,291,254980,6,0,P|257:236|253:191,1,75,10|8,2:1|2:1,2:0:0:0:
14,164,255194,2,0,P|13:126|19:89,1,75,10|4,2:3|2:3,2:0:0:0:
134,12,255409,6,0,P|115:205|96:348,1,329.9999899292,6|0,1:0|2:0,2:0:0:0:
14,361,256266,2,0,L|21:311,3,29.9999990844727,0|0|0|0,2:0|2:0|2:0|3:0,2:0:0:0:
31,248,256551,1,0,3:0:0:0:
31,248,256622,1,0,3:0:0:0:
31,248,256694,1,10,3:1:0:0:
378,12,257123,6,0,P|397:205|416:348,1,329.9999899292,10|0,1:2|2:0,2:0:0:0:
498,361,257980,2,0,L|491:311,3,29.9999990844727,0|0|0|0,2:0|2:0|2:0|3:0,2:0:0:0:
481,248,258265,1,0,3:0:0:0:
481,248,258337,1,0,3:0:0:0:
481,248,258409,1,10,3:1:0:0:
205,82,258837,6,0,P|208:168|-6:231,1,329.9999899292,10|0,1:2|2:0,2:0:0:0:
51,177,259694,2,0,L|46:133,3,29.9999990844727,0|0|0|0,2:0|2:0|2:0|3:0,2:0:0:0:
48,65,259980,1,0,3:0:0:0:
48,65,260051,1,0,3:0:0:0:
48,65,260123,1,10,3:1:0:0:
307,82,260552,6,0,P|304:168|518:231,1,329.9999899292,10|0,1:2|2:0,2:0:0:0:
461,177,261409,2,0,L|466:133,3,29.9999990844727,8|8|8|4,2:3|2:3|2:3|2:3,2:0:0:0:
464,65,261694,1,4,2:3:0:0:
464,65,261765,1,4,2:3:0:0:
464,65,261837,1,14,2:3:0:0:
255,5,262266,5,12,2:1:0:0:
256,381,262480,5,0,2:0:0:0:
214,308,262694,1,2,3:0:0:0:
294,250,262909,1,2,3:0:0:0:
299,239,262980,1,0,3:0:0:0:
301,226,263051,1,0,3:0:0:0:
299,213,263123,1,2,3:0:0:0:
198,153,263337,6,0,L|160:161,1,30,10|0,2:0|2:0,2:0:0:0:
343,89,263552,2,0,L|381:81,1,37.5,10|0,2:0|2:0,2:0:0:0:
124,44,263766,2,0,L|76:34,1,44.999998626709,10|0,2:1|2:0,2:0:0:0:
255,5,263980,5,10,2:1:0:0:
255,5,264409,5,8,2:1:0:0:
223,72,264516,1,8,2:3:0:0:
258,136,264623,1,4,2:3:0:0:
283,207,264730,1,12,2:3:0:0:
253,278,264837,1,4,3:2:0:0:
