osu file format v14

[General]
AudioFilename: audio.mp3
AudioLeadIn: 0
PreviewTime: 186730
Countdown: 0
SampleSet: Soft
StackLeniency: 0.4
Mode: 0
LetterboxInBreaks: 0
WidescreenStoryboard: 0

[Editor]
DistanceSpacing: 1.2
BeatDivisor: 6
GridSize: 32
TimelineZoom: 2.3

[Metadata]
Title:Soko ni wa Mata Meikyou
TitleUnicode:そこにはまた迷宮
Artist:KikuoHana
ArtistUnicode:きくおはな
Creator:SMOKELIND
Version:EX
Source:
Tags:It's Another Maze There Hanatan 花たん YURiCa ユリカ 第二幕 2 Second Act Rock Japanese Kowari Reform Kujinn
BeatmapID:3229135
BeatmapSetID:1581399

[Difficulty]
HPDrainRate:5.7
CircleSize:4
OverallDifficulty:9
ApproachRate:9.5
SliderMultiplier:3.07
SliderTickRate:1

[Events]
//Background and Video events
0,0,"91689568_p4.jpg",0,0
Video,50,"vid.mp4"
//Break Periods
2,252180,254455
//Storyboard Layer 0 (Background)
//Storyboard Layer 1 (Fail)
//Storyboard Layer 2 (Pass)
//Storyboard Layer 3 (Foreground)
//Storyboard Layer 4 (Overlay)
//Storyboard Sound Samples

[TimingPoints]
-20,428.571428571429,4,2,7,47,1,0
1694,-129.87012987013,4,2,7,47,0,0
8908,-588.235294117647,4,2,7,5,0,0
8980,-149.253731343284,4,2,7,47,0,0
9122,-588.235294117647,4,2,7,5,0,0
9194,-175.438596491229,4,2,7,47,0,0
9337,-588.235294117647,4,2,7,5,0,0
9408,-212.76595744681,4,2,7,47,0,0
9551,-588.235294117647,4,2,7,5,0,0
9622,-270.270270270272,4,2,7,47,0,0
9765,-588.235294117647,4,2,7,5,0,0
9837,-370.370370370374,4,2,7,47,0,0
10587,-588.235294117647,4,2,7,5,0,0
10694,-370.370370370374,4,2,7,47,0,0
11980,-175.438596491228,4,2,7,37,0,0
15515,-588.235294117647,4,2,7,5,0,0
15622,-175.438596491228,4,2,7,37,0,0
15730,-588.235294117647,4,2,7,5,0,0
15837,-175.438596491228,4,2,7,37,0,0
17230,-588.235294117647,4,2,7,5,0,0
17337,-175.438596491228,4,2,7,37,0,0
17444,-588.235294117647,4,2,7,5,0,0
17551,-175.438596491228,4,2,7,37,0,0
18944,-588.235294117647,4,2,7,5,0,0
19051,-175.438596491228,4,2,7,37,0,0
19158,-588.235294117647,4,2,7,5,0,0
19265,-175.438596491228,4,2,7,37,0,0
22372,-588.235294117647,4,2,7,5,0,0
22480,-175.438596491228,4,2,7,37,0,0
22587,-588.235294117647,4,2,7,5,0,0
22694,-175.438596491228,4,2,7,37,0,0
26015,-588.235294117647,4,2,7,37,0,0
26068,-588.235294117647,4,2,7,5,0,0
26122,-175.438596491228,4,2,7,37,0,0
26230,-588.235294117647,4,2,7,5,0,0
26337,-175.438596491228,4,2,7,37,0,0
26444,-588.235294117647,4,2,7,37,0,0
26497,-588.235294117647,4,2,7,5,0,0
26551,-175.438596491228,4,2,7,37,0,0
27515,-588.235294117647,4,2,7,37,0,0
27568,-588.235294117647,4,2,7,5,0,0
27622,-175.438596491228,4,2,7,37,0,0
27944,-588.235294117647,4,2,7,37,0,0
27997,-588.235294117647,4,2,7,5,0,0
28051,-175.438596491228,4,2,7,37,0,0
29122,-129.87012987013,4,2,7,47,0,0
29712,-588.235294117647,4,2,7,5,0,0
29765,-129.87012987013,4,2,7,47,0,0
30140,-588.235294117647,4,2,7,5,0,0
30194,-129.87012987013,4,2,7,47,0,0
32497,-588.235294117647,4,2,7,5,0,0
32551,-129.87012987013,4,2,7,47,0,0
36140,-588.235294117647,4,2,7,5,0,0
36194,-129.87012987013,4,2,7,47,0,0
36569,-588.235294117647,4,2,7,5,0,0
36622,-129.87012987013,4,2,7,47,0,0
37426,-588.235294117647,4,2,7,5,0,0
37480,-129.87012987013,4,2,7,47,0,0
38283,-588.235294117647,4,2,7,5,0,0
38337,-129.87012987013,4,2,7,47,0,0
38658,-588.235294117647,4,2,7,47,0,0
38711,-588.235294117647,4,2,7,5,0,0
38765,-129.87012987013,4,2,7,47,0,0
39515,-588.235294117647,4,2,7,47,0,0
39568,-588.235294117647,4,2,7,5,0,0
39622,-129.87012987013,4,2,7,47,0,0
39944,-588.235294117647,4,2,7,47,0,0
39997,-588.235294117647,4,2,7,5,0,0
40051,-129.87012987013,4,2,7,47,0,0
46265,-114.942528735632,4,2,7,57,0,0
46801,-588.235294117647,4,2,7,57,0,0
46854,-588.235294117647,4,2,7,5,0,0
46908,-114.942528735632,4,2,7,57,0,0
50230,-588.235294117647,4,2,7,57,0,0
50282,-588.235294117647,4,2,7,5,0,0
50337,-114.942528735632,4,2,7,57,0,0
56765,-129.87012987013,4,2,7,57,0,0
56872,-588.235294117647,4,2,7,5,0,0
56980,-149.253731343283,4,2,7,57,0,0
57087,-588.235294117647,4,2,7,5,0,0
57194,-175.438596491228,4,2,7,57,0,0
57301,-588.235294117647,4,2,7,5,0,0
57408,-212.765957446808,4,2,7,57,0,0
57515,-588.235294117647,4,2,7,5,0,0
57622,-270.27027027027,4,2,7,57,0,0
57730,-588.235294117647,4,2,7,5,0,0
57837,-370.370370370369,4,2,7,57,0,0
57944,-588.235294117647,4,2,7,5,0,0
58051,-588.235294117644,4,2,7,57,0,0
58158,-588.235294117647,4,2,7,5,0,0
58265,-588.235294117644,4,2,7,57,0,0
59765,-588.235294117644,4,2,7,17,0,0
60408,-588.235294117644,4,2,7,27,0,0
60622,-588.235294117644,4,2,7,37,0,0
60837,-588.235294117644,4,2,7,47,0,0
61051,-129.87012987013,4,2,7,67,0,0
61694,-78.7401574803149,4,2,77,77,0,0
62122,-85.4700854700855,4,2,77,77,0,0
65711,-588.235294117647,4,2,7,5,0,0
65765,-85.4700854700855,4,2,77,77,0,0
70765,-588.235294117647,4,2,7,5,0,0
70837,-85.4700854700855,4,2,77,77,0,0
70908,-588.235294117647,4,2,7,5,0,0
70980,-85.4700854700855,4,2,77,77,0,0
71051,-588.235294117647,4,2,7,5,0,0
71122,-85.4700854700855,4,2,77,77,0,0
71194,-588.235294117647,4,2,7,5,0,0
71265,-85.4700854700855,4,2,77,77,0,0
71337,-588.235294117647,4,2,7,5,0,0
71408,-85.4700854700855,4,2,77,77,0,0
71480,-588.235294117647,4,2,7,5,0,0
71551,-85.4700854700855,4,2,77,77,0,0
71765,-129.87012987013,4,2,77,77,0,0
71925,-588.235294117647,4,2,7,5,0,0
71980,-78.7401574803149,4,2,77,77,0,0
72408,-85.4700854700855,4,2,77,77,0,0
72569,-588.235294117647,4,2,7,5,0,0
72622,-85.4700854700855,4,2,77,77,0,0
72997,-588.235294117647,4,2,7,5,0,0
73051,-85.4700854700855,4,2,77,77,0,0
73908,-175.438596491228,4,2,77,57,0,0
75408,-78.7401574803149,4,2,77,77,0,0
75783,-588.235294117647,4,2,7,5,0,0
75836,-85.4700854700855,4,2,77,77,0,0
79426,-588.235294117647,4,2,7,5,0,0
79480,-85.4700854700855,4,2,77,77,0,0
85694,-129.87012987013,4,2,77,67,0,0
87408,-175.438596491228,4,2,7,37,0,0
93837,-175.438596491228,4,2,7,47,0,0
94265,-129.87012987013,4,2,7,47,0,0
102408,-212.765957446809,4,2,7,47,0,0
102837,-129.87012987013,4,2,7,47,0,0
105837,-212.765957446809,4,2,7,47,0,0
106265,-129.87012987013,4,2,7,47,0,0
107980,-212.765957446809,4,2,7,37,0,0
108033,-212.765957446809,4,2,7,17,0,0
108408,-212.765957446809,4,2,7,37,0,0
108542,-212.765957446809,4,2,7,17,0,0
108730,-212.765957446809,4,2,7,37,0,0
110069,-588.235294117647,4,2,7,5,0,0
110122,-212.765957446809,4,2,7,37,0,0
110194,-370.370370370372,4,2,7,37,0,0
110480,-588.235294117647,4,2,7,5,0,0
110551,-588.23529411765,4,2,7,37,0,0
111408,-129.87012987013,4,2,7,47,0,0
116015,-588.235294117647,4,2,7,47,0,0
116068,-588.235294117647,4,2,7,5,0,0
116122,-129.87012987013,4,2,7,47,0,0
116765,-114.942528735632,4,2,7,47,0,0
116980,-103.092783505155,4,2,7,47,0,0
117194,-93.4579439252337,4,2,7,47,0,0
117408,-85.4700854700855,4,2,7,47,0,0
117837,-129.87012987013,4,2,7,47,0,0
117997,-588.235294117647,4,2,7,5,0,0
118051,-129.87012987013,4,2,7,47,0,0
118425,-588.235294117647,4,2,7,5,0,0
118480,-129.87012987013,4,2,7,47,0,0
118854,-588.235294117647,4,2,7,5,0,0
118908,-129.87012987013,4,2,7,47,0,0
120140,-588.235294117647,4,2,7,5,0,0
120194,-129.87012987013,4,2,7,47,0,0
120568,-588.235294117647,4,2,7,5,0,0
120622,-129.87012987013,4,2,7,47,0,0
123408,-103.092783505155,4,2,7,47,0,0
123568,-588.235294117647,4,2,7,5,0,0
123622,-212.76595744681,4,2,7,47,0,0
123837,-103.092783505155,4,2,7,47,0,0
123997,-588.235294117647,4,2,7,5,0,0
124051,-212.76595744681,4,2,7,47,0,0
124265,-129.87012987013,4,2,7,47,0,0
124694,-212.76595744681,4,2,7,47,0,0
125015,-588.235294117647,4,2,7,5,0,0
125122,-114.942528735632,4,2,7,57,0,0
125711,-588.235294117647,4,2,7,5,0,0
125765,-114.942528735632,4,2,7,57,0,0
126355,-588.235294117647,4,2,7,5,0,0
126408,-114.942528735632,4,2,7,57,0,0
128926,-588.235294117647,4,2,7,5,0,0
128980,-114.942528735632,4,2,7,57,0,0
129354,-588.235294117647,4,2,7,5,0,0
129408,-114.942528735632,4,2,7,57,0,0
131282,-588.235294117647,4,2,7,5,0,0
131337,-114.942528735632,4,2,7,57,0,0
133961,-588.235294117647,4,2,7,5,0,0
134015,-114.942528735632,4,2,7,57,0,0
135621,-129.87012987013,4,2,7,57,0,0
135730,-588.235294117647,4,2,7,5,0,0
135836,-149.253731343283,4,2,7,57,0,0
135944,-588.235294117647,4,2,7,5,0,0
136050,-175.438596491228,4,2,7,57,0,0
136158,-588.235294117647,4,2,7,5,0,0
136264,-212.765957446808,4,2,7,57,0,0
136372,-588.235294117647,4,2,7,5,0,0
136478,-270.27027027027,4,2,7,57,0,0
136587,-588.235294117647,4,2,7,5,0,0
136693,-370.370370370369,4,2,7,57,0,0
136801,-588.235294117647,4,2,7,5,0,0
136907,-588.235294117644,4,2,7,57,0,0
137015,-588.235294117647,4,2,7,5,0,0
137122,-129.87012987013,4,2,7,57,0,0
139051,-588.235294117644,4,2,7,17,0,0
139264,-588.235294117644,4,2,7,27,0,0
139478,-588.235294117644,4,2,7,37,0,0
139693,-588.235294117644,4,2,7,47,0,0
139907,-129.87012987013,4,2,7,67,0,0
140550,-78.7401574803149,4,2,77,77,0,0
140979,-85.4700854700855,4,2,77,77,0,0
142532,-588.235294117647,4,2,7,5,0,0
142587,-85.4700854700855,4,2,77,77,0,0
142854,-588.235294117647,4,2,7,5,0,0
142908,-85.4700854700855,4,2,77,77,0,0
143282,-588.235294117647,4,2,7,5,0,0
143337,-85.4700854700855,4,2,77,77,0,0
144568,-588.235294117647,4,2,7,5,0,0
144622,-85.4700854700855,4,2,77,77,0,0
146069,-588.235294117647,4,2,7,5,0,0
146122,-85.4700854700855,4,2,77,77,0,0
149622,-588.235294117647,4,2,7,5,0,0
149694,-85.4700854700855,4,2,77,77,0,0
149765,-588.235294117647,4,2,7,5,0,0
149837,-85.4700854700855,4,2,77,77,0,0
149908,-588.235294117647,4,2,7,5,0,0
149980,-85.4700854700855,4,2,77,77,0,0
150051,-588.235294117647,4,2,7,5,0,0
150122,-85.4700854700855,4,2,77,77,0,0
150194,-588.235294117647,4,2,7,5,0,0
150265,-85.4700854700855,4,2,77,77,0,0
150337,-588.235294117647,4,2,7,5,0,0
150408,-85.4700854700855,4,2,77,77,0,0
150621,-129.87012987013,4,2,77,77,0,0
150782,-588.235294117647,4,2,7,5,0,0
150836,-78.7401574803149,4,2,77,77,0,0
151264,-85.4700854700855,4,2,77,77,0,0
151425,-588.235294117647,4,2,7,5,0,0
151480,-85.4700854700855,4,2,77,77,0,0
151854,-588.235294117647,4,2,7,5,0,0
151908,-85.4700854700855,4,2,77,77,0,0
152765,-175.438596491228,4,2,77,57,0,0
154265,-78.7401574803149,4,2,77,77,0,0
154639,-588.235294117647,4,2,7,5,0,0
154694,-85.4700854700855,4,2,77,77,0,0
154855,-588.235294117647,4,2,7,5,0,0
154908,-85.4700854700855,4,2,77,77,0,0
158282,-588.235294117647,4,2,7,5,0,0
158337,-85.4700854700855,4,2,77,77,0,0
164551,-129.87012987013,4,2,77,67,0,0
166265,-175.438596491228,4,2,7,37,0,0
173122,-114.942528735632,4,2,7,57,0,0
174140,-588.235294117647,4,2,7,5,0,0
174194,-114.942528735632,4,2,7,57,0,0
174782,-588.235294117647,4,2,7,5,0,0
174837,-114.942528735632,4,2,7,57,0,0
176122,-212.765957446808,4,2,7,57,0,0
176496,-588.235294117647,4,2,7,5,0,0
176551,-114.942528735632,4,2,7,57,0,0
179497,-588.235294117647,4,2,7,5,0,0
179551,-114.942528735632,4,2,7,57,0,0
179980,-114.942528735632,4,2,77,57,0,0
182980,-114.942528735632,4,2,7,57,0,0
183408,-103.092783505155,4,2,7,67,0,0
184854,-588.235294117647,4,2,7,5,0,0
184908,-103.092783505155,4,2,7,67,0,0
186622,-149.253731343284,4,2,7,67,0,0
186837,-212.76595744681,4,2,777,37,0,0
186908,-212.76595744681,4,2,7,37,0,0
193908,-370.370370370374,4,2,7,37,0,0
194283,-588.235294117647,4,2,7,5,0,0
194337,-370.370370370374,4,2,7,37,0,0
194926,-588.235294117647,4,2,7,5,0,0
194980,-370.370370370374,4,2,7,37,0,0
195569,-588.235294117647,4,2,7,5,0,0
195622,-370.370370370374,4,2,7,37,0,0
200551,-588.235294117647,4,2,7,5,0,0
202265,-370.370370370374,4,2,7,37,0,0
215765,-588.235294117644,4,2,7,17,0,0
216408,-588.235294117644,4,2,7,27,0,0
216622,-588.235294117644,4,2,7,37,0,0
216837,-588.235294117644,4,2,7,47,0,0
217051,-129.87012987013,4,2,7,67,0,0
217694,-78.7401574803149,4,2,77,77,0,0
218122,-85.4700854700855,4,2,77,77,0,0
219997,-588.235294117647,4,2,7,5,0,0
220051,-85.4700854700855,4,2,77,77,0,0
220425,-588.235294117647,4,2,7,5,0,0
220479,-85.4700854700855,4,2,77,77,0,0
221711,-588.235294117647,4,2,7,5,0,0
221765,-85.4700854700855,4,2,77,77,0,0
224282,-588.235294117647,4,2,7,5,0,0
224337,-85.4700854700855,4,2,77,77,0,0
226765,-588.235294117647,4,2,7,5,0,0
226837,-85.4700854700855,4,2,77,77,0,0
226908,-588.235294117647,4,2,7,5,0,0
226980,-85.4700854700855,4,2,77,77,0,0
227051,-588.235294117647,4,2,7,5,0,0
227122,-85.4700854700855,4,2,77,77,0,0
227194,-588.235294117647,4,2,7,5,0,0
227265,-85.4700854700855,4,2,77,77,0,0
227337,-588.235294117647,4,2,7,5,0,0
227408,-85.4700854700855,4,2,77,77,0,0
227480,-588.235294117647,4,2,7,5,0,0
227551,-85.4700854700855,4,2,77,77,0,0
227694,-588.235294117647,4,2,7,5,0,0
227765,-129.87012987013,4,2,77,77,0,0
227908,-588.235294117647,4,2,7,5,0,0
227980,-78.7401574803149,4,2,77,77,0,0
228408,-85.4700854700855,4,2,77,77,0,0
228568,-588.235294117647,4,2,7,5,0,0
228622,-85.4700854700855,4,2,77,77,0,0
228997,-588.235294117647,4,2,7,5,0,0
229051,-85.4700854700855,4,2,77,77,0,0
229908,-175.438596491228,4,2,77,57,0,0
231408,-78.7401574803149,4,2,77,77,0,0
231836,-85.4700854700855,4,2,77,77,0,0
232211,-588.235294117647,4,2,7,5,0,0
232265,-85.4700854700855,4,2,77,77,0,0
236497,-588.235294117647,4,2,7,5,0,0
236551,-85.4700854700855,4,2,77,77,0,0
237997,-588.235294117647,4,2,7,5,0,0
238051,-85.4700854700855,4,2,77,77,0,0
241694,-212.765957446809,4,2,7,67,0,0
243408,-129.87012987013,4,2,7,67,0,0
245122,-212.765957446809,4,2,7,67,0,0
245282,-588.235294117647,4,2,7,5,0,0
245337,-212.765957446809,4,2,7,67,0,0
245980,-175.438596491228,4,2,7,67,0,0
246194,-149.253731343284,4,2,7,67,0,0
246408,-129.87012987013,4,2,7,67,0,0
246622,-114.942528735632,4,2,7,67,0,0
246837,-103.092783505155,4,2,7,67,0,0
248551,-103.092783505155,4,2,7,57,0,0
253694,-212.76595744681,4,2,7,47,0,0
254980,-129.87012987013,4,2,7,57,0,0
262265,-129.87012987013,4,2,7,47,0,0
264837,-212.76595744681,4,2,7,47,0,0
264944,-212.76595744681,4,2,7,5,0,0

[Colours]
Combo1 : 255,191,206
Combo2 : 233,233,233

[HitObjects]
104,92,1265,5,10,0:0:0:0:
104,92,1694,6,0,B|50:75|23:135|23:135|189:191|134:-30|300:24,1,433.381658069924,10|0,1:2|0:0,0:0:0:0:
356,81,2551,2,0,P|380:77|404:57,2,39.3983325518112
307,144,2765,1,0,3:2:0:0:
312,149,2836,1,0,3:2:0:0:
319,153,2907,1,0,3:2:0:0:
326,157,2979,1,10,3:1:0:0:
490,342,3408,6,0,B|450:291|493:218|493:218|427:254|441:290|441:290|400:362|326:370|271:309,1,433.381658069924,10|0,1:2|0:0,0:0:0:0:
243,243,4265,2,0,P|260:231|286:222,2,39.3983325518112
197,307,4480,1,0,3:0:0:0:
189,304,4551,1,0,3:0:0:0:
182,301,4622,1,0,3:0:0:0:
175,297,4694,1,10,3:1:0:0:
43,159,5122,6,0,B|7:230|78:265|127:304|89:353|89:353|39:314|78:265|138:213|86:153,1,433.381658069924,10|0,1:2|0:0,0:0:0:0:
58,86,5980,2,0,L|16:78,2,39.3983325518112
119,35,6194,1,0,3:0:0:0:
126,33,6265,1,0,3:0:0:0:
134,32,6336,1,0,3:0:0:0:
142,30,6408,1,10,3:1:0:0:
429,59,6837,6,0,B|445:34|481:55|481:55|451:110|350:55|350:55|336:98|336:98|235:44|180:145,1,433.381658069924,10|0,1:2|0:0,0:0:0:0:
243,210,7694,2,0,P|245:188|255:161,2,39.3983325518112,8|8|8,0:3|0:3|0:3,0:0:0:0:
186,262,7908,1,4,0:3:0:0:
180,256,7979,1,4,0:3:0:0:
175,250,8050,1,4,0:3:0:0:
171,243,8122,1,14,0:3:0:0:
387,320,8551,5,12,0:0:0:0:
387,320,8765,6,0,P|408:285|408:240,1,78.7966651036225,2|0,0:0|0:0,0:0:0:0:
492,228,8980,2,0,P|475:190|438:164,1,68.5633300901338,2|0,0:0|0:0,0:0:0:0:
489,99,9194,2,0,P|450:91|410:106,1,58.3299992879639,2|0,0:0|0:0,0:0:0:0:
388,29,9408,2,0,P|364:51|354:87,1,48.0966659327698,2|0,0:0|0:0,0:0:0:0:
278,64,9622,2,0,P|281:86|298:106,1,37.8633342577311,2|0,0:0|0:0,0:0:0:0:
364,162,9837,5,10,0:0:0:0:
364,162,10051,1,10,0:0:0:0:
235,317,10265,6,0,P|205:300|168:287,1,62.1675015177613,8|0,0:0|0:0,0:0:0:0:
108,309,10694,5,8,0:0:0:0:
72,247,10801,1,8,0:3:0:0:
169,200,10908,1,8,0:3:0:0:
47,125,11015,1,8,0:0:0:0:
210,60,11122,1,8,1:2:0:0:
469,52,11980,5,2,0:0:0:0:
392,66,12194,1,0,0:0:0:0:
490,188,12408,5,2,0:0:0:0:
434,132,12622,1,0,0:0:0:0:
397,287,12837,5,2,0:0:0:0:
410,209,13051,1,0,0:0:0:0:
259,277,13265,5,2,0:0:0:0:
330,242,13479,1,0,0:0:0:0:
219,351,13694,5,2,0:0:0:0:
148,316,13908,1,0,0:0:0:0:
229,197,14122,5,2,0:0:0:0:
159,235,14336,1,0,0:0:0:0:
134,85,14551,5,2,0:0:0:0:
124,164,14765,1,0,0:0:0:0:
0,158,14980,5,2,0:0:0:0:
58,211,15194,1,0,0:0:0:0:
321,103,15408,6,0,L|366:84,1,43.7474994659729,2|0,0:0|0:0,0:0:0:0:
328,256,15622,2,0,L|288:227,1,43.7474994659729,2|0,0:0|0:0,0:0:0:0:
428,204,15837,1,2,0:0:0:0:
306,341,16051,1,2,0:0:0:0:
179,214,16265,6,0,P|189:168|198:123,1,87.4949989319458,2|0,0:0|0:0,0:0:0:0:
19,259,16694,2,0,P|10:301|1:344,1,87.4949989319458
180,302,17122,6,0,P|153:295|132:292,1,43.7474994659729,2|0,0:0|0:0,0:0:0:0:
262,209,17337,2,0,P|283:212|304:218,1,43.7474994659729,2|0,0:0|0:0,0:0:0:0:
198,94,17551,1,2,0:0:0:0:
121,203,17765,1,2,0:0:0:0:
310,105,17980,6,0,P|306:62|300:16,1,87.4949989319458,2|0,0:0|0:0,0:0:0:0:
488,137,18408,2,0,P|493:180|497:223,1,87.4949989319458
391,339,18837,6,0,P|372:330|342:324,1,43.7474994659729,2|0,0:0|0:0,0:0:0:0:
319,201,19051,2,0,P|299:207|273:224,1,43.7474994659729,2|0,0:0|0:0,0:0:0:0:
231,327,19265,1,2,0:0:0:0:
392,243,19480,1,2,0:0:0:0:
243,121,19694,6,0,P|200:113|152:100,1,87.4949989319458,2|0,0:0|0:0,0:0:0:0:
59,267,20122,1,2,0:0:0:0:
148,230,20337,1,2,0:0:0:0:
17,34,20551,6,0,B|-12:121|104:92|75:180,2,174.989997863892,2|0|0,0:0|0:0|0:0,0:0:0:0:
17,34,21622,1,0,0:0:0:0:
207,163,21837,2,0,P|237:131|290:120,1,87.4949989319458
450,218,22265,6,0,L|459:266,1,43.7474994659729,2|0,0:0|0:0,0:0:0:0:
427,96,22480,2,0,L|418:53,1,43.7474994659729,2|0,0:0|0:0,0:0:0:0:
373,202,22694,1,2,0:0:0:0:
512,112,22908,1,2,0:0:0:0:
369,208,23122,6,0,P|323:202|267:194,1,87.4949989319458,2|0,0:0|0:0,0:0:0:0:
171,337,23551,2,0,P|199:301|236:257,1,87.4949989319458
150,120,23980,5,2,0:0:0:0:
197,181,24194,1,2,0:0:0:0:
283,93,24408,5,2,0:0:0:0:
119,200,24622,1,2,0:0:0:0:
2,44,24837,6,0,P|52:38|108:34,1,87.4949989319458,2|0,0:0|0:0,0:0:0:0:
284,172,25265,2,0,P|240:175|196:180,1,87.4949989319458
361,47,25694,6,0,B|351:7|291:22|286:86|355:111,1,153.116248130905,2|0,0:0|0:0,0:0:0:0:
429,91,26122,2,0,L|476:82,1,43.7474994659729,2|0,0:0|0:0,0:0:0:0:
402,265,26337,2,0,P|368:271|330:279,1,65.6212491989594,2|0,0:0|0:0,0:0:0:0:
277,230,26551,5,2,0:0:0:0:
424,351,26765,1,2,0:0:0:0:
477,177,26980,1,2,0:0:0:0:
402,265,27194,1,2,0:0:0:0:
227,151,27408,6,0,P|195:141|151:157,1,65.6212491989594,2|0,0:0|0:0,0:0:0:0:
129,213,27622,1,2,0:0:0:0:
93,29,27837,2,0,P|67:49|54:94,1,65.6212491989594,2|0,0:0|0:0,0:0:0:0:
87,144,28051,1,2,0:0:0:0:
255,14,28265,5,6,0:3:0:0:
255,14,28694,5,8,3:2:0:0:
332,93,28801,1,0,3:3:0:0:
285,151,28908,1,0,3:3:0:0:
297,164,29015,1,0,3:3:0:0:
290,174,29122,1,2,1:0:0:0:
483,282,29337,6,0,P|488:252|498:216,1,59.0974988277168,2|0,3:0|0:0,0:0:0:0:
416,323,29551,2,0,P|371:330|303:347,1,88.6462482415753,10|0,0:0|0:0,0:0:0:0:
323,350,29765,1,0,0:0:0:0:
104,252,29980,6,0,P|148:242|192:236,1,88.6462482415753,2|0,1:0|0:0,0:0:0:0:
200,245,30194,1,0,0:0:0:0:
141,328,30301,1,0,3:0:0:0:
19,204,30408,2,0,P|32:142|42:83,1,118.194997655434,10|0,0:0|3:0,0:0:0:0:
41,87,30730,1,0,3:0:0:0:
251,28,30837,2,0,P|189:47|146:4,2,118.194997655434,2|0|10,1:0|0:0|0:0,0:0:0:0:
434,163,31480,6,0,L|369:153,1,59.0974988277168
375,154,31694,1,2,1:0:0:0:
230,259,31801,1,0,3:0:0:0:
297,299,31908,2,0,P|310:255|292:163,1,118.194997655434,0|10,0:0|0:0,0:0:0:0:
412,0,32337,6,0,P|377:22|371:68,1,88.6462482415753,0|0,3:0|0:0,0:0:0:0:
427,117,32551,2,0,P|456:122|492:132,1,59.0974988277168,2|0,1:0|0:0,0:0:0:0:
362,266,32765,2,0,P|350:238|340:202,1,59.0974988277168,2|0,0:0|0:0,0:0:0:0:
512,238,32980,2,0,P|494:261|470:289,1,59.0974988277168,10|0,0:0|0:0,0:0:0:0:
424,202,33194,1,2,0:0:0:0:
205,360,33408,6,0,P|168:343|82:324,1,118.194997655434,2|0,1:0|0:0,0:0:0:0:
92,325,33730,1,0,3:0:0:0:
0,137,33837,2,0,P|33:185|56:240,1,118.194997655434,8|0,0:0|3:0,0:0:0:0:
56,240,34158,1,0,3:0:0:0:
155,77,34265,2,0,P|187:70|222:59,1,59.0974988277168,2|0,1:0|0:0,0:0:0:0:
308,192,34480,2,0,P|285:168|257:144,1,59.0974988277168,2|0,0:0|0:0,0:0:0:0:
333,9,34694,2,0,P|325:40|319:77,1,59.0974988277168,10|0,0:0|0:0,0:0:0:0:
321,66,34908,1,2,0:0:0:0:
492,248,35122,6,0,B|507:216|476:184|476:184|492:216|476:248,1,118.194997655434,2|0,1:0|0:0,0:0:0:0:
482,229,35444,1,0,3:0:0:0:
343,295,35551,2,0,P|338:259|416:231,1,118.194997655434,8|0,0:0|3:0,0:0:0:0:
400,223,35872,1,0,3:0:0:0:
267,348,35980,6,0,P|225:329|169:317,1,88.6462482415753,2|0,1:0|0:0,0:0:0:0:
179,309,36194,1,2,0:0:0:0:
96,119,36408,6,0,P|102:164|121:218,1,88.6462482415753,10|0,0:0|0:0,0:0:0:0:
109,214,36622,1,2,0:0:0:0:
339,59,36837,5,2,1:0:0:0:
283,111,36944,1,0,3:0:0:0:
212,78,37051,2,0,P|215:44|217:9,1,59.0974988277168,2|0,0:0|3:0,0:0:0:0:
358,143,37265,2,0,P|401:133|471:127,1,88.6462482415753,10|0,0:0|0:0,0:0:0:0:
453,135,37480,2,0,P|417:138|392:143,1,59.0974988277168,2|0,3:0|3:0,0:0:0:0:
292,328,37694,2,0,B|204:296|210:214|285:195|298:246,1,177.292496483151,2|0,1:0|0:0,0:0:0:0:
165,325,38122,6,0,P|123:313|73:303,1,88.6462482415753,8|0,0:0|0:0,0:0:0:0:
71,313,38337,1,0,0:0:0:0:
146,235,38444,1,0,3:0:0:0:
20,119,38551,2,0,P|29:162|40:205,1,88.6462482415753,0|0,1:0|0:0,0:0:0:0:
54,212,38765,1,0,0:0:0:0:
132,137,38872,1,0,0:0:0:0:
41,39,38980,5,8,0:0:0:0:
41,39,39194,1,0,3:0:0:0:
269,176,39408,6,0,P|312:161|372:150,1,88.6462482415753,2|0,1:0|0:0,0:0:0:0:
362,146,39622,2,0,P|329:150|297:158,1,59.0974988277168,2|0,0:0|0:0,0:0:0:0:
234,325,39837,2,0,P|277:310|337:299,1,88.6462482415753,10|0,0:0|0:0,0:0:0:0:
327,295,40051,2,0,P|294:299|262:307,1,59.0974988277168,2|0,0:0|0:0,0:0:0:0:
268,305,40265,1,2,1:0:0:0:
422,359,40372,1,0,3:0:0:0:
484,312,40480,2,0,P|494:246|506:186,2,118.194997655434,0|8|0,0:0|0:0|3:0,0:0:0:0:
396,134,41122,6,0,P|366:125|326:110,1,59.0974988277168,2|0,1:0|0:0,0:0:0:0:
199,197,41337,2,0,P|226:206|255:215,1,59.0974988277168,2|0,0:0|0:0,0:0:0:0:
118,366,41551,2,0,P|127:336|142:296,1,59.0974988277168,10|0,0:0|0:0,0:0:0:0:
55,169,41766,2,0,P|45:196|36:225,1,59.0974988277168,2|0,0:0|3:0,0:0:0:0:
137,107,41980,5,2,1:0:0:0:
140,119,42087,1,0,3:0:0:0:
194,176,42194,2,0,P|256:189|295:140,1,118.194997655434,0|8,0:0|0:0,0:0:0:0:
467,46,42622,1,0,3:0:0:0:
405,269,42837,6,0,P|388:243|391:201,1,59.0974988277168,2|0,1:0|0:0,0:0:0:0:
286,204,43051,2,0,P|291:173|323:145,1,59.0974988277168,2|0,0:0|0:0,0:0:0:0:
189,290,43265,2,0,P|246:304|301:324,1,118.194997655434,2|2,3:0|0:0,0:0:0:0:
301,324,43587,1,0,3:0:0:0:
170,196,43694,6,0,P|143:208|98:218,1,59.0974988277168,2|0,1:0|3:0,0:0:0:0:
129,56,43908,2,0,P|123:85|114:112,1,59.0974988277168,2|0,0:0|0:0,0:0:0:0:
19,184,44122,5,2,0:0:0:0:
286,104,44337,1,2,3:0:0:0:
31,181,44551,5,14,0:1:0:0:
410,345,44980,5,14,0:1:0:0:
325,261,45194,1,2,0:0:0:0:
457,38,45408,5,14,0:1:0:0:
382,148,45622,1,12,0:3:0:0:
366,144,45693,1,12,0:3:0:0:
351,140,45764,1,12,0:3:0:0:
336,136,45836,1,12,0:1:0:0:
34,307,46265,6,0,B|59:336|143:342|173:316|175:288|149:259|119:284|117:312,1,200.317501681131,2|0,1:0|0:0,0:0:0:0:
164,176,46694,2,0,L|153:66,1,100.158750840566,8|0,0:0|0:0,0:0:0:0:
153,62,46908,1,2,0:0:0:0:
292,250,47122,2,0,B|319:222|375:222|403:277|403:277|431:333|487:333|514:305,2,267.090002241509,2|8|0,1:0|0:0|1:0,0:0:0:0:
481,72,48194,6,0,P|451:81|413:97,1,66.7725005603771,2|0,0:0|0:0,0:0:0:0:
353,61,48408,1,10,0:0:0:0:
164,224,48622,5,2,3:0:0:0:
162,237,48730,1,0,3:0:0:0:
229,272,48837,2,0,P|259:259|291:249,1,66.7725005603771,2|0,1:0|0:0,0:0:0:0:
108,107,49051,2,0,P|102:139|93:172,1,66.7725005603771,2|0,0:0|0:0,0:0:0:0:
311,75,49265,2,0,P|285:52|263:28,1,66.7725005603771,10|0,0:0|0:0,0:0:0:0:
215,152,49480,1,2,1:0:0:0:
405,329,49694,6,0,B|433:312|460:301|460:301|446:237|432:161,1,200.317501681131,2|0,1:0|0:0,0:0:0:0:
315,195,50122,2,0,P|321:246|370:265,1,100.158750840566,8|0,0:0|0:0,0:0:0:0:
372,258,50337,1,2,0:0:0:0:
265,109,50551,2,0,L|62:154,1,200.317501681131,2|0,1:0|0:0,0:0:0:0:
16,100,50980,5,8,0:0:0:0:
195,269,51194,1,0,1:0:0:0:
295,29,51408,1,0,1:0:0:0:
176,148,51622,5,2,0:0:0:0:
176,148,51837,1,10,0:0:0:0:
7,265,52051,5,2,3:0:0:0:
10,252,52158,1,0,3:0:0:0:
70,206,52265,2,0,P|105:210|147:217,1,66.7725005603771,2|0,1:0|3:0,0:0:0:0:
326,123,52480,2,0,P|304:150|275:182,1,66.7725005603771,2|0,0:0|3:0,0:0:0:0:
265,378,52694,2,0,P|253:344|241:303,1,66.7725005603771,10|0,0:0|0:0,0:0:0:0:
218,229,52908,1,2,1:0:0:0:
486,308,53122,6,0,P|432:354|377:319,1,133.545001120754,6|0,1:0|3:0,0:0:0:0:
410,180,53444,5,8,0:3:0:0:
413,167,53551,1,10,0:3:0:0:
287,239,53765,5,10,0:3:0:0:
274,236,53872,1,8,0:3:0:0:
216,185,53980,6,0,P|211:150|201:100,1,66.7725005603771,8|0,0:1|0:0,0:0:0:0:
136,206,54194,2,0,P|131:171|121:121,1,66.7725005603771,0|4,0:0|0:3,0:0:0:0:
60,335,54408,2,0,P|65:300|75:250,1,66.7725005603771,8|0,0:3|0:0,0:0:0:0:
140,356,54622,2,0,P|145:321|155:271,1,66.7725005603771,8|0,0:3|0:0,0:0:0:0:
300,62,54837,6,0,P|364:85|443:107,1,133.545001120754,6|0,1:0|3:0,0:0:0:0:
500,45,55158,5,8,0:3:0:0:
497,31,55265,1,10,0:3:0:0:
353,115,55480,5,10,0:3:0:0:
350,129,55587,1,8,0:3:0:0:
400,190,55694,6,0,P|434:199|472:188,1,66.7725005603771,8|0,0:1|0:0,0:0:0:0:
319,206,55908,2,0,P|330:239|361:263,1,66.7725005603771,8|0,0:1|0:0,0:0:0:0:
182,157,56122,2,0,P|147:147|110:159,1,66.7725005603771,8|0,0:1|3:0,0:0:0:0:
263,141,56336,2,0,P|251:107|220:83,1,66.7725005603771,8|0,0:1|0:0,0:0:0:0:
184,292,56551,5,10,0:1:0:0:
184,292,56765,6,0,P|155:281|132:256,1,59.0974988277168,10|0,0:3|0:0,0:0:0:0:
66,292,56980,6,0,P|58:262|65:228,1,51.4224975676004,10|0,0:3|0:0,0:0:0:0:
0,199,57194,6,0,P|19:176|51:162,1,43.7474994659729,6|0,0:3|0:0,0:0:0:0:
27,94,57408,6,0,P|56:96|86:115,1,36.0724994495773,6|0,0:3|0:0,0:0:0:0:
123,54,57622,6,0,P|135:75|136:104,1,28.3975006932984,10|0,0:1|0:0,0:0:0:0:
206,111,57837,6,0,P|198:127|181:140,1,20.7225005059204,10|0,0:1|0:0,0:0:0:0:
214,202,58051,6,0,P|204:203|194:200,1,13.0475000796356,10|0,0:1|0:0,0:0:0:0:
122,176,58265,5,10,0:1:0:0:
416,112,58480,1,2,0:0:0:0:
214,202,58694,5,10,0:1:0:0:
364,181,58908,1,2,0:0:0:0:
302,301,59122,5,10,0:1:0:0:
302,301,59765,6,0,L|304:278,2,13.0475000796356
302,301,60194,1,0,0:0:0:0:
459,348,60408,5,2,0:0:0:0:
394,305,60622,1,2,0:0:0:0:
478,233,60837,1,2,0:0:0:0:
369,132,61051,2,0,P|340:127|306:120,1,59.0974988277168,10|0,0:1|0:0,0:0:0:0:
131,50,61265,5,10,0:0:0:0:
158,121,61372,1,8,0:0:0:0:
124,194,61480,5,10,0:0:0:0:
151,123,61587,1,8,0:0:0:0:
222,244,61694,6,0,B|251:273|311:273|341:213|341:213|372:153|432:153|462:183,1,292.417497769032,6|0,1:2|3:0,0:0:0:0:
493,311,62122,1,8,1:2:0:0:
230,159,62337,2,0,P|241:113|254:60,1,89.7975003425503,2|0,0:0|0:0,0:0:0:0:
28,143,62551,2,0,P|112:130|138:221,1,179.595000685101,2|0,1:2|0:0,0:0:0:0:
144,204,62872,1,0,3:0:0:0:
234,256,62980,5,8,1:2:0:0:
302,225,63087,1,0,3:0:0:0:
186,340,63194,1,0,3:0:0:0:
118,309,63301,1,0,3:0:0:0:
316,335,63408,6,0,P|335:247|358:161,1,179.595000685101,0|0,1:0|0:0,0:0:0:0:
512,10,63730,1,0,3:0:0:0:
492,83,63837,2,0,P|451:92|402:101,1,89.7975003425503,10|0,1:2|0:2,0:0:0:0:
191,0,64051,2,0,P|220:30|253:66,1,89.7975003425503,2|0,0:2|0:2,0:0:0:0:
425,321,64265,2,0,P|393:289|363:256,1,89.7975003425503,2|0,1:2|0:2,0:0:0:0:
128,240,64479,2,0,P|171:230|216:222,1,89.7975003425503,2|0,0:2|0:2,0:0:0:0:
344,27,64694,5,10,1:2:0:0:
341,44,64801,1,0,3:0:0:0:
231,111,64908,1,2,3:2:0:0:
234,128,65015,1,0,3:0:0:0:
304,198,65122,6,0,B|337:98|204:131|237:31|237:31|268:49|252:95,1,269.392501027651,0|0,1:0|3:0,0:0:0:0:
151,190,65551,2,0,P|111:175|14:151,1,134.696250513825,8|0,1:2|0:0,0:0:0:0:
6,224,65765,2,0,P|49:232|92:247,1,89.7975003425503
139,341,65980,5,0,1:0:0:0:
156,336,66087,1,0,3:0:0:0:
227,268,66194,1,0,3:0:0:0:
210,263,66301,1,0,3:0:0:0:
296,186,66408,5,8,1:2:0:0:
323,261,66515,1,0,3:0:0:0:
222,171,66622,2,0,B|193:159|168:189|168:189|194:173|223:184,1,89.7975003425503,2|0,0:3|0:0,0:0:0:0:
380,204,66837,6,0,B|490:140|462:32|357:25|352:95,1,269.392501027651,0|0,1:0|3:0,0:0:0:0:
421,269,67265,2,0,P|460:281|507:301,1,89.7975003425503,10|0,1:2|0:0,0:0:0:0:
506,301,67480,1,0,0:0:0:0:
269,115,67694,2,0,P|228:128|177:149,1,89.7975003425503,2|0,1:2|0:0,0:0:0:0:
60,262,67908,1,0,3:0:0:0:
56,279,68015,1,0,3:0:0:0:
12,340,68122,2,0,P|53:323|96:309,1,89.7975003425503,10|0,1:2|0:0,0:0:0:0:
163,350,68336,1,0,3:0:0:0:
312,162,68551,5,2,1:2:0:0:
232,198,68694,1,2,0:2:0:0:
245,110,68837,1,2,0:2:0:0:
401,207,68980,5,10,1:2:0:0:
158,251,69123,1,2,0:2:0:0:
253,19,69266,1,2,0:2:0:0:
263,155,69408,5,2,1:2:0:0:
30,52,69551,1,2,0:2:0:0:
248,159,69694,1,2,0:2:0:0:
2,260,69837,5,10,1:2:0:0:
2,260,70051,2,0,P|13:230|10:262,1,89.7975003425503,0|0,3:0|0:0,0:0:0:0:
236,345,70265,5,2,1:2:0:0:
314,329,70408,1,2,0:2:0:0:
355,260,70551,1,2,0:2:0:0:
195,41,70694,6,0,P|204:73|214:104,1,59.8650002283669,10|0,1:2|0:2,0:0:0:0:
116,203,70837,2,0,P|138:178|159:152,1,59.8650002283669,2|0,0:2|0:2,0:0:0:0:
294,187,70980,2,0,P|260:180|228:176,1,59.8650002283669,2|0,0:2|0:2,0:0:0:0:
436,55,71122,6,0,P|416:81|414:116,1,59.8650002283669,2|0,1:2|0:2,0:0:0:0:
506,314,71265,2,0,P|494:283|465:263,1,59.8650002283669,2|0,0:2|0:2,0:0:0:0:
269,279,71408,2,0,P|301:285|333:272,1,59.8650002283669,2|0,0:2|0:2,0:0:0:0:
394,204,71551,5,10,1:2:0:0:
44,52,71765,6,0,P|78:53|104:98,1,88.6462482415753,0|0,3:0|0:0,0:0:0:0:
132,166,71980,6,0,B|219:196|265:129|219:68|178:99,1,194.944998512688,0|0,1:0|0:0,0:0:0:0:
178,98,72301,1,0,3:0:0:0:
365,256,72408,2,0,P|412:223|405:146,1,134.696250513825,10|0,1:2|0:0,0:0:0:0:
339,136,72622,2,0,P|308:163|312:221,1,89.7975003425503,2|0,0:0|0:0,0:0:0:0:
158,305,72837,2,0,B|128:287|143:245|143:245|175:275|160:304,1,134.696250513825,2|0,1:0|0:0,0:0:0:0:
90,340,73051,2,0,P|169:353|211:367,1,89.7975003425503,2|0,0:0|3:0,0:0:0:0:
423,309,73265,5,10,1:2:0:0:
420,291,73372,1,0,3:0:0:0:
313,229,73480,1,2,3:2:0:0:
310,247,73587,1,0,3:0:0:0:
421,183,73694,1,10,0:3:0:0:
31,74,74122,6,0,P|67:44|115:50,2,87.4949989319458,2|2|2,0:3|0:3|3:3,0:0:0:0:
146,141,74765,1,2,0:3:0:0:
150,133,74872,2,0,P|197:124|246:113,1,87.4949989319458,2|0,0:3|3:3,0:0:0:0:
390,74,75194,1,2,3:0:0:0:
372,78,75301,1,0,3:0:0:0:
282,43,75408,6,0,B|255:69|255:122|308:148|308:148|361:175|361:228|334:254|334:254|346:203|314:171,1,341.153747397203,6|0,1:2|0:0,0:0:0:0:
263,228,75837,1,8,1:2:0:0:
65,306,76051,2,0,B|14:293|14:293|9:296|9:296|44:305,1,89.7975003425503,2|0,0:0|0:0,0:0:0:0:
99,380,76265,2,0,B|129:360|156:351|156:351|140:293|127:236,1,179.595000685101,2|0,1:2|0:0,0:0:0:0:
128,239,76586,1,0,3:0:0:0:
291,131,76694,5,8,1:2:0:0:
228,181,76801,1,0,3:0:0:0:
146,132,76908,1,0,3:0:0:0:
209,182,77015,1,0,3:0:0:0:
271,42,77122,6,0,B|283:-8|207:-27|163:42|226:111,1,179.595000685101,0|0,1:0|0:0,0:0:0:0:
423,204,77444,1,0,3:0:0:0:
380,138,77551,2,0,P|339:122|278:125,1,89.7975003425503,10|0,1:2|0:2,0:0:0:0:
357,318,77765,2,0,P|346:275|309:226,1,89.7975003425503,2|0,0:2|0:2,0:0:0:0:
74,187,77980,2,0,P|115:171|176:174,1,89.7975003425503,2|0,1:2|0:2,0:0:0:0:
97,367,78194,2,0,P|107:324|144:275,1,89.7975003425503,2|0,0:2|0:2,0:0:0:0:
210,88,78408,5,10,1:2:0:0:
206,72,78515,1,0,3:0:0:0:
112,136,78622,1,2,3:2:0:0:
117,120,78729,1,0,3:0:0:0:
199,184,78837,6,0,P|341:144|462:124,1,269.392501027651,0|0,1:0|3:0,0:0:0:0:
417,341,79265,2,0,P|346:321|359:255,1,134.696250513825,8|0,1:2|0:0,0:0:0:0:
398,212,79480,2,0,P|391:259|333:245,1,89.7975003425503
213,50,79694,5,0,1:0:0:0:
195,47,79801,1,0,3:0:0:0:
74,127,79908,1,0,3:0:0:0:
92,130,80015,1,0,3:0:0:0:
211,256,80122,5,8,1:2:0:0:
182,156,80229,1,0,3:0:0:0:
57,265,80337,2,0,P|102:278|144:294,1,89.7975003425503,2|0,0:3|0:0,0:0:0:0:
285,289,80551,6,0,B|255:263|200:267|176:324|176:324|152:381|97:385|67:359,1,269.392501027651,0|0,1:0|3:0,0:0:0:0:
328,126,80980,2,0,P|319:170|313:214,1,89.7975003425503,10|0,1:2|0:0,0:0:0:0:
362,272,81194,1,0,0:0:0:0:
91,102,81408,2,0,P|99:57|105:13,1,89.7975003425503,2|0,1:2|0:0,0:0:0:0:
198,170,81622,1,0,3:0:0:0:
196,187,81729,1,0,3:0:0:0:
135,228,81837,2,0,P|91:216|47:207,1,89.7975003425503,10|0,1:2|0:0,0:0:0:0:
217,71,82050,1,0,3:0:0:0:
305,283,82265,5,2,1:2:0:0:
359,329,82408,1,2,0:2:0:0:
428,308,82551,1,2,0:2:0:0:
497,122,82694,5,10,1:2:0:0:
342,218,82837,1,2,0:2:0:0:
218,87,82980,1,2,0:2:0:0:
355,120,83122,5,2,1:2:0:0:
173,262,83265,1,2,0:2:0:0:
341,117,83408,1,2,0:2:0:0:
70,43,83551,5,10,1:2:0:0:
66,78,83658,1,0,3:0:0:0:
59,113,83765,1,0,3:2:0:0:
185,249,83980,5,2,1:2:0:0:
124,203,84122,1,2,0:2:0:0:
192,244,84265,1,2,0:2:0:0:
319,141,84408,6,0,B|343:114|302:78|302:78|253:106|269:169,1,179.595000685101,10|0,1:2|0:0,0:0:0:0:
332,212,84694,1,2,0:2:0:0:
162,307,84837,2,0,B|137:333|178:369|178:369|227:341|211:278,1,179.595000685101,2|0,1:2|0:0,0:0:0:0:
149,236,85123,1,2,0:2:0:0:
348,364,85265,5,10,1:2:0:0:
407,322,85408,1,2,0:0:0:0:
415,250,85551,1,2,0:0:0:0:
349,180,85694,6,0,B|370:165|370:165|419:197|474:178|480:126|432:93|377:113|377:113|354:84|354:84|386:35|367:-19|315:-25|282:22|302:77|302:77|273:100|273:100|224:68|169:87|163:139|211:172|266:152|266:152|289:181|289:181|257:230|276:285|328:291|361:243|343:187,1,945.55998124347,4|0,3:2|0:0,0:0:0:0:
152,361,87837,5,0,0:0:0:0:
143,346,88051,1,0,0:0:0:0:
162,317,88265,1,0,0:0:0:0:
126,256,88480,1,0,0:0:0:0:
194,176,88694,1,0,0:0:0:0:
93,73,88908,1,0,0:0:0:0:
104,162,89122,5,0,0:0:0:0:
348,81,89551,1,0,0:0:0:0:
418,303,89980,1,0,0:0:0:0:
174,384,90409,1,0,0:0:0:0:
258,209,90837,5,0,0:0:0:0:
258,209,91265,1,0,0:0:0:0:
258,209,91694,1,0,0:0:0:0:
258,209,92122,1,0,0:0:0:0:
24,36,92551,5,4,0:0:0:0:
149,267,93837,5,8,0:0:0:0:
127,193,93944,1,8,0:3:0:0:
145,276,94051,1,8,0:3:0:0:
228,168,94158,1,8,0:0:0:0:
288,314,94265,1,12,1:2:0:0:
479,96,94480,6,0,P|476:126|470:155,1,59.0974988277168
263,58,94694,5,8,0:0:0:0:
306,40,94801,1,0,0:0:0:0:
351,52,94908,1,0,0:0:0:0:
371,94,95015,1,0,0:0:0:0:
297,133,95122,5,0,1:0:0:0:
293,162,95229,1,0,3:0:0:0:
346,224,95336,1,2,3:0:0:0:
262,296,95443,1,0,3:0:0:0:
369,367,95551,6,0,P|397:360|426:353,1,59.0974988277168,10|0,0:0|0:0,0:0:0:0:
262,296,95765,2,0,P|233:303|204:309,1,59.0974988277168,2|0,3:0|0:0,0:0:0:0:
25,198,95980,5,2,1:0:0:0:
62,130,96087,2,0,P|102:191|108:257,1,118.194997655434,2|2,0:0|0:0,0:0:0:0:
53,287,96408,1,10,0:0:0:0:
264,249,96622,5,2,0:0:0:0:
268,231,96730,1,2,3:0:0:0:
150,309,96837,2,0,P|175:294|190:264,1,59.0974988277168,2|0,1:0|3:0,0:0:0:0:
187,179,97051,1,2,0:0:0:0:
201,192,97159,1,2,3:0:0:0:
197,51,97266,2,0,P|195:80|213:108,1,59.0974988277168,10|0,0:0|0:0,0:0:0:0:
308,144,97480,1,2,3:0:0:0:
290,149,97588,1,2,0:0:0:0:
412,221,97695,2,0,P|388:204|354:204,1,59.0974988277168,2|0,1:0|0:0,0:0:0:0:
196,316,97908,6,0,L|202:374,1,59.0974988277168,2|0,0:0|0:0,0:0:0:0:
180,177,98122,2,0,L|173:118,1,59.0974988277168,10|0,0:0|0:0,0:0:0:0:
113,257,98337,2,0,L|54:263,1,59.0974988277168,2|0,0:0|0:0,0:0:0:0:
252,241,98551,2,0,L|310:234,1,59.0974988277168,2|0,1:0|3:0,0:0:0:0:
429,63,98765,5,2,3:0:0:0:
434,79,98872,1,0,3:0:0:0:
379,150,98980,5,10,0:0:0:0:
361,147,99087,1,0,0:0:0:0:
292,94,99194,5,2,3:0:0:0:
274,97,99301,1,0,3:0:0:0:
224,189,99408,5,2,1:0:0:0:
230,172,99515,1,0,0:0:0:0:
169,80,99622,5,2,3:0:0:0:
180,94,99729,1,0,0:0:0:0:
95,176,99837,5,10,0:0:0:0:
79,170,99944,1,0,0:0:0:0:
3,220,100051,5,2,3:0:0:0:
48,281,100158,1,2,3:0:0:0:
121,308,100265,2,0,P|181:284|245:273,1,118.194997655434,2|2,1:0|0:0,0:0:0:0:
233,273,100587,1,2,0:0:0:0:
328,320,100694,1,10,0:0:0:0:
324,343,100801,1,0,0:0:0:0:
426,316,100908,5,0,0:0:0:0:
460,245,101015,1,0,0:0:0:0:
411,188,101122,2,0,B|365:191|343:238|343:238|345:186|305:163,1,177.292496483151,2|0,1:0|0:0,0:0:0:0:
191,211,101551,6,0,B|142:223|160:295|239:301|269:217,1,177.292496483151,10|0,0:0|0:0,0:0:0:0:
192,91,101980,1,2,1:0:0:0:
180,104,102087,2,0,P|126:96|55:84,1,118.194997655434,2|0,3:0|3:0,0:0:0:0:
0,281,102408,2,0,P|29:235|88:243,1,108.217498348732,10|0,0:0|3:0,0:0:0:0:
109,308,102837,6,0,B|176:361|237:316|237:316|214:248|169:263,1,236.389995310867,2|8,1:0|0:0,0:0:0:0:
421,159,103480,2,0,P|419:188|415:217,1,59.0974988277168,2|0,0:0|0:0,0:0:0:0:
346,242,103694,6,0,P|322:226|282:216,1,59.0974988277168,2|0,1:0|3:0,0:0:0:0:
292,131,103908,2,0,P|263:136|227:156,1,59.0974988277168,2|0,3:0|3:0,0:0:0:0:
104,293,104122,1,10,0:0:0:0:
101,275,104230,1,2,0:0:0:0:
147,219,104337,2,0,P|175:224|211:244,1,59.0974988277168,2|0,3:0|0:0,0:0:0:0:
60,368,104551,6,0,B|86:345|89:296|42:268|42:268|-4:240|-1:191|24:168,2,236.389995310867,2|8|0,1:0|0:0|1:0,0:0:0:0:
60,368,105515,1,0,3:0:0:0:
169,332,105622,1,0,3:0:0:0:
474,353,105837,6,0,P|480:315|479:274,1,72.1449988991547,2|0,0:0|3:0,0:0:0:0:
480,281,106158,1,0,3:0:0:0:
343,193,106265,6,0,B|297:139|353:91|353:91|425:107|409:180,1,236.389995310867,2|8,1:0|0:0,0:0:0:0:
271,272,106908,1,0,0:0:0:0:
259,275,107015,1,0,0:0:0:0:
193,245,107122,2,0,P|228:250|258:258,3,59.0974988277168,2|0|0|0,0:0|0:0|0:0|0:0,0:0:0:0:
123,306,107551,5,0,0:0:0:0:
118,288,107658,1,0,0:0:0:0:
48,212,107765,5,0,0:0:0:0:
53,194,107872,1,0,0:0:0:0:
148,116,107980,6,0,L|145:92,7,18.0362497247887,0|0|0|0|0|0|0|0,1:0|1:0|1:0|1:0|1:0|1:0|1:0|1:0,0:0:0:0:
210,157,108408,5,8,0:0:0:0:
376,43,108515,2,0,L|377:30,8,9.01812486239434,0|0|0|0|0|0|0|0|0,0:0|0:0|0:0|0:0|0:0|0:0|0:0|0:0|3:0,0:0:0:0:
289,90,108837,5,0,1:0:0:0:
340,147,108944,2,0,L|383:141,2,36.0724994495773,0|8|0,3:0|0:3|3:0,0:0:0:0:
446,269,109265,5,0,3:0:0:0:
431,268,109336,1,0,3:0:0:0:
417,266,109407,1,0,3:0:0:0:
403,264,109479,1,0,3:0:0:0:
325,321,109587,1,8,3:0:0:0:
382,371,109694,6,0,P|370:294|361:234,1,126.253748073521,8|0,3:2|0:0,0:0:0:0:
293,209,110122,1,0,3:0:0:0:
288,214,110194,2,0,P|290:240|294:268,1,55.2600013491211
220,281,110551,2,0,P|216:253|213:226,1,52.1900003185425,0|2,1:0|0:0,0:0:0:0:
49,67,111194,5,2,3:0:0:0:
44,90,111301,1,0,3:0:0:0:
95,146,111408,2,0,P|129:140|162:129,1,59.0974988277168,2|0,1:0|0:0,0:0:0:0:
242,17,111622,2,0,P|229:49|220:82,1,59.0974988277168,2|0,0:0|0:0,0:0:0:0:
374,190,111837,2,0,P|340:196|307:207,1,59.0974988277168,10|0,0:0|0:0,0:0:0:0:
227,319,112051,2,0,P|239:286|248:253,1,59.0974988277168,2|0,0:0|0:0,0:0:0:0:
118,280,112265,5,2,1:0:0:0:
71,290,112372,1,0,3:0:0:0:
29,266,112480,1,0,3:0:0:0:
23,219,112587,1,0,3:0:0:0:
89,153,112693,5,8,0:0:0:0:
93,124,112800,1,0,3:0:0:0:
52,61,112907,1,0,3:0:0:0:
154,1,113014,1,0,3:0:0:0:
249,119,113122,6,0,P|278:129|310:142,1,59.0974988277168,2|0,1:0|0:0,0:0:0:0:
440,36,113337,2,0,P|416:55|388:75,1,59.0974988277168,2|0,3:0|0:0,0:0:0:0:
314,294,113551,2,0,P|337:275|361:257,1,59.0974988277168,10|0,0:0|0:0,0:0:0:0:
506,211,113766,2,0,P|478:201|450:190,1,59.0974988277168,2|0,3:0|3:0,0:0:0:0:
385,363,113980,5,2,1:0:0:0:
341,345,114087,1,0,3:0:0:0:
295,334,114194,1,0,3:0:0:0:
247,329,114301,1,0,3:0:0:0:
193,274,114408,5,8,0:0:0:0:
186,245,114515,1,0,3:0:0:0:
243,181,114622,1,0,3:0:0:0:
147,97,114730,1,0,3:0:0:0:
243,181,114837,6,0,P|275:171|311:160,1,59.0974988277168,2|0,1:0|0:0,0:0:0:0:
162,40,115051,2,0,P|152:72|143:108,1,59.0974988277168,2|0,3:0|0:0,0:0:0:0:
349,43,115265,2,0,P|326:17|300:-8,1,59.0974988277168,10|0,0:0|0:0,0:0:0:0:
258,79,115480,1,2,3:0:0:0:
25,17,115694,6,0,P|40:84|57:239,1,206.841245897009,2|0,1:0|0:0,0:0:0:0:
63,222,116122,2,0,P|61:192|55:143,1,59.0974988277168,10|0,0:0|0:0,0:0:0:0:
240,288,116337,2,0,P|215:305|177:336,1,59.0974988277168,2|0,3:0|0:0,0:0:0:0:
212,124,116551,1,2,1:0:0:0:
400,256,116765,6,0,P|403:232|394:254,1,66.7725005603771,0|0,3:0|0:0,0:0:0:0:
493,175,116980,6,0,P|474:157|488:178,1,74.447501760767,8|0,0:0|0:0,0:0:0:0:
419,71,117194,6,0,P|391:76|419:77,1,82.1224974938203,0|0,3:0|3:0,0:0:0:0:
320,164,117408,6,0,B|224:184|184:108|184:108|241:50|280:87,1,269.392501027651,0|0,1:0|3:0,0:0:0:0:
134,220,117837,2,0,P|95:243|40:215,1,88.6462482415753,8|0,0:1|0:0,0:0:0:0:
58,158,118051,2,0,P|87:143|126:163,1,59.0974988277168,0|0,3:0|3:0,0:0:0:0:
269,214,118265,6,0,P|284:260|254:296,1,88.6462482415753,2|0,1:0|0:0,0:0:0:0:
197,309,118480,2,0,P|221:284|256:288,1,59.0974988277168,2|0,0:0|0:0,0:0:0:0:
350,362,118694,2,0,P|398:357|419:314,1,88.6462482415753,10|0,0:0|0:0,0:0:0:0:
407,257,118909,2,0,P|393:289|411:319,1,59.0974988277168,2|0,0:0|0:0,0:0:0:0:
499,163,119122,2,0,P|414:142|319:114,1,177.292496483151,2|0,1:0|3:0,0:0:0:0:
200,50,119551,1,8,0:0:0:0:
194,21,119658,1,0,3:0:0:0:
85,94,119765,1,0,3:0:0:0:
91,123,119872,1,0,3:0:0:0:
200,171,119980,6,0,P|242:187|287:198,1,88.6462482415753,2|0,1:0|0:0,0:0:0:0:
351,166,120194,2,0,P|321:169|290:192,1,59.0974988277168,2|0,0:0|0:0,0:0:0:0:
215,305,120408,2,0,P|188:338|125:328,1,88.6462482415753,10|0,0:0|0:0,0:0:0:0:
81,307,120622,2,0,P|108:312|144:327,1,59.0974988277168,2|0,0:0|0:0,0:0:0:0:
354,384,120837,2,0,B|395:349|393:295|349:276|349:276|349:308|378:319,1,177.292496483151,2|0,1:0|3:0,0:0:0:0:
466,318,121265,1,8,0:0:0:0:
473,289,121372,1,0,3:0:0:0:
404,201,121480,1,0,3:0:0:0:
411,230,121587,1,0,3:0:0:0:
485,98,121694,6,0,L|419:71,1,59.0974988277168,10|0,0:1|0:0,0:0:0:0:
262,235,121908,2,0,L|319:193,1,59.0974988277168,8|0,0:1|0:0,0:0:0:0:
270,0,122122,2,0,L|274:71,1,59.0974988277168,10|0,0:1|0:0,0:0:0:0:
350,113,122337,1,2,0:0:0:0:
17,150,122551,6,0,P|50:157|69:191,1,59.0974988277168,14|0,0:1|0:0,0:0:0:0:
144,366,122765,2,0,P|132:333|151:300,1,59.0974988277168,8|0,0:1|0:0,0:0:0:0:
276,142,122980,2,0,P|254:169|216:170,1,59.0974988277168,10|0,0:1|0:0,0:0:0:0:
148,212,123194,1,2,0:0:0:0:
329,288,123408,6,0,P|390:292|437:324,1,111.671252641151,10|0,0:1|0:0,0:0:0:0:
431,318,123622,2,0,L|396:328,1,36.0724994495773,10|0,0:0|0:0,0:0:0:0:
209,88,123837,6,0,P|148:92|101:124,1,111.671252641151,10|0,0:1|0:0,0:0:0:0:
106,118,124051,2,0,L|141:127,1,36.0724994495773,10|0,0:0|3:0,0:0:0:0:
421,181,124265,5,10,0:1:0:0:
421,181,124480,5,4,0:3:0:0:
400,256,124587,1,4,0:3:0:0:
350,144,124694,2,0,P|406:129|461:110,1,108.217498348732,12|0,0:1|0:0,0:0:0:0:
282,252,125122,6,0,P|184:221|78:193,1,200.317501681131,2|0,1:0|0:0,0:0:0:0:
232,66,125551,2,0,P|265:96|242:149,1,100.158750840566,8|0,0:0|0:0,0:0:0:0:
239,145,125765,1,2,0:0:0:0:
308,348,125980,2,0,B|360:332|378:290|373:233|373:233|378:281|430:304,1,233.70375196132,2|0,1:0|0:0,0:0:0:0:
407,372,126408,5,8,0:0:0:0:
494,129,126622,1,0,1:0:0:0:
243,180,126837,1,0,1:0:0:0:
243,180,127051,6,0,P|233:150|223:107,1,66.7725005603771,2|0,0:0|0:0,0:0:0:0:
271,53,127265,1,10,0:0:0:0:
74,236,127480,2,0,P|83:206|94:163,1,66.7725005603771,2|0,3:0|3:0,0:0:0:0:
46,109,127694,1,2,1:0:0:0:
199,299,127908,2,0,P|230:305|267:316,1,66.7725005603771,2|0,0:0|0:0,0:0:0:0:
437,176,128122,2,0,P|404:166|372:160,1,66.7725005603771,10|0,0:0|0:0,0:0:0:0:
442,333,128337,1,2,1:0:0:0:
304,92,128551,6,0,B|264:209|421:170|382:287,1,233.70375196132,2|0,1:0|0:0,0:0:0:0:
335,350,128980,1,8,0:0:0:0:
158,193,129194,2,0,P|110:203|60:222,1,100.158750840566,2|0,0:0|0:0,0:0:0:0:
79,136,129408,2,0,P|175:158|297:180,1,200.317501681131,2|0,1:0|0:0,0:0:0:0:
332,116,129837,5,8,0:0:0:0:
208,346,130051,1,0,1:0:0:0:
337,125,130265,1,0,1:0:0:0:
444,324,130480,5,2,0:0:0:0:
444,324,130694,1,10,0:0:0:0:
287,40,130908,5,2,3:0:0:0:
273,37,131015,1,0,3:0:0:0:
208,83,131122,2,0,P|171:100|106:112,1,100.158750840566,2|0,1:0|0:0,0:0:0:0:
65,51,131337,1,2,0:0:0:0:
239,243,131551,2,0,P|234:277|227:313,1,66.7725005603771,10|0,0:0|0:0,0:0:0:0:
420,149,131765,2,0,P|426:116|431:83,1,66.7725005603771,2|0,1:0|0:0,0:0:0:0:
162,148,131980,6,0,B|123:143|130:84|190:72|222:135,1,133.545001120754,6|2,1:0|3:0,0:0:0:0:
95,223,132301,5,8,0:3:0:0:
82,220,132408,1,10,0:3:0:0:
123,324,132622,5,10,0:3:0:0:
110,321,132729,1,8,0:3:0:0:
185,249,132837,6,0,P|218:258|260:269,1,66.7725005603771,8|0,0:1|0:0,0:0:0:0:
205,338,133051,2,0,P|237:346|269:355,1,66.7725005603771,0|4,0:0|0:3,0:0:0:0:
423,187,133265,2,0,P|390:196|348:207,1,66.7725005603771,8|0,0:3|0:0,0:0:0:0:
403,276,133479,2,0,P|370:284|338:293,1,66.7725005603771,8|0,0:3|0:0,0:0:0:0:
188,67,133694,6,0,P|226:133|306:88,1,166.931251400943,6|0,1:0|0:0,0:0:0:0:
343,39,134015,5,8,0:3:0:0:
357,36,134122,1,10,0:3:0:0:
478,140,134337,5,10,0:3:0:0:
464,143,134444,1,8,0:3:0:0:
402,195,134551,6,0,P|391:227|381:268,1,66.7725005603771,8|0,0:1|0:0,0:0:0:0:
330,155,134765,2,0,P|319:187|309:228,1,66.7725005603771,8|0,0:1|0:0,0:0:0:0:
152,288,134980,2,0,P|163:320|173:361,1,66.7725005603771,8|0,0:1|3:0,0:0:0:0:
224,248,135194,2,0,P|235:280|245:321,1,66.7725005603771,8|0,0:1|0:0,0:0:0:0:
411,294,135408,5,10,0:1:0:0:
411,294,135622,6,0,P|433:309|475:317,1,59.0974988277168,10|0,0:3|0:0,0:0:0:0:
328,299,135837,6,0,P|333:325|358:360,1,51.4224975676004,10|0,0:3|0:0,0:0:0:0:
263,251,136051,6,0,P|251:269|246:303,1,43.7474994659729,6|0,0:3|0:0,0:0:0:0:
247,176,136265,6,0,P|228:180|204:198,1,36.0724994495773,6|0,0:3|0:0,0:0:0:0:
287,108,136480,6,0,P|275:101|253:98,1,28.3975006932984,10|0,0:1|0:0,0:0:0:0:
364,85,136694,6,0,P|361:74|350:61,1,20.7225005059204,10|0,0:1|0:0,0:0:0:0:
435,111,136908,6,0,P|437:105|438:96,1,13.0475000796356,10|0,0:1|0:0,0:0:0:0:
176,180,137122,6,0,B|256:182|258:101|258:101|195:51|145:114|145:114|147:34|67:32|67:32|17:95|80:145|80:145|0:142|-2:223|-2:223|60:273|110:210|110:210|164:288|120:362,1,945.55998124347,10|0,1:2|0:0,0:0:0:0:
119,363,139051,5,0,0:0:0:0:
119,363,139265,5,2,0:0:0:0:
191,308,139480,1,2,0:0:0:0:
300,368,139694,1,2,0:0:0:0:
430,240,139908,2,0,P|432:209|437:176,1,59.0974988277168,10|0,0:1|0:0,0:0:0:0:
302,24,140122,5,10,0:0:0:0:
352,91,140230,1,8,0:0:0:0:
328,175,140337,5,10,0:0:0:0:
361,98,140445,1,8,0:0:0:0:
209,189,140551,6,0,B|108:166|104:72|104:72|188:40|209:95,1,292.417497769032,6|0,1:2|3:0,0:0:0:0:
218,197,140980,1,8,1:2:0:0:
94,341,141194,2,0,P|61:309|-3:321,1,89.7975003425503,2|0,0:0|0:0,0:0:0:0:
101,355,141408,2,0,P|164:337|299:315,1,179.595000685101,2|0,1:2|0:0,0:0:0:0:
276,317,141730,1,0,3:0:0:0:
491,274,141838,5,8,1:2:0:0:
459,204,141945,1,0,3:0:0:0:
331,176,142051,1,0,3:0:0:0:
284,238,142158,1,0,3:0:0:0:
368,338,142265,6,0,B|405:225|255:262|292:150,1,224.493750856376,0|0,1:0|0:0,0:0:0:0:
356,105,142588,1,0,3:0:0:0:
170,226,142694,2,0,B|129:219|98:232|98:232|84:201|50:180,1,134.696250513825,10|0,1:2|0:0,0:0:0:0:
60,112,142908,2,0,P|109:120|133:170,1,89.7975003425503,2|0,0:2|0:2,0:0:0:0:
290,336,143122,2,0,P|348:322|364:250,1,134.696250513825,2|0,1:2|0:0,0:0:0:0:
386,183,143337,2,0,P|348:221|364:258,1,89.7975003425503,2|0,0:2|0:2,0:0:0:0:
478,293,143552,5,10,1:2:0:0:
495,297,143659,1,0,3:0:0:0:
489,162,143765,1,2,3:2:0:0:
472,166,143872,1,0,3:0:0:0:
356,250,143980,6,0,P|226:229|82:204,1,269.392501027651,0|0,1:0|3:0,0:0:0:0:
0,205,144408,2,0,B|-3:169|37:150|37:150|11:175|14:210,1,134.696250513825,8|0,1:2|0:0,0:0:0:0:
53,272,144622,1,0,0:0:0:0:
260,190,144837,6,0,P|253:145|247:89,1,89.7975003425503,0|0,1:0|3:0,0:0:0:0:
364,30,145052,1,0,3:0:0:0:
381,35,145159,1,0,3:0:0:0:
448,6,145266,5,8,1:2:0:0:
512,140,145373,1,0,3:0:0:0:
413,251,145480,2,0,P|368:241|317:227,1,89.7975003425503,2|0,0:3|0:0,0:0:0:0:
260,190,145694,6,0,B|280:109|400:139|410:270|270:320,1,314.291251198926,0|0,1:0|0:0,0:0:0:0:
194,270,146122,2,0,B|178:252|188:227|188:227|209:244|204:267,1,89.7975003425503,10|0,1:2|0:0,0:0:0:0:
155,334,146337,1,0,0:0:0:0:
47,140,146551,2,0,B|62:122|52:97|52:97|31:114|36:137,1,89.7975003425503,2|0,1:2|0:0,0:0:0:0:
86,204,146766,5,0,3:0:0:0:
150,157,146873,1,0,3:0:0:0:
122,83,146980,1,10,1:2:0:0:
296,233,147194,1,0,3:0:0:0:
296,233,147409,5,2,1:2:0:0:
306,149,147552,1,2,0:2:0:0:
316,66,147695,1,2,0:2:0:0:
421,109,147838,5,10,1:2:0:0:
224,173,147981,1,2,0:2:0:0:
114,13,148122,1,2,0:2:0:0:
168,89,148266,5,2,1:2:0:0:
83,290,148409,1,2,0:2:0:0:
157,90,148552,1,2,0:2:0:0:
296,233,148694,5,10,1:2:0:0:
296,233,148908,2,0,L|403:252,1,89.7975003425503,0|0,3:2|0:2,0:0:0:0:
244,160,149123,5,2,1:2:0:0:
166,142,149266,1,2,0:2:0:0:
191,217,149409,1,2,0:2:0:0:
312,96,149551,6,0,P|347:88|393:74,1,59.8650002283669,10|0,1:2|0:2,0:0:0:0:
191,217,149694,2,0,P|179:250|166:297,1,59.8650002283669,2|0,0:2|0:2,0:0:0:0:
152,46,149837,2,0,P|129:18|96:-17,1,59.8650002283669,2|0,0:2|0:2,0:0:0:0:
45,179,149980,6,0,P|76:186|109:174,1,59.8650002283669,2|0,1:2|0:2,0:0:0:0:
272,0,150123,2,0,P|248:23|242:58,1,59.8650002283669,2|0,0:2|0:2,0:0:0:0:
329,254,150266,2,0,P|321:222|296:198,1,59.8650002283669,2|0,0:2|0:2,0:0:0:0:
213,136,150409,5,10,1:2:0:0:
512,337,150622,6,0,P|466:357|439:329,1,88.6462482415753,0|0,3:0|0:0,0:0:0:0:
405,269,150837,6,0,B|304:235|337:369|237:336,1,194.944998512688,0|0,1:0|0:0,0:0:0:0:
242,337,151159,1,0,3:0:0:0:
59,204,151265,2,0,P|77:132|103:53,1,134.696250513825,10|0,1:2|0:0,0:0:0:0:
36,29,151480,2,0,P|49:71|62:132,1,89.7975003425503,2|0,0:0|0:0,0:0:0:0:
250,205,151694,2,0,P|322:223|401:249,1,134.696250513825,2|0,1:0|0:0,0:0:0:0:
425,182,151909,2,0,P|383:195|322:208,1,89.7975003425503,2|0,0:0|3:0,0:0:0:0:
134,331,152123,5,10,1:2:0:0:
137,349,152230,1,0,3:0:0:0:
252,308,152338,1,2,3:2:0:0:
255,290,152445,1,0,3:0:0:0:
125,196,152552,1,10,0:3:0:0:
457,52,152980,6,0,B|468:31|468:31|460:103,2,87.4949989319458,2|2|2,0:3|0:3|3:3,0:0:0:0:
151,198,153623,1,2,0:3:0:0:
156,191,153730,2,0,P|196:183|234:221,1,87.4949989319458,2|0,0:3|3:3,0:0:0:0:
254,312,154051,5,2,3:0:0:0:
270,306,154158,1,0,3:0:0:0:
355,318,154265,6,0,B|340:375|254:353|247:260|347:224|347:224|286:194|311:123,1,341.153747397203,6|0,1:2|0:0,0:0:0:0:
331,57,154694,2,0,P|386:89|374:164,1,134.696250513825,8|0,1:2|0:0,0:0:0:0:
310,128,154908,2,0,P|260:116|196:99,1,89.7975003425503,2|0,0:0|0:0,0:0:0:0:
30,236,155122,2,0,B|73:245|103:196|103:196|152:226|186:197,1,179.595000685101,2|0,1:2|0:0,0:0:0:0:
187,197,155444,1,0,3:0:0:0:
161,54,155552,5,8,1:2:0:0:
146,132,155659,1,0,3:0:0:0:
270,225,155765,1,0,3:0:0:0:
255,147,155872,1,0,3:0:0:0:
121,294,155980,6,0,P|189:311|325:348,1,179.595000685101,0|0,1:0|0:0,0:0:0:0:
410,150,156302,1,0,3:0:0:0:
468,195,156408,2,0,B|488:218|467:252|467:252|474:222|454:198,1,89.7975003425503,10|0,1:2|0:2,0:0:0:0:
360,86,156622,2,0,B|340:62|360:29|360:29|353:59|373:82,1,89.7975003425503,2|0,0:2|0:2,0:0:0:0:
148,197,156837,2,0,P|100:186|45:176,1,89.7975003425503,2|0,1:2|0:2,0:0:0:0:
296,222,157051,2,0,P|343:230|391:241,1,89.7975003425503,2|0,0:2|0:2,0:0:0:0:
173,291,157266,5,10,1:2:0:0:
170,274,157373,1,0,3:0:0:0:
227,177,157480,5,2,3:2:0:0:
230,160,157587,1,0,3:0:0:0:
188,78,157694,6,0,B|160:105|160:160|215:188|215:188|220:187|220:187|270:215|270:270|243:298,1,269.392501027651,0|0,1:0|3:0,0:0:0:0:
374,100,158122,2,0,P|443:103|475:155,1,134.696250513825,8|0,1:2|0:0,0:0:0:0:
480,163,158337,2,0,P|467:116|432:92,1,89.7975003425503
341,237,158552,5,0,1:0:0:0:
344,255,158659,1,0,3:0:0:0:
422,314,158765,5,0,3:0:0:0:
440,315,158872,1,0,3:0:0:0:
318,357,158980,5,8,1:2:0:0:
210,305,159087,1,0,3:0:0:0:
134,345,159194,2,0,P|184:343|205:300,1,89.7975003425503,2|0,0:3|0:0,0:0:0:0:
130,67,159408,6,0,B|93:97|77:147|113:201|113:201|67:152|4:175,1,269.392501027651,0|0,1:0|3:0,0:0:0:0:
198,138,159837,2,0,P|240:151|284:163,1,89.7975003425503,10|0,1:2|0:0,0:0:0:0:
363,107,160052,1,0,0:0:0:0:
205,312,160265,2,0,P|247:298|291:286,1,89.7975003425503,2|0,1:2|0:0,0:0:0:0:
358,206,160480,1,0,3:0:0:0:
360,189,160587,1,0,3:0:0:0:
402,284,160694,2,0,P|445:295|491:264,1,89.7975003425503,10|0,1:2|0:0,0:0:0:0:
483,275,160908,1,0,3:0:0:0:
481,67,161123,5,2,1:2:0:0:
424,121,161266,1,2,0:2:0:0:
352,89,161408,1,2,0:2:0:0:
166,228,161552,5,10,1:2:0:0:
306,171,161695,1,2,0:2:0:0:
292,13,161838,1,2,0:2:0:0:
224,114,161980,5,2,1:2:0:0:
276,315,162123,1,2,0:2:0:0:
219,125,162266,1,2,0:2:0:0:
118,302,162408,5,10,1:2:0:0:
81,304,162515,1,0,3:0:0:0:
52,281,162622,1,0,3:2:0:0:
136,40,162838,5,2,1:2:0:0:
84,94,162980,1,2,0:2:0:0:
100,169,163123,1,2,0:2:0:0:
244,157,163265,5,10,1:2:0:0:
274,37,163408,1,2,0:2:0:0:
233,158,163551,1,2,0:2:0:0:
359,274,163694,5,2,1:2:0:0:
318,109,163837,1,2,0:2:0:0:
354,277,163981,1,2,0:2:0:0:
190,346,164122,5,10,1:2:0:0:
115,343,164264,1,2,0:2:0:0:
74,278,164407,1,2,0:2:0:0:
159,174,164551,6,0,B|183:214|153:267|153:267|205:223|198:148|198:148|190:73|129:41|129:41|208:71|216:146|216:146|224:221|234:301|338:290|441:280|433:204|423:110|357:117|301:123|310:208,1,945.55998124347,4|0,3:2|0:0,0:0:0:0:
458,329,166694,5,0,0:0:0:0:
443,317,166908,1,0,0:0:0:0:
399,297,167122,1,0,0:0:0:0:
336,342,167337,1,0,0:0:0:0:
234,246,167551,1,0,0:0:0:0:
101,361,167765,1,0,0:0:0:0:
178,341,167980,5,0,0:0:0:0:
125,123,168408,1,0,0:0:0:0:
343,70,168837,1,0,0:0:0:0:
396,288,169265,1,0,0:0:0:0:
256,194,169694,5,0,0:0:0:0:
256,194,170122,1,0,0:0:0:0:
256,194,170551,1,0,0:0:0:0:
256,194,170980,1,0,0:0:0:0:
387,1,171408,5,4,0:0:0:0:
46,47,173122,5,6,1:0:0:0:
53,123,173337,2,0,P|83:139|117:163,1,66.7725005603771
244,92,173551,2,0,P|213:109|175:124,1,66.7725005603771,10|0,0:0|0:0,0:0:0:0:
174,209,173765,5,0,0:0:0:0:
123,69,173872,1,0,0:0:0:0:
174,209,173980,2,0,P|164:259|151:317,1,100.158750840566,2|0,1:0|0:0,0:0:0:0:
141,311,174194,1,0,0:0:0:0:
321,132,174408,5,10,0:0:0:0:
244,92,174515,1,0,0:0:0:0:
321,132,174622,2,0,P|376:115|426:105,1,100.158750840566,0|0,3:0|0:0,0:0:0:0:
480,147,174837,2,0,P|493:178|509:210,1,66.7725005603771,2|0,1:0|0:0,0:0:0:0:
314,281,175051,2,0,P|333:253|352:223,1,66.7725005603771
512,359,175265,2,0,P|461:334|374:313,1,133.545001120754,10|0,0:0|0:0,0:0:0:0:
386,314,175587,1,0,3:0:0:0:
168,376,175694,2,0,B|134:275|268:308|235:207,1,200.317501681131,2|0,1:0|0:0,0:0:0:0:
103,106,176122,6,0,B|7:94|7:94|14:103|14:103|38:106,1,126.253748073521,10|0,0:0|0:0,0:0:0:0:
113,116,176551,1,2,1:0:0:0:
318,20,176765,5,2,0:0:0:0:
263,72,176872,1,2,0:0:0:0:
294,142,176980,1,10,0:0:0:0:
294,142,177194,1,2,0:0:0:0:
452,230,177408,5,2,1:0:0:0:
426,237,177515,1,0,3:0:0:0:
398,309,177622,5,2,3:0:0:0:
374,295,177729,1,0,3:0:0:0:
309,331,177837,5,10,0:0:0:0:
301,304,177944,1,0,3:0:0:0:
229,283,178051,5,2,3:0:0:0:
242,258,178158,1,0,3:0:0:0:
335,208,178265,5,2,1:0:0:0:
75,65,178480,1,2,0:0:0:0:
80,138,178587,2,0,P|71:101|66:63,1,66.7725005603771,2|8,0:0|0:0,0:0:0:0:
234,129,178801,1,2,0:0:0:0:
229,202,178908,2,0,P|237:165|243:127,1,66.7725005603771,2|0,0:0|3:0,0:0:0:0:
342,294,179122,2,0,B|454:318|501:228|434:159|388:204,1,233.70375196132,2|0,1:0|0:0,0:0:0:0:
397,197,179551,2,0,P|411:225|448:217,1,66.7725005603771,8|0,0:0|0:0,0:0:0:0:
494,129,179765,1,0,3:0:0:0:
261,318,179980,5,2,1:0:0:0:
248,314,180087,1,2,0:0:0:0:
236,309,180194,1,2,0:0:0:0:
225,301,180301,1,2,0:0:0:0:
156,341,180408,5,10,0:0:0:0:
148,322,180515,1,2,0:0:0:0:
145,304,180622,1,2,0:0:0:0:
145,284,180729,1,2,0:0:0:0:
64,254,180837,5,2,1:0:0:0:
76,233,180944,1,2,0:0:0:0:
92,218,181051,1,2,0:0:0:0:
110,204,181158,1,2,0:0:0:0:
76,111,181265,5,10,0:0:0:0:
109,106,181372,1,2,0:0:0:0:
138,113,181479,1,2,0:0:0:0:
169,123,181586,1,2,0:0:0:0:
224,44,181694,5,2,1:0:0:0:
253,74,181801,1,2,0:0:0:0:
265,108,181908,1,2,0:0:0:0:
278,149,182015,1,2,0:0:0:0:
333,222,182122,5,10,0:0:0:0:
348,235,182229,1,2,0:0:0:0:
366,241,182336,1,2,0:0:0:0:
386,240,182443,1,2,0:0:0:0:
436,306,182551,5,2,1:0:0:0:
455,291,182658,1,2,0:0:0:0:
467,270,182765,1,2,0:0:0:0:
472,246,182872,1,2,0:0:0:0:
415,149,182980,5,8,0:0:0:0:
413,135,183051,1,0,3:0:0:0:
411,122,183122,1,0,3:0:0:0:
409,104,183194,2,0,L|414:55,2,44.5150003735847,0|0|0,3:0|3:0|3:0,0:0:0:0:
476,10,183408,1,8,0:1:0:0:
239,176,183622,5,10,0:0:0:0:
166,170,183730,1,0,0:0:0:0:
126,108,183837,2,0,P|134:70|139:32,1,74.447501760767,10|0,0:0|0:0,0:0:0:0:
239,176,184051,2,0,P|233:212|225:249,1,74.447501760767,10|0,0:0|0:0,0:0:0:0:
43,308,184265,2,0,P|78:294|126:280,1,74.447501760767,8|0,0:0|0:0,0:0:0:0:
359,343,184480,2,0,P|323:354|288:367,1,74.447501760767,8|0,0:0|0:0,0:0:0:0:
468,221,184694,2,0,B|483:188|452:157|452:157|468:188|452:221,1,111.671252641151,8|0,0:0|0:0,0:0:0:0:
391,235,184908,1,8,0:0:0:0:
189,91,185122,6,0,L|117:78,1,49.6316678405113,8|0,0:0|0:0,0:0:0:0:
241,165,185265,1,8,0:0:0:0:
228,165,185337,2,0,P|206:109|286:49,1,148.895003521534,10|8,0:0|0:0,0:0:0:0:
431,89,185658,6,0,P|396:109|381:142,1,74.447501760767,2|0,3:0|3:0,0:0:0:0:
337,331,185872,2,0,P|338:290|318:260,1,74.447501760767,2|8,3:0|0:0,0:0:0:0:
321,263,186087,1,8,0:0:0:0:
191,296,186194,2,0,P|225:304|268:317,1,74.447501760767,10|8,0:0|0:0,0:0:0:0:
106,161,186408,5,10,0:0:0:0:
119,187,186479,1,0,3:0:0:0:
120,216,186550,1,0,3:0:0:0:
108,243,186622,2,0,L|58:256,3,34.2816650450669,0|0|0|4,3:0|3:0|3:0|3:2,0:0:0:0:
241,143,190265,6,0,B|205:56|291:20|291:20|371:68|324:148|324:148|410:112|446:199|446:199|398:279|314:252|314:252|141:201|242:366|49:320|49:320|88:259|162:287,1,1010.02998458817,2|0,0:0|0:0,0:0:0:0:
335,355,193694,5,2,0:0:0:0:
101,120,193908,2,0,P|104:83|112:40,1,72.5287517707215,2|0,0:0|0:0,0:0:0:0:
173,7,194337,5,2,0:0:0:0:
361,275,194551,2,0,P|324:278|281:286,1,72.5287517707215,2|0,0:0|0:0,0:0:0:0:
252,348,194980,5,2,0:0:0:0:
445,138,195194,2,0,P|439:102|435:66,1,72.5287517707215,2|0,0:0|0:0,0:0:0:0:
482,9,195622,5,2,0:0:0:0:
168,238,195837,1,2,0:0:0:0:
56,203,196908,6,0,L|33:198,2,13.8150003372803
146,198,197122,6,0,B|159:262|108:317|30:301|30:301|101:336|206:265|206:265|311:195|434:305|303:404|274:326,1,663.120016189454,2|0,0:0|0:0,0:0:0:0:
464,54,202265,5,2,0:0:0:0:
446,129,202480,1,0,0:0:0:0:
71,330,202694,5,2,0:0:0:0:
53,255,202909,1,0,0:0:0:0:
405,339,203122,5,2,0:0:0:0:
465,289,203337,1,2,0:0:0:0:
467,274,203444,1,2,0:0:0:0:
470,259,203551,1,2,0:0:0:0:
413,205,203765,1,0,0:0:0:0:
257,346,203980,5,2,0:0:0:0:
258,267,204194,1,0,0:0:0:0:
103,93,204408,5,2,0:0:0:0:
33,71,204622,1,0,0:0:0:0:
258,184,204837,5,2,0:0:0:0:
328,162,205051,1,0,0:0:0:0:
105,275,205265,5,2,0:0:0:0:
35,253,205479,1,0,0:0:0:0:
193,119,205694,5,2,0:0:0:0:
207,40,205908,1,0,0:0:0:0:
483,194,206122,5,2,0:0:0:0:
469,273,206336,1,0,0:0:0:0:
365,47,206551,5,2,0:0:0:0:
254,217,206765,1,2,0:0:0:0:
255,231,206872,2,0,P|277:241|310:244,1,41.4450010118408,2|0,0:0|0:0,0:0:0:0:
357,204,207194,1,0,0:0:0:0:
141,355,207408,6,0,L|152:296,1,41.4450010118408,2|0,0:0|0:0,0:0:0:0:
49,135,207837,5,2,0:0:0:0:
93,197,208051,1,2,0:0:0:0:
168,189,208265,1,2,0:0:0:0:
268,69,208480,1,2,0:0:0:0:
265,54,208587,1,2,0:0:0:0:
261,39,208694,1,2,0:0:0:0:
220,130,208908,1,2,0:0:0:0:
442,129,209122,5,2,0:0:0:0:
417,141,209265,1,0,0:0:0:0:
411,168,209408,1,0,0:0:0:0:
484,271,209551,5,2,0:0:0:0:
487,243,209694,1,0,0:0:0:0:
467,224,209837,1,0,0:0:0:0:
341,237,209980,5,2,0:0:0:0:
363,254,210123,1,0,0:0:0:0:
389,247,210266,1,0,0:0:0:0:
411,168,210408,5,2,0:0:0:0:
124,197,210837,5,2,0:0:0:0:
149,209,210980,1,0,0:0:0:0:
155,236,211123,1,0,0:0:0:0:
82,339,211266,5,2,0:0:0:0:
79,311,211409,1,0,0:0:0:0:
99,292,211552,1,0,0:0:0:0:
225,305,211695,5,2,0:0:0:0:
203,322,211838,1,0,0:0:0:0:
177,315,211981,1,0,0:0:0:0:
155,236,212123,5,2,0:0:0:0:
293,136,212337,1,0,0:0:0:0:
147,39,212551,2,0,L|88:29,1,41.4450010118408,2|0,0:0|0:0,0:0:0:0:
201,150,212980,5,2,0:0:0:0:
230,77,213194,1,2,0:0:0:0:
305,54,213408,1,2,0:0:0:0:
454,174,213622,5,2,0:0:0:0:
424,91,213837,1,2,0:0:0:0:
458,163,214051,1,2,0:0:0:0:
428,80,214266,1,2,0:0:0:0:
21,321,215765,6,0,L|19:343,2,13.0475000796356
21,321,216194,1,0,0:0:0:0:
104,268,216408,5,2,0:0:0:0:
23,202,216622,1,2,0:0:0:0:
163,154,216837,1,2,0:0:0:0:
15,58,217051,2,0,P|43:49|75:34,1,59.0974988277168,10|0,0:1|0:0,0:0:0:0:
253,103,217265,5,10,0:0:0:0:
212,34,217372,1,8,0:0:0:0:
262,104,217480,5,10,0:0:0:0:
238,180,217587,1,8,0:0:0:0:
353,293,217694,6,0,B|426:295|453:230|453:230|444:299|498:329|498:329|493:300|466:298,1,292.417497769032,6|0,1:2|3:0,0:0:0:0:
416,364,218122,1,8,1:2:0:0:
113,164,218337,2,0,P|151:136|203:160,1,89.7975003425503,2|0,0:0|0:0,0:0:0:0:
103,266,218551,2,0,P|87:177|68:89,1,179.595000685101,2|0,1:2|0:0,0:0:0:0:
68,89,218872,1,0,3:0:0:0:
192,155,218980,5,8,1:2:0:0:
264,160,219087,1,0,3:0:0:0:
316,102,219194,1,0,3:0:0:0:
220,23,219301,5,0,3:0:0:0:
346,178,219408,2,0,B|315:268|436:238|406:328,1,179.595000685101,0|0,1:0|0:0,0:0:0:0:
406,327,219730,1,0,3:0:0:0:
88,213,219837,2,0,B|80:246|53:269|53:269|86:279|110:304,1,134.696250513825,10|0,1:2|0:0,0:0:0:0:
159,243,220051,2,0,L|257:227,1,89.7975003425503,2|0,0:2|0:2,0:0:0:0:
415,51,220265,2,0,B|422:84|449:107|449:107|430:148|392:142,1,134.696250513825,2|0,1:2|0:0,0:0:0:0:
346,84,220479,2,0,L|248:68,1,89.7975003425503,2|0,0:2|0:2,0:0:0:0:
97,47,220694,5,10,1:2:0:0:
99,64,220801,1,0,3:0:0:0:
120,141,220908,5,2,3:2:0:0:
123,158,221015,1,0,3:0:0:0:
22,172,221122,6,0,P|109:186|295:250,1,269.392501027651,0|0,1:0|3:0,0:0:0:0:
460,158,221551,2,0,P|451:215|361:194,1,134.696250513825,8|0,1:2|0:0,0:0:0:0:
371,221,221765,2,0,P|423:238|459:215,1,89.7975003425503
487,73,221980,5,0,1:0:0:0:
490,55,222087,1,0,3:0:0:0:
347,84,222194,1,0,3:0:0:0:
344,102,222301,1,0,3:0:0:0:
451,223,222408,5,8,1:2:0:0:
425,141,222515,1,0,3:0:0:0:
341,282,222622,2,0,P|298:298|264:263,1,89.7975003425503,2|0,0:3|0:0,0:0:0:0:
230,147,222837,6,0,B|240:115|201:92|201:92|167:194|303:160|269:262,1,269.392501027651,0|0,1:0|3:0,0:0:0:0:
39,334,223265,2,0,P|88:315|121:337,1,89.7975003425503,10|0,1:2|0:0,0:0:0:0:
117,332,223480,1,0,0:0:0:0:
12,123,223694,2,0,P|3:165|31:198,1,89.7975003425503,2|0,1:2|0:0,0:0:0:0:
118,143,223908,1,0,3:0:0:0:
112,122,224015,1,0,3:0:0:0:
137,49,224122,2,0,P|189:23|240:73,1,134.696250513825,10|0,1:2|0:0,0:0:0:0:
230,147,224337,1,0,3:0:0:0:
230,147,224551,5,2,1:2:0:0:
304,171,224694,1,2,0:2:0:0:
218,160,224837,1,2,0:2:0:0:
357,115,224980,5,10,1:2:0:0:
168,221,225123,1,2,0:2:0:0:
369,122,225266,1,2,0:2:0:0:
376,322,225408,5,2,1:2:0:0:
231,93,225551,1,2,0:2:0:0:
102,331,225694,1,2,0:2:0:0:
229,243,225837,5,10,1:2:0:0:
229,243,226051,1,0,3:2:0:0:
490,0,226265,5,2,1:2:0:0:
418,22,226408,1,2,0:2:0:0:
395,93,226551,1,2,0:2:0:0:
452,156,226694,6,0,P|483:175|517:174,1,59.8650002283669,10|0,1:2|0:2,0:0:0:0:
347,160,226837,2,0,P|349:196|369:223,1,59.8650002283669,2|0,0:2|0:2,0:0:0:0:
290,72,226980,2,0,P|261:95|250:126,1,59.8650002283669,2|0,0:2|0:2,0:0:0:0:
204,254,227122,6,0,P|235:234|269:236,1,59.8650002283669,2|0,1:2|0:2,0:0:0:0:
99,250,227265,2,0,P|101:213|121:186,1,59.8650002283669,2|0,0:2|0:2,0:0:0:0:
42,338,227408,2,0,P|13:314|2:283,1,59.8650002283669,2|0,0:2|0:2,0:0:0:0:
207,364,227551,6,0,P|276:369|331:388,1,119.730000456734,10|0,1:2|0:0,0:0:0:0:
323,384,227765,6,0,P|370:383|397:338,1,78.7966651036225,0|0,3:0|0:0,0:0:0:0:
365,276,227980,6,0,B|426:259|462:312|462:312|455:246|409:256,1,194.944998512688,0|0,1:0|0:0,0:0:0:0:
415,254,228301,1,0,3:0:0:0:
166,337,228408,2,0,P|137:276|202:229,1,134.696250513825,10|0,1:2|0:0,0:0:0:0:
269,222,228622,2,0,L|174:237,1,89.7975003425503,2|0,0:0|0:0,0:0:0:0:
25,1,228837,2,0,P|-4:62|61:109,1,134.696250513825,2|0,1:0|0:0,0:0:0:0:
128,116,229051,2,0,L|33:101,1,89.7975003425503,2|0,0:0|3:0,0:0:0:0:
263,37,229265,5,10,1:2:0:0:
266,55,229372,1,0,3:0:0:0:
189,160,229480,1,2,3:2:0:0:
186,178,229587,1,0,3:0:0:0:
292,247,229694,1,10,0:3:0:0:
292,247,230122,6,0,P|299:219|293:247,2,87.4949989319458,2|2|2,0:3|0:3|3:3,0:0:0:0:
450,203,230765,1,2,0:3:0:0:
457,197,230872,2,0,P|446:169|453:198,1,87.4949989319458,2|0,0:3|3:3,0:0:0:0:
384,275,231194,5,2,3:0:0:0:
389,292,231301,1,0,3:0:0:0:
327,344,231408,6,0,P|264:328|23:293,1,292.417497769032,6|0,1:2|3:0,0:0:0:0:
110,384,231837,1,8,1:2:0:0:
285,150,232051,2,0,P|251:120|281:153,1,134.696250513825,2|0,0:0|0:0,0:0:0:0:
316,115,232265,2,0,B|289:85|234:81|202:135|202:135|170:189|114:185|88:155,1,269.392501027651,2|0,1:2|3:0,0:0:0:0:
297,230,232694,5,8,1:2:0:0:
348,279,232801,1,0,3:0:0:0:
344,351,232908,1,0,3:0:0:0:
414,201,233015,5,0,3:0:0:0:
265,308,233122,2,0,B|150:293|150:293|150:293|156:288|156:288|214:295,1,179.595000685101,0|0,1:0|0:0,0:0:0:0:
211,295,233444,1,0,3:0:0:0:
71,203,233551,2,0,P|60:156|43:104,1,89.7975003425503,10|0,1:2|0:2,0:0:0:0:
303,188,233765,2,0,P|292:141|275:89,1,89.7975003425503,2|0,0:2|0:2,0:0:0:0:
400,370,233980,2,0,P|411:323|428:271,1,89.7975003425503,2|0,1:2|0:2,0:0:0:0:
168,355,234194,2,0,P|179:308|196:256,1,89.7975003425503,2|0,0:2|0:2,0:0:0:0:
332,171,234408,5,10,1:2:0:0:
328,155,234515,1,0,3:0:0:0:
238,195,234622,1,2,3:2:0:0:
243,179,234729,1,0,3:0:0:0:
320,281,234837,6,0,B|414:366|508:306|482:203|414:221,1,269.392501027651,0|0,1:0|3:0,0:0:0:0:
311,286,235265,2,0,P|268:284|214:277,1,89.7975003425503,8|0,1:2|0:0,0:0:0:0:
44,114,235480,2,0,P|88:119|133:121,1,89.7975003425503
270,25,235694,5,0,1:0:0:0:
258,40,235801,1,0,3:0:0:0:
298,140,235908,5,0,3:0:0:0:
291,121,236015,1,0,3:0:0:0:
206,127,236122,5,8,1:2:0:0:
354,52,236229,1,0,3:0:0:0:
206,127,236337,2,0,P|196:183|273:201,1,134.696250513825,2|0,0:3|0:0,0:0:0:0:
337,216,236551,6,0,B|325:189|354:167|354:167|373:214|313:256|313:256|367:307|341:351,1,269.392501027651,0|0,1:0|3:0,0:0:0:0:
114,314,236980,2,0,P|157:330|209:360,1,89.7975003425503,10|0,1:2|0:0,0:0:0:0:
271,323,237194,1,0,0:0:0:0:
70,104,237408,2,0,P|64:149|46:206,1,89.7975003425503,2|0,1:2|0:0,0:0:0:0:
14,290,237622,1,0,3:0:0:0:
0,300,237729,1,0,3:0:0:0:
216,180,237837,2,0,P|261:172|346:140,1,134.696250513825,10|0,1:2|0:0,0:0:0:0:
380,71,238051,1,0,3:0:0:0:
380,71,238265,5,2,1:2:0:0:
423,135,238408,1,2,0:2:0:0:
369,67,238551,1,2,0:2:0:0:
500,148,238694,5,10,1:2:0:0:
292,52,238837,1,2,0:2:0:0:
509,136,238980,1,2,0:2:0:0:
264,265,239122,5,2,1:2:0:0:
400,84,239265,1,2,0:2:0:0:
512,278,239408,1,2,0:2:0:0:
387,211,239551,5,10,1:2:0:0:
387,211,239765,1,0,3:2:0:0:
203,323,239980,5,2,1:2:0:0:
138,285,240122,1,2,0:2:0:0:
122,212,240265,1,2,0:2:0:0:
258,52,240408,5,10,1:2:0:0:
260,127,240550,1,2,0:2:0:0:
206,179,240693,1,2,0:2:0:0:
31,116,240837,6,0,B|-1:50|63:-14|63:-14|128:50|96:116,1,239.460000913467,2|2,1:2|0:2,0:0:0:0:
206,179,241265,5,10,1:2:0:0:
319,207,241408,1,2,0:2:0:0:
398,134,241551,1,2,0:2:0:0:
325,283,241694,6,0,B|317:316|357:340|357:340|381:300|357:272,3,144.289997798309,4|0|0|0,3:2|0:0|0:0|0:0,0:0:0:0:
80,134,243408,6,0,B|67:78|133:39|133:39|172:104|133:151,3,236.389995310867,4|0|0|0,3:2|0:0|0:0|0:0,0:0:0:0:
54,354,245122,6,0,L|46:287,1,54.108749174366,6|0,1:0|0:0,0:0:0:0:
56,289,245337,5,0,3:0:0:0:
77,286,245444,1,0,3:0:0:0:
98,283,245551,1,2,3:0:0:0:
313,356,245765,6,0,L|361:343,1,36.0724994495773,2|0,3:0|0:0,0:0:0:0:
437,117,245980,2,0,L|377:107,1,43.7474994659729,8|0,0:1|0:0,0:0:0:0:
169,72,246194,2,0,L|220:81,1,51.4224975676004,0|0,3:0|0:0,0:0:0:0:
421,280,246408,2,0,L|361:270,1,59.0974988277168,0|0,3:0|0:0,0:0:0:0:
153,236,246622,2,0,L|243:251,1,66.7725005603771,0|0,3:0|0:0,0:0:0:0:
303,163,246837,5,2,1:0:0:0:
99,301,247051,1,2,3:0:0:0:
72,265,247158,1,0,3:0:0:0:
74,220,247265,1,2,3:0:0:0:
240,49,247480,1,2,3:0:0:0:
410,292,247694,1,10,0:1:0:0:
410,292,248122,5,2,3:0:0:0:
415,255,248229,1,0,3:0:0:0:
420,218,248336,1,0,3:0:0:0:
426,181,248443,1,0,3:0:0:0:
431,144,248550,1,14,0:1:0:0:
431,144,248980,1,0,3:0:0:0:
431,144,249408,1,0,3:0:0:0:
431,144,249837,1,0,3:0:0:0:
151,80,250265,5,0,3:0:0:0:
301,207,250480,1,0,3:0:0:0:
324,177,250587,1,0,3:0:0:0:
328,139,250694,1,0,3:0:0:0:
249,144,250908,1,0,3:0:0:0:
408,332,251122,5,0,3:0:0:0:
357,273,251337,1,0,3:0:0:0:
333,303,251444,1,0,3:0:0:0:
329,340,251551,1,0,3:0:0:0:
408,332,251658,5,0,3:0:0:0:
447,266,251765,1,2,3:0:0:0:
378,177,251872,1,0,3:0:0:0:
468,65,251980,1,14,0:1:0:0:
60,206,254980,5,10,0:1:0:0:
137,231,255087,1,8,0:1:0:0:
208,150,255194,5,10,0:3:0:0:
75,281,255301,1,4,0:3:0:0:
208,150,255408,6,0,B|255:132|327:203|364:175|364:175|327:132|279:156|193:187|220:298|327:299,1,433.381658069924,6|0,1:0|0:0,0:0:0:0:
377,286,256265,2,0,P|371:265|357:246,2,39.3983325518112
441,330,256480,1,0,3:0:0:0:
447,319,256551,1,0,3:0:0:0:
451,309,256622,1,0,3:0:0:0:
454,297,256694,1,10,3:1:0:0:
194,256,257122,6,0,B|167:223|121:218|54:275|136:305|81:362|81:362|102:241|33:300|-5:244|-6:196|20:173,1,433.381658069924,10|0,1:2|0:0,0:0:0:0:
57,113,257980,2,0,P|74:126|86:146,2,39.3983325518112
40,37,258195,1,0,3:0:0:0:
52,34,258266,1,0,3:0:0:0:
62,34,258337,1,0,3:0:0:0:
74,37,258409,1,10,3:1:0:0:
232,235,258837,6,0,B|265:201|333:201|367:268|367:268|401:336|469:336|503:302|503:302|452:334|402:289|402:289,1,433.381658069924,10|0,1:2|0:0,0:0:0:0:
465,235,259694,2,0,L|460:193,2,39.3983325518112
386,150,259908,1,0,3:0:0:0:
387,138,259979,1,0,3:0:0:0:
388,126,260050,1,0,3:0:0:0:
390,114,260122,1,10,3:1:0:0:
123,189,260551,6,0,B|64:226|88:284|162:226|152:373|152:373|162:226|227:294|259:240|206:194,1,433.381658069924,10|0,1:2|0:0,0:0:0:0:
169,128,261408,2,0,L|174:82,2,39.3983325518112,8|8|8,0:3|0:3|0:3,0:0:0:0:
143,21,261622,1,4,0:3:0:0:
165,15,261693,1,4,0:3:0:0:
189,16,261764,1,4,0:3:0:0:
211,25,261836,1,14,0:3:0:0:
428,246,262265,5,12,0:1:0:0:
428,246,262694,5,2,3:0:0:0:
108,140,262908,1,2,3:0:0:0:
106,124,262980,1,0,3:0:0:0:
104,108,263051,1,0,3:0:0:0:
102,92,263122,1,2,3:0:0:0:
320,141,263337,1,10,0:0:0:0:
57,283,263551,1,10,0:0:0:0:
458,378,263765,1,10,0:1:0:0:
258,0,263980,1,10,0:1:0:0:
258,0,264408,5,8,0:1:0:0:
188,115,264515,1,8,0:3:0:0:
265,161,264622,1,4,0:3:0:0:
234,232,264730,1,12,0:3:0:0:
247,238,264837,6,0,B|272:305|197:364|137:288|179:225|179:225|108:250|49:175|124:115|188:157|188:157|162:86|238:27|297:102|255:166|255:166|327:140|386:216|310:275|247:233,1,865.739986789856,4|0,3:2|0:0,0:0:0:0:
