osu file format v14

[General]
AudioFilename: audio.mp3
AudioLeadIn: 0
PreviewTime: 113735
Countdown: 0
SampleSet: Soft
StackLeniency: 0.7
Mode: 0
LetterboxInBreaks: 0
WidescreenStoryboard: 1

[Editor]
DistanceSpacing: 1.2
BeatDivisor: 4
GridSize: 32
TimelineZoom: 2.1

[Metadata]
Title:Ookami Otoko
TitleUnicode:オオカミ男
Artist:KikuoHana
ArtistUnicode:きくおはな
Creator:SMOKELIND
Version:frozz's Hard
Source:
Tags:hanatan 花たん yurica ユリカ 第一幕 1 first act daiichi maku japanese Jazz Rock hanatan 花たん yurica ユリカ 第一幕 1 first act daiichi maku japanese Jazz Rock Kiyoshi Guarden Nymphe Kang Sae-byeok frozz -Keqing
BeatmapID:3502986
BeatmapSetID:1691329

[Difficulty]
HPDrainRate:5
CircleSize:4
OverallDifficulty:6
ApproachRate:8
SliderMultiplier:1.4
SliderTickRate:1

[Events]
//Background and Video events
0,0,"89149896.jpg",0,0
//Break Periods
2,155210,174410
//Storyboard Layer 0 (Background)
//Storyboard Layer 1 (Fail)
//Storyboard Layer 2 (Pass)
//Storyboard Layer 3 (Foreground)
//Storyboard Layer 4 (Overlay)
//Storyboard Sound Samples

[TimingPoints]
1610,300,4,2,77,17,1,0
21910,-100,4,2,77,67,0,0
23210,-100,4,2,77,77,0,0
44810,-100,4,2,77,47,0,0
47210,-125,4,2,77,57,0,0
63410,-125,4,2,77,77,0,0
64510,-125,4,2,77,67,0,0
64910,-125,4,2,77,77,0,0
65310,-125,4,2,77,27,0,0
66410,-90.9090909090909,4,2,77,87,0,0
83710,-95.2380952380952,4,2,77,87,0,0
84310,-100,4,2,77,87,0,0
85010,-95.2380952380952,4,2,77,87,0,0
85610,-90.9090909090909,4,2,77,87,0,0
103060,-90.9090909090909,4,2,77,47,0,0
103310,-90.9090909090909,4,2,77,87,0,0
103610,-90.9090909090909,4,2,77,67,0,0
104710,-100,4,2,77,67,0,0
109610,-100,4,2,77,77,0,0
110110,-100,4,2,77,67,0,0
110510,-100,4,2,77,77,0,0
111010,-100,4,2,77,67,0,0
112010,-100,4,2,77,77,0,0
112510,-100,4,2,77,67,0,0
112910,-100,4,2,77,77,0,0
113735,-100,4,2,77,27,0,0
114410,-125,4,2,77,47,0,0
123910,-125,4,2,77,67,0,0
128710,-111.111111111111,4,2,77,77,0,0
129010,-111.111111111111,4,2,77,47,0,0
129610,-111.111111111111,4,2,77,77,0,0
130210,-111.111111111111,4,2,77,47,0,0
130810,-111.111111111111,4,2,77,77,0,0
131110,-111.111111111111,4,2,77,67,0,0
132410,-111.111111111111,4,2,77,77,0,0
132710,-111.111111111111,4,2,77,67,0,0
132910,-111.111111111111,4,2,77,77,0,0
133610,-125,4,2,77,47,0,0
150410,-111.111111111111,4,2,77,77,0,0
150910,-111.111111111111,4,2,77,47,0,0
151310,-111.111111111111,4,2,77,77,0,0
151610,-111.111111111111,4,2,77,47,0,0
152810,-99.9999999999999,4,2,77,77,0,0
153110,-99.9999999999999,4,2,77,47,0,0
153710,-99.9999999999999,4,2,77,77,0,0
154010,-99.9999999999999,4,2,77,17,0,0
175510,-99.9999999999999,4,2,77,67,0,0
176810,-90.9090909090909,4,2,77,87,0,0
194110,-95.2380952380952,4,2,77,87,0,0
194710,-100,4,2,77,87,0,0
195410,-95.2380952380952,4,2,77,87,0,0
196010,-90.9090909090909,4,2,77,87,0,0
214009,-90.9090909090909,4,2,77,67,0,0
215110,-100,4,2,77,67,0,0
220009,-100,4,2,77,77,0,0
220509,-100,4,2,77,67,0,0
220909,-100,4,2,77,77,0,0
221409,-100,4,2,77,67,0,0
222409,-100,4,2,77,77,0,0
222909,-100,4,2,77,67,0,0
223309,-100,4,2,77,77,0,0
223610,-100,4,2,77,47,0,0
224810,-100,4,2,77,57,0,0
227210,-100,4,2,77,77,0,0
241610,-125,4,2,77,67,0,0
246410,-100,4,2,77,67,0,0
247510,-100,4,2,777,67,0,0
247610,-100,4,2,77,5,0,0

[Colours]
Combo1 : 191,191,255
Combo2 : 233,233,233

[HitObjects]
394,81,21910,5,8,0:0:0:0:
394,81,22010,2,0,P|348:72|304:56,1,93.3333333333333,8|8,0:0|0:0,0:0:0:0:
343,203,22510,1,8,0:3:0:0:
445,298,22810,1,4,0:3:0:0:
445,298,22910,1,0,1:0:0:0:
386,367,23110,5,8,0:0:0:0:
386,367,23210,2,0,P|333:337|228:326,1,140,6|0,1:0|0:0,0:0:0:0:
118,356,23710,1,0,0:0:0:0:
118,356,23810,2,0,B|60:325|86:261|86:261|135:247,1,140,8|2,0:0|0:0,0:0:0:0:
76,158,24310,6,0,P|143:177|211:191,1,140,2|8,1:0|0:0,0:0:0:0:
211,191,24710,1,2,1:3:0:0:
120,33,25010,2,0,P|187:52|255:66,1,140,8|0,0:0|0:0,0:0:0:0:
433,10,25610,6,0,B|393:37|393:37|426:161,1,140,2|0,1:0|0:0,0:0:0:0:
512,209,26110,1,0,0:0:0:0:
512,209,26210,2,0,P|451:226|388:280,1,140,8|2,0:0|0:0,0:0:0:0:
294,347,26710,6,0,P|289:286|302:200,1,140,2|8,1:0|0:0,0:0:0:0:
299,208,27110,1,2,1:3:0:0:
147,343,27410,2,0,P|142:282|155:196,1,140,8|0,0:0|0:0,0:0:0:0:
60,124,27910,5,8,0:0:0:0:
60,124,28010,2,0,P|121:116|143:27,1,140,2|0,1:0|0:0,0:0:0:0:
254,4,28510,1,0,0:0:0:0:
254,4,28610,2,0,L|232:160,1,140,8|2,0:0|0:0,0:0:0:0:
352,207,29110,5,0,1:0:0:0:
352,207,29210,2,0,L|405:196,1,46.6666666666667,2|0,0:0|0:0,0:0:0:0:
471,167,29410,2,0,P|493:107|438:59,1,140,8|0,0:0|0:0,0:0:0:0:
361,62,29810,2,0,P|393:174|402:222,1,140,14|0,0:0|0:0,0:0:0:0:
512,246,30310,6,0,B|469:307|454:369|454:369|428:344|377:336,1,186.666666666667,6|0,1:0|0:0,0:0:0:0:
285,239,31010,2,0,P|232:216|250:129,1,140,8|0,0:0|0:0,0:0:0:0:
175,47,31510,5,8,0:0:0:0:
175,47,31610,2,0,P|118:26|63:34,1,93.3333333333333,0|8,0:0|0:0,0:0:0:0:
86,27,31910,1,0,1:0:0:0:
17,94,32110,1,8,0:0:0:0:
17,94,32210,2,0,P|27:159|30:208,1,93.3333333333333,8|8,0:0|0:3,0:0:0:0:
29,186,32510,1,4,0:3:0:0:
124,333,32810,6,0,B|197:317|172:386|269:361,1,140,6|0,1:0|0:0,0:0:0:0:
321,267,33310,1,0,0:0:0:0:
321,267,33410,2,0,L|300:105,1,140,8|2,0:0|0:0,0:0:0:0:
380,41,33910,6,0,P|441:52|445:134,1,140,2|8,1:0|0:0,0:0:0:0:
454,120,34310,1,2,1:3:0:0:
512,234,34610,2,0,P|501:295|419:299,1,140,8|0,0:0|0:0,0:0:0:0:
321,267,35210,6,0,P|249:248|158:238,1,140,2|0,1:0|0:0,0:0:0:0:
64,279,35710,1,0,0:0:0:0:
64,279,35810,2,0,P|18:245|37:154,1,140,8|2,0:0|0:0,0:0:0:0:
0,68,36310,6,0,B|48:17|48:17|146:62,1,140,2|8,1:0|0:0,0:0:0:0:
111,46,36710,1,2,1:3:0:0:
237,31,36910,1,0,0:0:0:0:
237,31,37010,2,0,P|219:95|208:141,1,93.3333333333333,8|4,0:0|0:3,0:0:0:0:
212,121,37310,1,4,0:3:0:0:
284,214,37510,5,8,0:0:0:0:
284,214,37610,2,0,B|211:198|236:267|139:242,1,140,6|0,1:0|0:0,0:0:0:0:
48,179,38110,1,0,0:0:0:0:
48,179,38210,2,0,P|-10:214|17:292,1,140,8|2,0:0|0:0,0:0:0:0:
94,368,38710,5,0,1:0:0:0:
94,368,38810,2,0,L|155:355,1,46.6666666666667,2|0,0:0|0:0,0:0:0:0:
208,319,39010,2,0,P|262:325|357:356,1,140,8|0,0:0|0:0,0:0:0:0:
412,314,39410,2,0,P|454:249|410:196,1,140,10|2,1:2|3:0,0:0:0:0:
437,106,39910,6,0,B|372:121|372:121|366:127|366:127|269:149,1,140,6|0,1:0|3:0,0:0:0:0:
302,141,40310,1,8,0:0:0:0:
217,94,40510,1,4,1:0:0:0:
83,145,40810,1,4,0:3:0:0:
83,145,40910,2,0,P|104:204|112:249,1,93.3333333333333,4|8,0:3|0:0,0:0:0:0:
175,282,41210,6,0,P|154:341|146:386,1,93.3333333333333,4|0,1:0|3:0,0:0:0:0:
147,371,41510,1,8,0:0:0:0:
39,353,41710,2,0,P|-13:318|13:240,1,140,4|4,1:0|0:3,0:0:0:0:
0,249,42110,1,8,0:3:0:0:
83,145,42410,6,0,L|186:158,1,93.3333333333333,2|8,1:3|0:0,0:0:0:0:
175,156,42710,1,8,0:0:0:0:
253,93,42910,1,4,1:0:0:0:
214,268,43210,5,8,0:3:0:0:
214,268,43310,2,0,P|268:257|315:228,1,93.3333333333333,2|0,1:3|3:0,0:0:0:0:
302,239,43610,1,8,0:0:0:0:
344,155,43810,1,6,1:0:0:0:
402,317,44110,5,4,0:3:0:0:
402,317,44210,2,0,P|425:289|438:255,2,46.6666666666667,4|8|8,0:3|0:3|0:3,0:0:0:0:
456,310,44510,2,0,P|468:275|468:239,2,46.6666666666667,8|0|12,0:3|1:0|0:0,0:0:0:0:
393,93,45010,5,0,0:0:0:0:
393,93,45110,2,0,B|335:122|335:122|332:127|332:127|258:163,2,140,2|2|2,0:0|0:0|0:0,0:0:0:0:
464,198,45910,1,2,0:0:0:0:
464,198,46010,2,0,P|496:157|484:107,1,93.3333333333333,2|2,0:0|0:0,0:0:0:0:
344,155,46510,2,0,P|330:239|315:347,1,186.666666666667,2|4,0:0|0:3,0:0:0:0:
159,367,47210,6,0,P|100:342|105:279,1,112,6|0,1:0|0:0,0:0:0:0:
182,225,47710,1,0,3:0:0:0:
182,225,47810,2,0,L|152:86,1,112,10|0,0:0|0:0,0:0:0:0:
223,41,48410,2,0,P|189:7|108:17,1,112,2|0,1:0|0:0,0:0:0:0:
39,79,48910,1,0,3:0:0:0:
39,79,49010,2,0,P|24:129|-9:213,1,112,10|0,0:0|0:0,0:0:0:0:
19,289,49510,6,0,B|55:334|55:334|140:292,1,149.333333333333,2|0,1:3|0:0,0:0:0:0:
246,166,50210,1,8,0:0:0:0:
341,224,50410,1,0,1:0:0:0:
341,224,50510,1,0,0:0:0:0:
402,153,50710,2,0,L|376:41,1,112,8|0,0:0|3:0,0:0:0:0:
382,30,51110,1,0,1:0:0:0:
501,34,51310,1,2,0:3:0:0:
501,34,51410,2,0,L|484:127,1,74.6666666666667,8|0,0:0|1:0,0:0:0:0:
494,120,51710,1,6,0:0:0:0:
461,242,51910,5,0,1:0:0:0:
461,242,52010,2,0,P|402:263|383:333,1,112,2|0,0:0|0:0,0:0:0:0:
294,357,52510,1,0,1:0:0:0:
294,357,52610,2,0,L|182:339,1,112,10|0,0:0|0:0,0:0:0:0:
75,243,53210,2,0,P|118:233|148:157,1,112,2|0,1:0|0:0,0:0:0:0:
252,142,53710,1,0,3:0:0:0:
252,142,53810,2,0,L|233:21,1,112,10|0,0:0|0:0,0:0:0:0:
343,14,54310,6,0,B|411:4|411:4|486:63,1,149.333333333333,2|0,1:3|0:0,0:0:0:0:
351,206,55010,1,8,0:0:0:0:
404,302,55210,1,0,3:0:0:0:
404,302,55310,1,0,0:0:0:0:
318,364,55510,2,0,L|200:337,1,112,4|0,0:3|3:0,0:0:0:0:
197,342,55910,1,2,1:0:0:0:
116,275,56110,1,2,0:3:0:0:
116,275,56210,2,0,P|88:235|91:189,1,74.6666666666667,10|2,0:0|1:0,0:0:0:0:
165,73,56710,5,14,0:0:0:0:
165,73,56810,2,0,L|249:54,1,74.6666666666667,0|0,1:0|3:0,0:0:0:0:
251,60,57110,1,0,1:0:0:0:
327,145,57310,1,0,3:0:0:0:
327,145,57410,2,0,L|298:271,1,112,8|0,0:0|0:0,0:0:0:0:
366,360,58010,2,0,L|449:308,1,74.6666666666667,0|0,1:0|3:0,0:0:0:0:
447,316,58310,1,2,1:0:0:0:
459,208,58510,1,0,3:0:0:0:
459,208,58610,2,0,P|468:168|492:135,1,74.6666666666667,10|2,0:0|3:2,0:0:0:0:
407,44,59110,6,0,L|285:69,2,112,2|2|2,1:3|0:0|1:0,0:0:0:0:
419,50,59810,1,8,0:0:0:0:
349,155,60010,1,0,3:0:0:0:
349,155,60110,2,0,P|329:190|314:247,1,74.6666666666667,2|0,0:0|3:0,0:0:0:0:
324,241,60410,2,0,L|345:337,2,74.6666666666667,2|2|0,0:0|3:2|0:0,0:0:0:0:
239,172,61010,2,0,P|196:142|174:110,1,74.6666666666667,8|2,0:0|1:0,0:0:0:0:
90,22,61510,6,0,L|55:271,1,224,2|0,1:3|1:0,0:0:0:0:
60,262,62210,1,6,0:0:0:0:
172,380,62510,1,2,1:0:0:0:
272,272,62810,2,0,P|326:264|397:245,1,112,2|0,1:3|1:0,0:0:0:0:
486,299,63310,1,0,3:0:0:0:
486,299,63410,2,0,P|502:343|481:375,1,74.6666666666667,10|4,0:0|0:3,0:0:0:0:
386,353,63910,5,10,0:0:0:0:
386,353,64010,2,0,L|405:264,1,74.6666666666667,8|4,0:0|1:0,0:0:0:0:
463,177,64510,1,8,0:3:0:0:
463,177,64610,2,0,P|501:159|522:160,2,37.3333333333333,4|4|4,0:3|0:3|0:3,0:0:0:0:
430,174,64910,2,0,P|374:163|336:147,1,74.6666666666667,8|8,0:0|0:0,0:0:0:0:
0,192,65810,5,0,0:0:0:0:
0,192,66410,6,0,B|80:176|62:248|146:222,1,154.000004699707,6|0,1:0|0:0,0:0:0:0:
242,151,66910,1,0,1:0:0:0:
242,151,67010,2,0,L|222:25,1,102.666669799805,10|0,0:0|0:0,0:0:0:0:
235,41,67310,2,0,L|361:61,1,102.666669799805,0|0,0:0|1:0,0:0:0:0:
345,75,67610,6,0,P|438:73|445:1,1,154.000004699707,2|0,1:0|0:0,0:0:0:0:
501,142,68110,1,2,1:0:0:0:
501,142,68210,2,0,P|485:235|474:313,1,154.000004699707,8|2,0:0|1:0,0:0:0:0:
370,381,68810,6,0,P|330:333|259:342,1,102.666669799805,2|0,1:0|0:0,0:0:0:0:
281,337,69110,1,2,0:0:0:0:
179,267,69310,1,2,1:0:0:0:
179,267,69410,1,8,0:0:0:0:
86,340,69610,1,2,1:0:0:0:
86,340,69710,1,2,0:0:0:0:
12,255,69910,6,0,B|-4:175|68:193|42:109,1,154.000004699707,2|8,1:0|0:0,0:0:0:0:
31,101,70310,1,2,1:3:0:0:
199,116,70610,2,0,B|242:139|303:101|294:22|209:33|212:80,1,154.000004699707,10|0,0:0|0:0,0:0:0:0:
85,0,71210,6,0,P|110:73|131:180,1,154.000004699707,2|0,1:0|0:0,0:0:0:0:
218,212,71710,1,0,0:0:0:0:
218,212,71810,2,0,L|337:192,1,102.666669799805,10|0,0:0|0:0,0:0:0:0:
327,207,72110,2,0,L|307:326,1,102.666669799805,0|0,0:0|1:0,0:0:0:0:
314,324,72410,6,0,P|392:316|399:221,1,154.000004699707,2|0,1:0|0:0,0:0:0:0:
461,152,72910,1,2,1:0:0:0:
461,152,73010,2,0,B|430:45|430:45|469:71,1,154.000004699707,8|2,0:0|1:0,0:0:0:0:
337,148,73610,6,0,P|266:141|257:58,1,154.000004699707,2|0,1:0|0:0,0:0:0:0:
148,24,74110,1,2,1:0:0:0:
148,24,74210,2,0,P|133:80|98:175,1,154.000004699707,8|2,0:0|0:0,0:0:0:0:
161,265,74710,5,2,1:0:0:0:
161,265,74810,1,2,0:0:0:0:
78,363,75010,1,8,0:0:0:0:
78,363,75110,2,0,P|144:341|235:328,1,154.000004699707,2|8,1:3|0:0,0:0:0:0:
310,238,75610,1,8,0:3:0:0:
310,238,75710,1,8,0:3:0:0:
406,324,75910,5,8,0:0:0:0:
406,324,76010,2,0,P|463:295|445:204,1,154.000004699707,6|0,1:0|0:0,0:0:0:0:
403,124,76510,1,2,1:0:0:0:
403,124,76610,2,0,L|427:16,1,102.666669799805,8|2,0:0|1:0,0:0:0:0:
421,11,76910,1,0,0:0:0:0:
292,58,77110,5,2,1:0:0:0:
292,58,77210,2,0,P|229:75|172:105,1,102.666669799805,0|8,0:0|0:0,0:0:0:0:
190,97,77510,1,0,1:0:0:0:
279,181,77710,1,0,1:0:0:0:
279,181,77810,2,0,P|252:252|235:344,1,154.000004699707,8|2,0:0|0:0,0:0:0:0:
77,383,78410,6,0,P|18:356|25:264,1,154.000004699707,2|0,1:0|0:0,0:0:0:0:
81,180,78910,1,2,1:0:0:0:
81,180,79010,2,0,P|70:123|56:70,1,102.666669799805,8|2,0:0|0:0,0:0:0:0:
53,69,79310,1,0,0:0:0:0:
179,92,79510,5,2,1:0:0:0:
179,92,79610,2,0,P|230:68|296:18,1,102.666669799805,0|8,0:0|0:0,0:0:0:0:
277,31,79910,1,2,1:3:0:0:
394,58,80110,1,0,1:0:0:0:
394,58,80210,1,10,0:0:0:0:
386,176,80410,1,8,0:3:0:0:
386,176,80510,1,4,0:3:0:0:
498,216,80710,5,8,0:0:0:0:
498,216,80810,2,0,P|481:295|467:379,1,154.000004699707,6|0,1:0|0:0,0:0:0:0:
354,289,81310,2,0,B|238:253|270:358|155:321,1,205.33333959961,14|2,0:0|1:0,0:0:0:0:
36,183,82010,6,0,B|68:74|68:74|13:120,1,154.000004699707,2|0,1:0|0:0,0:0:0:0:
163,142,82510,2,0,P|215:135|239:28,1,154.000004699707,14|0,0:0|1:0,0:0:0:0:
269,30,82910,2,0,P|302:18|339:17,2,51.3333348999024,2|8|10,1:0|0:0|0:0,0:0:0:0:
249,49,83210,6,0,P|323:84|378:125,1,102.666669799805,4|8,1:0|0:0,0:0:0:0:
349,104,83510,1,8,0:0:0:0:
255,188,83710,6,0,P|297:250|322:307,1,97.9999970092774,4|0,1:0|0:0,0:0:0:0:
309,277,84010,1,8,0:0:0:0:
311,287,84110,1,8,0:0:0:0:
160,262,84310,6,0,P|165:336|158:399,1,93.3333333333333,4|0,1:0|0:0,0:0:0:0:
161,366,84610,1,8,0:0:0:0:
158,376,84710,1,8,0:0:0:0:
34,317,84910,5,4,1:0:0:0:
34,317,85010,2,0,P|14:264|35:228,1,97.9999970092774,2|4,0:0|0:3,0:0:0:0:
46,227,85310,1,4,0:3:0:0:
21,115,85510,5,8,0:0:0:0:
21,115,85610,2,2,B|101:99|83:171|167:145,1,154.000004699707,6|0,1:0|0:0,0:0:0:0:
274,242,86110,1,0,1:0:0:0:
274,242,86210,2,0,L|242:365,1,102.666669799805,10|0,0:0|0:0,0:0:0:0:
261,359,86510,2,0,L|384:327,1,102.666669799805,0|0,0:0|1:0,0:0:0:0:
380,348,86810,6,0,P|448:322|434:239,1,154.000004699707,2|0,1:0|0:0,0:0:0:0:
467,135,87310,1,2,1:0:0:0:
467,135,87410,2,0,P|445:67|521:22,1,154.000004699707,8|2,0:0|1:0,0:0:0:0:
348,174,88010,6,0,P|282:162|167:153,1,154.000004699707,2|0,1:0|0:0,0:0:0:0:
118,80,88510,1,2,1:0:0:0:
118,80,88610,1,8,0:0:0:0:
35,158,88810,1,2,1:0:0:0:
35,158,88910,1,2,0:0:0:0:
87,263,89110,5,2,1:0:0:0:
87,263,89210,2,0,L|72:374,1,102.666669799805,0|8,0:0|0:0,0:0:0:0:
73,378,89510,1,2,1:3:0:0:
196,335,89710,1,0,0:0:0:0:
196,335,89810,2,0,B|233:344|253:323|250:315|268:257|327:250|384:288|368:356,1,205.33333959961,10|0,0:0|0:0,0:0:0:0:
512,384,90410,6,0,P|461:321|511:245,1,154.000004699707,2|0,1:0|0:0,0:0:0:0:
386,163,90910,1,0,1:0:0:0:
386,163,91010,2,0,P|321:186|218:221,1,154.000004699707,10|0,0:0|0:0,0:0:0:0:
104,123,91610,2,0,P|169:100|272:65,1,154.000004699707,2|0,1:0|0:0,0:0:0:0:
341,1,92110,1,2,1:0:0:0:
341,1,92210,2,0,P|388:0|428:89,1,154.000004699707,8|2,0:0|1:0,0:0:0:0:
512,236,92810,6,0,P|487:313|468:403,1,154.000004699707,2|0,1:0|0:0,0:0:0:0:
353,322,93310,1,2,1:0:0:0:
353,322,93410,1,8,0:0:0:0:
250,375,93610,1,0,0:0:0:0:
250,375,93710,1,2,0:0:0:0:
146,301,93910,6,0,P|77:321|32:344,1,102.666669799805,2|0,1:0|0:0,0:0:0:0:
41,343,94210,1,8,0:0:0:0:
64,226,94510,1,0,1:0:0:0:
64,226,94610,2,0,P|44:157|21:112,1,102.666669799805,8|8,0:0|0:3,0:0:0:0:
22,121,94910,1,8,0:3:0:0:
116,36,95110,5,8,0:0:0:0:
116,36,95210,2,0,B|205:24|166:101|264:82,1,154.000004699707,6|0,1:0|0:0,0:0:0:0:
373,26,95710,1,2,1:0:0:0:
373,26,95810,2,0,P|412:69|459:104,1,102.666669799805,8|2,0:0|0:0,0:0:0:0:
460,103,96110,1,0,0:0:0:0:
382,206,96310,6,0,B|370:295|447:256|428:354,1,154.000004699707,2|8,1:0|0:0,0:0:0:0:
423,357,96710,1,0,1:0:0:0:
311,308,96910,1,0,1:0:0:0:
311,308,97010,2,0,P|239:311|211:388,1,154.000004699707,8|2,0:0|0:0,0:0:0:0:
53,311,97610,6,0,P|30:198|14:143,1,154.000004699707,2|0,1:0|0:0,0:0:0:0:
98,69,98110,1,2,1:0:0:0:
98,69,98210,2,0,P|149:91|196:102,1,102.666669799805,8|2,0:0|0:0,0:0:0:0:
206,102,98510,1,0,0:0:0:0:
295,171,98710,5,2,1:0:0:0:
295,171,98810,2,0,P|318:120|360:59,1,102.666669799805,0|8,0:0|0:0,0:0:0:0:
349,73,99110,1,2,1:3:0:0:
446,19,99310,1,0,1:0:0:0:
446,19,99410,2,0,L|468:134,1,102.666669799805,10|8,0:0|0:3,0:0:0:0:
472,137,99710,1,4,0:3:0:0:
420,245,99910,5,8,0:0:0:0:
420,245,100010,2,0,P|351:277|298:349,1,154.000004699707,6|0,1:0|0:0,0:0:0:0:
180,384,100510,2,0,B|151:274|259:306|224:192,1,205.33333959961,14|2,0:0|1:0,0:0:0:0:
62,36,101210,6,0,P|0:62|5:147,1,154.000004699707,2|0,1:0|0:0,0:0:0:0:
76,236,101710,2,0,P|144:215|241:193,1,154.000004699707,14|0,0:0|1:0,0:0:0:0:
236,178,102110,2,0,P|250:136|250:102,2,51.3333348999024,2|8|10,1:0|0:0|0:0,0:0:0:0:
224,196,102410,6,0,P|285:218|331:242,1,102.666669799805,8|8,0:0|0:0,0:0:0:0:
463,145,102910,1,4,0:3:0:0:
463,145,103010,2,0,P|453:87|383:99,1,102.666669799805,8|8,0:3|0:3,0:0:0:0:
405,65,103310,2,0,P|383:126|359:172,1,102.666669799805,8|8,0:0|0:0,0:0:0:0:
366,159,104410,6,0,L|382:228,1,51.3333348999024,8|4,0:3|0:3,0:0:0:0:
302,287,104710,2,0,P|226:292|220:362,1,140,6|0,1:0|0:0,0:0:0:0:
199,353,105110,2,0,B|125:342|146:405|63:381,2,140
91,261,105910,6,0,B|44:221|55:152|117:149|149:221,1,186.666666666667,4|2,1:0|0:0,0:0:0:0:
324,269,106610,2,0,P|304:327|296:385,1,93.3333333333333,2|8,0:0|0:3,0:0:0:0:
299,378,106910,1,8,0:0:0:0:
408,348,107110,6,0,P|475:300|454:242,1,140,6|0,1:0|0:0,0:0:0:0:
443,249,107510,2,0,B|432:175|495:196|471:113,1,140
382,42,108010,1,0,0:0:0:0:
382,42,108110,1,0,0:0:0:0:
299,123,108310,6,0,B|191:150|191:150|199:196,1,140,2|8,1:0|0:3,0:0:0:0:
37,166,108910,1,0,1:0:0:0:
37,166,109010,2,0,L|55:67,1,93.3333333333333,8|8,0:0|0:3,0:0:0:0:
52,56,109310,2,0,P|29:32|-8:19,2,46.6666666666667,8|4|4,0:3|0:3|0:3,0:0:0:0:
53,74,109610,6,0,L|153:49,1,93.3333333333333,12|12,0:2|0:2,0:0:0:0:
244,147,110110,1,8,0:3:0:0:
244,147,110210,2,0,P|238:206|184:230,1,93.3333333333333,4|0,0:3|3:0,0:0:0:0:
189,224,110510,2,0,L|164:124,1,93.3333333333333,12|12,0:0|0:0,0:0:0:0:
324,46,111010,6,0,L|355:-6,1,46.6666666666667,8|4,0:3|0:3,0:0:0:0:
406,139,111310,2,0,L|458:109,1,46.6666666666667,4|12,0:3|0:3,0:0:0:0:
430,219,111560,2,0,L|490:219,2,35,12|12|8,0:3|0:3|0:3,0:0:0:0:
393,239,111785,1,8,0:3:0:0:
386,376,112010,6,0,L|275:362,1,93.3333333333333,12|12,0:2|0:2,0:0:0:0:
160,313,112510,1,8,0:3:0:0:
160,313,112610,2,0,P|134:271|153:212,1,93.3333333333333,4|0,0:3|3:0,0:0:0:0:
153,221,112910,2,0,L|264:235,1,93.3333333333333,12|12,0:0|0:0,0:0:0:0:
256,223,113210,6,0,B|225:159|277:75|386:88|370:205|319:197,1,245,0|0,0:0|1:0,0:0:0:0:
331,195,114410,6,0,P|265:183|203:175,1,112,6|0,3:2|3:0,0:0:0:0:
128,89,114910,2,0,P|183:81|238:70,1,112
383,14,115510,2,0,B|449:70|449:70|441:151|441:151|418:164|418:164|412:250|412:250|511:318,1,373.333333333333,2|0,0:0|3:0,0:0:0:0:
307,372,116810,6,0,P|243:338|203:388,1,112,2|0,3:2|3:0,0:0:0:0:
100,360,117310,2,0,P|66:296|116:256,1,112
217,173,117910,2,0,B|187:113|204:43|204:43|165:100|74:106,1,261.333333333333,2|0,0:0|3:0,0:0:0:0:
9,145,118810,2,0,L|-4:95,1,37.3333333333333,8|0,0:0|3:0,0:0:0:0:
176,241,119210,6,0,P|235:223|306:212,1,112,2|0,3:2|3:0,0:0:0:0:
371,142,119710,2,0,P|315:131|262:115,1,112
380,20,120310,2,0,P|436:6|511:-1,1,112,2|0,0:2|0:0,0:0:0:0:
491,118,120910,2,0,P|505:174|512:249,1,112
385,332,121510,6,0,B|329:210|138:206|52:306|139:434|280:349,1,485.333333333333,2|0,0:0|3:0,0:0:0:0:
345,253,123010,2,0,L|326:128,1,112,8|0,0:0|1:0,0:0:0:0:
331,132,123410,1,4,0:3:0:0:
370,44,123610,2,0,L|333:35,1,37.3333333333333,8|8,0:0|0:0,0:0:0:0:
166,68,123910,6,0,P|116:95|45:113,1,112,4|8,1:0|0:0,0:0:0:0:
50,108,124310,1,8,0:0:0:0:
0,191,124510,2,0,P|50:218|121:236,1,112,4|8,1:0|0:0,0:0:0:0:
116,231,124910,1,8,0:0:0:0:
221,244,125110,6,0,P|208:293|195:369,1,112,4|8,1:0|0:0,0:0:0:0:
197,366,125510,1,8,0:0:0:0:
296,383,125710,2,0,P|309:334|322:258,1,112,4|8,1:0|0:3,0:0:0:0:
320,261,126110,1,8,0:3:0:0:
290,166,126310,5,4,1:0:0:0:
413,113,126610,1,8,0:0:0:0:
413,113,126710,1,8,0:0:0:0:
507,93,126910,5,4,1:0:0:0:
355,38,127210,1,8,0:0:0:0:
355,38,127310,1,8,0:0:0:0:
256,78,127510,6,0,P|196:89|161:106,1,74.6666666666667,4|0,1:0|0:0,0:0:0:0:
172,107,127810,2,0,P|121:91|80:84,1,74.6666666666667,8|0,0:0|0:0,0:0:0:0:
93,90,128110,1,4,1:0:0:0:
85,93,128210,2,0,L|112:217,1,112,4|12,0:3|0:3,0:0:0:0:
84,340,128710,6,0,P|138:293|209:289,1,125.999996154785,4|2,1:0|0:0,0:0:0:0:
204,289,129110,2,0,P|247:284|233:216,1,125.999996154785,2|2,0:0|0:0,0:0:0:0:
168,122,129610,2,0,P|224:111|278:89,1,83.9999974365235,4|0,1:0|0:0,0:0:0:0:
267,92,129910,2,0,P|334:92|408:140,1,125.999996154785,4|2,1:0|0:0,0:0:0:0:
400,124,130310,2,0,P|427:173|376:215,1,125.999996154785,2|2,0:0|0:0,0:0:0:0:
320,311,130810,1,8,0:3:0:0:
320,311,130910,1,8,0:0:0:0:
431,374,131110,6,0,P|445:313|477:248,1,125.999996154785,4|0,1:0|3:0,0:0:0:0:
481,254,131510,1,8,0:0:0:0:
512,151,131710,1,4,1:0:0:0:
512,151,131810,2,0,P|499:104|481:66,1,83.9999974365235,0|0,0:0|3:0,0:0:0:0:
475,66,132110,1,8,0:0:0:0:
365,46,132310,5,4,0:3:0:0:
365,46,132410,2,0,L|263:63,1,83.9999974365235,12|4,0:0|0:3,0:0:0:0:
270,56,132710,1,12,0:3:0:0:
196,145,132910,2,0,L|219:287,1,125.999996154785,12|12,0:0|0:0,0:0:0:0:
369,363,133610,6,0,P|430:336|411:219,1,186.666666666667,4|2,2:0|0:0,0:0:0:0:
303,145,134410,1,2,0:0:0:0:
428,55,134710,1,2,0:0:0:0:
428,55,134810,2,0,P|442:106|473:160,2,112
303,145,135710,1,2,0:0:0:0:
174,63,136010,6,0,P|100:88|108:199,1,186.666666666667,2|2,0:0|0:0,0:0:0:0:
205,273,136810,1,2,0:0:0:0:
109,356,137110,1,2,0:0:0:0:
109,356,137210,2,0,P|51:364|-6:383,2,112
195,382,138010,1,0,3:0:0:0:
195,382,138110,1,2,0:0:0:0:
290,306,138410,6,0,P|342:318|408:348,1,112,2|0,0:0|0:0,0:0:0:0:
434,251,138910,2,0,P|382:239|316:209,1,112,2|2,0:0|0:0,0:0:0:0:
208,118,139510,2,0,P|223:169|230:241,1,112,2|2,0:0|0:0,0:0:0:0:
206,380,140110,2,0,P|242:340|301:298,1,112,2|2,0:0|0:0,0:0:0:0:
434,251,140710,5,2,0:0:0:0:
434,251,140810,2,0,B|473:128|473:128|431:62,2,186.666666666667
289,305,142010,2,0,B|166:266|166:266|100:308,1,186.666666666667
113,311,142610,1,8,0:3:0:0:
1,210,142910,1,2,3:2:0:0:
87,75,143210,6,0,P|146:56|214:102,1,149.333333333333,2|0,1:0|0:0,0:0:0:0:
210,111,143710,1,2,0:0:0:0:
206,120,143810,2,0,P|222:169|231:219,1,74.6666666666667,0|2,3:0|0:0,0:0:0:0:
368,124,144310,1,2,1:0:0:0:
368,124,144410,2,0,L|383:34,1,74.6666666666667,0|0,0:0|1:0,0:0:0:0:
400,54,144710,2,0,L|490:69,1,74.6666666666667
473,77,145010,1,0,3:0:0:0:
381,213,145310,1,2,0:0:0:0:
439,365,145610,6,0,P|380:384|312:338,1,149.333333333333,2|0,1:0|0:0,0:0:0:0:
316,329,146110,1,2,0:0:0:0:
320,320,146210,2,0,P|304:271|295:221,1,74.6666666666667,0|0,3:0|0:0,0:0:0:0:
177,200,146710,1,2,1:0:0:0:
177,200,146810,2,0,L|86:214,1,74.6666666666667,0|0,0:0|1:0,0:0:0:0:
86,234,147110,2,0,L|100:325,1,74.6666666666667
117,317,147410,1,0,3:0:0:0:
247,48,148010,6,0,P|268:104|274:176,1,112,2|0,1:0|0:0,0:0:0:0:
280,293,148610,2,0,P|318:246|378:205,1,112,2|0,3:2|1:0,0:0:0:0:
476,141,149210,2,0,P|416:131|350:100,1,112,2|0,1:0|0:0,0:0:0:0:
296,46,149710,1,2,0:0:0:0:
296,46,149810,2,0,P|242:45|193:106,1,112,2|2,3:0|0:0,0:0:0:0:
72,114,150410,6,0,P|91:161|109:224,1,83.9999974365235,8|8,0:0|0:0,0:0:0:0:
52,345,150910,2,0,L|101:330,3,41.9999987182618,4|4|8|8,0:3|0:3|0:3|0:3,0:0:0:0:
139,341,151310,2,0,P|186:322|249:304,1,83.9999974365235,8|8,0:0|0:0,0:0:0:0:
431,317,152210,1,0,0:0:0:0:
431,317,152810,6,0,P|437:265|450:198,1,93.3333333333333,8|8,0:0|0:0,0:0:0:0:
480,58,153310,2,0,L|427:74,3,46.6666666666667,8|8|0|0,0:3|0:3|1:0|1:0,0:0:0:0:
400,89,153710,2,0,P|348:83|281:70,1,93.3333333333333,8|8,0:0|0:0,0:0:0:0:
44,201,175510,5,8,0:0:0:0:
44,201,175610,2,0,P|24:132|8:87,1,93.3333333333333,8|8,0:0|0:0,0:0:0:0:
161,234,176110,2,0,B|233:217|224:276|311:257,1,140,4|12,0:3|0:3,0:0:0:0:
302,249,176510,1,0,1:0:0:0:
393,351,176710,5,8,0:0:0:0:
393,351,176810,2,0,P|405:275|429:191,1,154.000004699707,6|0,1:0|0:0,0:0:0:0:
462,42,177310,1,0,1:0:0:0:
462,42,177410,2,0,P|406:27|359:0,1,102.666669799805,10|0,0:0|0:0,0:0:0:0:
302,37,177710,2,0,P|316:86|318:137,1,102.666669799805,0|0,0:0|1:0,0:0:0:0:
250,167,178010,6,0,P|170:162|176:84,1,154.000004699707,2|0,1:0|0:0,0:0:0:0:
39,21,178510,1,2,1:0:0:0:
39,21,178610,2,0,B|-5:62|-5:62|28:196,1,154.000004699707,8|2,0:0|1:0,0:0:0:0:
19,309,179210,6,0,P|57:265|107:262,1,102.666669799805,2|0,1:0|0:0,0:0:0:0:
109,267,179510,1,2,0:0:0:0:
203,335,179710,1,2,1:0:0:0:
200,352,179810,1,8,0:0:0:0:
309,272,180010,1,2,1:0:0:0:
312,255,180110,1,2,0:0:0:0:
397,372,180310,6,0,P|461:336|443:257,1,154.000004699707,2|8,1:0|0:0,0:0:0:0:
437,261,180710,1,2,1:3:0:0:
485,134,180910,1,0,0:0:0:0:
485,134,181010,2,0,B|466:77|501:13|501:13|466:68|377:67,1,256.666674499512,10|0,0:0|0:0,0:0:0:0:
313,37,181610,6,0,P|248:39|252:147,1,154.000004699707,2|0,1:0|0:0,0:0:0:0:
266,234,182110,1,0,0:0:0:0:
266,234,182210,2,0,P|214:257|157:286,1,102.666669799805,10|0,0:0|0:0,0:0:0:0:
114,234,182510,2,0,P|119:178|123:113,1,102.666669799805,0|0,0:0|1:0,0:0:0:0:
66,82,182810,6,0,P|3:99|31:187,1,154.000004699707,2|0,1:0|0:0,0:0:0:0:
7,314,183310,1,2,1:0:0:0:
7,314,183410,2,0,B|33:342|33:342|180:295,1,154.000004699707,8|2,0:0|1:0,0:0:0:0:
239,149,184010,6,0,P|216:72|202:-7,1,154.000004699707,2|0,1:0|0:0,0:0:0:0:
334,53,184510,1,2,1:0:0:0:
334,53,184610,2,0,P|389:69|505:78,1,154.000004699707,8|2,0:0|0:0,0:0:0:0:
434,180,185110,5,2,1:0:0:0:
412,187,185210,1,2,0:0:0:0:
359,301,185410,1,8,0:0:0:0:
359,301,185510,2,0,P|289:280|195:268,1,154.000004699707,2|8,1:3|0:0,0:0:0:0:
86,320,186010,1,8,0:3:0:0:
84,342,186110,1,8,0:3:0:0:
14,213,186310,5,8,0:0:0:0:
14,213,186410,2,0,P|62:166|36:91,1,154.000004699707,6|0,1:0|0:0,0:0:0:0:
146,28,186910,1,2,1:0:0:0:
146,28,187010,2,0,P|206:53|272:67,1,102.666669799805,8|2,0:0|1:0,0:0:0:0:
261,64,187310,1,0,0:0:0:0:
344,138,187510,5,2,1:0:0:0:
344,138,187610,2,0,P|298:174|268:221,1,102.666669799805,0|8,0:0|0:0,0:0:0:0:
272,225,187910,1,0,1:0:0:0:
390,236,188110,1,0,1:0:0:0:
390,236,188210,2,0,P|365:313|352:411,1,154.000004699707,8|2,0:0|0:0,0:0:0:0:
508,261,188810,6,0,L|488:78,1,154.000004699707,2|0,1:0|0:0,0:0:0:0:
396,36,189310,1,2,1:0:0:0:
396,36,189410,2,0,P|336:61|282:100,1,102.666669799805,8|2,0:0|0:0,0:0:0:0:
299,95,189710,1,0,0:0:0:0:
182,134,189910,5,2,1:0:0:0:
182,134,190010,2,0,P|199:71|204:26,1,102.666669799805,0|8,0:0|0:0,0:0:0:0:
199,18,190310,1,2,1:3:0:0:
79,50,190510,1,0,1:0:0:0:
61,55,190610,1,10,0:0:0:0:
0,168,190810,1,8,0:3:0:0:
16,172,190910,1,4,0:3:0:0:
98,280,191110,5,8,0:0:0:0:
98,280,191210,2,0,P|183:304|272:348,1,154.000004699707,6|0,1:0|0:0,0:0:0:0:
360,275,191710,2,0,B|398:177|286:193|321:88,1,205.33333959961,14|2,0:0|1:0,0:0:0:0:
512,6,192410,6,0,P|492:77|472:180,1,154.000004699707,2|0,1:0|0:0,0:0:0:0:
450,296,192910,2,0,P|380:311|295:351,1,154.000004699707,14|0,0:0|1:0,0:0:0:0:
230,331,193310,2,0,L|158:320,2,51.3333348999024,2|8|10,1:0|0:0|0:0,0:0:0:0:
305,344,193610,6,0,P|348:269|357:213,1,102.666669799805,4|8,1:0|0:0,0:0:0:0:
348,240,193910,1,8,0:0:0:0:
224,227,194110,6,0,P|223:146|205:97,1,97.9999970092774,4|0,1:0|0:0,0:0:0:0:
210,123,194410,1,8,0:0:0:0:
200,112,194510,1,8,0:0:0:0:
112,172,194710,6,0,P|71:102|30:69,1,93.3333333333333,4|0,1:0|0:0,0:0:0:0:
48,88,195010,1,8,0:0:0:0:
33,84,195110,1,8,0:0:0:0:
12,206,195310,5,4,1:0:0:0:
6,227,195410,1,2,0:0:0:0:
73,339,195610,1,4,0:3:0:0:
66,359,195710,1,4,0:3:0:0:
208,302,195910,5,8,0:0:0:0:
208,302,196010,2,2,B|294:285|263:365|356:337,1,154.000004699707,6|0,1:0|0:0,0:0:0:0:
487,299,196510,1,0,1:0:0:0:
487,299,196610,2,0,P|498:235|516:176,1,102.666669799805,10|0,0:0|0:0,0:0:0:0:
448,156,196910,2,0,P|387:178|326:192,1,102.666669799805,0|0,0:0|1:0,0:0:0:0:
284,146,197210,6,0,P|301:73|381:74,1,154.000004699707,2|0,1:0|0:0,0:0:0:0:
503,14,197710,1,2,1:0:0:0:
503,14,197810,2,0,B|473:45|473:45|500:175,1,154.000004699707,8|2,0:0|1:0,0:0:0:0:
416,328,198410,6,0,P|387:268|299:272,1,154.000004699707,2|0,1:0|0:0,0:0:0:0:
198,334,198910,1,2,1:0:0:0:
201,351,199010,1,8,0:0:0:0:
73,272,199210,1,2,1:0:0:0:
70,255,199310,1,2,0:0:0:0:
169,158,199510,6,0,P|152:92|232:54,1,154.000004699707,2|8,1:0|0:0,0:0:0:0:
227,57,199910,1,2,1:3:0:0:
363,144,200110,1,0,0:0:0:0:
363,144,200210,2,0,B|443:158|519:62|416:2|338:64,1,256.666674499512,10|0,0:0|0:0,0:0:0:0:
290,117,200810,6,0,P|272:171|240:274,1,154.000004699707,2|0,1:0|0:0,0:0:0:0:
110,360,201310,1,0,1:0:0:0:
110,360,201410,2,0,P|97:298|68:197,1,154.000004699707,10|0,0:0|0:0,0:0:0:0:
10,68,202010,6,0,P|92:37|169:0,1,154.000004699707,2|0,1:0|0:0,0:0:0:0:
266,81,202510,1,2,1:0:0:0:
266,81,202610,2,0,P|251:167|245:252,1,154.000004699707,8|2,0:0|1:0,0:0:0:0:
378,357,203210,6,0,P|437:337|484:328,1,102.666669799805,2|0,1:0|1:0,0:0:0:0:
445,212,203710,1,2,1:0:0:0:
445,212,203810,2,0,P|386:232|339:241,1,102.666669799805,8|0,0:0|0:0,0:0:0:0:
336,231,204110,1,2,0:0:0:0:
254,324,204310,6,0,P|195:305|80:295,1,154.000004699707,2|8,1:0|0:0,0:0:0:0:
92,301,204710,1,2,1:3:0:0:
32,204,204910,1,0,1:0:0:0:
25,181,205010,1,8,0:0:0:0:
151,136,205210,1,8,0:3:0:0:
155,114,205310,1,8,0:3:0:0:
296,94,205510,5,8,0:0:0:0:
296,94,205610,2,0,P|360:89|394:6,1,154.000004699707,6|0,1:0|0:0,0:0:0:0:
503,107,206110,1,2,1:0:0:0:
503,107,206210,2,0,P|482:174|467:276,1,154.000004699707,8|0,0:0|0:0,0:0:0:0:
362,358,206710,6,0,P|295:345|314:258,1,154.000004699707,2|8,1:0|0:0,0:0:0:0:
308,266,207110,1,0,1:0:0:0:
243,158,207310,1,0,1:0:0:0:
243,158,207410,2,0,P|310:145|291:58,1,154.000004699707,8|2,0:0|0:0,0:0:0:0:
174,39,208010,6,0,P|100:67|5:89,1,154.000004699707,2|0,1:0|0:0,0:0:0:0:
0,206,208510,1,2,1:0:0:0:
0,206,208610,2,0,P|56:218|106:238,1,102.666669799805,8|2,0:0|0:0,0:0:0:0:
103,244,208910,1,0,0:0:0:0:
222,335,209110,6,0,B|205:247|282:269|257:189,1,154.000004699707,2|8,1:0|0:0,0:0:0:0:
248,180,209510,1,2,1:3:0:0:
323,93,209710,1,0,1:0:0:0:
334,73,209810,1,10,0:0:0:0:
428,142,210010,1,8,0:3:0:0:
451,142,210110,1,4,0:3:0:0:
503,251,210310,5,8,0:0:0:0:
503,251,210410,2,0,P|444:257|447:346,1,154.000004699707,6|0,1:0|0:0,0:0:0:0:
300,377,210910,2,0,B|179:383|242:287|123:296,1,205.33333959961,14|2,0:0|1:0,0:0:0:0:
9,136,211610,6,0,P|37:66|111:62,1,154.000004699707,2|0,1:0|0:0,0:0:0:0:
225,121,212110,2,0,P|302:94|382:75,1,154.000004699707,14|0,0:0|1:0,0:0:0:0:
437,39,212510,2,0,P|464:8|493:-8,2,51.3333348999024,2|8|10,1:0|0:0|0:0,0:0:0:0:
372,76,212810,6,0,P|393:136|408:192,1,102.666669799805,8|8,0:0|0:0,0:0:0:0:
463,351,213310,1,4,0:3:0:0:
463,351,213410,2,0,P|501:304|476:264,1,102.666669799805,8|8,0:3|0:3,0:0:0:0:
462,267,213710,2,0,P|412:281|364:298,1,102.666669799805,8|8,0:0|0:0,0:0:0:0:
364,298,214810,6,0,L|349:366,1,51.3333348999024,8|4,0:3|0:3,0:0:0:0:
241,325,215110,2,0,P|165:320|159:250,1,140,6|0,1:0|0:0,0:0:0:0:
138,259,215510,2,0,B|64:270|85:207|2:231,2,140
186,149,216310,6,0,B|154:118|210:38|210:38|184:73|117:82,1,186.666666666667,4|2,1:0|0:0,0:0:0:0:
321,150,217010,2,0,P|380:128|421:77,1,93.3333333333333,2|8,0:0|0:3,0:0:0:0:
409,89,217310,1,8,0:0:0:0:
499,205,217510,6,0,P|477:275|402:272,1,140,6|0,1:0|0:0,0:0:0:0:
401,290,217910,2,0,B|327:279|348:342|265:318,1,140
179,255,218410,1,0,0:0:0:0:
179,255,218510,1,0,0:0:0:0:
86,336,218710,6,0,P|51:278|73:199,1,140,2|8,1:0|0:3,0:0:0:0:
154,109,219310,1,0,1:0:0:0:
154,109,219410,1,8,0:0:0:0:
67,43,219610,1,4,0:3:0:0:
67,43,219710,2,0,L|11:35,2,46.6666666666667,4|4|4,0:3|0:3|0:3,0:0:0:0:
140,30,220010,6,0,P|202:14|257:-8,1,93.3333333333333,12|12,0:0|0:0,0:0:0:0:
374,86,220510,1,4,0:3:0:0:
374,86,220610,2,0,P|342:48|292:50,1,93.3333333333333,4|0,0:3|3:0,0:0:0:0:
285,59,220910,2,0,P|301:121|323:176,1,93.3333333333333,12|12,0:0|0:0,0:0:0:0:
414,258,221410,1,0,1:0:0:0:
414,258,221510,2,0,L|363:277,3,35,8|8|8|8,0:0|0:0|0:0|0:0,0:0:0:0:
343,288,221810,2,0,L|292:307,3,35,8|8|8|8,0:0|0:0|0:0|0:0,0:0:0:0:
272,318,222110,2,0,L|221:337,3,35,8|8|8|8,0:0|0:0|0:0|0:0,0:0:0:0:
200,347,222410,6,0,P|135:323|75:318,1,93.3333333333333,12|12,0:0|0:0,0:0:0:0:
21,220,222910,1,4,0:3:0:0:
21,220,223010,2,0,P|64:208|83:162,1,93.3333333333333,8|0,0:3|3:0,0:0:0:0:
90,149,223310,2,0,P|114:84|119:24,1,93.3333333333333,12|12,0:0|0:0,0:0:0:0:
117,60,224810,6,0,P|173:53|201:89,1,93.3333333333333,4|0,0:3|3:0,0:0:0:0:
194,85,225110,1,0,3:0:0:0:
235,169,225310,2,0,P|316:153|302:89,1,140,8|0,0:0|3:0,0:0:0:0:
303,100,225710,1,8,0:3:0:0:
375,36,225910,1,0,3:0:0:0:
375,36,226010,2,0,P|423:29|447:88,1,93.3333333333333,0|8,3:0|0:0,0:0:0:0:
423,160,226510,1,0,3:0:0:0:
423,160,226610,2,0,P|413:189|428:218,3,46.6666666666667,4|0|0|8,0:3|0:0|3:0|0:0,0:0:0:0:
431,363,227210,6,0,P|357:322|279:314,1,140,6|0,1:0|0:0,0:0:0:0:
199,342,227710,1,2,0:0:0:0:
199,342,227810,2,0,P|151:303|186:253,1,93.3333333333333,8|2,0:0|0:0,0:0:0:0:
244,163,228310,1,2,1:0:0:0:
244,163,228410,2,0,P|228:111|219:51,1,93.3333333333333,0|8,0:0|0:0,0:0:0:0:
221,58,228710,1,2,1:3:0:0:
98,106,228910,1,0,0:0:0:0:
98,106,229010,2,0,P|32:81|39:16,1,140,8|0,0:0|0:0,0:0:0:0:
0,195,229610,6,0,P|19:250|38:340,1,140,2|0,1:0|0:0,0:0:0:0:
141,380,230110,1,2,0:0:0:0:
141,380,230210,2,0,P|186:352|193:309,1,93.3333333333333,8|2,0:0|0:0,0:0:0:0:
203,210,230710,1,2,1:0:0:0:
203,210,230810,1,0,0:0:0:0:
323,227,231010,1,8,0:0:0:0:
323,227,231110,2,0,P|390:229|435:308,2,140,2|8|0,1:3|0:0|0:0,0:0:0:0:
273,120,231910,5,8,0:0:0:0:
273,120,232010,2,0,P|338:100|404:49,1,140,2|0,1:0|0:0,0:0:0:0:
499,15,232510,1,2,0:0:0:0:
499,15,232610,2,0,P|471:76|480:137,1,93.3333333333333,8|2,0:0|0:0,0:0:0:0:
476,112,232910,1,0,0:0:0:0:
403,189,233110,5,2,1:0:0:0:
403,189,233210,1,0,0:0:0:0:
486,280,233410,1,10,0:0:0:0:
486,280,233510,1,0,1:0:0:0:
379,342,233710,1,2,0:0:0:0:
379,342,233810,2,0,P|311:358|263:385,1,93.3333333333333,10|0,0:0|0:0,0:0:0:0:
112,327,234310,5,6,1:0:0:0:
112,327,234410,2,0,P|64:299|105:222,1,140,0|0,1:0|0:0,0:0:0:0:
209,249,234910,2,0,B|247:150|143:169|180:72,1,186.666666666667,0|0,1:0|0:0,0:0:0:0:
279,21,235510,5,8,0:0:0:0:
279,21,235610,1,0,1:0:0:0:
350,107,235810,1,8,0:0:0:0:
350,107,235910,1,2,1:3:0:0:
443,57,236110,1,0,1:0:0:0:
443,57,236210,2,0,P|461:110|483:152,1,93.3333333333333,8|4,0:0|0:3,0:0:0:0:
486,152,236510,1,8,0:3:0:0:
410,268,236710,5,8,0:0:0:0:
410,268,236810,2,0,P|346:299|310:368,1,140,6|0,1:0|0:0,0:0:0:0:
210,351,237310,1,2,0:0:0:0:
210,351,237410,2,0,P|195:307|176:259,1,93.3333333333333,8|2,0:0|0:0,0:0:0:0:
165,248,237710,1,0,0:0:0:0:
255,180,237910,5,2,1:0:0:0:
255,180,238010,2,0,P|297:144|282:70,1,93.3333333333333,0|8,1:0|0:0,0:0:0:0:
297,95,238310,1,2,1:3:0:0:
193,40,238510,1,0,0:0:0:0:
193,40,238610,2,0,P|107:29|35:-2,1,140,8|0,0:0|0:0,0:0:0:0:
0,134,239210,6,0,P|16:178|34:240,1,93.3333333333333,2|0,1:0|1:0,0:0:0:0:
26,355,239710,1,2,0:0:0:0:
26,355,239810,2,0,P|76:326|126:305,1,93.3333333333333,8|2,0:0|0:0,0:0:0:0:
117,311,240110,1,0,0:0:0:0:
219,342,240310,5,2,1:0:0:0:
219,342,240410,2,0,P|284:328|321:306,1,93.3333333333333,0|8,1:0|0:0,0:0:0:0:
312,304,240710,1,2,1:3:0:0:
426,293,240910,1,0,0:0:0:0:
426,293,241010,1,8,0:0:0:0:
413,182,241210,1,8,0:3:0:0:
413,182,241310,1,4,0:3:0:0:
299,113,241510,5,8,0:0:0:0:
299,113,241610,2,0,B|364:103|352:3|352:3|359:61|399:80,1,224,6|2,1:0|1:0,0:0:0:0:
170,208,242810,2,0,B|125:205|92:170|92:170|124:209|110:277,1,186.666666666667,2|2,1:0|1:0,0:0:0:0:
256,384,243710,1,2,0:0:0:0:
377,230,244010,6,0,P|392:169|403:142,1,74.6666666666667,10|2,0:0|1:3,0:0:0:0:
189,279,244810,1,4,0:3:0:0:
189,279,244910,2,0,P|174:218|163:191,1,74.6666666666667,8|2,0:0|1:3,0:0:0:0:
256,384,246110,1,4,0:3:0:0:
169,207,246410,6,0,P|151:152|125:99,1,93.3333333333333,12|2,0:0|1:3,0:0:0:0:
412,108,247210,1,8,0:0:0:0:
412,108,247310,2,0,P|430:53|456:0,1,93.3333333333333,12|4,0:0|1:2,0:0:0:0:
