osu file format v14

[General]
AudioFilename: audio.mp3
AudioLeadIn: 0
PreviewTime: 242186
Countdown: 0
SampleSet: Soft
StackLeniency: 0.7
Mode: 2
LetterboxInBreaks: 0
WidescreenStoryboard: 1

[Editor]
DistanceSpacing: 1.4
BeatDivisor: 9
GridSize: 4
TimelineZoom: 3.399998

[Metadata]
Title:Nobore! Susume! Takai Tou
TitleUnicode:のぼれ!すすめ!高い塔
Artist:KikuoHana
ArtistUnicode:きくおはな
Creator:dika312
Version:The Grand Tower
Source:
Tags:きくお 花たん Hanatan YURiCa 第一幕 Daiichimaku SCGA-00045 jpop marathon japanese pop
BeatmapID:2084234
BeatmapSetID:545757

[Difficulty]
HPDrainRate:6
CircleSize:4
OverallDifficulty:9.3
ApproachRate:9.3
SliderMultiplier:1.9
SliderTickRate:1

[Events]
//Background and Video events
0,0,"tower.jpg",0,0
//Break Periods
//Storyboard Layer 0 (Background)
//Storyboard Layer 1 (Fail)
//Storyboard Layer 2 (Pass)
//Storyboard Layer 3 (Foreground)
//Storyboard Layer 4 (Overlay)
//Storyboard Sound Samples

[TimingPoints]
454,547.945205479452,4,2,1,15,1,0
454,-90.9090909090909,4,2,1,15,0,0
2097,545.454545454546,4,2,1,15,1,0
2908,555.555555555556,4,2,1,15,1,0
2908,-90.9090909090909,4,2,1,15,0,0
3463,545.454545454546,4,2,1,15,1,0
3463,-90.9090909090909,4,2,1,15,0,0
5099,545.454545454546,4,2,1,15,1,0
5099,-90.9090909090909,4,2,1,15,0,0
9158,422.535211267606,4,2,1,15,1,0
9158,-100,4,2,1,25,0,0
12561,422.535211267606,4,2,1,25,1,0
12750,422.535211267606,4,2,1,25,1,0
15390,-66.6666666666667,4,2,1,25,0,0
15919,-100,4,2,1,25,0,0
18876,-66.6666666666667,4,2,1,25,0,0
19193,-100,4,2,1,25,0,0
22045,-100,4,2,1,15,0,0
22257,-100,4,2,1,45,0,0
22362,-100,4,2,1,20,0,0
22468,-100,4,2,1,55,0,0
22573,-100,4,2,1,20,0,0
22679,-66.6666666666667,4,2,1,55,0,1
28595,-66.6666666666667,4,2,1,55,0,0
28806,-100,4,2,1,47,0,0
29017,-100,4,2,1,35,0,0
29228,-100,4,2,1,35,0,0
29440,-100,4,2,1,30,0,0
32186,-100,4,2,1,50,0,0
33031,-100,4,2,1,30,0,0
36411,-100,4,2,1,40,0,0
42538,-100,4,2,1,45,0,0
42750,-100,4,2,1,55,0,0
42961,-100,4,2,1,70,0,1
44862,-66.6666666666667,4,2,1,70,0,1
45285,-100,4,2,1,70,0,1
48876,-100,4,2,1,70,0,0
49088,-100,4,2,1,60,0,1
49299,-100,4,2,1,50,0,1
49510,-100,4,2,1,40,0,1
49721,-100,4,2,1,40,0,0
54792,-66.6666666666667,4,2,1,35,0,0
56693,-100,4,2,1,40,0,0
62609,-66.6666666666667,4,2,1,40,0,0
62820,-50,4,2,1,60,0,0
63137,-100,4,2,1,10,0,0
63242,-66.6666666666667,4,2,1,75,0,1
69158,-100,4,2,1,60,0,0
69369,-100,4,2,1,50,0,0
69580,-100,4,2,1,40,0,0
69792,-100,4,2,1,30,0,0
70003,-100,4,2,1,70,0,1
82679,-100,4,2,1,70,0,0
92601,-100,4,2,1,75,0,0
93665,-100,4,2,1,85,0,0
93876,-100,4,2,1,70,0,0
94510,-66.6666666666667,4,2,1,70,0,0
95144,-100,4,2,1,70,0,0
96623,-100,4,2,1,10,0,0
97045,-100,4,2,1,25,0,0
103806,-100,4,2,1,45,0,0
108876,-66.6666666666667,4,2,1,45,0,0
109721,-100,4,2,1,25,0,0
109933,-100,4,2,1,45,0,0
110144,-100,4,2,1,55,0,0
110355,-100,4,2,1,70,0,0
110566,-100,4,2,1,75,0,1
112468,-66.6666666666667,4,2,1,75,0,1
112890,-100,4,2,1,75,0,1
114158,-66.6666666666667,4,2,1,75,0,1
114369,-66.6666666666667,4,2,1,75,0,1
114792,-66.6666666666667,4,2,1,75,0,1
115214,-66.6666666666667,4,2,1,75,0,1
115637,-66.6666666666667,4,2,1,75,0,1
116693,-100,4,2,1,65,0,1
116904,-100,4,2,1,57,0,1
117116,-100,4,2,1,40,0,1
117327,-100,4,2,1,50,0,0
122820,-40,4,2,1,50,0,0
123242,-100,4,2,1,50,0,0
124299,-50,4,2,1,50,0,0
124510,-100,4,2,1,50,0,0
125144,-50,4,2,1,50,0,0
125355,-100,4,2,1,50,0,0
125989,-50,4,2,1,50,0,0
126200,-100,4,2,1,50,0,0
129581,-80,4,2,1,50,0,0
130003,-66.6666666666667,4,2,1,50,0,0
130214,-100,4,2,1,50,0,0
136341,-52.6315789473684,4,2,1,50,0,0
136764,-33.3333333333333,4,2,1,50,0,0
136974,-100,4,2,1,50,0,0
137820,-50,4,2,1,50,0,0
138031,-100,4,2,1,50,0,0
138665,-50,4,2,1,50,0,0
138877,-100,4,2,1,50,0,0
139510,-50,4,2,1,50,0,0
139722,-100,4,2,1,50,0,0
140355,-50,4,2,1,50,0,0
143947,-66.6666666666667,4,2,1,60,0,0
144053,-100,4,2,1,20,0,0
144158,-66.6666666666667,4,2,1,70,0,0
144264,-100,4,2,1,20,0,0
144369,-66.6666666666667,4,2,1,75,0,1
151552,-50,4,2,1,75,0,1
151869,-50,4,2,1,20,0,1
151975,-66.6666666666667,4,2,1,75,0,1
153243,-50,4,2,1,75,0,1
153560,-50,4,2,1,20,0,1
153665,-66.6666666666667,4,2,1,75,0,1
157045,-100,4,2,1,60,0,0
157257,-100,4,2,1,53,0,0
157468,-100,4,2,1,46,0,0
157679,-100,4,2,1,38,0,0
157890,-100,4,2,1,80,0,1
170144,-66.6666666666667,4,2,1,80,0,1
170566,-100,4,2,1,65,0,0
171411,-100,4,2,1,80,0,1
171729,-100,4,2,1,20,0,1
171834,-100,4,2,1,80,0,1
177327,-100,4,2,1,75,0,1
177380,-100,4,2,1,60,0,1
177750,-100,4,2,1,80,0,1
178595,-66.6666666666667,4,2,1,80,0,1
179229,-66.6666666666667,4,2,1,45,0,1
179440,-66.6666666666667,4,2,1,80,0,1
182398,-100,4,2,1,90,0,1
183242,-66.6666666666667,4,2,1,85,0,1
184088,-66.6666666666667,4,2,1,80,0,1
184510,-66.6666666666667,4,2,1,90,0,0
184616,-100,4,2,1,20,0,0
184721,-66.6666666666667,4,2,1,90,0,0
184827,-100,4,2,1,20,0,0
184933,-100,4,2,1,80,0,1
197820,-100,4,2,1,70,0,1
198031,-100,4,2,1,60,0,1
198243,-100,4,2,1,50,0,1
198454,-100,4,2,1,80,0,0
198665,-100,4,2,1,50,0,0
201623,-50,4,2,1,50,0,0
201834,-100,4,2,1,50,0,0
204792,-100,4,2,1,10,0,0
205215,-100,4,2,1,40,0,0
218524,-50,4,2,1,40,0,0
218947,-100,4,2,1,40,0,0
233806,-66.6666666666667,4,2,1,30,0,0
235637,-100,4,2,1,32,0,0
236060,-100,4,2,1,34,0,0
236482,-100,4,2,1,36,0,0
236905,-100,4,2,1,38,0,0
237327,-100,4,2,1,40,0,0
237750,-100,4,2,1,42,0,0
238172,-100,4,2,1,44,0,0
238595,-100,4,2,1,46,0,0
239017,-100,4,2,1,48,0,0
239440,-100,4,2,1,50,0,0
239862,-100,4,2,1,52,0,0
240285,-100,4,2,1,54,0,0
240637,-100,4,2,1,40,0,0
242398,547.945205479452,4,2,1,20,1,0
244863,-43.4782608695652,4,2,1,20,0,0
246777,545.454545454546,4,2,1,20,1,0
248942,512.820512820513,4,2,1,20,1,0
250049,545.454545454546,4,2,1,20,1,0
250049,-66.6666666666667,4,2,1,20,0,0
251670,545.454545454546,4,2,1,20,1,0
251670,-43.4782608695652,4,2,1,20,0,0
252079,-43.4782608695652,4,2,1,10,0,0
252215,-43.4782608695652,4,2,1,20,0,0
252624,-43.4782608695652,4,2,1,10,0,0
252760,-90.9090909090909,4,2,1,20,0,0
253851,-83.3333333333333,4,2,1,20,0,0
255760,-43.4782608695652,4,2,1,20,0,0
257670,-83.3333333333333,4,2,1,20,0,0
260398,410.958904109589,4,2,1,23,1,0
260603,476.190476190476,4,2,1,26,1,0
260841,340.909090909091,4,2,1,30,1,0
261011,410.958904109589,4,2,1,33,1,0
261216,340.909090909091,4,2,1,35,1,0
261386,410.958904109589,4,2,1,37,1,0
261591,340.909090909091,4,2,1,39,1,0
261761,410.958904109589,4,2,1,41,1,0
261966,451.127819548872,4,2,1,43,1,0
262193,422.535211267606,4,2,1,45,1,0
262409,405.405405405405,4,2,1,47,1,0
262611,483.870967741935,4,2,1,44,1,0
262973,-100,4,2,1,10,0,0
263124,576.923076923077,4,2,1,30,1,0
263124,-66.6666666666667,4,2,1,30,0,0
265431,-100,4,2,1,10,0,0
268584,422.535211267606,3,2,1,30,1,0
270274,422.535211267606,4,2,1,80,1,1
270274,-66.6666666666667,4,2,1,85,0,1
276400,-66.6666666666667,4,2,1,70,0,0
276612,-66.6666666666667,4,2,1,60,0,0
276823,-66.6666666666667,4,2,1,50,0,0
277034,-66.6666666666667,4,2,1,85,0,1
283161,-66.6666666666667,4,2,1,80,0,0
283372,-66.6666666666667,4,2,1,70,0,0
283583,-66.6666666666667,4,2,1,60,0,0
283795,-66.6666666666667,4,2,1,85,0,1
289921,-66.6666666666667,4,2,1,70,0,0
290133,-66.6666666666667,4,2,1,60,0,0
290344,-66.6666666666667,4,2,1,50,0,0
290555,-66.6666666666667,4,2,1,85,0,1
296788,-66.6666666666667,4,2,1,75,0,1
297263,-66.6666666666667,4,2,1,75,0,0
297316,-66.6666666666667,4,2,1,85,0,1
309992,-100,4,2,1,85,0,0

[Colours]
Combo1 : 148,106,170
Combo2 : 21,191,187
Combo3 : 56,146,199
Combo4 : 125,119,179

[HitObjects]
256,192,454,5,0,0:0:0:0:
144,192,727,1,2,0:3:0:0:
384,200,1001,1,2,0:0:0:0:
264,196,1275,2,0,L|144:196,1,104.500003189087
360,136,1823,5,2,0:3:0:0:
144,124,2097,1,2,0:0:0:0:
360,136,2369,1,0,0:0:0:0:
384,136,2424,1,0,0:0:0:0:
428,136,2533,1,2,0:3:0:0:
472,136,2642,1,0,0:0:0:0:
272,272,2908,6,0,L|136:272,1,104.500003189087,8|0,0:1|0:0,0:0:0:0:
384,200,3463,2,0,L|248:200,1,104.500003189087,8|0,0:1|0:0,0:0:0:0:
148,200,4008,5,8,0:1:0:0:
404,184,4281,1,8,0:1:0:0:
284,184,4553,2,0,L|204:184,2,52.2500015945435,0|2|0,0:0|0:3|0:0,0:0:0:0:
396,336,5099,5,2,0:3:0:0:
148,336,5371,1,2,0:0:0:0:
272,208,5644,1,0,0:0:0:0:
308,232,5735,1,0,0:0:0:0:
308,280,5800,1,2,0:3:0:0:
272,308,5878,1,0,0:0:0:0:
160,328,6189,5,2,0:3:0:0:
372,280,6462,1,2,0:0:0:0:
240,192,6735,1,0,0:0:0:0:
208,192,6795,1,0,0:0:0:0:
176,192,6856,1,2,0:3:0:0:
120,192,6977,1,0,0:0:0:0:
344,196,7280,6,0,L|476:196,1,104.500003189087,8|0,0:1|0:0,0:0:0:0:
224,112,7826,2,0,L|364:112,1,104.500003189087,8|0,0:1|0:0,0:0:0:0:
476,120,8371,1,8,0:1:0:0:
208,124,8644,6,0,L|287:299,1,182.875005580902,8|0,0:1|0:0,0:0:0:0:
280,273,9158,1,0,0:0:0:0:
108,316,9369,6,0,L|100:200,1,95,2|0,0:0|0:0,0:0:0:0:
288,300,9791,2,0,L|296:184,1,95,2|0,0:0|0:0,0:0:0:0:
100,232,10214,2,0,L|92:116,1,95,2|0,0:0|0:0,0:0:0:0:
292,212,10636,6,0,L|416:208,1,95,2|0,0:0|0:0,0:0:0:0:
196,124,11059,2,0,L|188:228,1,95,2|0,0:0|0:0,0:0:0:0:
356,180,11481,2,0,L|464:180,1,95,2|0,0:0|0:0,0:0:0:0:
244,188,11904,1,2,0:0:0:0:
149,184,12010,2,0,L|308:184,1,142.5,0|2,0:0|0:0,0:0:0:0:
412,184,12561,1,0,0:0:0:0:
164,320,12750,6,0,L|156:204,1,95,2|0,3:0|0:0,0:0:0:0:
344,304,13172,2,0,L|352:188,1,95,2|0,0:0|0:0,0:0:0:0:
168,236,13595,2,0,L|280:228,1,95,2|0,0:0|0:0,0:0:0:0:
452,208,14018,1,2,0:0:0:0:
164,248,14228,6,0,L|156:140,1,95,10|0,0:3|0:0,0:0:0:0:
332,176,14651,2,0,L|432:176,1,95,10|0,0:3|0:0,0:0:0:0:
256,236,15073,2,0,L|372:236,1,95,10|0,0:3|0:0,0:0:0:0:
184,208,15390,2,0,B|24:200|24:200|8:72|136:44,1,356.25001358986,10|0,0:3|0:0,0:0:0:0:
272,96,16130,6,0,L|300:128,1,31.6666666666667,2|0,0:0|0:0,0:0:0:0:
212,132,16271,2,0,L|188:160,1,31.6666666666667
408,96,16552,2,0,L|259:95,1,142.5,2|0,0:3|0:0,0:0:0:0:
212,120,16975,6,0,L|184:152,1,31.6666666666667,2|0,0:0|0:0,0:0:0:0:
272,156,17116,2,0,L|296:184,1,31.6666666666667
88,112,17397,2,0,L|232:112,1,142.5,2|0,0:3|0:0,0:0:0:0:
284,148,17820,6,0,L|312:180,1,31.6666666666667,2|0,0:0|0:0,0:0:0:0:
224,184,17961,2,0,L|200:212,1,31.6666666666667
364,224,18242,2,0,L|240:224,1,95,2|0,0:3|0:0,0:0:0:0:
172,220,18665,2,0,L|112:220,1,47.5,2|8,0:0|0:3,0:0:0:0:
348,200,18876,2,0,P|420:144|344:88,1,213.750008153916,2|0,0:0|0:0,0:0:0:0:
256,92,19299,6,0,L|240:208,1,95
464,240,19616,2,0,P|432:180|356:160,1,142.5,10|0,0:3|0:0,0:0:0:0:
236,96,20144,6,0,L|224:208,1,95,0|10,0:0|0:3,0:0:0:0:
456,212,20461,2,0,L|460:56,1,142.5
184,148,20989,5,10,0:3:0:0:
440,240,21411,1,10,0:3:0:0:
52,280,21834,1,10,0:3:0:0:
204,320,21992,5,2,0:0:0:0:
248,304,22045,1,2,0:0:0:0:
272,264,22098,1,2,0:0:0:0:
284,224,22151,1,0,0:0:0:0:
280,192,22204,1,2,0:0:0:0:
268,168,22256,1,0,0:0:0:0:
240,148,22309,1,0,0:0:0:0:
192,144,22397,1,0,0:0:0:0:
132,140,22468,1,2,0:0:0:0:
36,144,22573,1,0,0:0:0:0:
296,224,22679,5,4,0:0:0:0:
124,224,22890,2,0,L|56:196,1,71.2500027179719,2|0,0:0|0:0,0:0:0:0:
304,200,23102,2,0,L|228:156,1,71.2500027179719,2|0,0:0|0:0,0:0:0:0:
76,264,23313,1,0,0:0:0:0:
96,184,23419,1,0,0:0:0:0:
284,228,23524,1,0,3:3:0:0:
336,180,23630,1,0,0:0:0:0:
280,132,23735,1,0,0:0:0:0:
96,244,23947,5,0,3:3:0:0:
452,264,24158,1,0,0:0:0:0:
168,196,24369,5,4,3:2:0:0:
320,200,24581,2,0,L|236:200,1,71.2500027179719,2|0,0:0|0:0,0:0:0:0:
68,248,24792,2,0,L|24:160,1,71.2500027179719,2|0,0:0|0:0,0:0:0:0:
252,256,25003,1,0,0:0:0:0:
288,200,25109,1,0,0:0:0:0:
112,120,25215,1,0,3:3:0:0:
64,172,25320,1,0,0:0:0:0:
120,228,25426,1,0,0:0:0:0:
280,176,25637,5,0,3:3:0:0:
76,260,25848,1,0,0:0:0:0:
416,296,26060,5,4,3:2:0:0:
224,288,26271,2,0,L|196:200,1,71.2500027179719,0|0,0:0|0:0,0:0:0:0:
316,260,26482,2,0,L|324:180,1,71.2500027179719,2|0,0:0|0:0,0:0:0:0:
432,184,26693,1,0,0:0:0:0:
124,192,26905,5,4,3:2:0:0:
48,160,27010,1,0,0:0:0:0:
48,88,27116,1,0,0:0:0:0:
120,72,27222,1,0,0:0:0:0:
32,100,27327,1,2,0:0:0:0:
124,120,27433,1,0,0:0:0:0:
32,140,27538,1,2,0:0:0:0:
124,156,27644,1,0,0:0:0:0:
336,220,27750,6,0,L|352:132,1,71.2500027179719,4|0,3:2|0:0,0:0:0:0:
172,188,27961,2,0,L|164:112,1,71.2500027179719,2|0,0:0|0:0,0:0:0:0:
336,220,28172,2,0,L|376:136,1,71.2500027179719,4|0,3:2|0:0,0:0:0:0:
172,188,28383,2,0,L|140:116,1,71.2500027179719,2|0,0:0|0:0,0:0:0:0:
376,136,28595,1,4,3:2:0:0:
212,148,28806,5,2,0:0:0:0:
104,256,28947,1,2,0:0:0:0:
140,256,29017,1,2,0:0:0:0:
176,256,29088,1,2,0:0:0:0:
212,256,29158,1,2,0:0:0:0:
248,256,29229,1,2,0:0:0:0:
148,328,29334,1,2,0:0:0:0:
44,304,29440,6,0,L|48:196,1,95,0|0,3:3|0:0,0:0:0:0:
196,256,29862,2,0,L|192:148,1,95,0|0,3:3|0:0,0:0:0:0:
340,232,30284,2,0,L|340:128,1,95
488,168,30707,2,0,L|492:48,1,95,0|0,3:3|0:0,0:0:0:0:
276,308,31130,5,2,0:0:0:0:
196,312,31200,1,2,0:0:0:0:
132,300,31271,1,2,0:0:0:0:
92,260,31341,1,2,0:0:0:0:
88,204,31412,1,2,0:0:0:0:
116,160,31482,1,2,0:0:0:0:
164,148,31553,1,2,0:0:0:0:
204,112,31623,1,2,0:0:0:0:
196,60,31693,1,2,0:0:0:0:
152,36,31764,1,2,0:0:0:0:
48,40,31975,1,0,3:3:0:0:
148,52,32186,5,0,1:1:0:0:
316,60,32292,1,2,0:0:0:0:
184,116,32503,5,0,1:1:0:0:
352,124,32609,1,2,0:0:0:0:
52,72,32820,6,0,L|48:184,1,95,2|0,3:3|0:0,0:0:0:0:
228,180,33242,2,0,L|340:180,1,95
160,104,33665,2,0,L|160:216,1,95,0|0,3:3|0:0,0:0:0:0:
336,192,34088,2,0,L|436:196,1,95,0|0,3:3|0:0,0:0:0:0:
212,184,34510,1,0,0:0:0:0:
136,248,35355,5,2,0:0:0:0:
80,228,35426,1,2,0:0:0:0:
68,168,35496,1,2,0:0:0:0:
100,120,35567,1,2,0:0:0:0:
156,100,35637,1,2,0:0:0:0:
232,96,35708,1,2,0:0:0:0:
296,104,35778,1,2,0:0:0:0:
336,148,35848,5,2,0:0:0:0:
336,204,35919,1,2,0:0:0:0:
300,240,35989,1,2,0:0:0:0:
256,264,36060,1,2,0:0:0:0:
232,304,36130,1,2,0:0:0:0:
240,348,36200,1,0,0:0:0:0:
280,368,36271,1,0,0:0:0:0:
416,300,36412,5,2,0:0:0:0:
456,264,36482,1,0,0:0:0:0:
416,236,36552,1,2,0:0:0:0:
248,224,36623,2,0,L|144:224,1,95,2|0,3:3|0:0,0:0:0:0:
336,152,37046,2,0,L|440:152,1,95,2|0,3:3|0:0,0:0:0:0:
232,160,37468,2,0,L|216:264,1,95,2|0,3:3|0:0,0:0:0:0:
396,264,37891,5,2,3:3:0:0:
232,248,38102,1,2,3:3:0:0:
180,224,38172,1,2,3:3:0:0:
180,180,38242,1,2,3:3:0:0:
236,160,38313,1,2,3:3:0:0:
384,152,38524,5,0,0:0:0:0:
180,180,38736,1,2,3:3:0:0:
232,180,38788,1,2,3:3:0:0:
288,180,38841,1,2,3:3:0:0:
344,180,38894,1,2,3:3:0:0:
400,180,38947,1,2,3:3:0:0:
296,204,39158,5,2,3:3:0:0:
340,184,39211,1,2,0:0:0:0:
356,132,39264,1,2,3:3:0:0:
336,80,39317,1,2,0:0:0:0:
292,60,39369,1,2,3:3:0:0:
124,72,39581,6,0,L|104:184,1,95,0|2,3:3|0:0,0:0:0:0:
192,200,39898,1,2,0:0:0:0:
24,232,40003,1,2,0:0:0:0:
224,252,40215,1,2,3:3:0:0:
116,72,40426,6,0,L|116:184,1,95,0|2,0:0|0:0,0:0:0:0:
204,200,40743,1,2,0:0:0:0:
28,228,40848,1,2,0:0:0:0:
236,252,41060,1,2,3:3:0:0:
112,184,41271,5,8,3:3:0:0:
284,160,41482,1,0,0:0:0:0:
204,132,41588,1,0,0:0:0:0:
372,84,41693,1,2,3:3:0:0:
180,172,41905,1,0,0:0:0:0:
260,152,42011,1,0,0:0:0:0:
92,96,42116,1,2,3:2:0:0:
152,176,42538,6,0,L|268:176,2,95,2|0|4,0:0|0:0|0:0,0:0:0:0:
448,184,43172,5,2,0:0:0:0:
360,144,43278,1,0,0:0:0:0:
456,120,43384,1,2,0:0:0:0:
368,84,43489,1,0,0:0:0:0:
464,80,43595,1,2,0:0:0:0:
148,124,43806,6,0,L|40:124,1,95,0|0,3:3|0:0,0:0:0:0:
384,156,44229,2,0,L|268:156,2,95,0|0|4,3:3|0:0|3:2,0:0:0:0:
116,184,44862,2,0,L|40:184,1,71.2500027179719,2|0,0:0|0:0,0:0:0:0:
308,264,45073,2,0,L|384:264,1,71.2500027179719,2|0,0:0|0:0,0:0:0:0:
192,260,45284,1,0,0:0:0:0:
356,96,45496,6,0,L|472:96,1,95,0|0,3:3|0:0,0:0:0:0:
128,160,45919,2,0,L|244:160,2,95,0|0|4,3:3|0:0|3:2,0:0:0:0:
444,184,46552,6,0,L|456:160,1,15.8333333333333,0|0,0:0|0:0,0:0:0:0:
292,184,46763,2,0,L|284:160,1,15.8333333333333,2|0,0:0|0:0,0:0:0:0:
136,176,46974,2,0,L|152:156,1,15.8333333333333,0|0,0:0|0:0,0:0:0:0:
436,184,47185,1,0,3:3:0:0:
132,196,47397,5,0,0:0:0:0:
52,160,47502,1,0,0:0:0:0:
52,104,47608,1,2,0:0:0:0:
136,88,47714,1,0,0:0:0:0:
36,56,47819,1,2,0:0:0:0:
144,40,47925,1,0,0:0:0:0:
380,100,48031,6,0,L|388:168,1,47.5,4|0,3:2|0:0,0:0:0:0:
216,136,48242,2,0,L|152:140,1,47.5,2|0,0:0|0:0,0:0:0:0:
400,184,48454,2,0,L|396:244,1,47.5,4|0,3:2|0:0,0:0:0:0:
220,228,48665,2,0,L|212:288,1,47.5,2|0,0:0|0:0,0:0:0:0:
32,312,48876,1,4,3:2:0:0:
204,112,49087,5,2,0:0:0:0:
312,200,49228,1,2,0:0:0:0:
276,200,49298,1,2,0:0:0:0:
240,200,49369,1,2,0:0:0:0:
204,200,49439,1,2,0:0:0:0:
168,200,49510,1,2,0:0:0:0:
268,240,49616,1,2,0:0:0:0:
368,328,49721,6,0,L|368:196,1,95,0|8,3:3|0:0,0:0:0:0:
180,208,50143,2,0,L|300:204,1,95,0|8,3:3|0:0,0:0:0:0:
88,176,50566,2,0,L|72:64,1,95,0|8,3:3|0:0,0:0:0:0:
240,168,50988,2,0,L|146:172,1,95,0|8,3:3|0:0,0:0:0:0:
300,188,51411,1,0,0:0:0:0:
120,188,51623,1,8,0:0:0:0:
268,256,51834,5,0,0:0:0:0:
340,200,51940,1,0,0:0:0:0:
332,132,52046,1,8,0:0:0:0:
256,112,52151,1,0,0:0:0:0:
332,88,52257,1,2,0:0:0:0:
168,88,52468,1,2,0:0:0:0:
296,88,52574,2,0,L|128:88,1,142.5,2|8,3:3|0:0,0:0:0:0:
456,224,53102,6,0,L|344:224,1,95,0|8,0:0|0:0,0:0:0:0:
180,168,53524,1,0,0:0:0:0:
276,140,53736,1,8,0:0:0:0:
92,92,53947,2,0,L|72:200,1,95,0|8,0:0|0:0,0:0:0:0:
244,228,54369,1,0,0:0:0:0:
84,240,54581,1,8,0:0:0:0:
368,360,54792,6,0,B|536:352|552:24|148:380|224:0|396:8,1,570.000021743775,2|2,0:0|2:3,0:0:0:0:
324,60,55778,1,2,2:3:0:0:
384,68,55919,1,2,2:3:0:0:
284,100,56060,1,2,2:3:0:0:
392,116,56200,1,2,2:3:0:0:
236,152,56341,1,2,2:3:0:0:
440,192,56482,1,2,2:3:0:0:
276,220,56693,5,8,0:0:0:0:
401,219,56799,2,0,L|249:219,1,142.5,2|8,0:3|0:0,0:0:0:0:
84,216,57327,1,0,0:0:0:0:
268,204,57538,5,8,0:0:0:0:
142,209,57644,2,0,L|294:209,1,142.5,2|8,0:3|0:0,0:0:0:0:
136,244,58172,1,0,0:0:0:0:
336,240,58384,5,8,0:0:0:0:
213,240,58489,2,0,L|368:240,1,142.5,2|8,0:3|0:0,0:0:0:0:
204,276,59017,1,0,0:0:0:0:
404,264,59229,5,8,0:0:0:0:
280,256,59334,2,0,P|240:188|296:148,1,142.5,2|8,0:3|0:0,0:0:0:0:
480,140,59862,1,0,0:0:0:0:
280,136,60074,5,8,0:0:0:0:
404,160,60179,2,0,L|256:160,1,142.5,2|8,0:3|0:0,0:0:0:0:
408,112,60708,1,0,0:0:0:0:
192,148,60919,5,8,0:0:0:0:
316,172,61024,2,0,L|168:172,1,142.5,2|8,0:3|0:0,0:0:0:0:
320,124,61553,5,2,0:0:0:0:
136,152,61764,1,0,0:0:0:0:
76,184,61869,1,0,0:0:0:0:
128,216,61975,1,2,0:0:0:0:
408,232,62186,1,2,0:0:0:0:
72,272,62398,1,2,0:0:0:0:
248,268,62609,6,0,L|156:272,1,71.2500027179719,2|0,0:1|0:0,0:0:0:0:
352,192,62820,2,0,P|204:200|176:72,1,285,2|0,0:1|0:0,0:0:0:0:
380,128,63243,5,4,0:0:0:0:
224,136,63454,2,0,L|328:132,1,71.2500027179719,2|0,0:0|0:0,0:0:0:0:
480,168,63665,2,0,L|396:172,1,71.2500027179719,2|0,0:0|0:0,0:0:0:0:
200,224,63877,1,0,0:0:0:0:
368,120,64088,1,0,3:3:0:0:
424,164,64193,1,0,0:0:0:0:
368,216,64299,1,0,0:0:0:0:
192,120,64510,5,0,3:3:0:0:
376,168,64721,1,0,0:0:0:0:
84,204,64933,1,4,3:2:0:0:
380,200,65144,2,0,L|296:200,1,71.2500027179719,2|0,0:0|0:0,0:0:0:0:
136,168,65355,2,0,L|220:168,1,71.2500027179719,2|0,0:0|0:0,0:0:0:0:
400,152,65567,1,0,0:0:0:0:
232,136,65778,1,0,3:3:0:0:
175,184,65884,1,0,0:0:0:0:
232,224,65989,1,0,0:0:0:0:
416,232,66200,5,0,3:3:0:0:
144,236,66412,1,0,0:0:0:0:
432,176,66623,2,0,L|456:328,1,142.500005435944,4|0,3:2|0:0,0:0:0:0:
144,160,67046,2,0,L|28:48,1,142.500005435944,2|0,0:0|0:0,0:0:0:0:
436,168,67468,5,4,3:2:0:0:
136,212,67679,1,0,0:0:0:0:
316,220,67891,1,2,0:0:0:0:
404,184,67996,1,0,0:0:0:0:
320,156,68102,1,2,0:0:0:0:
412,124,68208,1,0,0:0:0:0:
176,108,68313,6,0,L|188:192,1,71.2500027179719,4|0,3:2|0:0,0:0:0:0:
352,136,68524,2,0,L|340:220,1,71.2500027179719,2|0,0:0|0:0,0:0:0:0:
112,172,68736,2,0,L|180:208,1,71.2500027179719,4|0,3:2|0:0,0:0:0:0:
408,212,68947,2,0,L|336:252,1,71.2500027179719,2|0,0:0|0:0,0:0:0:0:
124,220,69158,5,4,3:2:0:0:
320,200,69369,2,0,L|332:228,1,15.8333333333333,8|0,3:2|0:0,0:0:0:0:
176,232,69581,2,0,L|164:260,1,15.8333333333333,8|0,3:2|0:0,0:0:0:0:
32,264,69792,2,0,L|44:292,1,15.8333333333333,8|0,3:2|0:0,0:0:0:0:
408,296,70003,6,0,L|256:292,1,142.5,4|0,0:0|0:0,0:0:0:0:
352,228,70426,1,2,0:0:0:0:
248,224,70531,1,2,2:3:0:0:
344,164,70637,1,2,0:0:0:0:
68,148,70848,6,0,L|276:148,1,190,4|2,0:0|0:0,0:0:0:0:
200,200,71377,1,0,0:0:0:0:
196,256,71482,1,2,0:0:0:0:
256,280,71588,1,0,0:0:0:0:
432,256,71693,6,0,L|456:96,1,142.5,4|0,0:0|0:0,0:0:0:0:
364,104,72116,1,2,0:0:0:0:
460,68,72222,1,2,2:3:0:0:
372,56,72327,1,2,0:0:0:0:
100,112,72538,6,0,L|232:108,1,95,2|2,0:0|0:1,0:0:0:0:
16,192,72961,2,0,L|148:188,1,95,2|2,0:0|0:1,0:0:0:0:
404,200,73384,6,0,L|244:200,1,142.5,4|0,0:0|0:0,0:0:0:0:
348,148,73806,1,2,0:0:0:0:
248,152,73912,1,2,2:3:0:0:
340,96,74017,1,2,0:0:0:0:
60,104,74229,6,0,L|60:260,1,142.5,4|0,0:0|0:0,0:0:0:0:
120,280,74651,1,2,2:3:0:0:
124,228,74757,1,0,0:0:0:0:
52,200,74862,1,2,0:0:0:0:
340,208,75074,6,0,L|528:212,1,142.5,4|0,0:0|0:0,0:0:0:0:
388,172,75496,1,2,0:0:0:0:
476,164,75602,1,2,2:3:0:0:
380,128,75708,1,2,0:0:0:0:
112,112,75919,6,0,L|216:116,1,95,2|2,0:0|0:1,0:0:0:0:
20,192,76341,2,0,L|124:196,1,95,2|2,0:0|0:1,0:0:0:0:
384,224,76764,5,4,0:0:0:0:
232,216,76975,2,0,L|212:152,1,47.5,0|0,0:0|0:0,0:0:0:0:
320,160,77186,2,0,L|324:92,1,47.5,2|0,0:0|0:0,0:0:0:0:
204,140,77398,2,0,L|224:76,1,47.5,2|0,0:0|0:0,0:0:0:0:
400,80,77609,6,0,L|304:84,2,95,4|0|2,0:0|0:0|2:3,0:0:0:0:
208,100,78243,1,2,0:0:0:0:
480,136,78454,5,4,0:0:0:0:
272,184,78665,1,0,0:0:0:0:
188,168,78771,1,0,0:0:0:0:
276,124,78877,1,2,0:0:0:0:
192,116,78982,1,2,0:0:0:0:
108,96,79088,1,2,0:0:0:0:
200,76,79193,1,0,0:0:0:0:
384,88,79299,6,0,L|280:88,1,95,2|2,0:0|0:1,0:0:0:0:
480,176,79722,2,0,L|376:176,1,95,2|2,0:0|0:1,0:0:0:0:
104,176,80144,6,0,L|168:176,1,47.5,4|0,0:0|0:0,0:0:0:0:
336,176,80355,1,2,0:0:0:0:
256,152,80461,1,2,0:0:0:0:
336,128,80567,1,2,0:0:0:0:
248,100,80672,1,0,0:0:0:0:
200,136,80778,1,2,0:0:0:0:
244,180,80884,1,0,0:0:0:0:
424,184,80989,6,0,L|416:256,1,47.5,4|0,0:0|0:0,0:0:0:0:
304,212,81200,2,0,L|228:212,1,47.5,0|0,0:0|0:0,0:0:0:0:
372,248,81412,2,0,L|420:248,1,47.5,2|0,0:0|0:0,0:0:0:0:
296,252,81623,2,0,L|284:324,1,47.5,2|0,0:0|0:0,0:0:0:0:
456,304,81834,5,4,0:0:0:0:
144,288,82046,1,0,0:0:0:0:
336,232,82257,1,4,0:0:0:0:
60,184,82468,1,0,0:0:0:0:
408,164,82679,1,4,0:0:0:0:
232,168,83102,5,2,3:0:0:0:
140,156,83208,1,0,0:0:0:0:
236,112,83313,1,2,0:0:0:0:
136,104,83419,1,0,0:0:0:0:
356,120,83524,6,0,P|416:148|336:204,1,190,4|2,0:0|0:0,0:0:0:0:
260,212,84053,1,2,0:0:0:0:
448,236,84158,1,2,0:0:0:0:
244,244,84369,6,0,L|112:244,1,95,4|0,0:0|0:0,0:0:0:0:
280,168,84792,1,2,3:0:0:0:
372,156,84898,1,0,0:0:0:0:
276,112,85003,1,2,0:0:0:0:
376,104,85109,1,0,0:0:0:0:
156,120,85214,6,0,P|96:148|176:204,1,190,4|2,0:0|0:0,0:0:0:0:
252,212,85743,1,2,0:0:0:0:
64,236,85848,1,2,0:0:0:0:
268,244,86059,6,0,L|400:244,1,95,4|2,0:0|0:0,0:0:0:0:
168,172,86482,1,8,3:3:0:0:
348,148,86693,1,2,0:0:0:0:
72,128,86905,6,0,B|280:128,1,190,4|2,0:0|0:0,0:0:0:0:
340,128,87433,1,2,0:0:0:0:
172,176,87538,1,2,0:0:0:0:
376,188,87750,6,0,L|508:184,1,95,4|0,0:0|0:0,0:0:0:0:
300,176,88172,1,2,0:0:0:0:
396,156,88278,1,2,0:0:0:0:
296,140,88384,1,2,0:0:0:0:
16,136,88595,6,0,L|224:136,1,190,4|2,0:0|0:0,0:0:0:0:
284,136,89123,1,2,0:0:0:0:
112,196,89229,1,2,0:0:0:0:
304,188,89440,6,0,L|168:184,1,95,4|0,0:0|0:0,0:0:0:0:
24,112,89862,2,0,L|144:112,1,95,4|0,0:0|0:0,0:0:0:0:
464,120,90285,5,4,3:2:0:0:
264,140,90496,1,2,0:0:0:0:
172,136,90602,1,2,0:0:0:0:
260,184,90708,1,2,0:0:0:0:
168,184,90813,1,2,0:0:0:0:
256,228,90919,1,2,0:0:0:0:
72,240,91130,5,4,3:2:0:0:
372,104,91341,1,2,0:0:0:0:
464,100,91447,1,2,0:0:0:0:
376,148,91553,1,2,0:0:0:0:
468,148,91658,1,2,0:0:0:0:
380,192,91764,1,2,0:0:0:0:
52,168,91975,5,4,3:2:0:0:
360,208,92186,1,2,0:0:0:0:
444,176,92292,1,2,0:0:0:0:
352,144,92398,1,2,0:0:0:0:
436,120,92503,1,2,0:0:0:0:
348,92,92609,1,2,0:0:0:0:
428,64,92715,1,0,0:0:0:0:
132,72,92820,5,4,0:0:0:0:
56,116,92926,1,0,0:0:0:0:
52,196,93031,1,0,0:0:0:0:
128,228,93137,1,0,0:0:0:0:
336,216,93243,1,4,0:0:0:0:
244,236,93348,1,2,0:0:0:0:
344,260,93454,1,2,0:0:0:0:
240,288,93560,1,2,0:0:0:0:
456,312,93665,6,0,L|472:208,1,95,4|2,0:0|0:0,0:0:0:0:
424,224,93982,1,2,0:0:0:0:
380,224,94088,1,2,0:0:0:0:
456,220,94299,1,2,0:0:0:0:
96,284,94510,6,0,P|28:221|224:56,1,427.500016307831,2|0,0:0|0:0,0:0:0:0:
400,284,95355,5,0,3:3:0:0:
460,256,95461,1,0,0:0:0:0:
460,200,95567,1,0,0:0:0:0:
400,172,95672,1,0,0:0:0:0:
264,168,95778,1,8,3:3:0:0:
344,168,95884,1,0,0:0:0:0:
264,168,95989,5,0,0:0:0:0:
240,204,96041,1,0,0:0:0:0:
260,244,96095,1,0,0:0:0:0:
312,256,96147,1,0,0:0:0:0:
468,244,96200,2,0,L|468:52,1,190,8|0,3:3|0:0,0:0:0:0:
232,228,97046,5,2,0:0:0:0:
408,212,97257,2,0,L|296:208,1,95,2|2,2:3|0:0,0:0:0:0:
116,152,97679,2,0,L|4:148,1,95,2|2,2:3|0:0,0:0:0:0:
200,184,98102,1,2,2:3:0:0:
116,208,98313,1,2,0:0:0:0:
208,240,98524,1,2,2:3:0:0:
388,244,98736,6,0,L|396:136,1,95,2|2,0:0|0:0,0:0:0:0:
292,140,99053,1,2,0:0:0:0:
164,164,99264,1,2,0:0:0:0:
264,216,99369,1,2,0:0:0:0:
64,120,99581,2,0,L|20:220,1,95,2|2,0:0|0:0,0:0:0:0:
152,216,99898,2,0,L|304:216,1,142.5,2|2,0:0|0:0,0:0:0:0:
480,216,100426,5,2,0:0:0:0:
294,216,100637,2,0,L|194:216,1,95,2|2,2:3|0:0,0:0:0:0:
24,128,101060,2,0,L|68:36,1,95,2|2,2:3|0:0,0:0:0:0:
248,128,101482,2,0,L|144:128,2,95,2|2|2,2:3|0:0|2:3,0:0:0:0:
440,140,102116,1,0,0:0:0:0:
196,240,102749,5,0,3:3:0:0:
152,232,102820,1,0,0:0:0:0:
152,196,102890,1,0,0:0:0:0:
196,184,102961,1,0,3:3:0:0:
304,180,103066,1,0,3:3:0:0:
192,148,103172,2,0,L|188:232,1,47.5
304,152,103383,2,0,L|304:216,1,47.5
188,96,103595,1,0,3:3:0:0:
312,100,103700,1,0,3:3:0:0:
268,108,103805,1,0,0:0:0:0:
184,128,104017,5,2,2:3:0:0:
456,152,104229,2,0,L|444:256,1,95,8|2,0:0|0:0,0:0:0:0:
256,200,104651,1,0,0:0:0:0:
424,272,104862,1,2,2:3:0:0:
144,280,105074,2,0,L|256:276,1,95,8|2,0:0|0:0,0:0:0:0:
160,216,105496,5,0,0:0:0:0:
344,172,105708,1,2,2:3:0:0:
48,136,105919,2,0,L|52:32,1,95,8|2,0:0|0:0,0:0:0:0:
216,48,106341,1,0,0:0:0:0:
40,232,106553,1,8,2:3:0:0:
328,236,106764,2,0,L|428:236,1,95,8|8,0:0|2:3,0:0:0:0:
216,220,107186,6,0,L|104:220,1,95,0|2,0:0|2:3,0:0:0:0:
392,200,107609,1,8,0:0:0:0:
236,192,107820,1,2,0:0:0:0:
420,156,108031,1,0,0:0:0:0:
220,140,108243,1,2,2:3:0:0:
488,96,108454,1,8,0:0:0:0:
328,84,108665,1,2,0:0:0:0:
48,188,108877,6,0,L|128:188,1,71.2500027179719,8|0,0:0|0:0,0:0:0:0:
288,184,109087,2,0,L|224:124,1,71.2500027179719,2|2,0:0|0:0,0:0:0:0:
404,132,109299,2,0,L|404:204,1,71.2500027179719,8|0,0:0|0:0,0:0:0:0:
160,152,109510,2,0,L|76:152,1,71.2500027179719,2|2,0:0|0:0,0:0:0:0:
296,232,109722,5,8,0:0:0:0:
160,232,109933,2,0,L|148:272,4,23.75,0|0|0|0|0,3:3|0:0|0:0|0:0|3:3,0:0:0:0:
436,184,110355,1,0,3:3:0:0:
100,168,110567,5,4,0:0:0:0:
424,204,110778,1,2,0:0:0:0:
340,172,110884,1,2,0:0:0:0:
432,152,110989,1,2,0:0:0:0:
348,120,111095,1,2,0:0:0:0:
436,104,111200,1,2,0:0:0:0:
156,112,111411,2,0,L|36:112,1,95,0|0,3:3|0:0,0:0:0:0:
224,152,111834,1,0,3:3:0:0:
80,188,112046,1,0,0:0:0:0:
392,216,112257,5,4,3:2:0:0:
116,264,112468,2,0,L|200:264,1,71.2500027179719,2|0,0:0|0:0,0:0:0:0:
368,184,112679,2,0,L|284:184,1,71.2500027179719,2|0,0:0|0:0,0:0:0:0:
116,192,112890,1,0,0:0:0:0:
280,148,113102,2,0,L|404:148,1,95,0|0,3:3|0:0,0:0:0:0:
212,176,113524,1,0,3:3:0:0:
392,208,113736,1,0,0:0:0:0:
88,184,113947,5,4,3:2:0:0:
256,200,114158,2,0,L|276:120,1,71.2500027179719,0|0,0:0|0:0,0:0:0:0:
388,160,114369,2,0,L|376:76,1,71.2500027179719,2|0,0:0|0:0,0:0:0:0:
192,120,114581,2,0,L|104:120,1,71.2500027179719,0|0,0:0|0:0,0:0:0:0:
412,116,114792,5,4,3:2:0:0:
248,200,115003,1,0,0:0:0:0:
332,184,115109,1,0,0:0:0:0:
240,156,115215,1,2,0:0:0:0:
324,132,115320,1,0,0:0:0:0:
412,109,115426,1,2,0:0:0:0:
320,92,115531,1,0,0:0:0:0:
140,88,115637,6,0,L|116:180,1,71.2500027179719,4|0,3:2|0:0,0:0:0:0:
292,128,115848,2,0,L|308:208,1,71.2500027179719,2|0,0:0|0:0,0:0:0:0:
136,188,116060,2,0,L|104:268,1,71.2500027179719,4|0,3:2|0:0,0:0:0:0:
304,228,116271,2,0,L|388:228,1,71.2500027179719,2|0,0:0|0:0,0:0:0:0:
200,256,116482,1,4,3:2:0:0:
340,160,116693,6,0,L|352:188,1,15.8333333333333,8|0,3:2|0:0,0:0:0:0:
196,192,116905,2,0,L|184:220,1,15.8333333333333,8|0,3:2|0:0,0:0:0:0:
52,224,117116,2,0,L|64:252,1,15.8333333333333,8|0,3:2|0:0,0:0:0:0:
364,264,117327,5,4,0:0:0:0:
196,248,117538,2,0,L|304:244,2,95,0|8|0,0:0|0:0|0:0,0:0:0:0:
384,184,118172,2,0,L|496:184,1,95,0|0,0:0|0:0,0:0:0:0:
308,164,118595,1,8,0:0:0:0:
376,120,118806,1,0,0:0:0:0:
104,124,119017,6,0,L|228:124,2,95,0|0|8,0:0|0:0|0:0,0:0:0:0:
60,128,119546,1,0,0:0:0:0:
104,184,119651,1,0,0:0:0:0:
264,196,119862,1,0,0:0:0:0:
136,148,120074,5,2,0:0:0:0:
192,180,120179,1,2,0:0:0:0:
188,232,120285,1,8,0:0:0:0:
132,244,120391,1,2,0:0:0:0:
88,284,120496,1,2,0:0:0:0:
136,324,120602,1,2,0:0:0:0:
392,320,120708,5,0,3:3:0:0:
220,304,120919,2,0,L|104:304,2,95,0|8|0,0:0|0:0|0:0,0:0:0:0:
416,300,121553,1,0,0:0:0:0:
280,260,121764,1,0,0:0:0:0:
368,220,121975,1,8,0:0:0:0:
180,204,122186,1,0,0:0:0:0:
472,184,122398,5,0,0:0:0:0:
320,176,122609,1,0,0:0:0:0:
48,180,122820,2,0,B|36:96|68:16|68:16|192:8|432:128,1,475,8|2,0:0|0:0,0:0:0:0:
232,156,123454,1,0,0:0:0:0:
408,180,123665,1,8,0:0:0:0:
328,196,123771,1,2,0:0:0:0:
408,224,123877,1,2,0:0:0:0:
140,128,124088,5,4,0:0:0:0:
284,124,124299,2,0,P|348:192|276:228,1,190,2|8,0:0|0:0,0:0:0:0:
184,168,124722,1,0,0:0:0:0:
368,240,124933,1,0,0:0:0:0:
184,168,125144,2,0,P|120:236|192:272,1,190,2|8,0:0|0:0,0:0:0:0:
356,280,125567,1,0,0:0:0:0:
80,248,125778,5,0,0:0:0:0:
240,184,125989,2,0,P|304:252|232:288,1,190,2|8,0:0|0:0,0:0:0:0:
80,280,126412,1,0,0:0:0:0:
236,284,126623,1,0,0:0:0:0:
48,216,126834,1,2,0:0:0:0:
136,192,126940,1,2,0:0:0:0:
40,164,127046,1,8,0:0:0:0:
128,132,127151,1,2,0:0:0:0:
224,112,127257,1,2,0:0:0:0:
492,100,127468,6,0,L|492:216,1,95,2|0,3:3|0:0,0:0:0:0:
312,96,127891,1,8,0:0:0:0:
128,140,128102,1,0,0:0:0:0:
308,180,128313,1,0,0:0:0:0:
120,240,128524,1,0,0:0:0:0:
444,260,128736,1,8,0:0:0:0:
296,240,128947,1,0,0:0:0:0:
460,148,129158,6,0,L|336:148,1,95,2|2,0:0|0:0,0:0:0:0:
428,104,129475,1,2,0:0:0:0:
256,104,129581,2,0,L|136:104,1,118.75,8|2,0:0|0:0,0:0:0:0:
216,64,129898,1,2,0:0:0:0:
44,72,130003,2,0,L|192:72,1,142.500005435944,2|0,0:0|0:0,0:0:0:0:
116,104,130319,1,2,0:0:0:0:
320,172,130426,1,8,0:0:0:0:
372,200,130531,1,2,0:0:0:0:
320,220,130637,1,2,0:0:0:0:
48,240,130848,6,0,L|168:240,1,95,4|0,0:0|0:0,0:0:0:0:
340,252,131271,1,8,0:0:0:0:
168,216,131482,1,0,0:0:0:0:
360,200,131693,2,0,L|376:80,1,95,0|0,0:0|0:0,0:0:0:0:
204,96,132116,1,8,0:0:0:0:
384,96,132327,1,0,0:0:0:0:
212,168,132538,6,0,L|328:168,2,95,0|0|8,0:0|0:0|0:0,0:0:0:0:
72,180,133172,1,0,0:0:0:0:
272,196,133384,2,0,L|392:196,1,95,0|2,0:0|0:0,0:0:0:0:
316,224,133700,1,2,0:0:0:0:
312,292,133806,1,8,0:0:0:0:
368,304,133912,1,2,0:0:0:0:
280,348,134017,1,2,0:0:0:0:
368,352,134123,1,2,0:0:0:0:
168,352,134229,5,0,3:3:0:0:
336,332,134440,2,0,L|472:332,2,95,0|8|0,0:0|0:0|0:0,0:0:0:0:
148,328,135074,1,0,0:0:0:0:
344,304,135285,1,0,0:0:0:0:
148,276,135496,1,8,0:0:0:0:
256,256,135708,1,0,0:0:0:0:
76,216,135919,6,0,L|192:208,1,95,0|0,0:0|0:0,0:0:0:0:
496,224,136341,2,0,L|284:224,1,180.49999518013,8|0,0:0|0:0,0:0:0:0:
244,224,136623,1,0,0:0:0:0:
172,220,136693,1,0,0:0:0:0:
52,140,136764,2,0,L|392:148,1,285.000010871888,2|0,3:3|3:0,0:0:0:0:
464,152,137186,1,8,0:0:0:0:
368,152,137292,1,2,0:0:0:0:
464,152,137398,1,2,0:0:0:0:
128,224,137609,5,4,0:0:0:0:
264,204,137820,2,0,L|44:208,1,190,2|8,0:0|0:0,0:0:0:0:
144,152,138243,1,0,0:0:0:0:
336,152,138454,1,0,0:0:0:0:
168,144,138665,2,0,L|376:144,1,190,2|8,0:0|0:0,0:0:0:0:
288,188,139088,1,0,0:0:0:0:
120,196,139299,5,0,0:0:0:0:
328,224,139510,2,0,L|108:228,1,190,2|8,0:0|0:0,0:0:0:0:
312,172,139933,1,0,0:0:0:0:
136,160,140144,1,0,0:0:0:0:
468,112,140355,2,0,L|420:20,1,95,2|0,0:0|0:0,0:0:0:0:
244,140,140567,2,0,L|448:140,1,190,8|0,0:0|0:0,0:0:0:0:
124,208,140989,5,0,0:0:0:0:
308,208,141200,2,0,L|256:120,1,95,2|0,0:0|0:0,0:0:0:0:
88,120,141412,2,0,L|284:120,1,190,8|0,0:0|0:0,0:0:0:0:
452,136,141834,1,0,0:0:0:0:
256,240,142046,2,0,L|316:132,1,95,2|0,0:0|0:0,0:0:0:0:
476,144,142256,2,0,L|280:144,1,190,8|0,0:0|0:0,0:0:0:0:
88,180,142679,5,2,0:0:0:0:
308,160,142891,1,2,0:0:0:0:
220,132,142997,1,2,0:0:0:0:
396,84,143102,1,8,0:0:0:0:
192,172,143312,1,2,0:0:0:0:
280,152,143418,1,2,0:0:0:0:
104,96,143524,1,0,3:3:0:0:
296,172,143947,6,0,L|216:172,1,71.2500027179719,2|0,0:0|0:0,0:0:0:0:
400,128,144158,2,0,L|368:216,1,71.2500027179719,2|0,0:0|0:0,0:0:0:0:
128,128,144369,5,4,0:0:0:0:
316,172,144581,1,2,0:0:0:0:
392,184,144686,1,0,0:0:0:0:
308,228,144792,1,2,0:0:0:0:
388,236,144898,1,0,0:0:0:0:
192,240,145003,2,0,L|116:244,1,71.2500027179719,0|0,0:0|0:0,0:0:0:0:
320,172,145215,6,0,L|320:404,1,213.750008153916,0|0,3:3|0:0,0:0:0:0:
220,312,145637,1,0,3:3:0:0:
376,300,145848,1,0,0:0:0:0:
72,228,146060,5,4,0:0:0:0:
348,184,146271,2,0,L|248:188,1,71.2500027179719,2|0,0:0|0:0,0:0:0:0:
108,144,146482,2,0,L|208:148,1,71.2500027179719,2|0,0:0|0:0,0:0:0:0:
288,160,146693,2,0,L|252:260,1,71.2500027179719,0|0,0:0|0:0,0:0:0:0:
68,264,146905,6,0,L|260:76,1,213.750008153916,0|0,3:3|0:0,0:0:0:0:
304,48,147327,1,0,3:3:0:0:
156,72,147538,1,0,0:0:0:0:
444,108,147750,5,4,3:2:0:0:
236,132,147961,1,0,0:0:0:0:
176,184,148067,1,0,0:0:0:0:
188,248,148172,1,2,0:0:0:0:
276,260,148278,1,0,0:0:0:0:
196,228,148384,1,0,0:0:0:0:
280,220,148489,1,0,0:0:0:0:
448,232,148595,6,0,L|456:68,1,142.500005435944,4|0,3:2|0:0,0:0:0:0:
156,104,149017,1,2,0:0:0:0:
64,108,149123,1,0,0:0:0:0:
152,144,149229,1,2,0:0:0:0:
56,156,149334,1,0,0:0:0:0:
312,176,149440,6,0,L|336:264,1,71.2500027179719,4|0,3:2|0:0,0:0:0:0:
160,196,149651,2,0,L|136:284,1,71.2500027179719,2|0,0:0|0:0,0:0:0:0:
316,252,149862,2,0,L|368:304,1,71.2500027179719,4|0,3:2|0:0,0:0:0:0:
164,280,150074,2,0,L|112:332,1,71.2500027179719,2|0,0:0|0:0,0:0:0:0:
312,320,150285,5,4,3:2:0:0:
168,232,150496,1,0,0:0:0:0:
228,188,150602,1,0,0:0:0:0:
244,156,150655,1,0,0:0:0:0:
220,124,150708,1,8,0:0:0:0:
160,112,150813,1,2,0:0:0:0:
60,120,150919,1,2,0:0:0:0:
408,148,151130,5,4,0:0:0:0:
208,148,151341,2,0,L|292:148,1,71.2500027179719,2|0,3:3|0:0,0:0:0:0:
456,160,151553,2,0,L|164:160,1,285,2|0,3:3|0:0,0:0:0:0:
396,172,151975,6,0,P|468:240|392:268,1,213.750008153916,0|0,3:3|0:0,0:0:0:0:
320,184,152398,1,0,3:3:0:0:
316,244,152503,1,0,0:0:0:0:
392,284,152609,1,0,0:0:0:0:
104,148,152820,5,4,0:0:0:0:
304,148,153031,2,0,L|220:148,1,71.2500027179719,0|0,0:0|0:0,0:0:0:0:
56,160,153243,2,0,L|348:160,1,285,2|0,3:3|0:0,0:0:0:0:
116,172,153665,6,0,P|44:240|120:268,1,213.750008153916,0|0,3:3|0:0,0:0:0:0:
328,248,154088,1,0,3:3:0:0:
160,212,154299,1,0,0:0:0:0:
480,168,154510,6,0,L|320:168,1,142.500005435944,4|0,0:0|3:3,0:0:0:0:
472,196,154933,2,0,L|304:196,1,142.500005435944,2|0,3:3|3:3,0:0:0:0:
28,168,155355,5,4,0:0:0:0:
208,148,155567,1,0,0:0:0:0:
296,152,155672,1,0,0:0:0:0:
212,200,155778,1,2,0:0:0:0:
304,200,155884,1,0,0:0:0:0:
392,208,155989,1,2,0:0:0:0:
312,244,156095,1,0,0:0:0:0:
136,264,156200,6,0,L|152:156,1,71.2500027179719,4|0,3:2|0:0,0:0:0:0:
320,240,156412,2,0,L|308:152,1,71.2500027179719,2|0,0:0|0:0,0:0:0:0:
108,160,156623,2,0,L|172:96,1,71.2500027179719,4|0,3:2|0:0,0:0:0:0:
368,144,156834,2,0,L|296:76,1,71.2500027179719,2|0,0:0|0:0,0:0:0:0:
152,88,157046,1,4,3:2:0:0:
328,160,157257,6,0,L|340:188,1,15.8333333333333,8|0,3:2|0:0,0:0:0:0:
184,192,157467,2,0,L|172:220,1,15.8333333333333,8|0,3:2|0:0,0:0:0:0:
40,224,157680,2,0,L|52:252,1,15.8333333333333,8|0,3:2|0:0,0:0:0:0:
296,260,157891,6,0,L|424:256,1,95,4|0,0:0|0:0,0:0:0:0:
328,212,158208,1,0,0:0:0:0:
320,280,158313,1,2,3:3:0:0:
388,312,158419,1,0,0:0:0:0:
304,328,158524,1,0,0:0:0:0:
392,344,158630,1,0,0:0:0:0:
204,324,158736,5,2,3:3:0:0:
144,296,158841,1,0,0:0:0:0:
152,240,158947,1,0,0:0:0:0:
220,224,159053,1,0,0:0:0:0:
40,172,159158,2,0,L|40:68,1,95,2|0,3:3|0:0,0:0:0:0:
116,76,159475,1,0,0:0:0:0:
348,96,159581,5,2,3:3:0:0:
420,128,159686,1,0,0:0:0:0:
416,200,159792,1,0,0:0:0:0:
348,240,159898,1,0,0:0:0:0:
164,260,160003,1,2,3:3:0:0:
88,212,160109,1,0,0:0:0:0:
92,136,160215,1,0,0:0:0:0:
168,92,160320,1,0,0:0:0:0:
368,140,160426,5,2,3:3:0:0:
292,160,160531,1,2,0:0:0:0:
368,196,160637,1,2,0:0:0:0:
380,236,160743,1,0,0:0:0:0:
96,144,160848,5,2,3:3:0:0:
180,180,160953,1,2,0:0:0:0:
96,200,161059,1,2,0:0:0:0:
88,240,161165,1,0,0:0:0:0:
336,248,161271,6,0,L|400:244,1,47.5,2|0,3:3|0:0,0:0:0:0:
204,240,161482,2,0,L|188:172,1,47.5
360,192,161693,2,0,L|364:128,1,47.5,2|0,3:3|0:0,0:0:0:0:
184,144,161905,2,0,L|112:144,1,47.5,0|0,0:0|0:0,0:0:0:0:
399,120,162116,6,0,L|352:120,1,47.5,2|0,3:3|0:0,0:0:0:0:
160,168,162327,2,0,L|208:168,1,47.5
384,176,162538,2,0,L|388:236,1,47.5,2|0,3:3|0:0,0:0:0:0:
204,232,162750,2,0,L|128:236,1,47.5
416,240,162961,6,0,L|336:248,1,47.5,2|0,3:3|0:0,0:0:0:0:
252,184,163172,2,0,L|336:176,1,47.5,0|0,0:0|0:0,0:0:0:0:
412,152,163384,2,0,L|408:80,1,47.5,2|0,3:3|0:0,0:0:0:0:
292,120,163595,2,0,L|296:60,1,47.5
92,80,163806,5,2,3:3:0:0:
24,124,163912,1,0,0:0:0:0:
24,192,164017,1,0,0:0:0:0:
88,236,164123,1,0,0:0:0:0:
288,216,164229,5,2,3:3:0:0:
204,188,164334,1,0,0:0:0:0:
296,176,164440,1,2,0:0:0:0:
212,148,164546,1,2,0:0:0:0:
408,148,164651,6,0,L|428:264,1,95,4|2,0:1|0:0,0:0:0:0:
360,256,164968,1,0,0:0:0:0:
144,256,165074,2,0,L|56:256,1,47.5,2|0,3:2|0:0,0:0:0:0:
204,248,165285,2,0,L|232:164,1,47.5,2|0,0:0|0:0,0:0:0:0:
108,192,165496,6,0,L|48:188,1,47.5,2|0,3:2|0:0,0:0:0:0:
272,180,165708,2,0,L|344:180,1,47.5,2|0,0:0|0:0,0:0:0:0:
132,192,165919,2,0,L|112:264,1,47.5,2|0,3:2|0:0,0:0:0:0:
232,236,166130,2,0,L|240:304,1,47.5,2|0,0:0|0:0,0:0:0:0:
456,252,166341,6,0,L|384:256,1,47.5,2|0,3:2|0:0,0:0:0:0:
216,216,166553,2,0,L|284:216,1,47.5,2|0,3:2|0:0,0:0:0:0:
364,192,166764,2,0,L|372:136,1,47.5,2|0,0:0|0:0,0:0:0:0:
200,140,166975,2,0,L|184:84,1,47.5,0|0,0:0|0:0,0:0:0:0:
424,92,167186,5,0,0:0:0:0:
488,144,167292,1,0,0:0:0:0:
424,192,167398,1,2,2:1:0:0:
260,200,167503,1,2,0:0:0:0:
96,204,167609,5,2,0:0:0:0:
204,232,167715,1,2,0:0:0:0:
92,268,167820,1,2,0:0:0:0:
200,288,167926,1,0,0:0:0:0:
360,260,168031,6,0,L|368:152,1,95,4|2,0:1|0:0,0:0:0:0:
272,144,168348,1,2,0:0:0:0:
376,116,168454,1,2,0:0:0:0:
272,92,168560,1,0,0:0:0:0:
456,80,168665,6,0,L|448:192,1,95,2|0,0:0|0:0,0:0:0:0:
376,184,168982,1,0,0:0:0:0:
172,168,169088,2,0,L|104:168,1,47.5,2|0,0:0|0:0,0:0:0:0:
232,200,169299,2,0,L|240:256,1,47.5,2|0,0:0|0:0,0:0:0:0:
152,240,169510,2,0,L|136:292,1,47.5,2|0,0:0|0:0,0:0:0:0:
360,236,169722,6,0,L|424:236,1,47.5,2|0,0:0|0:0,0:0:0:0:
200,184,169933,2,0,L|136:184,1,47.5,2|0,0:0|0:0,0:0:0:0:
360,176,170144,2,0,L|432:176,1,71.2500027179719,2|0,0:0|0:0,0:0:0:0:
204,128,170355,2,0,L|128:128,1,71.2500027179719,2|0,0:0|0:0,0:0:0:0:
335,168,170567,5,2,0:0:0:0:
431,176,170673,1,0,1:0:0:0:
339,220,170778,1,2,0:0:0:0:
435,228,170884,1,0,1:0:0:0:
168,148,170989,5,8,0:0:0:0:
72,156,171095,1,0,1:0:0:0:
164,200,171200,1,2,0:0:0:0:
68,208,171306,1,0,1:0:0:0:
284,188,171412,6,0,L|444:188,1,142.5,4|0,0:1|0:0,0:0:0:0:
252,144,171834,2,0,L|156:144,1,95,4|0,0:1|0:0,0:0:0:0:
220,184,172151,1,0,0:0:0:0:
388,208,172257,2,0,L|288:208,1,95,4|0,0:1|0:0,0:0:0:0:
356,272,172574,1,0,0:0:0:0:
140,260,172679,6,0,L|292:260,1,142.5,4|0,0:1|0:0,0:0:0:0:
116,104,173102,2,0,L|20:104,1,95,4|0,0:1|0:0,0:0:0:0:
84,144,173419,1,0,0:0:0:0:
304,124,173524,2,0,L|400:124,1,95,4|0,0:1|0:0,0:0:0:0:
336,168,173841,1,0,0:0:0:0:
148,144,173947,5,4,0:1:0:0:
224,200,174053,1,2,0:0:0:0:
144,232,174158,1,2,0:0:0:0:
136,284,174264,1,0,0:0:0:0:
380,296,174369,5,2,0:3:0:0:
300,256,174475,1,2,0:3:0:0:
384,236,174581,1,2,0:3:0:0:
388,188,174686,1,0,0:0:0:0:
96,168,174792,6,0,L|84:112,1,47.5,2|0,0:0|0:0,0:0:0:0:
200,136,175003,2,0,L|264:140,1,47.5,2|0,0:0|0:0,0:0:0:0:
56,144,175215,2,0,L|120:144,1,47.5,2|0,0:0|0:0,0:0:0:0:
344,156,175426,2,0,L|356:212,1,47.5,2|0,0:0|0:0,0:0:0:0:
168,208,175637,6,0,L|64:212,1,95,2|2,0:0|0:0,0:0:0:0:
136,164,175954,1,0,0:0:0:0:
364,168,176060,2,0,L|264:164,1,95,4|0,0:1|0:0,0:0:0:0:
332,236,176377,1,0,0:0:0:0:
164,244,176482,6,0,L|268:244,1,95,4|0,0:1|0:0,0:0:0:0:
196,196,176799,1,0,0:0:0:0:
32,172,176905,2,0,L|136:168,1,95,4|0,0:1|0:0,0:0:0:0:
64,136,177222,1,0,0:0:0:0:
248,160,177327,5,4,0:1:0:0:
248,128,177432,1,0,0:0:0:0:
160,104,177538,1,0,0:0:0:0:
260,104,177644,1,0,0:0:0:0:
428,124,177750,2,0,L|320:124,1,95,2|0,0:1|1:1,0:0:0:0:
396,168,178067,1,0,1:1:0:0:
216,216,178172,5,4,0:1:0:0:
160,212,178225,1,0,0:0:0:0:
104,204,178278,1,0,0:0:0:0:
304,216,178384,2,0,L|324:280,1,47.5,0|0,1:0|0:0,0:0:0:0:
140,256,178595,2,0,L|56:256,1,71.2500027179719,0|0,1:0|0:0,0:0:0:0:
320,284,178806,2,0,L|404:288,1,71.2500027179719,0|0,1:0|0:0,0:0:0:0:
172,176,179017,6,0,L|172:336,1,142.500005435944,0|0,3:3|1:0,0:0:0:0:
212,328,179281,1,0,0:0:0:0:
256,336,179334,1,0,1:0:0:0:
144,232,179440,2,0,L|220:232,1,71.2500027179719,0|0,1:0|0:0,0:0:0:0:
388,192,179651,2,0,L|368:92,1,71.2500027179719,0|0,1:0|0:0,0:0:0:0:
160,144,179862,6,0,L|68:144,1,71.2500027179719,0|0,1:0|0:0,0:0:0:0:
352,208,180074,2,0,L|428:200,1,71.2500027179719,2|0,0:0|0:0,0:0:0:0:
172,216,180285,2,0,L|152:140,1,71.2500027179719,2|0,0:0|0:0,0:0:0:0:
332,180,180496,2,0,L|248:148,1,71.2500027179719,2|0,0:0|0:0,0:0:0:0:
492,120,180707,5,2,0:0:0:0:
492,156,180760,1,0,0:0:0:0:
460,184,180813,1,0,0:0:0:0:
360,204,180919,1,2,2:1:0:0:
196,212,181024,1,2,0:0:0:0:
28,220,181129,1,2,0:0:0:0:
196,212,181235,1,2,0:0:0:0:
28,220,181341,1,0,0:0:0:0:
24,192,181393,1,0,0:0:0:0:
68,160,181446,1,0,0:0:0:0:
360,304,181553,6,0,L|432:164,1,142.500005435944,4|2,0:1|0:0,0:0:0:0:
344,168,181869,1,2,0:0:0:0:
144,184,181975,2,0,L|132:104,1,71.2500027179719,2|0,0:0|0:0,0:0:0:0:
360,152,182186,2,0,L|288:140,1,71.2500027179719,2|0,0:0|0:0,0:0:0:0:
88,200,182398,5,2,0:0:0:0:
60,232,182450,1,0,0:0:0:0:
88,260,182503,1,0,0:0:0:0:
292,216,182609,1,2,0:3:0:0:
320,248,182661,1,0,0:0:0:0:
292,276,182714,1,0,0:0:0:0:
184,264,182819,5,2,0:0:0:0:
156,296,182873,1,0,0:0:0:0:
184,324,182926,1,0,0:0:0:0:
376,268,183031,1,2,0:3:0:0:
404,300,183083,1,0,0:0:0:0:
376,328,183136,1,0,0:0:0:0:
168,224,183242,6,0,L|96:160,1,71.2500027179719,2|0,0:3|0:0,0:0:0:0:
336,216,183453,2,0,L|408:152,1,71.2500027179719,2|0,0:3|0:0,0:0:0:0:
136,256,183665,6,0,L|40:256,1,71.2500027179719,2|0,0:3|0:0,0:0:0:0:
344,264,183876,2,0,L|432:268,1,71.2500027179719,2|0,0:3|0:0,0:0:0:0:
152,184,184088,6,0,L|208:184,1,35.625001358986,2|0,0:0|0:0,0:0:0:0:
300,132,184193,2,0,L|352:128,1,35.625001358986,2|0,0:0|0:0,0:0:0:0:
468,204,184299,2,0,L|408:200,1,35.625001358986,2|0,0:0|0:0,0:0:0:0:
300,236,184405,2,0,L|260:236,1,35.625001358986,2|0,0:0|0:0,0:0:0:0:
128,244,184510,2,0,L|212:244,1,71.2500027179719,0|0,1:1|0:0,0:0:0:0:
24,156,184722,2,0,L|108:156,1,71.2500027179719,0|0,1:1|0:0,0:0:0:0:
340,164,184933,6,0,L|352:264,1,95,4|0,0:0|0:0,0:0:0:0:
280,264,185250,1,0,0:0:0:0:
460,188,185355,2,0,L|352:188,1,95,8|0,0:0|0:0,0:0:0:0:
72,200,185778,2,0,L|176:200,1,95,8|0,0:0|0:0,0:0:0:0:
332,200,186200,6,0,L|340:148,1,47.5,8|0,0:0|0:0,0:0:0:0:
224,148,186412,2,0,L|212:80,1,47.5,0|0,0:0|0:0,0:0:0:0:
440,116,186623,6,0,L|460:224,1,95,0|0,0:0|0:0,0:0:0:0:
380,216,186940,1,0,0:0:0:0:
176,220,187046,2,0,L|292:220,1,95,8|0,0:0|0:0,0:0:0:0:
432,144,187468,2,0,L|316:144,1,95,8|0,0:0|0:0,0:0:0:0:
168,152,187891,6,0,L|160:96,1,47.5,8|0,0:0|0:0,0:0:0:0:
276,116,188102,2,0,L|284:56,1,47.5,0|0,0:0|0:0,0:0:0:0:
76,76,188313,5,4,3:2:0:0:
20,128,188419,1,0,0:0:0:0:
32,200,188524,1,0,0:0:0:0:
88,240,188630,1,0,0:0:0:0:
140,280,188736,1,2,0:0:0:0:
144,336,188841,1,0,0:0:0:0:
84,368,188947,1,0,0:0:0:0:
164,376,189053,1,0,0:0:0:0:
364,348,189158,5,4,3:2:0:0:
436,296,189264,1,0,0:0:0:0:
432,216,189369,1,0,0:0:0:0:
356,180,189475,1,0,0:0:0:0:
268,180,189581,1,2,0:0:0:0:
364,136,189686,1,0,0:0:0:0:
264,128,189792,1,2,0:0:0:0:
360,96,189898,1,0,0:0:0:0:
136,140,190003,6,0,L|132:204,1,47.5,4|0,3:2|0:0,0:0:0:0:
244,184,190215,2,0,L|256:256,1,47.5,2|0,0:0|0:0,0:0:0:0:
88,228,190426,2,0,L|56:296,1,47.5,4|0,3:2|0:0,0:0:0:0:
308,248,190637,2,0,L|344:316,1,47.5,2|0,0:0|0:0,0:0:0:0:
156,304,190848,1,4,3:2:0:0:
300,248,191060,5,0,0:0:0:0:
240,204,191166,1,0,0:0:0:0:
224,172,191217,1,0,0:0:0:0:
248,140,191270,1,8,0:0:0:0:
308,128,191377,1,2,0:0:0:0:
408,136,191481,1,2,0:0:0:0:
84,148,191693,5,4,0:0:0:0:
256,168,191905,1,0,0:0:0:0:
188,168,192010,1,0,0:0:0:0:
392,124,192116,2,0,L|288:128,1,95,8|0,0:0|0:0,0:0:0:0:
116,168,192538,6,0,L|248:172,1,95,8|0,0:0|0:0,0:0:0:0:
272,200,192855,1,0,0:0:0:0:
108,232,192961,1,8,0:0:0:0:
60,280,193067,1,0,0:0:0:0:
108,328,193172,1,0,0:0:0:0:
388,292,193384,5,4,0:0:0:0:
216,180,193595,1,0,0:0:0:0:
284,180,193700,1,0,0:0:0:0:
80,136,193806,2,0,L|184:140,1,95,8|0,0:0|0:0,0:0:0:0:
480,192,194228,2,0,L|348:196,1,95,8|0,0:0|0:0,0:0:0:0:
344,196,194493,1,0,0:0:0:0:
304,196,194546,1,0,0:0:0:0:
136,200,194651,5,8,0:0:0:0:
300,256,194862,1,0,0:0:0:0:
28,264,195074,6,0,L|44:160,1,95,4|0,3:2|0:0,0:0:0:0:
316,200,195496,2,0,L|216:204,1,95,2|0,0:0|0:0,0:0:0:0:
492,124,195919,5,4,3:2:0:0:
204,148,196130,1,0,0:0:0:0:
292,164,196236,1,0,0:0:0:0:
208,208,196341,1,2,0:0:0:0:
296,216,196447,1,0,0:0:0:0:
376,244,196553,1,2,0:0:0:0:
296,276,196658,1,0,0:0:0:0:
132,256,196764,6,0,L|116:188,1,47.5,4|0,3:2|0:0,0:0:0:0:
224,232,196975,2,0,L|248:180,1,47.5,2|0,0:0|0:0,0:0:0:0:
76,168,197186,2,0,L|16:160,1,47.5,4|0,3:2|0:0,0:0:0:0:
282,172,197398,2,0,L|342:156,1,47.5,2|0,0:0|0:0,0:0:0:0:
148,160,197609,1,4,3:2:0:0:
328,160,197820,6,0,L|340:188,1,15.8333333333333,8|0,3:2|0:0,0:0:0:0:
184,192,198032,2,0,L|172:220,1,15.8333333333333,8|0,3:2|0:0,0:0:0:0:
40,224,198243,2,0,L|52:252,1,15.8333333333333,8|0,3:2|0:0,0:0:0:0:
304,248,198454,5,4,0:0:0:0:
256,192,198665,12,0,198691,0:0:0:0:
256,192,198877,12,0,198903,0:0:0:0:
256,192,199088,12,0,199114,0:0:0:0:
256,192,199299,12,0,199325,0:0:0:0:
256,192,199510,12,0,199536,0:0:0:0:
256,192,199722,12,0,199748,0:0:0:0:
256,192,199933,12,0,199959,0:0:0:0:
256,192,200144,12,0,200170,0:0:0:0:
256,192,200355,12,0,200381,0:0:0:0:
256,192,200567,12,0,200593,0:0:0:0:
256,192,200778,12,0,200804,0:0:0:0:
256,192,200989,12,0,201015,0:0:0:0:
256,192,201200,12,0,201226,0:0:0:0:
256,192,201412,12,0,201438,0:0:0:0:
212,252,201623,6,0,L|212:136,1,95
280,160,201781,1,0,0:0:0:0:
348,160,201834,1,0,0:0:0:0:
256,192,202046,12,0,202072,0:0:0:0:
256,192,202257,12,0,202283,0:0:0:0:
256,192,202467,12,0,202493,0:0:0:0:
256,192,202680,12,0,202706,0:0:0:0:
256,192,202891,12,0,202917,0:0:0:0:
256,192,203102,12,0,203128,0:0:0:0:
256,192,203312,12,0,203338,0:0:0:0:
256,192,203524,12,0,203550,0:0:0:0:
256,192,203735,12,0,203761,0:0:0:0:
256,192,203946,12,0,203972,0:0:0:0:
256,192,204158,12,0,204184,0:0:0:0:
256,192,204369,12,0,205003,0:0:0:0:
272,196,205215,5,2,0:3:0:0:
128,236,205426,5,0,3:3:0:0:
76,184,205531,1,0,0:0:0:0:
84,112,205637,1,2,0:3:0:0:
148,80,205743,1,0,0:0:0:0:
268,80,205848,6,0,L|284:200,1,95,0|0,3:3|0:0,0:0:0:0:
184,188,206165,2,0,L|168:296,1,95,2|0,0:3|0:0,0:0:0:0:
280,304,206482,1,2,0:3:0:0:
400,312,206693,1,2,0:0:0:0:
196,308,206905,5,2,0:3:0:0:
184,248,207010,1,0,0:0:0:0:
224,208,207116,1,0,3:3:0:0:
292,192,207222,1,0,0:0:0:0:
228,140,207327,1,2,0:3:0:0:
296,132,207433,1,0,0:0:0:0:
184,116,207538,6,0,L|164:220,1,95,0|0,3:3|0:0,0:0:0:0:
268,212,207855,2,0,L|288:316,1,95,2|0,0:3|0:0,0:0:0:0:
176,320,208172,1,2,0:3:0:0:
332,328,208384,1,2,0:0:0:0:
136,244,208595,6,0,L|264:248,1,95,2|0,0:3|3:3,0:0:0:0:
272,288,208912,1,0,0:0:0:0:
268,336,209017,1,2,0:3:0:0:
228,356,209123,1,0,0:0:0:0:
112,352,209229,6,0,L|100:248,1,95,0|0,3:3|0:0,0:0:0:0:
192,236,209546,2,0,L|208:128,1,95,2|0,0:3|0:0,0:0:0:0:
128,132,209862,1,2,0:3:0:0:
304,140,210074,1,2,0:0:0:0:
112,152,210285,5,2,0:3:0:0:
68,212,210391,1,0,0:0:0:0:
88,272,210496,1,0,3:3:0:0:
156,284,210602,1,0,0:0:0:0:
92,324,210708,1,2,0:3:0:0:
160,332,210813,1,0,0:0:0:0:
272,336,210919,6,0,L|288:220,1,95,0|0,3:3|0:0,0:0:0:0:
188,216,211236,2,0,L|172:100,1,95,2|0,0:3|0:0,0:0:0:0:
256,100,211553,1,2,0:3:0:0:
452,112,211764,1,2,0:0:0:0:
256,96,211975,6,0,L|120:100,1,95,2|0,0:3|3:3,0:0:0:0:
212,140,212292,1,0,0:0:0:0:
156,168,212398,1,2,0:3:0:0:
216,200,212503,1,0,0:0:0:0:
112,240,212609,6,0,L|84:344,1,95,0|0,3:3|0:0,0:0:0:0:
184,256,212926,2,0,L|212:356,1,95,2|0,0:3|0:0,0:0:0:0:
296,344,213243,1,2,0:3:0:0:
472,292,213454,1,2,0:0:0:0:
280,248,213665,6,0,L|140:248,1,95,2|0,0:3|3:3,0:0:0:0:
132,224,213982,1,0,0:0:0:0:
128,168,214088,1,2,0:3:0:0:
184,152,214193,1,0,0:0:0:0:
308,144,214299,6,0,L|332:272,1,95,0|0,3:3|0:0,0:0:0:0:
232,228,214616,2,0,L|216:328,1,95,2|0,0:3|0:0,0:0:0:0:
124,320,214933,1,2,0:3:0:0:
320,324,215144,1,2,0:0:0:0:
144,244,215355,6,0,L|264:244,1,95,2|0,0:3|3:3,0:0:0:0:
304,272,215672,1,0,0:0:0:0:
308,336,215778,1,2,0:3:0:0:
252,360,215884,1,0,0:0:0:0:
140,332,215989,6,0,L|244:328,1,95,0|0,3:3|0:0,0:0:0:0:
320,284,216306,2,0,L|212:280,1,95,2|0,0:3|0:0,0:0:0:0:
132,276,216623,1,2,0:3:0:0:
296,256,216834,1,2,0:0:0:0:
132,232,217046,5,2,0:3:0:0:
84,196,217151,1,0,0:0:0:0:
92,132,217257,1,0,3:3:0:0:
160,120,217362,1,0,0:0:0:0:
96,164,217468,1,2,0:3:0:0:
164,152,217574,1,0,0:0:0:0:
276,144,217679,2,0,L|156:148,1,95,0|0,3:3|0:0,0:0:0:0:
384,196,218102,5,2,0:0:0:0:
440,180,218172,1,2,0:0:0:0:
460,144,218242,1,2,0:0:0:0:
456,96,218313,1,2,0:1:0:0:
436,72,218366,1,0,0:0:0:0:
404,60,218419,1,0,0:0:0:0:
352,56,218471,1,0,0:0:0:0:
292,56,218524,6,0,B|160:44|64:84|64:84|40:140|52:244,1,380,2|0,0:1|3:3,0:0:0:0:
104,268,219053,1,0,0:0:0:0:
108,212,219158,1,2,0:3:0:0:
52,176,219264,1,0,0:0:0:0:
152,184,219369,6,0,L|248:184,1,95,0|0,3:3|0:0,0:0:0:0:
340,144,219686,2,0,L|244:144,1,95,2|0,0:3|0:0,0:0:0:0:
312,224,220003,1,2,0:3:0:0:
128,240,220215,1,2,0:0:0:0:
336,256,220426,5,2,0:3:0:0:
392,228,220531,1,0,0:0:0:0:
392,164,220637,1,0,3:3:0:0:
324,152,220743,1,0,0:0:0:0:
388,116,220848,1,2,0:3:0:0:
320,104,220954,1,0,0:0:0:0:
216,104,221060,6,0,L|108:104,1,95,0|0,3:3|0:0,0:0:0:0:
216,168,221377,2,0,L|324:168,1,95,2|0,0:3|0:0,0:0:0:0:
240,224,221693,1,2,0:3:0:0:
408,224,221905,1,2,0:0:0:0:
96,280,222116,6,0,L|204:280,1,95,2|0,0:3|3:3,0:0:0:0:
244,260,222433,1,0,0:0:0:0:
248,200,222538,1,2,0:3:0:0:
204,176,222644,1,0,0:0:0:0:
84,180,222750,6,0,L|72:288,1,95,0|0,3:3|0:0,0:0:0:0:
168,276,223067,2,0,L|176:384,1,95,2|0,0:3|0:0,0:0:0:0:
268,364,223384,1,2,0:3:0:0:
440,332,223595,1,2,0:0:0:0:
240,292,223806,6,0,L|128:288,1,95,2|0,0:3|3:3,0:0:0:0:
192,256,224123,1,0,0:0:0:0:
196,196,224229,1,2,0:3:0:0:
148,160,224334,1,0,0:0:0:0:
244,156,224440,6,0,L|252:272,1,95,0|0,3:3|0:0,0:0:0:0:
156,248,224757,2,0,L|148:364,1,95,2|0,0:3|0:0,0:0:0:0:
244,348,225074,1,2,0:3:0:0:
92,340,225285,1,2,0:0:0:0:
272,320,225496,5,2,0:3:0:0:
324,272,225602,1,0,0:0:0:0:
324,216,225708,1,0,3:3:0:0:
256,200,225813,1,0,0:0:0:0:
324,164,225919,1,2,0:3:0:0:
220,144,226024,1,0,0:0:0:0:
328,120,226130,6,0,L|344:232,1,95,0|0,3:3|0:0,0:0:0:0:
248,220,226447,2,0,L|232:328,1,95,2|0,0:3|0:0,0:0:0:0:
144,316,226764,1,2,0:3:0:0:
312,324,226975,1,2,0:0:0:0:
120,344,227186,6,0,L|88:208,1,95,2|0,0:3|3:3,0:0:0:0:
160,224,227503,1,0,0:0:0:0:
88,212,227609,1,2,0:3:0:0:
164,176,227715,1,0,0:0:0:0:
272,172,227820,6,0,L|404:176,1,95,0|0,3:3|0:0,0:0:0:0:
272,232,228137,2,0,L|140:236,1,95,2|0,0:3|0:0,0:0:0:0:
252,276,228454,1,2,0:3:0:0:
88,280,228665,1,2,0:0:0:0:
260,304,228877,6,0,L|368:304,1,95,2|0,0:3|0:0,0:0:0:0:
288,260,229193,1,0,0:0:0:0:
360,248,229299,1,2,0:3:0:0:
284,224,229405,1,0,0:0:0:0:
176,192,229510,6,0,L|160:312,1,95,0|0,3:3|0:0,0:0:0:0:
260,248,229827,2,0,L|276:128,1,95,2|0,0:3|0:0,0:0:0:0:
176,144,230144,1,2,0:3:0:0:
324,176,230355,1,2,0:0:0:0:
120,200,230567,6,0,L|116:276,1,47.5,2|0,0:3|0:0,0:0:0:0:
228,224,230778,2,0,L|240:304,1,47.5,0|0,3:3|0:0,0:0:0:0:
168,284,230989,1,2,0:3:0:0:
232,320,231095,1,0,0:0:0:0:
152,356,231200,6,0,L|40:356,1,95,0|0,3:3|0:0,0:0:0:0:
152,304,231517,2,0,L|264:304,1,95,2|0,0:3|0:0,0:0:0:0:
184,260,231834,1,2,0:3:0:0:
336,248,232046,1,0,0:0:0:0:
68,140,232257,6,0,B|428:132|428:132|487:235|434:367,1,570,2|0,0:1|0:0,0:0:0:0:
340,304,233806,5,2,0:0:0:0:
176,152,233947,2,0,P|128:268|304:312,1,356.25001358986,2|0,0:1|0:0,0:0:0:0:
364,300,234580,6,0,L|184:296,2,142.500005435944,2|2|2,0:0|0:0|0:0,0:0:0:0:
192,208,235214,2,0,L|372:208,1,142.500005435944,2|2,0:0|0:0,0:0:0:0:
152,148,235637,6,0,L|144:280,1,118.75,2|0,0:0|0:0,0:0:0:0:
304,236,236059,2,0,L|312:104,1,118.75,2|0,0:0|0:0,0:0:0:0:
140,156,236482,6,0,L|132:288,1,118.75,2|0,0:0|0:0,0:0:0:0:
308,244,236904,2,0,L|316:112,1,118.75,2|0,0:0|0:0,0:0:0:0:
132,164,237327,6,0,L|124:296,1,118.75,2|0,0:0|0:0,0:0:0:0:
292,260,237750,2,0,L|300:128,1,118.75,2|0,0:0|0:0,0:0:0:0:
120,152,238172,6,0,L|260:152,1,118.75,2|0,0:0|0:0,0:0:0:0:
396,224,238595,2,0,L|256:224,1,118.75,2|0,0:0|0:0,0:0:0:0:
120,224,239017,6,0,L|260:224,1,118.75,2|0,0:0|0:0,0:0:0:0:
412,296,239440,2,0,L|272:296,1,118.75,2|0,0:0|0:0,0:0:0:0:
136,268,239862,6,0,L|276:268,1,118.75,2|0,0:0|0:0,0:0:0:0:
432,340,240285,2,0,L|272:340,1,158.333333333333,2|0,0:0|0:0,0:0:0:0:
248,228,242398,5,0,0:0:0:0:
320,232,242671,1,0,0:0:0:0:
344,176,242808,1,2,0:0:0:0:
220,136,242945,5,8,0:1:0:0:
160,152,243082,1,0,0:0:0:0:
156,204,243219,1,0,0:0:0:0:
212,244,243356,1,0,0:0:0:0:
360,212,243493,1,0,0:0:0:0:
180,152,243767,1,2,0:0:0:0:
408,144,244041,1,8,0:1:0:0:
248,172,244589,5,0,0:0:0:0:
184,136,244726,1,0,0:0:0:0:
252,148,244863,1,0,0:1:0:0:
184,112,245000,1,0,0:0:0:0:
300,68,245137,5,8,0:1:0:0:
184,80,245411,1,0,0:0:0:0:
340,96,245685,1,0,0:1:0:0:
160,112,245959,1,2,0:0:0:0:
432,168,246233,1,8,0:1:0:0:
292,144,246777,5,0,0:0:0:0:
360,188,246913,1,0,0:0:0:0:
360,248,247049,1,0,0:0:0:0:
284,292,247186,1,2,0:0:0:0:
144,292,247322,1,8,0:1:0:0:
240,252,247595,5,0,0:0:0:0:
296,192,247731,1,0,0:0:0:0:
240,136,247867,1,0,0:0:0:0:
48,140,248140,1,2,0:0:0:0:
304,152,248413,1,8,0:1:0:0:
220,184,248942,5,0,0:0:0:0:
152,152,249070,1,0,0:0:0:0:
220,164,249198,1,0,0:1:0:0:
152,128,249326,1,0,0:0:0:0:
280,72,249454,1,0,0:0:0:0:
348,100,249583,1,0,0:0:0:0:
352,168,249711,1,0,0:1:0:0:
280,200,249839,1,0,0:0:0:0:
156,188,250049,5,8,0:1:0:0:
372,256,250321,1,2,0:0:0:0:
152,376,250594,2,0,P|92:224|192:152,1,285.000010871888,8|0,0:1|0:0,0:0:0:0:
412,152,251670,6,0,P|332:80|180:196,1,327.750006251335,8|0,0:1|0:0,0:0:0:0:
308,372,252215,2,0,P|376:220|252:172,1,327.750006251335,8|0,0:1|0:0,0:0:0:0:
132,240,252760,2,0,L|304:240,1,156.750004783631,8|0,0:1|0:0,0:0:0:0:
168,180,253306,5,0,0:0:0:0:
112,220,253442,1,0,0:0:0:0:
108,280,253579,1,2,0:0:0:0:
160,316,253715,1,0,0:0:0:0:
300,320,253851,6,0,L|160:324,1,113.999996520996,8|0,0:1|0:0,0:0:0:0:
264,352,254260,1,0,0:0:0:0:
192,368,254397,2,0,L|332:368,1,113.999996520996,0|2,0:0|0:0,0:0:0:0:
72,312,254942,1,8,0:1:0:0:
272,300,255488,5,0,0:0:0:0:
340,248,255624,1,0,0:0:0:0:
216,240,255760,1,0,0:1:0:0:
284,200,255897,1,0,0:0:0:0:
352,164,256033,1,0,0:0:0:0:
420,132,256170,1,0,0:0:0:0:
272,104,256306,5,0,0:1:0:0:
204,140,256442,1,0,0:0:0:0:
208,204,256579,1,0,0:0:0:0:
280,224,256715,1,0,0:0:0:0:
192,216,256851,1,8,0:1:0:0:
300,200,256988,1,0,0:0:0:0:
168,184,257124,1,8,0:1:0:0:
96,268,257670,6,0,L|236:268,1,113.999996520996,0|2,0:0|0:0,0:0:0:0:
280,264,258079,1,0,0:0:0:0:
176,192,258215,5,8,0:1:0:0:
112,244,258351,1,0,0:0:0:0:
120,320,258488,1,0,0:0:0:0:
188,340,258624,1,0,0:0:0:0:
348,328,258760,2,0,L|488:328,2,113.999996520996,0|2|8,0:0|0:0|0:1,0:0:0:0:
144,256,259851,6,0,L|292:256,1,113.999996520996,2|0,0:0|0:0,0:0:0:0:
348,248,260398,1,0,0:0:0:0:
400,196,260603,1,0,0:0:0:0:
416,120,260841,1,0,0:0:0:0:
384,56,261011,1,0,0:0:0:0:
232,28,261216,5,0,0:0:0:0:
324,112,261386,1,0,0:0:0:0:
136,156,261591,1,0,0:0:0:0:
280,188,261761,1,0,0:0:0:0:
208,228,261966,5,0,0:0:0:0:
192,136,262193,1,0,0:0:0:0:
260,64,262409,1,0,0:0:0:0:
144,52,262611,2,0,L|320:52,1,142.5
140,36,263124,6,0,P|52:136|360:32,1,1140.00004348755
328,192,268584,5,2,0:1:0:0:
196,192,269006,1,2,0:1:0:0:
328,192,269429,1,2,3:1:0:0:
332,208,269534,1,4,3:3:0:0:
192,220,269745,1,4,3:3:0:0:
188,252,269851,1,4,3:3:0:0:
340,284,270062,1,4,3:3:0:0:
44,308,270274,5,4,0:0:0:0:
144,280,270379,1,0,1:1:0:0:
48,260,270485,1,2,0:0:0:0:
148,224,270590,1,0,1:1:0:0:
356,264,270696,6,0,L|372:184,1,71.2500027179719,2|0,0:0|0:0,0:0:0:0:
196,256,270907,2,0,L|184:184,1,71.2500027179719,2|0,0:0|0:0,0:0:0:0:
304,156,271119,2,0,L|288:64,1,71.2500027179719,2|0,0:0|0:0,0:0:0:0:
108,120,271330,2,0,L|188:116,1,71.2500027179719,2|0,0:0|0:0,0:0:0:0:
400,160,271541,6,0,L|408:232,1,71.2500027179719,2|0,0:3|0:0,0:0:0:0:
168,200,271752,2,0,L|80:200,1,71.2500027179719,2|0,0:3|0:0,0:0:0:0:
356,304,271964,6,0,L|424:176,1,142.500005435944,4|2,0:0|0:0,0:0:0:0:
240,160,272281,1,2,0:0:0:0:
420,132,272386,1,2,0:3:0:0:
476,164,272492,1,0,0:0:0:0:
476,228,272597,1,0,0:0:0:0:
420,256,272703,1,0,0:0:0:0:
216,232,272809,5,0,1:1:0:0:
308,236,272914,1,2,0:0:0:0:
220,284,273020,1,0,1:1:0:0:
312,288,273126,1,2,0:0:0:0:
116,284,273231,6,0,L|108:188,1,71.2500027179719,2|0,3:3|0:0,0:0:0:0:
284,264,273443,2,0,L|288:176,1,71.2500027179719,2|0,3:3|0:0,0:0:0:0:
460,200,273654,6,0,L|440:116,1,71.2500027179719,4|0,1:0|0:0,0:0:0:0:
336,152,273865,2,0,L|328:64,1,71.2500027179719,2|0,0:0|0:0,0:0:0:0:
460,148,274076,2,0,L|472:64,1,71.2500027179719,2|0,0:0|0:0,0:0:0:0:
360,80,274288,1,2,0:0:0:0:
252,80,274393,1,0,0:0:0:0:
56,120,274499,6,0,L|36:196,1,71.2500027179719,4|0,1:0|0:0,0:0:0:0:
216,180,274710,2,0,L|332:176,1,71.2500027179719,2|0,0:0|0:0,0:0:0:0:
80,232,274921,1,2,0:3:0:0:
176,264,275027,1,2,0:3:0:0:
84,276,275133,1,2,0:3:0:0:
180,300,275238,1,2,0:3:0:0:
384,284,275344,6,0,L|436:228,1,71.2500027179719,4|0,0:0|0:0,0:0:0:0:
204,188,275555,2,0,L|152:112,1,71.2500027179719,2|0,0:0|0:0,0:0:0:0:
396,212,275766,2,0,L|480:212,1,71.2500027179719,4|0,0:0|0:0,0:0:0:0:
216,144,275978,2,0,L|128:136,1,71.2500027179719,2|0,0:0|0:0,0:0:0:0:
392,116,276189,2,0,L|392:164,1,47.5000018119813,4|0,0:0|0:0,0:0:0:0:
149,109,276400,5,8,0:0:0:0:
149,165,276506,1,0,0:0:0:0:
269,177,276611,1,8,0:0:0:0:
277,233,276717,1,0,0:0:0:0:
389,213,276823,1,8,0:0:0:0:
389,269,276929,1,0,0:0:0:0:
108,296,277034,6,0,P|84:252|156:200,1,142.500005435944,4|2,0:0|0:0,0:0:0:0:
320,196,277351,1,2,0:0:0:0:
144,152,277457,1,2,0:3:0:0:
76,208,277562,1,0,0:0:0:0:
80,288,277668,1,0,0:0:0:0:
144,328,277774,1,0,0:0:0:0:
376,316,277879,5,2,0:0:0:0:
284,284,277985,1,2,0:0:0:0:
372,256,278090,1,2,0:3:0:0:
280,228,278196,1,2,0:0:0:0:
108,212,278302,6,0,L|112:120,1,71.2500027179719,2|0,0:3|0:0,0:0:0:0:
380,160,278513,2,0,L|292:160,1,71.2500027179719,2|0,0:3|0:0,0:0:0:0:
72,184,278724,6,0,L|156:308,1,142.500005435944,4|2,0:0|0:0,0:0:0:0:
328,300,279041,1,2,0:0:0:0:
144,288,279147,1,2,0:3:0:0:
132,216,279252,1,0,0:0:0:0:
176,144,279358,1,0,0:0:0:0:
272,128,279464,1,0,0:0:0:0:
100,68,279569,5,2,0:3:0:0:
40,120,279675,1,0,0:0:0:0:
104,180,279781,1,0,0:0:0:0:
212,184,279886,1,0,0:0:0:0:
400,208,279992,6,0,L|428:120,1,71.2500027179719,2|0,3:3|0:0,0:0:0:0:
208,216,280203,2,0,L|296:212,1,71.2500027179719,2|0,3:3|0:0,0:0:0:0:
96,156,280414,5,4,1:0:0:0:
32,204,280520,1,0,0:0:0:0:
32,264,280626,1,2,0:0:0:0:
96,304,280731,1,0,0:0:0:0:
316,312,280837,2,0,L|400:296,1,71.2500027179719,2|0,0:0|0:0,0:0:0:0:
168,284,281048,2,0,L|152:196,1,71.2500027179719,2|0,0:0|0:0,0:0:0:0:
352,264,281259,5,4,1:0:0:0:
424,216,281365,1,0,0:0:0:0:
424,144,281471,1,2,0:0:0:0:
344,108,281576,1,0,0:0:0:0:
120,148,281682,5,2,0:3:0:0:
216,164,281788,1,2,0:3:0:0:
116,204,281893,1,2,0:3:0:0:
212,224,281999,1,2,0:3:0:0:
428,212,282104,6,0,L|476:136,1,71.2500027179719,4|0,0:0|0:0,0:0:0:0:
264,208,282316,2,0,L|216:132,1,71.2500027179719,2|0,0:0|0:0,0:0:0:0:
400,116,282527,2,0,L|484:116,1,71.2500027179719,4|0,0:0|0:0,0:0:0:0:
220,112,282739,2,0,L|132:112,1,71.2500027179719,2|0,0:0|0:0,0:0:0:0:
404,160,282950,2,0,L|404:208,1,47.5000018119813,4|0,0:0|0:0,0:0:0:0:
148,196,283161,5,8,0:0:0:0:
76,196,283266,1,0,0:0:0:0:
204,124,283372,1,8,0:0:0:0:
152,156,283478,1,0,0:0:0:0:
272,184,283583,1,8,0:0:0:0:
248,224,283689,1,0,0:0:0:0:
456,144,283795,6,0,P|460:212|388:244,1,142.500005435944,4|2,0:0|0:0,0:0:0:0:
216,248,284112,1,2,0:0:0:0:
404,264,284217,1,2,0:3:0:0:
472,224,284323,1,0,0:0:0:0:
472,152,284428,1,0,0:0:0:0:
408,128,284534,1,0,0:0:0:0:
156,212,284640,6,0,L|72:216,1,71.2500027179719,2|0,0:0|0:0,0:0:0:0:
280,236,284851,2,0,L|292:324,1,71.2500027179719,2|0,0:3|0:0,0:0:0:0:
188,284,285062,2,0,L|180:356,1,71.2500027179719,2|0,0:3|0:0,0:0:0:0:
408,300,285274,2,0,L|312:304,1,71.2500027179719,2|0,0:3|0:0,0:0:0:0:
152,320,285485,6,0,P|112:244|152:196,1,142.500005435944,4|2,0:0|0:0,0:0:0:0:
304,192,285802,1,2,0:0:0:0:
116,212,285907,1,2,0:3:0:0:
104,140,286012,1,0,0:0:0:0:
148,68,286118,1,0,0:0:0:0:
244,52,286224,1,0,0:0:0:0:
80,48,286330,5,2,0:3:0:0:
20,104,286435,1,0,0:0:0:0:
80,164,286541,1,0,0:0:0:0:
256,172,286647,1,0,0:0:0:0:
432,188,286752,5,2,3:3:0:0:
328,196,286858,1,0,0:0:0:0:
428,248,286964,1,2,3:3:0:0:
324,256,287069,1,0,0:0:0:0:
104,324,287175,5,4,1:0:0:0:
44,280,287281,1,0,0:0:0:0:
48,216,287386,1,2,0:0:0:0:
112,196,287492,1,0,0:0:0:0:
280,240,287597,5,2,0:0:0:0:
380,256,287703,1,0,0:0:0:0:
284,300,287809,1,2,0:0:0:0:
384,308,287914,1,0,0:0:0:0:
132,300,288020,5,4,1:0:0:0:
120,228,288125,1,0,0:0:0:0:
164,156,288231,1,2,0:0:0:0:
260,140,288337,1,0,0:0:0:0:
44,96,288443,5,2,0:3:0:0:
136,112,288549,1,2,0:3:0:0:
48,156,288655,1,2,0:3:0:0:
140,164,288760,1,2,0:3:0:0:
400,268,288865,6,0,L|404:176,1,71.2500027179719,4|0,0:0|0:0,0:0:0:0:
232,232,289076,2,0,L|212:156,1,71.2500027179719,2|0,0:0|0:0,0:0:0:0:
420,184,289288,2,0,L|488:136,1,71.2500027179719,4|0,0:0|0:0,0:0:0:0:
224,164,289499,2,0,L|144:164,1,71.2500027179719,2|0,0:0|0:0,0:0:0:0:
428,152,289710,2,0,L|428:204,1,47.5000018119813,4|0,0:0|0:0,0:0:0:0:
144,188,289921,5,8,0:0:0:0:
64,184,290027,1,0,0:0:0:0:
236,132,290133,1,8,0:0:0:0:
156,128,290239,1,0,0:0:0:0:
328,208,290344,1,8,0:0:0:0:
276,164,290450,1,0,0:0:0:0:
472,152,290555,6,0,L|360:276,1,142.500005435944,4|2,0:0|0:0,0:0:0:0:
200,256,290872,1,2,0:0:0:0:
400,268,290978,2,0,L|408:180,1,71.2500027179719,2|0,0:3|0:0,0:0:0:0:
212,200,291189,2,0,L|132:196,1,71.2500027179719,0|0,0:0|0:0,0:0:0:0:
352,208,291400,6,0,L|448:208,1,71.2500027179719,2|0,0:0|0:0,0:0:0:0:
160,152,291612,2,0,L|240:168,1,71.2500027179719,2|0,0:3|0:0,0:0:0:0:
128,212,291823,6,0,L|104:296,1,71.2500027179719,2|0,0:3|0:0,0:0:0:0:
332,228,292034,2,0,L|340:316,1,71.2500027179719,2|0,0:3|0:0,0:0:0:0:
156,248,292245,6,0,L|260:128,1,142.500005435944,4|2,0:0|0:0,0:0:0:0:
440,132,292562,1,2,0:0:0:0:
216,108,292668,2,0,L|116:112,1,71.2500027179719,2|0,0:3|0:0,0:0:0:0:
396,168,292879,2,0,L|404:244,1,71.2500027179719
144,264,293090,5,2,0:3:0:0:
96,192,293196,1,0,0:0:0:0:
180,152,293302,1,0,0:0:0:0:
348,180,293407,1,0,0:0:0:0:
164,220,293513,6,0,L|88:216,1,71.2500027179719,2|0,3:3|0:0,0:0:0:0:
328,272,293724,2,0,L|252:268,1,71.2500027179719,2|0,3:3|0:0,0:0:0:0:
424,328,293935,5,4,0:0:0:0:
480,284,294041,1,2,0:0:0:0:
460,220,294147,1,2,0:0:0:0:
376,200,294252,1,0,0:0:0:0:
296,176,294358,1,2,0:0:0:0:
264,120,294464,1,2,0:0:0:0:
292,68,294569,1,2,0:0:0:0:
368,60,294675,1,0,0:0:0:0:
96,328,294781,5,4,0:0:0:0:
28,288,294887,1,0,0:0:0:0:
28,224,294993,1,0,0:0:0:0:
96,200,295098,1,0,0:0:0:0:
296,220,295203,6,0,L|368:224,1,71.2500027179719,0|0,1:1|0:0,0:0:0:0:
176,168,295414,2,0,L|172:240,1,71.2500027179719,0|0,1:1|0:0,0:0:0:0:
336,224,295626,6,0,L|400:172,1,71.2500027179719,4|0,0:0|0:0,0:0:0:0:
168,204,295837,2,0,L|80:156,1,71.2500027179719,0|0,1:1|0:0,0:0:0:0:
384,216,296048,2,0,L|479:216,1,71.2500027179719,0|0,1:1|0:0,0:0:0:0:
148,224,296259,2,0,L|53:224,1,71.2500027179719,0|0,1:1|0:0,0:0:0:0:
456,280,296471,5,4,0:0:0:0:
492,256,296524,1,0,0:0:0:0:
492,216,296576,1,0,0:0:0:0:
456,184,296629,1,0,0:0:0:0:
340,168,296682,2,0,L|284:168,1,35.625001358986,2|0,1:3|0:0,0:0:0:0:
184,136,296788,2,0,L|132:136,1,35.625001358986,0|0,0:0|0:0,0:0:0:0:
28,184,296893,6,0,L|68:184,1,35.625001358986,2|0,1:3|0:0,0:0:0:0:
188,196,296999,2,0,L|236:196,1,35.625001358986,2|0,0:0|0:0,0:0:0:0:
352,212,297104,2,0,L|392:212,1,35.625001358986,2|0,1:3|0:0,0:0:0:0:
260,248,297210,2,0,L|192:240,1,35.625001358986,2|0,0:0|0:0,0:0:0:0:
368,172,297316,5,4,0:0:0:0:
456,212,297421,1,0,0:0:0:0:
452,296,297527,1,0,0:0:0:0:
372,328,297633,1,0,0:0:0:0:
164,328,297738,6,0,L|152:248,1,71.2500027179719,0|0,1:1|0:0,0:0:0:0:
264,236,297950,2,0,L|160:236,1,71.2500027179719,2|0,0:0|0:0,0:0:0:0:
432,116,298161,2,0,L|420:208,1,71.2500027179719,0|0,1:1|0:0,0:0:0:0:
312,164,298372,2,0,L|396:160,1,71.2500027179719,2|0,0:0|0:0,0:0:0:0:
91,160,298583,6,0,L|103:244,1,71.2500027179719,0|0,1:1|0:0,0:0:0:0:
203,232,298795,2,0,L|119:236,1,71.2500027179719,2|0,0:0|0:0,0:0:0:0:
408,164,299006,5,4,0:0:0:0:
476,208,299112,1,0,0:0:0:0:
476,280,299217,1,0,0:0:0:0:
400,316,299323,1,0,0:0:0:0:
132,236,299428,5,0,1:1:0:0:
208,236,299534,1,0,0:0:0:0:
128,224,299640,2,0,L|132:144,1,71.2500027179719,2|0,0:0|0:0,0:0:0:0:
388,228,299851,1,0,1:1:0:0:
308,220,299957,1,0,0:0:0:0:
392,212,300062,2,0,L|388:124,1,71.2500027179719,2|0,0:0|0:0,0:0:0:0:
104,212,300274,5,0,1:1:0:0:
192,204,300379,1,0,0:0:0:0:
104,164,300485,1,0,0:0:0:0:
192,156,300590,1,0,0:0:0:0:
408,200,300696,6,0,L|488:200,1,71.2500027179719,4|0,0:0|0:0,0:0:0:0:
180,208,300907,2,0,L|168:280,1,71.2500027179719,2|0,0:0|0:0,0:0:0:0:
284,252,301119,2,0,L|296:336,1,71.2500027179719,0|0,1:1|0:0,0:0:0:0:
84,304,301330,2,0,L|92:224,1,71.2500027179719,2|0,0:0|0:0,0:0:0:0:
396,232,301541,5,4,0:0:0:0:
464,184,301647,1,0,0:0:0:0:
460,112,301752,1,0,0:0:0:0:
388,92,301858,1,0,0:0:0:0:
168,148,301964,5,0,1:1:0:0:
84,164,302069,1,0,0:0:0:0:
172,196,302175,1,0,0:0:0:0:
88,208,302281,1,0,0:0:0:0:
376,228,302386,6,0,L|204:228,1,142.500005435944,4|0,0:0|0:0,0:0:0:0:
308,192,302703,1,2,0:0:0:0:
64,192,302809,2,0,L|224:188,1,142.500005435944,4|0,1:1|0:0,0:0:0:0:
128,156,303126,1,2,0:0:0:0:
376,228,303231,2,0,L|204:228,1,142.500005435944,4|0,1:1|0:0,0:0:0:0:
308,192,303548,1,2,0:0:0:0:
112,228,303654,6,0,L|88:140,1,71.2500027179719,0|0,1:1|0:0,0:0:0:0:
284,176,303865,2,0,L|296:84,1,71.2500027179719,0|0,0:0|0:0,0:0:0:0:
64,160,304076,6,0,L|168:160,1,71.2500027179719,4|0,0:0|0:0,0:0:0:0:
364,220,304288,2,0,L|372:136,1,71.2500027179719,2|0,0:0|0:0,0:0:0:0:
252,164,304499,2,0,L|224:240,1,71.2500027179719,2|0,0:3|0:0,0:0:0:0:
408,192,304710,2,0,L|488:192,1,71.2500027179719,2|0,0:0|0:0,0:0:0:0:
276,204,304921,2,0,L|172:204,1,71.2500027179719,2|0,0:3|0:0,0:0:0:0:
416,172,305133,5,2,0:0:0:0:
320,148,305238,1,0,1:1:0:0:
416,128,305344,2,0,L|432:48,1,71.2500027179719,2|0,0:3|0:0,0:0:0:0:
224,88,305555,2,0,L|128:84,1,71.2500027179719,2|0,0:0|0:0,0:0:0:0:
448,188,305766,6,0,L|352:188,1,71.2500027179719,4|0,0:0|0:0,0:0:0:0:
124,192,305978,2,0,L|32:192,1,71.2500027179719,2|0,0:0|0:0,0:0:0:0:
168,168,306189,2,0,L|196:84,1,71.2500027179719,2|0,0:3|0:0,0:0:0:0:
24,120,306400,2,0,L|48:36,1,71.2500027179719,2|0,0:0|0:0,0:0:0:0:
320,148,306612,2,0,L|236:152,1,71.2500027179719,2|0,0:3|0:0,0:0:0:0:
76,172,306823,5,2,0:0:0:0:
172,156,306928,1,0,1:1:0:0:
76,120,307034,2,0,L|68:40,1,71.2500027179719,2|0,0:3|0:0,0:0:0:0:
336,108,307245,2,0,L|432:108,1,71.2500027179719,2|0,0:0|0:0,0:0:0:0:
136,56,307457,5,4,0:0:0:0:
72,88,307562,1,0,0:0:0:0:
64,160,307668,1,2,0:0:0:0:
116,212,307774,1,2,0:3:0:0:
180,224,307879,1,2,0:0:0:0:
208,280,307985,1,0,0:0:0:0:
188,340,308090,1,2,0:0:0:0:
128,352,308196,1,2,0:3:0:0:
376,56,308302,5,4,0:0:0:0:
448,88,308407,1,0,0:0:0:0:
456,160,308513,1,2,0:0:0:0:
396,212,308619,1,2,0:0:0:0:
212,160,308724,5,2,0:3:0:0:
152,208,308830,1,0,0:0:0:0:
152,268,308935,1,2,0:0:0:0:
216,304,309041,1,2,0:0:0:0:
400,328,309147,5,0,3:0:0:0:
436,304,309200,1,0,0:0:0:0:
452,272,309252,1,0,0:0:0:0:
448,236,309305,1,0,0:0:0:0:
428,208,309358,1,0,0:0:0:0:
392,184,309411,1,0,0:0:0:0:
340,172,309464,1,0,0:0:0:0:
268,168,309516,1,0,0:0:0:0:
184,168,309569,5,0,0:0:0:0:
120,168,309622,1,0,0:0:0:0:
84,184,309675,1,0,0:0:0:0:
64,216,309728,1,0,0:0:0:0:
72,260,309781,1,0,0:0:0:0:
108,288,309833,1,0,0:0:0:0:
176,296,309886,1,0,0:0:0:0:
412,300,309992,5,4,0:0:0:0:
