osu file format v14

[General]
AudioFilename: audio.mp3
AudioLeadIn: 0
PreviewTime: 143911
Countdown: 1
SampleSet: Soft
StackLeniency: 0.7
Mode: 3
LetterboxInBreaks: 0
SpecialStyle: 0
WidescreenStoryboard: 0

[Editor]
DistanceSpacing: 1.3
BeatDivisor: 4
GridSize: 8
TimelineZoom: 3

[Metadata]
Title:Nobore! Susume! Takai Tou
TitleUnicode:Nobore! Susume! Takai Tou
Artist:KikuoHana
ArtistUnicode:KikuoHana
Creator:Xyzeria-sama
Version:Takai Tou We
Source:
Tags:
BeatmapID:1940442
BeatmapSetID:929057

[Difficulty]
HPDrainRate:8
CircleSize:4
OverallDifficulty:6
ApproachRate:5
SliderMultiplier:1.4
SliderTickRate:1

[Events]
//Background and Video events
0,0,"BG.jpg",0,0
//Break Periods
//Storyboard Layer 0 (Background)
//Storyboard Layer 1 (Fail)
//Storyboard Layer 2 (Pass)
//Storyboard Layer 3 (Foreground)
//Storyboard Sound Samples

[TimingPoints]
408,545.454545454546,4,2,0,4,1,0
423,-86.9565217391304,4,2,0,4,0,0
9123,422.535211267606,4,2,0,4,1,0
9123,-100,4,2,0,4,0,0
34475,-1000,4,2,0,4,0,0
34897,-500,4,2,0,4,0,0
34923,-333.333333333333,4,2,0,4,0,0
34950,-250,4,2,0,4,0,0
34976,-200,4,2,0,4,0,0
35003,-166.666666666667,4,2,0,4,0,0
35029,-142.857142857143,4,2,0,4,0,0
35055,-125,4,2,0,4,0,0
35082,-111.111111111111,4,2,0,4,0,0
35108,-100,4,2,0,4,0,0
62837,-102.040816326531,4,2,0,4,0,0
62890,-105.263157894737,4,2,0,4,0,0
62943,-107.52688172043,4,2,0,4,0,0
62996,-111.111111111111,4,2,0,4,0,0
63049,-113.636363636364,4,2,0,4,0,0
63101,-117.647058823529,4,2,0,4,0,0
63154,-120.481927710843,4,2,0,4,0,0
63207,-100,4,2,0,4,0,1
69123,-100,4,2,0,4,0,0
69968,-100,4,2,0,4,0,1
82644,-100,4,2,0,4,0,0
96799,-111.111111111111,4,2,0,4,0,0
101869,-1000,4,2,0,4,0,0
102292,-500,4,2,0,4,0,0
102318,-333.333333333333,4,2,0,4,0,0
102344,-250,4,2,0,4,0,0
102371,-200,4,2,0,4,0,0
102397,-166.666666666667,4,2,0,4,0,0
102424,-142.857142857143,4,2,0,4,0,0
102450,-125,4,2,0,4,0,0
102476,-111.111111111111,4,2,0,4,0,0
102714,-100,4,2,0,4,0,0
102925,-90.9090909090909,4,2,0,4,0,0
102978,-111.111111111111,4,2,0,4,0,0
103031,-90.9090909090909,4,2,0,4,0,0
103084,-111.111111111111,4,2,0,4,0,0
103137,-90.9090909090909,4,2,0,4,0,0
103189,-111.111111111111,4,2,0,4,0,0
103242,-90.9090909090909,4,2,0,4,0,0
103295,-111.111111111111,4,2,0,4,0,0
103348,-90.9090909090909,4,2,0,4,0,0
103401,-111.111111111111,4,2,0,4,0,0
103453,-90.9090909090909,4,2,0,4,0,0
103506,-111.111111111111,4,2,0,4,0,0
103559,-90.9090909090909,4,2,0,4,0,0
103612,-111.111111111111,4,2,0,4,0,0
103665,-90.9090909090909,4,2,0,4,0,0
103718,-111.111111111111,4,2,0,4,0,0
103770,-100,4,2,0,4,0,0
143489,-95.2380952380952,4,2,0,4,0,0
143594,-90.9090909090909,4,2,0,4,0,0
143700,-86.9565217391304,4,2,0,4,0,0
143806,-90.9090909090909,4,2,0,4,0,0
143911,-100,4,2,0,4,0,0
144017,-111.111111111111,4,2,0,4,0,0
144123,-125,4,2,0,4,0,0
144228,-142.857142857143,4,2,0,4,0,0
144334,-100,4,2,0,4,0,1
150672,-100,4,2,0,4,0,0
151094,-100,4,2,0,4,0,1
157115,-100,4,2,0,4,0,0
157855,-100,4,2,0,4,0,1
171270,-100,4,2,0,4,0,0
171376,-100,4,2,0,4,0,1
184897,-100,4,2,0,4,0,0
198418,-10000,4,2,0,4,0,0
205179,-100,4,2,0,4,0,0
234756,-50,4,2,0,4,0,0
234810,-100,4,2,0,4,0,0
234968,-50,4,2,0,4,0,0
235021,-100,4,2,0,4,0,0
235179,-50,4,2,0,4,0,0
235232,-100,4,2,0,4,0,0
242364,545.454545454546,4,2,0,4,1,0
242364,-86.9565217391304,4,2,0,4,0,0
260364,410.958904109589,4,2,0,4,1,0
260364,-103.092783505155,4,2,0,4,0,0
260569,476.190476190476,4,2,0,4,1,0
260569,-88.4955752212389,4,2,0,4,0,0
260807,340.909090909091,4,2,0,4,1,0
260807,-123.456790123457,4,2,0,4,0,0
260977,410.958904109589,4,2,0,4,1,0
260977,-103.092783505155,4,2,0,4,0,0
261182,340.909090909091,4,2,0,4,1,0
261182,-123.456790123457,4,2,0,4,0,0
261352,410.958904109589,4,2,0,4,1,0
261352,-103.092783505155,4,2,0,4,0,0
261557,340.909090909091,4,2,0,4,1,0
261557,-123.456790123457,4,2,0,4,0,0
261727,410.958904109589,4,2,0,4,1,0
261727,-103.092783505155,4,2,0,4,0,0
261932,451.127819548872,4,2,0,4,1,0
261932,-93.4579439252336,4,2,0,4,0,0
262157,422.535211267606,4,2,0,4,1,0
262368,405.405405405405,4,2,0,4,1,0
262368,-104.166666666667,4,2,0,4,0,0
262570,483.870967741935,4,2,0,4,1,0
262811,545.454545454546,4,2,0,4,1,0
263083,576.923076923077,4,2,0,4,1,0
263083,-100,4,2,0,4,0,0
268543,422.535211267606,4,2,0,4,1,0
268543,-136.986301369863,4,2,0,4,0,0
268965,-117.647058823529,4,2,0,4,0,0
269388,-105.263157894737,4,2,0,4,0,0
269810,-100,4,2,0,4,0,0
270233,-100,4,2,0,4,0,1
276148,-100,4,2,0,4,0,0
276993,-100,4,2,0,4,0,1
282909,-100,4,2,0,4,0,0
283754,-100,4,2,0,4,0,1
289669,-100,4,2,0,4,0,0
290514,-100,4,2,0,4,0,1
293895,-99.009900990099,4,2,0,4,0,1
294317,-98.0392156862745,4,2,0,4,0,1
294740,-97.0873786407767,4,2,0,4,0,1
295162,-96.1538461538461,4,2,0,4,0,1
295585,-95.2380952380952,4,2,0,4,0,1
296007,-94.3396226415094,4,2,0,4,0,1
296430,-92.5925925925926,4,2,0,4,0,1
296852,-90.9090909090909,4,2,0,4,0,0
297275,-100,4,2,0,4,0,1
309106,-100,4,2,0,4,0,0
309317,-90.9090909090909,4,2,0,4,0,0
309528,-83.3333333333333,4,2,0,4,0,0
309740,-76.9230769230769,4,2,0,4,0,0

[HitObjects]
320,192,408,128,0,680:0:0:0:0:
192,192,680,128,0,771:0:0:0:0:
64,192,680,128,0,771:0:0:0:0:
64,192,953,128,0,1044:0:0:0:0:
192,192,953,128,0,1044:0:0:0:0:
320,192,1226,128,0,1408:0:0:0:0:
192,192,1498,128,0,1771:0:0:0:0:
448,192,1771,128,0,1862:0:0:0:0:
320,192,1771,128,0,1862:0:0:0:0:
320,192,2044,128,0,2135:0:0:0:0:
448,192,2044,128,0,2135:0:0:0:0:
64,192,2317,1,0,0:0:0:0:
192,192,2408,1,0,0:0:0:0:
320,192,2498,1,0,0:0:0:0:
64,192,2589,128,0,2862:0:0:0:0:
192,192,2862,128,0,2953:0:0:0:0:
320,192,2862,128,0,2953:0:0:0:0:
448,192,3135,128,0,3408:0:0:0:0:
320,192,3408,128,0,3498:0:0:0:0:
192,192,3408,128,0,3498:0:0:0:0:
320,192,3680,128,0,3953:0:0:0:0:
192,192,3953,128,0,4044:0:0:0:0:
64,192,3953,128,0,4044:0:0:0:0:
64,192,4226,128,0,4317:0:0:0:0:
192,192,4226,128,0,4317:0:0:0:0:
320,192,4498,1,0,0:0:0:0:
192,192,4635,1,0,0:0:0:0:
64,192,4771,128,0,5044:0:0:0:0:
320,192,5044,128,0,5135:0:0:0:0:
448,192,5044,128,0,5135:0:0:0:0:
320,192,5317,128,0,5408:0:0:0:0:
448,192,5317,128,0,5408:0:0:0:0:
64,192,5589,128,0,5726:0:0:0:0:
192,192,5726,1,0,0:0:0:0:
320,192,5794,1,0,0:0:0:0:
448,192,5862,128,0,6135:0:0:0:0:
64,192,6135,128,0,6226:0:0:0:0:
320,192,6135,128,0,6226:0:0:0:0:
64,192,6408,128,0,6498:0:0:0:0:
320,192,6408,128,0,6498:0:0:0:0:
192,192,6680,1,0,0:0:0:0:
320,192,6771,1,0,0:0:0:0:
448,192,6862,1,0,0:0:0:0:
64,192,6953,128,0,7226:0:0:0:0:
192,192,7226,128,0,7317:0:0:0:0:
448,192,7226,128,0,7317:0:0:0:0:
320,192,7498,128,0,7771:0:0:0:0:
64,192,7771,128,0,7862:0:0:0:0:
448,192,7771,128,0,7862:0:0:0:0:
192,192,8044,128,0,8317:0:0:0:0:
320,192,8317,128,0,8408:0:0:0:0:
448,192,8317,128,0,8408:0:0:0:0:
64,192,8544,128,0,8998:0:0:0:0:
192,192,8589,128,0,8998:0:0:0:0:
448,192,9123,128,0,9263:0:0:0:0:
64,192,9334,128,0,9439:0:0:0:0:
320,192,9545,128,0,9615:0:0:0:0:
192,192,9756,128,0,9862:0:0:0:0:
448,192,9968,128,0,10038:0:0:0:0:
64,192,10179,128,0,10284:0:0:0:0:
320,192,10390,128,0,10461:0:0:0:0:
192,192,10601,128,0,10707:0:0:0:0:
64,192,10813,128,0,10883:0:0:0:0:
320,192,11024,128,0,11130:0:0:0:0:
448,192,11341,128,0,11446:0:0:0:0:
192,192,11446,128,0,11517:0:0:0:0:
320,192,11658,128,0,11728:0:0:0:0:
64,192,11869,128,0,11939:0:0:0:0:
320,192,11975,128,0,12186:0:0:0:0:
448,192,11975,128,0,12186:0:0:0:0:
192,192,12292,128,0,12397:0:0:0:0:
320,192,12503,128,0,12608:0:0:0:0:
64,192,12714,128,0,12820:0:0:0:0:
192,192,12925,128,0,12996:0:0:0:0:
448,192,13137,128,0,13242:0:0:0:0:
320,192,13348,128,0,13453:0:0:0:0:
64,192,13559,128,0,13665:0:0:0:0:
448,192,13559,128,0,13665:0:0:0:0:
192,192,13770,128,0,13876:0:0:0:0:
320,192,13982,128,0,14087:0:0:0:0:
448,192,13982,128,0,14087:0:0:0:0:
192,192,14193,128,0,14475:0:0:0:0:
64,192,14193,128,0,14475:0:0:0:0:
320,192,14615,128,0,14897:0:0:0:0:
448,192,14615,128,0,14897:0:0:0:0:
64,192,15038,128,0,15249:0:0:0:0:
192,192,15038,128,0,15249:0:0:0:0:
192,192,15355,128,0,15672:0:0:0:0:
320,192,15355,128,0,15672:0:0:0:0:
448,192,15883,128,0,16094:0:0:0:0:
320,192,16094,128,0,16130:0:0:0:0:
192,192,16165,128,0,16200:0:0:0:0:
64,192,16200,128,0,16376:0:0:0:0:
320,192,16235,128,0,16270:0:0:0:0:
448,192,16306,128,0,16411:0:0:0:0:
192,192,16517,128,0,16728:0:0:0:0:
320,192,16517,128,0,16623:0:0:0:0:
64,192,16728,128,0,16939:0:0:0:0:
320,192,16939,1,0,0:0:0:0:
192,192,17010,1,0,0:0:0:0:
448,192,17045,128,0,17256:0:0:0:0:
64,192,17080,1,0,0:0:0:0:
320,192,17151,128,0,17256:0:0:0:0:
64,192,17362,128,0,17503:0:0:0:0:
192,192,17362,128,0,17468:0:0:0:0:
320,192,17573,128,0,17784:0:0:0:0:
64,192,17784,1,0,0:0:0:0:
192,192,17855,1,0,0:0:0:0:
448,192,17890,128,0,18101:0:0:0:0:
320,192,17925,1,0,0:0:0:0:
64,192,17996,128,0,18101:0:0:0:0:
192,192,18207,128,0,18348:0:0:0:0:
320,192,18207,128,0,18313:0:0:0:0:
64,192,18418,128,0,18630:0:0:0:0:
320,192,18735,128,0,19052:0:0:0:0:
448,192,18735,128,0,19052:0:0:0:0:
192,192,19052,128,0,19193:0:0:0:0:
64,192,19263,128,0,19897:0:0:0:0:
192,192,19580,128,0,19897:0:0:0:0:
320,192,19897,128,0,20038:0:0:0:0:
448,192,20108,128,0,20742:0:0:0:0:
320,192,20425,128,0,20742:0:0:0:0:
64,192,20742,128,0,20848:0:0:0:0:
192,192,20953,128,0,21024:0:0:0:0:
320,192,20953,128,0,21024:0:0:0:0:
320,192,21376,128,0,21446:0:0:0:0:
448,192,21376,128,0,21446:0:0:0:0:
64,192,21799,128,0,21904:0:0:0:0:
192,192,21799,128,0,21904:0:0:0:0:
320,192,21904,128,0,21957:0:0:0:0:
448,192,21957,128,0,22010:0:0:0:0:
64,192,22010,128,0,22063:0:0:0:0:
192,192,22063,128,0,22115:0:0:0:0:
320,192,22115,128,0,22168:0:0:0:0:
448,192,22168,128,0,22221:0:0:0:0:
192,192,22221,128,0,22274:0:0:0:0:
64,192,22274,128,0,22327:0:0:0:0:
320,192,22327,128,0,22380:0:0:0:0:
192,192,22380,128,0,22432:0:0:0:0:
448,192,22432,128,0,22485:0:0:0:0:
64,192,22485,128,0,22538:0:0:0:0:
192,192,22538,128,0,22591:0:0:0:0:
320,192,22591,128,0,22644:0:0:0:0:
64,192,22644,1,0,0:0:0:0:
448,192,22644,1,0,0:0:0:0:
192,192,22855,128,0,22925:0:0:0:0:
64,192,22855,128,0,22925:0:0:0:0:
448,192,23066,128,0,23489:0:0:0:0:
192,192,23066,128,0,23172:0:0:0:0:
320,192,23066,128,0,23172:0:0:0:0:
64,192,23277,1,0,0:0:0:0:
192,192,23383,1,0,0:0:0:0:
320,192,23489,128,0,23911:0:0:0:0:
192,192,23489,128,0,23524:0:0:0:0:
64,192,23489,128,0,23524:0:0:0:0:
448,192,23594,1,0,0:0:0:0:
64,192,23700,128,0,23806:0:0:0:0:
192,192,23700,128,0,23806:0:0:0:0:
448,192,23911,1,0,0:0:0:0:
64,192,23911,1,0,0:0:0:0:
192,192,24123,128,0,24228:0:0:0:0:
320,192,24123,128,0,24228:0:0:0:0:
64,192,24334,1,0,0:0:0:0:
192,192,24334,1,0,0:0:0:0:
320,192,24334,1,0,0:0:0:0:
448,192,24334,1,0,0:0:0:0:
64,192,24545,128,0,24615:0:0:0:0:
320,192,24545,128,0,24615:0:0:0:0:
192,192,24756,128,0,25179:0:0:0:0:
320,192,24756,128,0,24862:0:0:0:0:
448,192,24756,128,0,24862:0:0:0:0:
64,192,24968,1,0,0:0:0:0:
320,192,25073,1,0,0:0:0:0:
320,192,25179,128,0,25601:0:0:0:0:
64,192,25179,128,0,25214:0:0:0:0:
448,192,25179,128,0,25214:0:0:0:0:
192,192,25284,1,0,0:0:0:0:
64,192,25390,128,0,25496:0:0:0:0:
448,192,25390,128,0,25496:0:0:0:0:
64,192,25601,1,0,0:0:0:0:
192,192,25601,1,0,0:0:0:0:
192,192,25813,128,0,25918:0:0:0:0:
448,192,25813,128,0,25918:0:0:0:0:
320,192,26024,128,0,26235:0:0:0:0:
64,192,26024,1,0,0:0:0:0:
192,192,26024,1,0,0:0:0:0:
448,192,26024,1,0,0:0:0:0:
192,192,26235,128,0,26306:0:0:0:0:
64,192,26235,128,0,26306:0:0:0:0:
320,192,26446,128,0,26658:0:0:0:0:
64,192,26658,128,0,26728:0:0:0:0:
448,192,26658,128,0,26728:0:0:0:0:
192,192,26869,128,0,27080:0:0:0:0:
64,192,26869,1,0,0:0:0:0:
320,192,26869,1,0,0:0:0:0:
448,192,26869,1,0,0:0:0:0:
320,192,27080,128,0,27186:0:0:0:0:
448,192,27080,128,0,27186:0:0:0:0:
64,192,27186,128,0,27239:0:0:0:0:
192,192,27239,128,0,27292:0:0:0:0:
320,192,27292,128,0,27344:0:0:0:0:
448,192,27292,128,0,27344:0:0:0:0:
192,192,27503,128,0,27608:0:0:0:0:
64,192,27503,128,0,27608:0:0:0:0:
64,192,27714,1,0,0:0:0:0:
320,192,27714,1,0,0:0:0:0:
448,192,27714,1,0,0:0:0:0:
192,192,27714,1,0,0:0:0:0:
192,192,27925,128,0,27996:0:0:0:0:
320,192,27925,128,0,27996:0:0:0:0:
64,192,28137,128,0,28207:0:0:0:0:
192,192,28137,128,0,28207:0:0:0:0:
320,192,28137,128,0,28207:0:0:0:0:
320,192,28348,128,0,28418:0:0:0:0:
448,192,28348,128,0,28418:0:0:0:0:
64,192,28559,128,0,28665:0:0:0:0:
192,192,28559,128,0,28665:0:0:0:0:
448,192,28559,128,0,28665:0:0:0:0:
320,192,28770,1,0,0:0:0:0:
192,192,28876,1,0,0:0:0:0:
64,192,28982,1,0,0:0:0:0:
448,192,28982,128,0,29052:0:0:0:0:
320,192,29052,128,0,29123:0:0:0:0:
192,192,29123,128,0,29193:0:0:0:0:
64,192,29193,128,0,29263:0:0:0:0:
320,192,29299,1,0,0:0:0:0:
448,192,29404,1,0,0:0:0:0:
192,192,29404,1,0,0:0:0:0:
320,192,29615,128,0,29721:0:0:0:0:
64,192,29827,1,0,0:0:0:0:
192,192,29827,1,0,0:0:0:0:
448,192,30038,128,0,30144:0:0:0:0:
192,192,30249,1,0,0:0:0:0:
320,192,30249,1,0,0:0:0:0:
64,192,30461,128,0,30566:0:0:0:0:
320,192,30672,1,0,0:0:0:0:
448,192,30672,1,0,0:0:0:0:
192,192,30883,128,0,30989:0:0:0:0:
64,192,31094,128,0,31147:0:0:0:0:
448,192,31094,128,0,31147:0:0:0:0:
320,192,31147,128,0,31200:0:0:0:0:
192,192,31200,128,0,31253:0:0:0:0:
64,192,31253,128,0,31306:0:0:0:0:
320,192,31306,128,0,31358:0:0:0:0:
448,192,31358,128,0,31411:0:0:0:0:
192,192,31411,128,0,31464:0:0:0:0:
64,192,31464,128,0,31517:0:0:0:0:
320,192,31517,128,0,31570:0:0:0:0:
448,192,31517,128,0,31570:0:0:0:0:
192,192,31570,128,0,31623:0:0:0:0:
64,192,31623,128,0,31675:0:0:0:0:
320,192,31675,128,0,31728:0:0:0:0:
448,192,31728,128,0,31781:0:0:0:0:
192,192,31781,128,0,31834:0:0:0:0:
64,192,31834,128,0,31887:0:0:0:0:
320,192,31939,1,0,0:0:0:0:
448,192,31939,1,0,0:0:0:0:
64,192,32151,128,0,32256:0:0:0:0:
192,192,32151,128,0,32256:0:0:0:0:
320,192,32256,128,0,32362:0:0:0:0:
448,192,32256,128,0,32362:0:0:0:0:
192,192,32362,128,0,32468:0:0:0:0:
64,192,32362,128,0,32468:0:0:0:0:
320,192,32468,128,0,32573:0:0:0:0:
448,192,32468,128,0,32573:0:0:0:0:
192,192,32573,128,0,32679:0:0:0:0:
64,192,32573,128,0,32679:0:0:0:0:
320,192,32784,128,0,32996:0:0:0:0:
448,192,32784,128,0,32996:0:0:0:0:
192,192,32996,128,0,33101:0:0:0:0:
64,192,33207,1,0,0:0:0:0:
448,192,33207,1,0,0:0:0:0:
320,192,33418,128,0,33524:0:0:0:0:
192,192,33630,1,0,0:0:0:0:
448,192,33630,1,0,0:0:0:0:
64,192,33841,128,0,33946:0:0:0:0:
320,192,34052,1,0,0:0:0:0:
448,192,34052,1,0,0:0:0:0:
192,192,34263,128,0,34369:0:0:0:0:
320,192,34475,1,0,0:0:0:0:
64,192,34475,1,0,0:0:0:0:
320,192,35214,128,0,35320:0:0:0:0:
192,192,35320,128,0,35425:0:0:0:0:
64,192,35320,1,0,0:0:0:0:
320,192,35425,128,0,35531:0:0:0:0:
448,192,35425,1,0,0:0:0:0:
192,192,35531,128,0,35637:0:0:0:0:
64,192,35531,1,0,0:0:0:0:
320,192,35637,128,0,35742:0:0:0:0:
448,192,35637,1,0,0:0:0:0:
192,192,35742,128,0,35848:0:0:0:0:
64,192,35742,1,0,0:0:0:0:
320,192,35848,128,0,35953:0:0:0:0:
192,192,35953,128,0,36059:0:0:0:0:
64,192,35953,1,0,0:0:0:0:
320,192,36059,128,0,36165:0:0:0:0:
64,192,36165,1,0,0:0:0:0:
448,192,36165,1,0,0:0:0:0:
192,192,36376,1,0,0:0:0:0:
320,192,36446,1,0,0:0:0:0:
448,192,36517,1,0,0:0:0:0:
64,192,36587,128,0,36693:0:0:0:0:
192,192,36587,128,0,36693:0:0:0:0:
320,192,36799,128,0,37010:0:0:0:0:
448,192,36799,128,0,37010:0:0:0:0:
192,192,37010,1,0,0:0:0:0:
64,192,37010,1,0,0:0:0:0:
448,192,37221,1,0,0:0:0:0:
320,192,37292,1,0,0:0:0:0:
192,192,37362,1,0,0:0:0:0:
64,192,37432,128,0,37538:0:0:0:0:
448,192,37432,128,0,37538:0:0:0:0:
320,192,37644,128,0,37855:0:0:0:0:
192,192,37644,128,0,37855:0:0:0:0:
64,192,37855,1,0,0:0:0:0:
448,192,37855,1,0,0:0:0:0:
320,192,38066,1,0,0:0:0:0:
192,192,38137,1,0,0:0:0:0:
448,192,38207,1,0,0:0:0:0:
64,192,38277,128,0,38383:0:0:0:0:
192,192,38277,128,0,38383:0:0:0:0:
320,192,38489,128,0,38700:0:0:0:0:
448,192,38489,128,0,38700:0:0:0:0:
192,192,38700,128,0,38753:0:0:0:0:
64,192,38753,128,0,38806:0:0:0:0:
448,192,38806,128,0,38858:0:0:0:0:
192,192,38858,128,0,38911:0:0:0:0:
320,192,38911,128,0,38964:0:0:0:0:
64,192,38964,128,0,39017:0:0:0:0:
192,192,39017,128,0,39070:0:0:0:0:
320,192,39070,128,0,39123:0:0:0:0:
64,192,39123,128,0,39175:0:0:0:0:
448,192,39123,128,0,39175:0:0:0:0:
192,192,39175,128,0,39228:0:0:0:0:
320,192,39228,128,0,39281:0:0:0:0:
448,192,39281,128,0,39334:0:0:0:0:
192,192,39334,128,0,39387:0:0:0:0:
64,192,39334,128,0,39387:0:0:0:0:
320,192,39387,128,0,39439:0:0:0:0:
448,192,39439,128,0,39492:0:0:0:0:
192,192,39492,128,0,39545:0:0:0:0:
64,192,39545,128,0,39598:0:0:0:0:
320,192,39545,128,0,39598:0:0:0:0:
192,192,39756,128,0,39862:0:0:0:0:
320,192,39756,128,0,39862:0:0:0:0:
64,192,39862,128,0,39968:0:0:0:0:
448,192,39862,128,0,39968:0:0:0:0:
192,192,39968,128,0,40073:0:0:0:0:
320,192,39968,128,0,40073:0:0:0:0:
64,192,40179,128,0,40284:0:0:0:0:
192,192,40179,128,0,40284:0:0:0:0:
64,192,40390,1,0,0:0:0:0:
192,192,40390,1,0,0:0:0:0:
64,192,40601,128,0,40707:0:0:0:0:
448,192,40601,128,0,40707:0:0:0:0:
192,192,40707,128,0,40813:0:0:0:0:
320,192,40707,128,0,40813:0:0:0:0:
64,192,40813,128,0,40918:0:0:0:0:
448,192,40813,128,0,40918:0:0:0:0:
320,192,41024,128,0,41130:0:0:0:0:
448,192,41024,128,0,41130:0:0:0:0:
192,192,41235,128,0,41341:0:0:0:0:
64,192,41235,128,0,41341:0:0:0:0:
320,192,41446,128,0,41552:0:0:0:0:
448,192,41446,128,0,41552:0:0:0:0:
192,192,41552,128,0,41658:0:0:0:0:
64,192,41552,128,0,41658:0:0:0:0:
320,192,41658,128,0,41763:0:0:0:0:
448,192,41658,128,0,41763:0:0:0:0:
64,192,41869,128,0,41975:0:0:0:0:
192,192,41869,128,0,41975:0:0:0:0:
320,192,41975,128,0,42080:0:0:0:0:
448,192,41975,128,0,42080:0:0:0:0:
192,192,42080,128,0,42292:0:0:0:0:
64,192,42080,128,0,42292:0:0:0:0:
64,192,42925,1,0,0:0:0:0:
320,192,42925,1,0,0:0:0:0:
448,192,42925,1,0,0:0:0:0:
192,192,42925,1,0,0:0:0:0:
320,192,43137,128,0,43242:0:0:0:0:
64,192,43242,128,0,43348:0:0:0:0:
448,192,43348,128,0,43770:0:0:0:0:
192,192,43348,128,0,43453:0:0:0:0:
320,192,43453,128,0,43559:0:0:0:0:
64,192,43559,128,0,43665:0:0:0:0:
192,192,43770,128,0,44193:0:0:0:0:
64,192,43770,1,0,0:0:0:0:
320,192,43770,128,0,43876:0:0:0:0:
448,192,43876,1,0,0:0:0:0:
64,192,43982,128,0,44087:0:0:0:0:
320,192,43982,128,0,44087:0:0:0:0:
320,192,44193,1,0,0:0:0:0:
448,192,44193,1,0,0:0:0:0:
64,192,44404,128,0,44510:0:0:0:0:
192,192,44404,128,0,44510:0:0:0:0:
64,192,44615,1,0,0:0:0:0:
320,192,44615,1,0,0:0:0:0:
448,192,44615,1,0,0:0:0:0:
192,192,44615,1,0,0:0:0:0:
192,192,44827,128,0,44932:0:0:0:0:
64,192,44932,128,0,45038:0:0:0:0:
448,192,45038,128,0,45461:0:0:0:0:
320,192,45038,128,0,45144:0:0:0:0:
192,192,45144,128,0,45249:0:0:0:0:
64,192,45249,128,0,45355:0:0:0:0:
320,192,45461,128,0,45883:0:0:0:0:
192,192,45461,128,0,45566:0:0:0:0:
64,192,45461,1,0,0:0:0:0:
448,192,45566,1,0,0:0:0:0:
64,192,45672,128,0,45777:0:0:0:0:
192,192,45672,128,0,45777:0:0:0:0:
192,192,45883,1,0,0:0:0:0:
448,192,45883,1,0,0:0:0:0:
448,192,46094,128,0,46200:0:0:0:0:
64,192,46094,128,0,46200:0:0:0:0:
192,192,46306,1,0,0:0:0:0:
64,192,46306,1,0,0:0:0:0:
448,192,46306,1,0,0:0:0:0:
320,192,46306,128,0,46728:0:0:0:0:
192,192,46517,128,0,46587:0:0:0:0:
64,192,46517,128,0,46587:0:0:0:0:
192,192,46728,128,0,47151:0:0:0:0:
320,192,46939,128,0,47045:0:0:0:0:
448,192,46939,128,0,47045:0:0:0:0:
448,192,47151,128,0,47362:0:0:0:0:
64,192,47151,1,0,0:0:0:0:
320,192,47151,1,0,0:0:0:0:
320,192,47362,128,0,47468:0:0:0:0:
192,192,47362,128,0,47468:0:0:0:0:
64,192,47468,128,0,47520:0:0:0:0:
192,192,47520,128,0,47573:0:0:0:0:
320,192,47573,128,0,47626:0:0:0:0:
448,192,47573,128,0,47626:0:0:0:0:
192,192,47784,128,0,47890:0:0:0:0:
320,192,47784,128,0,47890:0:0:0:0:
64,192,47996,1,0,0:0:0:0:
192,192,47996,1,0,0:0:0:0:
320,192,47996,1,0,0:0:0:0:
448,192,47996,1,0,0:0:0:0:
320,192,48207,128,0,48260:0:0:0:0:
448,192,48207,128,0,48260:0:0:0:0:
320,192,48418,128,0,48471:0:0:0:0:
448,192,48418,128,0,48471:0:0:0:0:
192,192,48418,128,0,48471:0:0:0:0:
320,192,48630,128,0,48682:0:0:0:0:
448,192,48630,128,0,48682:0:0:0:0:
64,192,48841,128,0,48946:0:0:0:0:
192,192,48841,1,0,0:0:0:0:
448,192,48841,128,0,48946:0:0:0:0:
320,192,48946,1,0,0:0:0:0:
192,192,49052,1,0,0:0:0:0:
320,192,49158,1,0,0:0:0:0:
192,192,49263,1,0,0:0:0:0:
448,192,49334,1,0,0:0:0:0:
320,192,49404,1,0,0:0:0:0:
192,192,49475,1,0,0:0:0:0:
64,192,49580,1,0,0:0:0:0:
320,192,49686,1,0,0:0:0:0:
448,192,49686,1,0,0:0:0:0:
64,192,49897,128,0,49950:0:0:0:0:
192,192,49897,128,0,49950:0:0:0:0:
320,192,49897,128,0,49950:0:0:0:0:
320,192,50108,128,0,50161:0:0:0:0:
448,192,50108,128,0,50161:0:0:0:0:
192,192,50320,128,0,50373:0:0:0:0:
64,192,50320,128,0,50373:0:0:0:0:
448,192,50320,128,0,50373:0:0:0:0:
192,192,50531,128,0,50584:0:0:0:0:
320,192,50531,128,0,50584:0:0:0:0:
64,192,50742,128,0,50795:0:0:0:0:
320,192,50742,128,0,50795:0:0:0:0:
448,192,50742,128,0,50795:0:0:0:0:
192,192,50953,128,0,51006:0:0:0:0:
64,192,50953,128,0,51006:0:0:0:0:
192,192,51165,128,0,51218:0:0:0:0:
320,192,51165,128,0,51218:0:0:0:0:
448,192,51165,128,0,51218:0:0:0:0:
192,192,51376,128,0,51429:0:0:0:0:
448,192,51376,128,0,51429:0:0:0:0:
64,192,51587,128,0,51640:0:0:0:0:
192,192,51587,128,0,51640:0:0:0:0:
448,192,51587,128,0,51640:0:0:0:0:
64,192,51799,128,0,51851:0:0:0:0:
192,192,51799,128,0,51851:0:0:0:0:
320,192,51904,128,0,51957:0:0:0:0:
448,192,51904,128,0,51957:0:0:0:0:
192,192,52010,128,0,52063:0:0:0:0:
64,192,52010,128,0,52063:0:0:0:0:
320,192,52010,128,0,52063:0:0:0:0:
320,192,52221,128,0,52274:0:0:0:0:
448,192,52221,128,0,52274:0:0:0:0:
192,192,52432,128,0,52485:0:0:0:0:
320,192,52432,128,0,52485:0:0:0:0:
448,192,52432,128,0,52485:0:0:0:0:
192,192,52538,128,0,52591:0:0:0:0:
64,192,52538,128,0,52591:0:0:0:0:
320,192,52644,128,0,52696:0:0:0:0:
448,192,52644,128,0,52696:0:0:0:0:
64,192,52855,128,0,52908:0:0:0:0:
320,192,52855,128,0,52908:0:0:0:0:
448,192,52855,128,0,52908:0:0:0:0:
448,192,53066,128,0,53489:0:0:0:0:
192,192,53066,128,0,53277:0:0:0:0:
64,192,53277,128,0,53489:0:0:0:0:
320,192,53383,128,0,53489:0:0:0:0:
192,192,53489,128,0,53911:0:0:0:0:
320,192,53700,128,0,53911:0:0:0:0:
64,192,53700,1,0,0:0:0:0:
448,192,53911,128,0,54123:0:0:0:0:
64,192,53911,128,0,54334:0:0:0:0:
320,192,54123,128,0,54334:0:0:0:0:
192,192,54228,128,0,54334:0:0:0:0:
448,192,54334,128,0,54756:0:0:0:0:
320,192,54545,128,0,54756:0:0:0:0:
192,192,54545,1,0,0:0:0:0:
64,192,54756,128,0,54968:0:0:0:0:
192,192,54756,128,0,54968:0:0:0:0:
320,192,54968,128,0,55179:0:0:0:0:
448,192,54968,128,0,55179:0:0:0:0:
192,192,55179,128,0,55390:0:0:0:0:
64,192,55179,128,0,55390:0:0:0:0:
320,192,55390,128,0,55601:0:0:0:0:
448,192,55390,128,0,55601:0:0:0:0:
192,192,55601,128,0,55672:0:0:0:0:
64,192,55601,128,0,55672:0:0:0:0:
320,192,55742,128,0,55813:0:0:0:0:
448,192,55742,128,0,55813:0:0:0:0:
192,192,55883,128,0,55953:0:0:0:0:
320,192,55883,128,0,55953:0:0:0:0:
64,192,56024,128,0,56094:0:0:0:0:
448,192,56024,128,0,56094:0:0:0:0:
320,192,56165,128,0,56235:0:0:0:0:
192,192,56165,128,0,56235:0:0:0:0:
64,192,56306,128,0,56376:0:0:0:0:
192,192,56306,128,0,56376:0:0:0:0:
320,192,56446,128,0,56517:0:0:0:0:
448,192,56446,128,0,56517:0:0:0:0:
64,192,56446,128,0,56517:0:0:0:0:
192,192,56658,128,0,56728:0:0:0:0:
448,192,56658,128,0,56869:0:0:0:0:
64,192,56763,128,0,56816:0:0:0:0:
192,192,56869,1,0,0:0:0:0:
320,192,56869,1,0,0:0:0:0:
320,192,57080,128,0,57133:0:0:0:0:
448,192,57080,128,0,57133:0:0:0:0:
192,192,57292,128,0,57344:0:0:0:0:
320,192,57292,128,0,57344:0:0:0:0:
64,192,57503,128,0,57714:0:0:0:0:
448,192,57503,128,0,57556:0:0:0:0:
320,192,57503,1,0,0:0:0:0:
192,192,57608,128,0,57661:0:0:0:0:
448,192,57714,1,0,0:0:0:0:
320,192,57714,1,0,0:0:0:0:
320,192,57925,1,0,0:0:0:0:
192,192,57925,1,0,0:0:0:0:
64,192,58137,128,0,58189:0:0:0:0:
192,192,58137,128,0,58189:0:0:0:0:
448,192,58348,128,0,58559:0:0:0:0:
320,192,58348,128,0,58401:0:0:0:0:
64,192,58348,1,0,0:0:0:0:
192,192,58453,128,0,58506:0:0:0:0:
320,192,58559,1,0,0:0:0:0:
64,192,58559,1,0,0:0:0:0:
192,192,58770,1,0,0:0:0:0:
448,192,58770,1,0,0:0:0:0:
192,192,58982,128,0,59034:0:0:0:0:
64,192,58982,128,0,59034:0:0:0:0:
320,192,59193,128,0,59404:0:0:0:0:
448,192,59193,128,0,59246:0:0:0:0:
192,192,59193,1,0,0:0:0:0:
192,192,59299,128,0,59351:0:0:0:0:
64,192,59404,1,0,0:0:0:0:
448,192,59404,1,0,0:0:0:0:
192,192,59615,1,0,0:0:0:0:
448,192,59615,1,0,0:0:0:0:
320,192,59827,128,0,59880:0:0:0:0:
64,192,59827,128,0,59880:0:0:0:0:
192,192,60038,128,0,60249:0:0:0:0:
320,192,60038,128,0,60091:0:0:0:0:
448,192,60038,1,0,0:0:0:0:
448,192,60144,128,0,60196:0:0:0:0:
64,192,60249,1,0,0:0:0:0:
320,192,60249,1,0,0:0:0:0:
192,192,60461,1,0,0:0:0:0:
448,192,60461,1,0,0:0:0:0:
64,192,60672,128,0,60725:0:0:0:0:
448,192,60672,128,0,60725:0:0:0:0:
192,192,60883,128,0,61094:0:0:0:0:
320,192,60883,128,0,60936:0:0:0:0:
448,192,60883,1,0,0:0:0:0:
64,192,60989,128,0,61042:0:0:0:0:
320,192,61094,1,0,0:0:0:0:
448,192,61094,1,0,0:0:0:0:
192,192,61306,1,0,0:0:0:0:
64,192,61306,1,0,0:0:0:0:
320,192,61517,128,0,61728:0:0:0:0:
448,192,61517,128,0,61728:0:0:0:0:
64,192,61728,128,0,61834:0:0:0:0:
192,192,61834,1,0,0:0:0:0:
448,192,61834,1,0,0:0:0:0:
320,192,61939,128,0,62151:0:0:0:0:
448,192,61939,128,0,62151:0:0:0:0:
192,192,62151,128,0,62256:0:0:0:0:
64,192,62256,1,0,0:0:0:0:
320,192,62256,1,0,0:0:0:0:
192,192,62362,128,0,62573:0:0:0:0:
448,192,62362,128,0,62573:0:0:0:0:
320,192,62573,128,0,62679:0:0:0:0:
64,192,62784,128,0,63207:0:0:0:0:
192,192,63207,1,0,0:0:0:0:
320,192,63207,1,0,0:0:0:0:
448,192,63207,1,0,0:0:0:0:
320,192,63418,128,0,63524:0:0:0:0:
64,192,63630,128,0,63735:0:0:0:0:
192,192,63630,128,0,63735:0:0:0:0:
448,192,63841,128,0,64052:0:0:0:0:
320,192,63841,128,0,63946:0:0:0:0:
64,192,63946,128,0,64052:0:0:0:0:
320,192,64052,128,0,64475:0:0:0:0:
192,192,64052,128,0,64158:0:0:0:0:
448,192,64158,128,0,64263:0:0:0:0:
64,192,64263,128,0,64369:0:0:0:0:
192,192,64263,128,0,64369:0:0:0:0:
448,192,64475,128,0,64897:0:0:0:0:
192,192,64475,128,0,64527:0:0:0:0:
64,192,64475,128,0,64527:0:0:0:0:
320,192,64686,128,0,64792:0:0:0:0:
192,192,64686,128,0,64792:0:0:0:0:
64,192,64897,1,0,0:0:0:0:
192,192,64897,1,0,0:0:0:0:
320,192,64897,1,0,0:0:0:0:
320,192,65108,128,0,65214:0:0:0:0:
64,192,65320,128,0,65425:0:0:0:0:
192,192,65320,128,0,65425:0:0:0:0:
320,192,65531,128,0,65742:0:0:0:0:
448,192,65531,128,0,65584:0:0:0:0:
192,192,65637,128,0,65689:0:0:0:0:
448,192,65742,128,0,65795:0:0:0:0:
64,192,65742,128,0,66165:0:0:0:0:
192,192,65848,128,0,65901:0:0:0:0:
320,192,65953,128,0,66059:0:0:0:0:
448,192,65953,128,0,66059:0:0:0:0:
192,192,66165,128,0,66376:0:0:0:0:
320,192,66165,128,0,66218:0:0:0:0:
448,192,66165,128,0,66218:0:0:0:0:
320,192,66376,128,0,66587:0:0:0:0:
64,192,66376,128,0,66482:0:0:0:0:
448,192,66376,128,0,66482:0:0:0:0:
192,192,66587,128,0,66799:0:0:0:0:
64,192,66587,128,0,66640:0:0:0:0:
448,192,66587,128,0,66640:0:0:0:0:
320,192,66799,128,0,66904:0:0:0:0:
448,192,66799,128,0,66904:0:0:0:0:
192,192,67010,128,0,67221:0:0:0:0:
64,192,67221,128,0,67327:0:0:0:0:
448,192,67221,128,0,67327:0:0:0:0:
320,192,67432,128,0,67644:0:0:0:0:
192,192,67432,1,0,0:0:0:0:
64,192,67432,1,0,0:0:0:0:
448,192,67432,1,0,0:0:0:0:
192,192,67644,128,0,67749:0:0:0:0:
64,192,67644,128,0,67749:0:0:0:0:
448,192,67749,1,0,0:0:0:0:
320,192,67802,1,0,0:0:0:0:
192,192,67855,128,0,68066:0:0:0:0:
64,192,68066,128,0,68172:0:0:0:0:
448,192,68066,128,0,68172:0:0:0:0:
64,192,68277,1,0,0:0:0:0:
192,192,68277,1,0,0:0:0:0:
320,192,68277,1,0,0:0:0:0:
448,192,68277,1,0,0:0:0:0:
64,192,68489,1,0,0:0:0:0:
320,192,68489,1,0,0:0:0:0:
448,192,68489,1,0,0:0:0:0:
64,192,68700,1,0,0:0:0:0:
192,192,68700,1,0,0:0:0:0:
448,192,68700,1,0,0:0:0:0:
192,192,68911,1,0,0:0:0:0:
320,192,68911,1,0,0:0:0:0:
448,192,68911,1,0,0:0:0:0:
64,192,69123,1,0,0:0:0:0:
192,192,69123,1,0,0:0:0:0:
320,192,69123,1,0,0:0:0:0:
320,192,69334,1,0,0:0:0:0:
448,192,69334,1,0,0:0:0:0:
320,192,69545,1,0,0:0:0:0:
448,192,69545,1,0,0:0:0:0:
320,192,69756,1,0,0:0:0:0:
448,192,69756,1,0,0:0:0:0:
64,192,69968,128,0,70179:0:0:0:0:
192,192,69968,1,0,0:0:0:0:
320,192,69968,1,0,0:0:0:0:
448,192,69968,1,0,0:0:0:0:
320,192,70284,128,0,70390:0:0:0:0:
192,192,70390,128,0,70601:0:0:0:0:
448,192,70390,128,0,70496:0:0:0:0:
64,192,70496,128,0,70601:0:0:0:0:
320,192,70601,128,0,70813:0:0:0:0:
448,192,70601,128,0,70707:0:0:0:0:
192,192,70813,128,0,71024:0:0:0:0:
64,192,70813,1,0,0:0:0:0:
448,192,70813,1,0,0:0:0:0:
320,192,71130,128,0,71235:0:0:0:0:
64,192,71235,128,0,71446:0:0:0:0:
192,192,71235,128,0,71341:0:0:0:0:
448,192,71446,128,0,71658:0:0:0:0:
320,192,71446,128,0,71552:0:0:0:0:
64,192,71658,128,0,71869:0:0:0:0:
192,192,71658,1,0,0:0:0:0:
320,192,71658,1,0,0:0:0:0:
192,192,71975,128,0,72080:0:0:0:0:
448,192,72080,128,0,72292:0:0:0:0:
320,192,72080,128,0,72186:0:0:0:0:
64,192,72186,128,0,72292:0:0:0:0:
192,192,72292,128,0,72503:0:0:0:0:
64,192,72503,1,0,0:0:0:0:
448,192,72503,1,0,0:0:0:0:
320,192,72503,128,0,72714:0:0:0:0:
64,192,72714,128,0,72820:0:0:0:0:
192,192,72925,128,0,73137:0:0:0:0:
320,192,72925,1,0,0:0:0:0:
448,192,72925,1,0,0:0:0:0:
64,192,73137,128,0,73242:0:0:0:0:
448,192,73137,128,0,73348:0:0:0:0:
320,192,73348,128,0,73559:0:0:0:0:
192,192,73348,1,0,0:0:0:0:
64,192,73348,1,0,0:0:0:0:
192,192,73665,128,0,73770:0:0:0:0:
448,192,73770,128,0,73982:0:0:0:0:
320,192,73770,128,0,73876:0:0:0:0:
64,192,73876,128,0,73982:0:0:0:0:
192,192,73982,128,0,74193:0:0:0:0:
320,192,73982,1,0,0:0:0:0:
64,192,74193,1,0,0:0:0:0:
320,192,74193,128,0,74404:0:0:0:0:
448,192,74193,1,0,0:0:0:0:
192,192,74510,128,0,74615:0:0:0:0:
64,192,74615,128,0,74827:0:0:0:0:
320,192,74615,128,0,74721:0:0:0:0:
192,192,74827,128,0,74932:0:0:0:0:
448,192,74827,128,0,75038:0:0:0:0:
320,192,75038,128,0,75249:0:0:0:0:
64,192,75038,1,0,0:0:0:0:
192,192,75038,1,0,0:0:0:0:
192,192,75355,128,0,75461:0:0:0:0:
320,192,75461,128,0,75566:0:0:0:0:
64,192,75461,128,0,75672:0:0:0:0:
448,192,75566,128,0,75672:0:0:0:0:
192,192,75672,128,0,75883:0:0:0:0:
320,192,75672,128,0,75777:0:0:0:0:
448,192,75883,128,0,76094:0:0:0:0:
64,192,75883,128,0,75989:0:0:0:0:
320,192,75989,128,0,76094:0:0:0:0:
192,192,76094,128,0,76200:0:0:0:0:
64,192,76306,128,0,76411:0:0:0:0:
192,192,76306,1,0,0:0:0:0:
448,192,76306,1,0,0:0:0:0:
320,192,76411,128,0,76517:0:0:0:0:
192,192,76517,128,0,76623:0:0:0:0:
448,192,76728,128,0,76939:0:0:0:0:
64,192,76728,1,0,0:0:0:0:
320,192,76728,1,0,0:0:0:0:
192,192,76728,1,0,0:0:0:0:
192,192,77045,128,0,77151:0:0:0:0:
320,192,77151,128,0,77256:0:0:0:0:
64,192,77151,128,0,77362:0:0:0:0:
192,192,77362,128,0,77468:0:0:0:0:
448,192,77362,128,0,77573:0:0:0:0:
320,192,77573,128,0,77784:0:0:0:0:
64,192,77573,1,0,0:0:0:0:
192,192,77573,1,0,0:0:0:0:
448,192,77890,128,0,77996:0:0:0:0:
64,192,77996,128,0,78207:0:0:0:0:
192,192,77996,128,0,78101:0:0:0:0:
320,192,78101,128,0,78207:0:0:0:0:
448,192,78207,128,0,78418:0:0:0:0:
192,192,78207,128,0,78313:0:0:0:0:
320,192,78313,128,0,78418:0:0:0:0:
64,192,78418,128,0,78630:0:0:0:0:
192,192,78418,1,0,0:0:0:0:
320,192,78524,1,0,0:0:0:0:
448,192,78630,1,0,0:0:0:0:
192,192,78735,128,0,78841:0:0:0:0:
320,192,78841,128,0,79052:0:0:0:0:
448,192,78841,128,0,78946:0:0:0:0:
64,192,78946,128,0,79052:0:0:0:0:
192,192,79052,128,0,79263:0:0:0:0:
448,192,79052,128,0,79158:0:0:0:0:
320,192,79158,128,0,79263:0:0:0:0:
64,192,79263,128,0,79475:0:0:0:0:
448,192,79263,128,0,79369:0:0:0:0:
192,192,79475,128,0,79580:0:0:0:0:
320,192,79686,128,0,79897:0:0:0:0:
64,192,79686,1,0,0:0:0:0:
448,192,79686,1,0,0:0:0:0:
192,192,79897,128,0,80003:0:0:0:0:
448,192,80108,128,0,80320:0:0:0:0:
64,192,80108,1,0,0:0:0:0:
192,192,80108,1,0,0:0:0:0:
320,192,80108,1,0,0:0:0:0:
320,192,80320,128,0,80531:0:0:0:0:
64,192,80320,128,0,80425:0:0:0:0:
192,192,80425,128,0,80531:0:0:0:0:
448,192,80531,128,0,80742:0:0:0:0:
64,192,80531,128,0,80637:0:0:0:0:
192,192,80637,128,0,80742:0:0:0:0:
320,192,80742,128,0,80953:0:0:0:0:
64,192,80742,128,0,80848:0:0:0:0:
448,192,80848,128,0,80953:0:0:0:0:
192,192,80953,128,0,81165:0:0:0:0:
64,192,80953,128,0,81059:0:0:0:0:
320,192,81165,128,0,81376:0:0:0:0:
448,192,81165,1,0,0:0:0:0:
64,192,81376,128,0,81587:0:0:0:0:
192,192,81376,1,0,0:0:0:0:
448,192,81376,1,0,0:0:0:0:
320,192,81587,128,0,81799:0:0:0:0:
192,192,81587,1,0,0:0:0:0:
448,192,81799,1,0,0:0:0:0:
64,192,81799,128,0,82010:0:0:0:0:
192,192,81799,128,0,82010:0:0:0:0:
320,192,82010,1,0,0:0:0:0:
448,192,82010,1,0,0:0:0:0:
192,192,82221,128,0,82432:0:0:0:0:
320,192,82221,128,0,82432:0:0:0:0:
64,192,82221,1,0,0:0:0:0:
448,192,82432,1,0,0:0:0:0:
64,192,82432,1,0,0:0:0:0:
320,192,82644,128,0,82855:0:0:0:0:
448,192,82644,128,0,82855:0:0:0:0:
192,192,82644,1,0,0:0:0:0:
64,192,83066,128,0,83172:0:0:0:0:
192,192,83172,128,0,83277:0:0:0:0:
320,192,83277,128,0,83383:0:0:0:0:
448,192,83383,128,0,83489:0:0:0:0:
64,192,83489,128,0,84756:0:0:0:0:
192,192,83489,1,0,0:0:0:0:
320,192,83489,1,0,0:0:0:0:
320,192,83806,1,0,0:0:0:0:
448,192,83806,1,0,0:0:0:0:
192,192,83911,1,0,0:0:0:0:
320,192,83911,1,0,0:0:0:0:
448,192,84017,1,0,0:0:0:0:
192,192,84123,1,0,0:0:0:0:
320,192,84123,1,0,0:0:0:0:
192,192,84334,1,0,0:0:0:0:
320,192,84334,1,0,0:0:0:0:
448,192,84334,1,0,0:0:0:0:
448,192,84756,128,0,84862:0:0:0:0:
192,192,84756,1,0,0:0:0:0:
320,192,84862,128,0,84968:0:0:0:0:
192,192,84968,128,0,85073:0:0:0:0:
448,192,84968,1,0,0:0:0:0:
64,192,85073,128,0,85179:0:0:0:0:
320,192,85179,128,0,86024:0:0:0:0:
192,192,85179,1,0,0:0:0:0:
448,192,85179,1,0,0:0:0:0:
64,192,85496,1,0,0:0:0:0:
192,192,85496,1,0,0:0:0:0:
448,192,85601,1,0,0:0:0:0:
192,192,85601,1,0,0:0:0:0:
64,192,85707,1,0,0:0:0:0:
192,192,85813,1,0,0:0:0:0:
64,192,85813,1,0,0:0:0:0:
64,192,86024,1,0,0:0:0:0:
192,192,86024,1,0,0:0:0:0:
448,192,86024,1,0,0:0:0:0:
320,192,86446,128,0,86658:0:0:0:0:
64,192,86446,1,0,0:0:0:0:
192,192,86446,1,0,0:0:0:0:
448,192,86446,1,0,0:0:0:0:
192,192,86658,128,0,86869:0:0:0:0:
320,192,86869,1,0,0:0:0:0:
64,192,86869,1,0,0:0:0:0:
448,192,86869,128,0,87714:0:0:0:0:
64,192,87186,1,0,0:0:0:0:
320,192,87186,1,0,0:0:0:0:
192,192,87292,1,0,0:0:0:0:
64,192,87292,1,0,0:0:0:0:
192,192,87397,1,0,0:0:0:0:
64,192,87503,1,0,0:0:0:0:
320,192,87503,1,0,0:0:0:0:
192,192,87714,1,0,0:0:0:0:
320,192,87714,1,0,0:0:0:0:
64,192,87714,128,0,88137:0:0:0:0:
192,192,88031,1,0,0:0:0:0:
448,192,88031,1,0,0:0:0:0:
320,192,88137,128,0,88559:0:0:0:0:
192,192,88137,1,0,0:0:0:0:
448,192,88348,1,0,0:0:0:0:
64,192,88348,1,0,0:0:0:0:
192,192,88559,128,0,90249:0:0:0:0:
64,192,88559,1,0,0:0:0:0:
448,192,88559,1,0,0:0:0:0:
320,192,88876,1,0,0:0:0:0:
448,192,88876,1,0,0:0:0:0:
64,192,88982,1,0,0:0:0:0:
320,192,88982,1,0,0:0:0:0:
64,192,89087,1,0,0:0:0:0:
320,192,89193,1,0,0:0:0:0:
448,192,89193,1,0,0:0:0:0:
320,192,89404,128,0,90249:0:0:0:0:
64,192,89404,1,0,0:0:0:0:
448,192,89404,1,0,0:0:0:0:
64,192,89827,1,0,0:0:0:0:
448,192,89827,1,0,0:0:0:0:
64,192,90249,1,0,0:0:0:0:
448,192,90249,1,0,0:0:0:0:
320,192,90461,128,0,90566:0:0:0:0:
64,192,90566,128,0,90672:0:0:0:0:
448,192,90566,1,0,0:0:0:0:
192,192,90672,128,0,90777:0:0:0:0:
448,192,90777,128,0,90883:0:0:0:0:
320,192,90883,128,0,90989:0:0:0:0:
64,192,90883,1,0,0:0:0:0:
64,192,91094,1,0,0:0:0:0:
192,192,91094,1,0,0:0:0:0:
448,192,91094,1,0,0:0:0:0:
320,192,91094,1,0,0:0:0:0:
192,192,91306,128,0,91411:0:0:0:0:
320,192,91411,128,0,91517:0:0:0:0:
448,192,91411,1,0,0:0:0:0:
64,192,91517,128,0,91623:0:0:0:0:
192,192,91623,128,0,91728:0:0:0:0:
320,192,91728,128,0,91834:0:0:0:0:
64,192,91728,1,0,0:0:0:0:
64,192,91939,1,0,0:0:0:0:
320,192,91939,1,0,0:0:0:0:
448,192,91939,1,0,0:0:0:0:
192,192,91939,1,0,0:0:0:0:
320,192,92151,128,0,92256:0:0:0:0:
192,192,92256,128,0,92362:0:0:0:0:
448,192,92256,1,0,0:0:0:0:
64,192,92362,128,0,92468:0:0:0:0:
448,192,92468,128,0,92573:0:0:0:0:
192,192,92573,128,0,92679:0:0:0:0:
64,192,92573,1,0,0:0:0:0:
320,192,92679,128,0,92784:0:0:0:0:
64,192,92784,128,0,92890:0:0:0:0:
192,192,92784,1,0,0:0:0:0:
448,192,92784,1,0,0:0:0:0:
192,192,92890,128,0,92996:0:0:0:0:
448,192,92996,128,0,93101:0:0:0:0:
320,192,93101,128,0,93207:0:0:0:0:
64,192,93207,128,0,93313:0:0:0:0:
192,192,93207,1,0,0:0:0:0:
448,192,93207,1,0,0:0:0:0:
192,192,93313,128,0,93418:0:0:0:0:
448,192,93418,128,0,93524:0:0:0:0:
320,192,93418,1,0,0:0:0:0:
64,192,93524,128,0,93630:0:0:0:0:
320,192,93630,128,0,95108:0:0:0:0:
192,192,93630,1,0,0:0:0:0:
448,192,93630,1,0,0:0:0:0:
192,192,93841,1,0,0:0:0:0:
64,192,93946,1,0,0:0:0:0:
192,192,94052,1,0,0:0:0:0:
448,192,94052,1,0,0:0:0:0:
64,192,94263,1,0,0:0:0:0:
192,192,94475,1,0,0:0:0:0:
64,192,94475,1,0,0:0:0:0:
448,192,94475,1,0,0:0:0:0:
192,192,94686,1,0,0:0:0:0:
448,192,94792,1,0,0:0:0:0:
192,192,94897,1,0,0:0:0:0:
64,192,94897,1,0,0:0:0:0:
448,192,95108,1,0,0:0:0:0:
64,192,95320,128,0,96693:0:0:0:0:
192,192,95320,128,0,96587:0:0:0:0:
320,192,95320,128,0,95425:0:0:0:0:
448,192,95320,128,0,95425:0:0:0:0:
320,192,95531,1,0,0:0:0:0:
448,192,95531,1,0,0:0:0:0:
320,192,95742,128,0,95848:0:0:0:0:
448,192,95742,128,0,95848:0:0:0:0:
320,192,95953,1,0,0:0:0:0:
448,192,95953,1,0,0:0:0:0:
320,192,96165,128,0,96482:0:0:0:0:
448,192,96165,128,0,96376:0:0:0:0:
192,192,97010,1,0,0:0:0:0:
64,192,97221,1,0,0:0:0:0:
320,192,97432,1,0,0:0:0:0:
192,192,97644,1,0,0:0:0:0:
448,192,97855,1,0,0:0:0:0:
64,192,98066,1,0,0:0:0:0:
320,192,98277,1,0,0:0:0:0:
64,192,98489,1,0,0:0:0:0:
192,192,98700,1,0,0:0:0:0:
448,192,98911,1,0,0:0:0:0:
320,192,99228,1,0,0:0:0:0:
192,192,99334,1,0,0:0:0:0:
320,192,99545,1,0,0:0:0:0:
64,192,99756,1,0,0:0:0:0:
448,192,99862,1,0,0:0:0:0:
192,192,100179,1,0,0:0:0:0:
448,192,100390,1,0,0:0:0:0:
320,192,100601,1,0,0:0:0:0:
64,192,100813,1,0,0:0:0:0:
320,192,101024,1,0,0:0:0:0:
448,192,101235,1,0,0:0:0:0:
192,192,101446,1,0,0:0:0:0:
64,192,101446,1,0,0:0:0:0:
320,192,101658,1,0,0:0:0:0:
64,192,101869,1,0,0:0:0:0:
448,192,101869,1,0,0:0:0:0:
192,192,102714,128,0,102784:0:0:0:0:
320,192,102784,128,0,102855:0:0:0:0:
64,192,102855,128,0,102925:0:0:0:0:
192,192,102925,128,0,102978:0:0:0:0:
192,192,103031,128,0,103084:0:0:0:0:
320,192,103137,128,0,103189:0:0:0:0:
448,192,103242,128,0,103295:0:0:0:0:
64,192,103348,128,0,103401:0:0:0:0:
192,192,103453,128,0,103506:0:0:0:0:
320,192,103559,128,0,103612:0:0:0:0:
320,192,103665,128,0,103718:0:0:0:0:
448,192,103770,128,0,103823:0:0:0:0:
64,192,103876,128,0,103929:0:0:0:0:
320,192,103982,128,0,104034:0:0:0:0:
192,192,104087,128,0,104140:0:0:0:0:
320,192,104193,1,0,0:0:0:0:
448,192,104193,1,0,0:0:0:0:
64,192,104299,128,0,104351:0:0:0:0:
320,192,104404,128,0,104457:0:0:0:0:
192,192,104510,128,0,104563:0:0:0:0:
448,192,104615,128,0,104668:0:0:0:0:
320,192,104721,128,0,104774:0:0:0:0:
64,192,104827,128,0,104880:0:0:0:0:
192,192,104932,128,0,104985:0:0:0:0:
320,192,105038,1,0,0:0:0:0:
448,192,105038,1,0,0:0:0:0:
192,192,105144,128,0,105196:0:0:0:0:
448,192,105249,128,0,105302:0:0:0:0:
64,192,105355,128,0,105408:0:0:0:0:
320,192,105461,128,0,105513:0:0:0:0:
192,192,105566,128,0,105619:0:0:0:0:
320,192,105672,128,0,105725:0:0:0:0:
64,192,105777,128,0,105830:0:0:0:0:
192,192,105883,1,0,0:0:0:0:
448,192,105883,1,0,0:0:0:0:
320,192,105989,128,0,106042:0:0:0:0:
64,192,106094,128,0,106147:0:0:0:0:
448,192,106200,128,0,106253:0:0:0:0:
192,192,106306,128,0,106358:0:0:0:0:
64,192,106411,128,0,106464:0:0:0:0:
320,192,106517,128,0,106728:0:0:0:0:
448,192,106623,128,0,106675:0:0:0:0:
192,192,106728,1,0,0:0:0:0:
64,192,106728,1,0,0:0:0:0:
320,192,106834,128,0,106887:0:0:0:0:
192,192,106939,128,0,106992:0:0:0:0:
64,192,107045,128,0,107098:0:0:0:0:
448,192,107151,128,0,107573:0:0:0:0:
320,192,107151,128,0,107203:0:0:0:0:
192,192,107256,128,0,107309:0:0:0:0:
64,192,107362,128,0,107415:0:0:0:0:
192,192,107468,128,0,107520:0:0:0:0:
64,192,107573,1,0,0:0:0:0:
320,192,107573,1,0,0:0:0:0:
192,192,107679,128,0,107732:0:0:0:0:
448,192,107784,128,0,107837:0:0:0:0:
320,192,107784,128,0,107890:0:0:0:0:
64,192,107890,128,0,107996:0:0:0:0:
192,192,107996,128,0,108418:0:0:0:0:
320,192,107996,128,0,108101:0:0:0:0:
448,192,108101,128,0,108207:0:0:0:0:
64,192,108207,128,0,108313:0:0:0:0:
320,192,108313,128,0,108418:0:0:0:0:
64,192,108418,1,0,0:0:0:0:
448,192,108418,1,0,0:0:0:0:
192,192,108524,128,0,108577:0:0:0:0:
320,192,108630,128,0,108735:0:0:0:0:
64,192,108735,1,0,0:0:0:0:
192,192,108841,1,0,0:0:0:0:
448,192,108841,1,0,0:0:0:0:
320,192,108946,128,0,108999:0:0:0:0:
64,192,109052,128,0,109105:0:0:0:0:
192,192,109158,128,0,109211:0:0:0:0:
320,192,109263,1,0,0:0:0:0:
448,192,109263,1,0,0:0:0:0:
64,192,109369,128,0,109475:0:0:0:0:
192,192,109475,1,0,0:0:0:0:
448,192,109580,1,0,0:0:0:0:
320,192,109686,1,0,0:0:0:0:
64,192,109686,1,0,0:0:0:0:
64,192,109897,1,0,0:0:0:0:
192,192,109897,1,0,0:0:0:0:
64,192,110003,1,0,0:0:0:0:
192,192,110003,1,0,0:0:0:0:
64,192,110108,1,0,0:0:0:0:
192,192,110108,1,0,0:0:0:0:
448,192,110108,128,0,110320:0:0:0:0:
320,192,110320,128,0,110531:0:0:0:0:
192,192,110320,1,0,0:0:0:0:
64,192,110320,1,0,0:0:0:0:
64,192,110531,128,0,111376:0:0:0:0:
192,192,110531,128,0,110637:0:0:0:0:
448,192,110531,128,0,110742:0:0:0:0:
320,192,110637,128,0,110742:0:0:0:0:
192,192,110742,128,0,110848:0:0:0:0:
448,192,110848,128,0,110953:0:0:0:0:
320,192,110953,128,0,111165:0:0:0:0:
192,192,110953,128,0,111059:0:0:0:0:
448,192,111059,128,0,111165:0:0:0:0:
192,192,111165,128,0,111270:0:0:0:0:
320,192,111270,128,0,111376:0:0:0:0:
448,192,111376,128,0,111587:0:0:0:0:
192,192,111376,128,0,111482:0:0:0:0:
64,192,111482,128,0,111587:0:0:0:0:
320,192,111587,128,0,111799:0:0:0:0:
192,192,111587,128,0,111693:0:0:0:0:
448,192,111693,128,0,111799:0:0:0:0:
64,192,111799,128,0,112010:0:0:0:0:
192,192,111799,128,0,111904:0:0:0:0:
448,192,111904,128,0,112010:0:0:0:0:
320,192,112010,128,0,112221:0:0:0:0:
192,192,112010,128,0,112115:0:0:0:0:
64,192,112115,128,0,112221:0:0:0:0:
192,192,112221,128,0,113066:0:0:0:0:
448,192,112221,128,0,112327:0:0:0:0:
64,192,112327,128,0,112432:0:0:0:0:
320,192,112432,128,0,112538:0:0:0:0:
448,192,112538,128,0,112644:0:0:0:0:
320,192,112644,128,0,112855:0:0:0:0:
64,192,112644,128,0,112749:0:0:0:0:
448,192,112749,128,0,112855:0:0:0:0:
64,192,112855,128,0,112961:0:0:0:0:
320,192,112961,128,0,113066:0:0:0:0:
448,192,113066,128,0,113277:0:0:0:0:
64,192,113066,128,0,113172:0:0:0:0:
192,192,113172,128,0,113277:0:0:0:0:
320,192,113277,128,0,113489:0:0:0:0:
64,192,113277,128,0,113383:0:0:0:0:
192,192,113383,128,0,113489:0:0:0:0:
448,192,113489,128,0,113700:0:0:0:0:
64,192,113489,128,0,113594:0:0:0:0:
320,192,113594,128,0,113700:0:0:0:0:
192,192,113700,128,0,113911:0:0:0:0:
64,192,113700,128,0,113806:0:0:0:0:
320,192,113806,128,0,113911:0:0:0:0:
64,192,113911,1,0,0:0:0:0:
448,192,113911,1,0,0:0:0:0:
320,192,114123,1,0,0:0:0:0:
320,192,114228,1,0,0:0:0:0:
64,192,114334,1,0,0:0:0:0:
448,192,114334,1,0,0:0:0:0:
192,192,114545,1,0,0:0:0:0:
192,192,114651,1,0,0:0:0:0:
64,192,114756,1,0,0:0:0:0:
192,192,114756,1,0,0:0:0:0:
448,192,114756,1,0,0:0:0:0:
320,192,114756,1,0,0:0:0:0:
320,192,114968,1,0,0:0:0:0:
320,192,115073,1,0,0:0:0:0:
448,192,115179,1,0,0:0:0:0:
192,192,115179,1,0,0:0:0:0:
64,192,115390,1,0,0:0:0:0:
64,192,115496,1,0,0:0:0:0:
64,192,115601,1,0,0:0:0:0:
192,192,115601,1,0,0:0:0:0:
320,192,115601,1,0,0:0:0:0:
448,192,115601,1,0,0:0:0:0:
192,192,115813,1,0,0:0:0:0:
192,192,115918,1,0,0:0:0:0:
320,192,116024,1,0,0:0:0:0:
448,192,116024,1,0,0:0:0:0:
64,192,116024,1,0,0:0:0:0:
320,192,116235,1,0,0:0:0:0:
320,192,116341,1,0,0:0:0:0:
192,192,116446,1,0,0:0:0:0:
320,192,116446,1,0,0:0:0:0:
448,192,116446,1,0,0:0:0:0:
64,192,116446,128,0,116658:0:0:0:0:
192,192,116552,128,0,116658:0:0:0:0:
320,192,116658,128,0,116869:0:0:0:0:
448,192,116658,128,0,116763:0:0:0:0:
64,192,116763,128,0,116869:0:0:0:0:
192,192,116869,128,0,116975:0:0:0:0:
448,192,116869,128,0,117080:0:0:0:0:
64,192,116975,128,0,117080:0:0:0:0:
320,192,117080,128,0,117186:0:0:0:0:
192,192,117080,128,0,117186:0:0:0:0:
64,192,117186,128,0,117292:0:0:0:0:
448,192,117186,128,0,117292:0:0:0:0:
192,192,117292,1,0,0:0:0:0:
320,192,117292,1,0,0:0:0:0:
320,192,117503,1,0,0:0:0:0:
320,192,117608,1,0,0:0:0:0:
64,192,117714,1,0,0:0:0:0:
192,192,117714,1,0,0:0:0:0:
192,192,117925,1,0,0:0:0:0:
192,192,118031,1,0,0:0:0:0:
320,192,118137,1,0,0:0:0:0:
448,192,118137,1,0,0:0:0:0:
320,192,118348,1,0,0:0:0:0:
320,192,118453,1,0,0:0:0:0:
64,192,118559,1,0,0:0:0:0:
448,192,118559,1,0,0:0:0:0:
192,192,118770,1,0,0:0:0:0:
192,192,118876,1,0,0:0:0:0:
64,192,118982,1,0,0:0:0:0:
320,192,118982,1,0,0:0:0:0:
320,192,119193,1,0,0:0:0:0:
320,192,119299,1,0,0:0:0:0:
192,192,119404,1,0,0:0:0:0:
448,192,119404,1,0,0:0:0:0:
448,192,119615,1,0,0:0:0:0:
448,192,119721,1,0,0:0:0:0:
320,192,119827,1,0,0:0:0:0:
192,192,119827,1,0,0:0:0:0:
64,192,120038,1,0,0:0:0:0:
64,192,120144,1,0,0:0:0:0:
192,192,120249,1,0,0:0:0:0:
448,192,120249,1,0,0:0:0:0:
320,192,120355,1,0,0:0:0:0:
192,192,120461,1,0,0:0:0:0:
192,192,120566,1,0,0:0:0:0:
64,192,120672,1,0,0:0:0:0:
192,192,120672,1,0,0:0:0:0:
320,192,120883,1,0,0:0:0:0:
320,192,120989,1,0,0:0:0:0:
320,192,121094,1,0,0:0:0:0:
448,192,121094,1,0,0:0:0:0:
192,192,121306,1,0,0:0:0:0:
192,192,121411,1,0,0:0:0:0:
192,192,121517,1,0,0:0:0:0:
320,192,121517,1,0,0:0:0:0:
448,192,121728,1,0,0:0:0:0:
448,192,121834,1,0,0:0:0:0:
64,192,121939,1,0,0:0:0:0:
320,192,121939,1,0,0:0:0:0:
192,192,122151,1,0,0:0:0:0:
192,192,122256,1,0,0:0:0:0:
320,192,122362,1,0,0:0:0:0:
64,192,122362,1,0,0:0:0:0:
448,192,122362,128,0,123207:0:0:0:0:
320,192,122784,1,0,0:0:0:0:
192,192,122784,1,0,0:0:0:0:
64,192,123207,128,0,123313:0:0:0:0:
192,192,123207,1,0,0:0:0:0:
320,192,123313,128,0,123418:0:0:0:0:
192,192,123418,128,0,123524:0:0:0:0:
64,192,123524,128,0,123630:0:0:0:0:
448,192,123630,128,0,123735:0:0:0:0:
320,192,123630,1,0,0:0:0:0:
192,192,123735,128,0,123841:0:0:0:0:
64,192,123841,128,0,123946:0:0:0:0:
320,192,123946,128,0,124052:0:0:0:0:
64,192,124052,1,0,0:0:0:0:
192,192,124052,1,0,0:0:0:0:
448,192,124052,1,0,0:0:0:0:
320,192,124158,1,0,0:0:0:0:
64,192,124263,1,0,0:0:0:0:
192,192,124263,128,0,124475:0:0:0:0:
320,192,124369,128,0,124475:0:0:0:0:
448,192,124475,128,0,124686:0:0:0:0:
64,192,124475,128,0,124580:0:0:0:0:
192,192,124580,128,0,124686:0:0:0:0:
320,192,124686,128,0,124897:0:0:0:0:
64,192,124686,128,0,124792:0:0:0:0:
448,192,124792,128,0,124897:0:0:0:0:
64,192,124897,128,0,125108:0:0:0:0:
192,192,124897,128,0,125003:0:0:0:0:
448,192,125003,128,0,125108:0:0:0:0:
320,192,125108,128,0,125320:0:0:0:0:
192,192,125108,128,0,125214:0:0:0:0:
64,192,125214,128,0,125320:0:0:0:0:
448,192,125320,128,0,125531:0:0:0:0:
192,192,125320,128,0,125425:0:0:0:0:
320,192,125425,128,0,125531:0:0:0:0:
64,192,125531,128,0,125637:0:0:0:0:
192,192,125637,128,0,125742:0:0:0:0:
64,192,125742,128,0,125953:0:0:0:0:
320,192,125742,128,0,125848:0:0:0:0:
192,192,125953,128,0,126165:0:0:0:0:
448,192,125953,128,0,126059:0:0:0:0:
320,192,126059,128,0,126165:0:0:0:0:
448,192,126165,128,0,126376:0:0:0:0:
64,192,126165,128,0,126270:0:0:0:0:
192,192,126270,128,0,126376:0:0:0:0:
320,192,126376,128,0,126587:0:0:0:0:
64,192,126376,128,0,126482:0:0:0:0:
192,192,126482,128,0,126587:0:0:0:0:
64,192,126587,128,0,127221:0:0:0:0:
448,192,126587,128,0,126693:0:0:0:0:
192,192,126693,128,0,126799:0:0:0:0:
320,192,126799,128,0,126904:0:0:0:0:
448,192,126799,128,0,126904:0:0:0:0:
192,192,126904,128,0,127010:0:0:0:0:
320,192,127010,128,0,127115:0:0:0:0:
448,192,127010,128,0,127432:0:0:0:0:
192,192,127115,128,0,127221:0:0:0:0:
320,192,127221,128,0,127327:0:0:0:0:
192,192,127327,128,0,127432:0:0:0:0:
64,192,127432,128,0,127644:0:0:0:0:
320,192,127432,128,0,127538:0:0:0:0:
192,192,127538,128,0,127749:0:0:0:0:
448,192,127644,128,0,127749:0:0:0:0:
320,192,127749,128,0,127855:0:0:0:0:
448,192,127855,128,0,128066:0:0:0:0:
192,192,127855,128,0,127961:0:0:0:0:
64,192,127961,128,0,128066:0:0:0:0:
192,192,128066,128,0,128277:0:0:0:0:
320,192,128066,128,0,128172:0:0:0:0:
448,192,128172,128,0,128277:0:0:0:0:
320,192,128277,128,0,128489:0:0:0:0:
64,192,128277,128,0,128383:0:0:0:0:
192,192,128383,128,0,128489:0:0:0:0:
448,192,128489,128,0,128700:0:0:0:0:
64,192,128489,128,0,128594:0:0:0:0:
192,192,128594,128,0,128911:0:0:0:0:
320,192,128594,128,0,128700:0:0:0:0:
64,192,128700,128,0,128806:0:0:0:0:
448,192,128806,128,0,129017:0:0:0:0:
320,192,128911,128,0,129123:0:0:0:0:
64,192,128911,128,0,129017:0:0:0:0:
192,192,129017,128,0,129123:0:0:0:0:
64,192,129123,1,0,0:0:0:0:
448,192,129123,1,0,0:0:0:0:
64,192,129334,1,0,0:0:0:0:
192,192,129334,1,0,0:0:0:0:
64,192,129439,1,0,0:0:0:0:
192,192,129439,1,0,0:0:0:0:
320,192,129545,1,0,0:0:0:0:
448,192,129545,1,0,0:0:0:0:
192,192,129756,1,0,0:0:0:0:
320,192,129756,1,0,0:0:0:0:
192,192,129862,1,0,0:0:0:0:
320,192,129862,1,0,0:0:0:0:
64,192,129968,128,0,130284:0:0:0:0:
448,192,129968,128,0,130073:0:0:0:0:
320,192,130179,128,0,130284:0:0:0:0:
192,192,130284,128,0,130390:0:0:0:0:
448,192,130284,1,0,0:0:0:0:
320,192,130390,1,0,0:0:0:0:
64,192,130390,1,0,0:0:0:0:
448,192,130496,128,0,130601:0:0:0:0:
320,192,130601,128,0,130813:0:0:0:0:
192,192,130601,1,0,0:0:0:0:
64,192,130813,1,0,0:0:0:0:
192,192,130813,1,0,0:0:0:0:
448,192,130813,1,0,0:0:0:0:
320,192,131024,1,0,0:0:0:0:
320,192,131130,1,0,0:0:0:0:
64,192,131235,1,0,0:0:0:0:
192,192,131235,1,0,0:0:0:0:
320,192,131446,1,0,0:0:0:0:
320,192,131552,1,0,0:0:0:0:
192,192,131658,1,0,0:0:0:0:
448,192,131658,1,0,0:0:0:0:
64,192,131869,1,0,0:0:0:0:
64,192,131975,1,0,0:0:0:0:
192,192,132080,1,0,0:0:0:0:
320,192,132080,1,0,0:0:0:0:
448,192,132292,1,0,0:0:0:0:
448,192,132397,1,0,0:0:0:0:
320,192,132503,1,0,0:0:0:0:
64,192,132503,128,0,132714:0:0:0:0:
192,192,132503,128,0,132608:0:0:0:0:
448,192,132608,128,0,132714:0:0:0:0:
320,192,132714,128,0,132820:0:0:0:0:
192,192,132714,128,0,132820:0:0:0:0:
64,192,132820,128,0,132925:0:0:0:0:
448,192,132925,128,0,133137:0:0:0:0:
192,192,132925,128,0,133031:0:0:0:0:
320,192,133031,128,0,133137:0:0:0:0:
64,192,133137,128,0,133348:0:0:0:0:
192,192,133137,128,0,133242:0:0:0:0:
320,192,133242,128,0,133348:0:0:0:0:
448,192,133348,128,0,133559:0:0:0:0:
192,192,133348,128,0,133453:0:0:0:0:
320,192,133453,128,0,133559:0:0:0:0:
64,192,133559,128,0,133770:0:0:0:0:
192,192,133559,128,0,133665:0:0:0:0:
320,192,133665,128,0,133770:0:0:0:0:
192,192,133770,128,0,133982:0:0:0:0:
448,192,133770,128,0,133876:0:0:0:0:
64,192,133876,128,0,133982:0:0:0:0:
320,192,133982,128,0,134193:0:0:0:0:
448,192,133982,128,0,134087:0:0:0:0:
192,192,134087,128,0,134193:0:0:0:0:
64,192,134193,1,0,0:0:0:0:
448,192,134299,1,0,0:0:0:0:
320,192,134404,1,0,0:0:0:0:
320,192,134510,1,0,0:0:0:0:
64,192,134615,1,0,0:0:0:0:
448,192,134615,1,0,0:0:0:0:
192,192,134721,1,0,0:0:0:0:
320,192,134827,1,0,0:0:0:0:
320,192,134932,1,0,0:0:0:0:
192,192,135038,1,0,0:0:0:0:
448,192,135038,1,0,0:0:0:0:
320,192,135144,1,0,0:0:0:0:
64,192,135249,1,0,0:0:0:0:
64,192,135355,1,0,0:0:0:0:
192,192,135461,1,0,0:0:0:0:
320,192,135461,1,0,0:0:0:0:
448,192,135566,1,0,0:0:0:0:
192,192,135672,1,0,0:0:0:0:
192,192,135777,1,0,0:0:0:0:
320,192,135883,1,0,0:0:0:0:
448,192,135883,1,0,0:0:0:0:
320,192,136306,1,0,0:0:0:0:
448,192,136306,1,0,0:0:0:0:
64,192,136517,1,0,0:0:0:0:
192,192,136587,1,0,0:0:0:0:
320,192,136658,1,0,0:0:0:0:
448,192,136728,1,0,0:0:0:0:
192,192,136728,1,0,0:0:0:0:
64,192,136728,1,0,0:0:0:0:
320,192,136939,1,0,0:0:0:0:
448,192,136939,1,0,0:0:0:0:
192,192,137151,1,0,0:0:0:0:
320,192,137151,1,0,0:0:0:0:
64,192,137362,1,0,0:0:0:0:
320,192,137362,1,0,0:0:0:0:
192,192,137573,1,0,0:0:0:0:
64,192,137573,1,0,0:0:0:0:
448,192,137573,1,0,0:0:0:0:
192,192,137784,128,0,137890:0:0:0:0:
64,192,137784,128,0,137890:0:0:0:0:
320,192,137890,128,0,138207:0:0:0:0:
448,192,137996,128,0,138101:0:0:0:0:
192,192,137996,128,0,138101:0:0:0:0:
64,192,138207,1,0,0:0:0:0:
320,192,138418,1,0,0:0:0:0:
448,192,138418,1,0,0:0:0:0:
192,192,138630,128,0,138735:0:0:0:0:
448,192,138630,128,0,138735:0:0:0:0:
320,192,138735,128,0,139052:0:0:0:0:
64,192,138841,128,0,138946:0:0:0:0:
192,192,138841,128,0,138946:0:0:0:0:
448,192,139052,1,0,0:0:0:0:
64,192,139263,1,0,0:0:0:0:
192,192,139263,1,0,0:0:0:0:
320,192,139475,128,0,139580:0:0:0:0:
448,192,139475,128,0,139580:0:0:0:0:
64,192,139580,128,0,139897:0:0:0:0:
192,192,139686,128,0,139792:0:0:0:0:
320,192,139686,128,0,139792:0:0:0:0:
448,192,139897,1,0,0:0:0:0:
192,192,140108,1,0,0:0:0:0:
320,192,140108,1,0,0:0:0:0:
192,192,140320,128,0,140425:0:0:0:0:
320,192,140320,128,0,140425:0:0:0:0:
64,192,140425,128,0,140742:0:0:0:0:
448,192,140531,128,0,140637:0:0:0:0:
320,192,140531,128,0,140637:0:0:0:0:
192,192,140742,1,0,0:0:0:0:
320,192,140953,1,0,0:0:0:0:
448,192,140953,1,0,0:0:0:0:
192,192,141165,128,0,141270:0:0:0:0:
64,192,141165,128,0,141270:0:0:0:0:
320,192,141270,128,0,141587:0:0:0:0:
192,192,141376,128,0,141482:0:0:0:0:
448,192,141376,128,0,141482:0:0:0:0:
64,192,141587,1,0,0:0:0:0:
320,192,141799,1,0,0:0:0:0:
448,192,141799,1,0,0:0:0:0:
192,192,142010,128,0,142115:0:0:0:0:
320,192,142010,128,0,142115:0:0:0:0:
448,192,142115,128,0,142432:0:0:0:0:
64,192,142221,128,0,142327:0:0:0:0:
192,192,142221,128,0,142327:0:0:0:0:
320,192,142432,1,0,0:0:0:0:
64,192,142644,1,0,0:0:0:0:
192,192,142644,1,0,0:0:0:0:
320,192,142855,1,0,0:0:0:0:
320,192,142961,1,0,0:0:0:0:
64,192,143066,1,0,0:0:0:0:
448,192,143066,1,0,0:0:0:0:
192,192,143277,1,0,0:0:0:0:
192,192,143383,1,0,0:0:0:0:
320,192,143489,128,0,144334:0:0:0:0:
448,192,143489,1,0,0:0:0:0:
448,192,144334,1,0,0:0:0:0:
64,192,144334,128,0,144756:0:0:0:0:
192,192,144334,128,0,144439:0:0:0:0:
320,192,144439,128,0,144545:0:0:0:0:
448,192,144545,128,0,144651:0:0:0:0:
192,192,144651,128,0,144756:0:0:0:0:
320,192,144756,128,0,145179:0:0:0:0:
448,192,144756,128,0,144968:0:0:0:0:
192,192,144862,128,0,144968:0:0:0:0:
64,192,144968,128,0,145073:0:0:0:0:
192,192,145073,128,0,145179:0:0:0:0:
64,192,145179,128,0,145390:0:0:0:0:
448,192,145179,128,0,145284:0:0:0:0:
192,192,145284,128,0,145496:0:0:0:0:
320,192,145390,128,0,145601:0:0:0:0:
448,192,145496,128,0,145601:0:0:0:0:
64,192,145601,128,0,145707:0:0:0:0:
192,192,145601,128,0,145813:0:0:0:0:
320,192,145707,128,0,145918:0:0:0:0:
448,192,145813,128,0,146024:0:0:0:0:
64,192,145918,128,0,146024:0:0:0:0:
192,192,146024,128,0,146235:0:0:0:0:
320,192,146024,128,0,146130:0:0:0:0:
64,192,146130,128,0,146341:0:0:0:0:
448,192,146235,128,0,146446:0:0:0:0:
320,192,146341,128,0,146446:0:0:0:0:
192,192,146446,128,0,146552:0:0:0:0:
64,192,146446,128,0,146658:0:0:0:0:
320,192,146552,128,0,146658:0:0:0:0:
448,192,146658,128,0,146869:0:0:0:0:
192,192,146763,128,0,146869:0:0:0:0:
320,192,146869,128,0,147080:0:0:0:0:
64,192,146869,128,0,147186:0:0:0:0:
192,192,146975,128,0,147080:0:0:0:0:
448,192,147080,128,0,147292:0:0:0:0:
320,192,147186,128,0,147292:0:0:0:0:
64,192,147292,128,0,147503:0:0:0:0:
192,192,147292,128,0,147397:0:0:0:0:
448,192,147397,128,0,147503:0:0:0:0:
320,192,147503,128,0,147714:0:0:0:0:
192,192,147608,128,0,147714:0:0:0:0:
64,192,147714,1,0,0:0:0:0:
448,192,147714,1,0,0:0:0:0:
320,192,147925,128,0,148137:0:0:0:0:
64,192,147925,128,0,148031:0:0:0:0:
192,192,148031,128,0,148137:0:0:0:0:
448,192,148137,1,0,0:0:0:0:
320,192,148348,128,0,148559:0:0:0:0:
192,192,148348,128,0,148453:0:0:0:0:
448,192,148453,128,0,148559:0:0:0:0:
64,192,148559,1,0,0:0:0:0:
192,192,148559,1,0,0:0:0:0:
64,192,148770,128,0,148982:0:0:0:0:
320,192,148770,128,0,148876:0:0:0:0:
192,192,148876,128,0,148982:0:0:0:0:
448,192,148982,1,0,0:0:0:0:
320,192,149193,128,0,149404:0:0:0:0:
448,192,149193,128,0,149299:0:0:0:0:
192,192,149299,128,0,149404:0:0:0:0:
64,192,149404,1,0,0:0:0:0:
448,192,149404,1,0,0:0:0:0:
64,192,149615,128,0,149721:0:0:0:0:
448,192,149615,128,0,149721:0:0:0:0:
192,192,149615,1,0,0:0:0:0:
320,192,149721,1,0,0:0:0:0:
64,192,149827,128,0,149932:0:0:0:0:
448,192,149827,128,0,149932:0:0:0:0:
192,192,149827,1,0,0:0:0:0:
64,192,150038,128,0,150144:0:0:0:0:
448,192,150038,128,0,150144:0:0:0:0:
320,192,150038,1,0,0:0:0:0:
192,192,150144,1,0,0:0:0:0:
64,192,150249,128,0,150355:0:0:0:0:
448,192,150249,128,0,150355:0:0:0:0:
320,192,150249,1,0,0:0:0:0:
192,192,150461,1,0,0:0:0:0:
320,192,150566,1,0,0:0:0:0:
448,192,150566,1,0,0:0:0:0:
192,192,150672,1,0,0:0:0:0:
64,192,150672,1,0,0:0:0:0:
192,192,150883,1,0,0:0:0:0:
320,192,150883,1,0,0:0:0:0:
64,192,151094,1,0,0:0:0:0:
192,192,151094,1,0,0:0:0:0:
320,192,151094,1,0,0:0:0:0:
448,192,151094,128,0,151517:0:0:0:0:
64,192,151200,128,0,151306:0:0:0:0:
320,192,151306,128,0,151411:0:0:0:0:
192,192,151411,128,0,151517:0:0:0:0:
320,192,151517,128,0,151939:0:0:0:0:
64,192,151517,128,0,151834:0:0:0:0:
448,192,151623,128,0,151728:0:0:0:0:
192,192,151728,128,0,151834:0:0:0:0:
448,192,151834,128,0,151939:0:0:0:0:
192,192,151939,128,0,152362:0:0:0:0:
64,192,151939,128,0,152045:0:0:0:0:
320,192,152045,128,0,152151:0:0:0:0:
448,192,152151,128,0,152256:0:0:0:0:
64,192,152256,128,0,152362:0:0:0:0:
320,192,152362,128,0,152573:0:0:0:0:
448,192,152362,128,0,152468:0:0:0:0:
64,192,152468,128,0,152573:0:0:0:0:
192,192,152573,128,0,152679:0:0:0:0:
448,192,152679,128,0,152784:0:0:0:0:
320,192,152784,1,0,0:0:0:0:
192,192,152784,1,0,0:0:0:0:
64,192,152784,128,0,153207:0:0:0:0:
320,192,152890,128,0,152996:0:0:0:0:
192,192,152996,128,0,153101:0:0:0:0:
320,192,153101,128,0,153207:0:0:0:0:
192,192,153207,128,0,153630:0:0:0:0:
448,192,153207,128,0,153418:0:0:0:0:
320,192,153313,128,0,153418:0:0:0:0:
64,192,153418,128,0,153524:0:0:0:0:
448,192,153524,128,0,153630:0:0:0:0:
320,192,153630,128,0,154052:0:0:0:0:
64,192,153630,128,0,153841:0:0:0:0:
192,192,153735,128,0,153841:0:0:0:0:
448,192,153841,128,0,153946:0:0:0:0:
192,192,153946,128,0,154052:0:0:0:0:
64,192,154052,128,0,154263:0:0:0:0:
448,192,154052,128,0,154158:0:0:0:0:
320,192,154158,128,0,154263:0:0:0:0:
192,192,154263,128,0,154369:0:0:0:0:
448,192,154369,1,0,0:0:0:0:
320,192,154475,1,0,0:0:0:0:
192,192,154475,1,0,0:0:0:0:
64,192,154475,1,0,0:0:0:0:
448,192,154475,128,0,155108:0:0:0:0:
320,192,154580,128,0,154686:0:0:0:0:
64,192,154686,128,0,154792:0:0:0:0:
192,192,154792,128,0,154897:0:0:0:0:
320,192,154897,128,0,155003:0:0:0:0:
64,192,155003,128,0,155108:0:0:0:0:
192,192,155108,128,0,155214:0:0:0:0:
320,192,155214,128,0,155320:0:0:0:0:
64,192,155320,128,0,155953:0:0:0:0:
192,192,155320,1,0,0:0:0:0:
448,192,155320,1,0,0:0:0:0:
320,192,155425,128,0,155531:0:0:0:0:
192,192,155531,128,0,155637:0:0:0:0:
448,192,155637,128,0,155742:0:0:0:0:
320,192,155742,128,0,155848:0:0:0:0:
192,192,155742,128,0,155848:0:0:0:0:
448,192,155848,128,0,155953:0:0:0:0:
192,192,155953,128,0,156059:0:0:0:0:
320,192,156059,128,0,156165:0:0:0:0:
64,192,156165,128,0,157010:0:0:0:0:
192,192,156165,1,0,0:0:0:0:
448,192,156165,1,0,0:0:0:0:
320,192,156376,128,0,156482:0:0:0:0:
448,192,156376,128,0,156482:0:0:0:0:
192,192,156482,1,0,0:0:0:0:
320,192,156587,128,0,156693:0:0:0:0:
448,192,156587,128,0,156693:0:0:0:0:
192,192,156587,1,0,0:0:0:0:
320,192,156799,128,0,156904:0:0:0:0:
448,192,156799,128,0,156904:0:0:0:0:
192,192,156904,1,0,0:0:0:0:
320,192,157010,128,0,157115:0:0:0:0:
448,192,157010,128,0,157115:0:0:0:0:
192,192,157010,1,0,0:0:0:0:
192,192,157115,1,0,0:0:0:0:
64,192,157115,1,0,0:0:0:0:
320,192,157221,1,0,0:0:0:0:
448,192,157221,1,0,0:0:0:0:
192,192,157327,1,0,0:0:0:0:
64,192,157327,1,0,0:0:0:0:
448,192,157432,1,0,0:0:0:0:
320,192,157432,1,0,0:0:0:0:
192,192,157538,1,0,0:0:0:0:
64,192,157538,1,0,0:0:0:0:
320,192,157644,1,0,0:0:0:0:
448,192,157644,1,0,0:0:0:0:
192,192,157749,1,0,0:0:0:0:
64,192,157749,1,0,0:0:0:0:
320,192,157855,1,0,0:0:0:0:
448,192,157855,128,0,157961:0:0:0:0:
192,192,157961,128,0,158172:0:0:0:0:
320,192,158066,1,0,0:0:0:0:
64,192,158066,128,0,158172:0:0:0:0:
448,192,158172,128,0,158277:0:0:0:0:
64,192,158277,1,0,0:0:0:0:
192,192,158277,128,0,158489:0:0:0:0:
320,192,158383,128,0,158489:0:0:0:0:
64,192,158489,1,0,0:0:0:0:
448,192,158489,1,0,0:0:0:0:
192,192,158594,1,0,0:0:0:0:
448,192,158700,1,0,0:0:0:0:
320,192,158700,1,0,0:0:0:0:
64,192,158700,128,0,158806:0:0:0:0:
192,192,158806,128,0,158911:0:0:0:0:
448,192,158911,1,0,0:0:0:0:
64,192,158911,128,0,159123:0:0:0:0:
320,192,159017,128,0,159123:0:0:0:0:
192,192,159123,128,0,159228:0:0:0:0:
448,192,159123,128,0,159334:0:0:0:0:
64,192,159228,1,0,0:0:0:0:
320,192,159334,128,0,159545:0:0:0:0:
192,192,159334,1,0,0:0:0:0:
64,192,159439,1,0,0:0:0:0:
448,192,159545,1,0,0:0:0:0:
192,192,159545,128,0,159651:0:0:0:0:
64,192,159545,128,0,159756:0:0:0:0:
320,192,159651,1,0,0:0:0:0:
448,192,159756,1,0,0:0:0:0:
192,192,159756,128,0,159968:0:0:0:0:
320,192,159862,128,0,159968:0:0:0:0:
64,192,159968,1,0,0:0:0:0:
448,192,159968,128,0,160179:0:0:0:0:
192,192,160073,1,0,0:0:0:0:
320,192,160179,1,0,0:0:0:0:
64,192,160179,128,0,160390:0:0:0:0:
192,192,160284,128,0,160390:0:0:0:0:
448,192,160390,128,0,160496:0:0:0:0:
320,192,160390,1,0,0:0:0:0:
192,192,160443,1,0,0:0:0:0:
64,192,160496,1,0,0:0:0:0:
320,192,160601,128,0,160813:0:0:0:0:
192,192,160707,128,0,160813:0:0:0:0:
448,192,160813,1,0,0:0:0:0:
64,192,160813,128,0,161024:0:0:0:0:
320,192,160918,128,0,161024:0:0:0:0:
192,192,161024,128,0,161130:0:0:0:0:
448,192,161024,1,0,0:0:0:0:
64,192,161130,1,0,0:0:0:0:
320,192,161130,128,0,161235:0:0:0:0:
448,192,161235,128,0,161446:0:0:0:0:
192,192,161235,1,0,0:0:0:0:
64,192,161288,1,0,0:0:0:0:
192,192,161341,1,0,0:0:0:0:
320,192,161446,1,0,0:0:0:0:
64,192,161446,128,0,161658:0:0:0:0:
192,192,161552,128,0,161658:0:0:0:0:
448,192,161658,128,0,161869:0:0:0:0:
320,192,161658,128,0,161763:0:0:0:0:
192,192,161763,128,0,161869:0:0:0:0:
64,192,161869,128,0,162080:0:0:0:0:
320,192,161869,1,0,0:0:0:0:
192,192,161975,1,0,0:0:0:0:
448,192,162080,1,0,0:0:0:0:
320,192,162080,128,0,162292:0:0:0:0:
192,192,162080,1,0,0:0:0:0:
64,192,162186,128,0,162292:0:0:0:0:
192,192,162292,128,0,162503:0:0:0:0:
448,192,162397,128,0,162503:0:0:0:0:
64,192,162503,128,0,162714:0:0:0:0:
320,192,162503,1,0,0:0:0:0:
192,192,162608,1,0,0:0:0:0:
320,192,162714,128,0,162925:0:0:0:0:
448,192,162820,128,0,162925:0:0:0:0:
192,192,162925,128,0,163137:0:0:0:0:
64,192,162925,1,0,0:0:0:0:
320,192,163031,128,0,163137:0:0:0:0:
448,192,163137,1,0,0:0:0:0:
64,192,163137,128,0,163348:0:0:0:0:
192,192,163242,128,0,163348:0:0:0:0:
448,192,163348,128,0,163559:0:0:0:0:
320,192,163348,128,0,163453:0:0:0:0:
64,192,163453,1,0,0:0:0:0:
192,192,163559,1,0,0:0:0:0:
64,192,163559,128,0,163770:0:0:0:0:
320,192,163665,128,0,163770:0:0:0:0:
192,192,163770,128,0,163982:0:0:0:0:
448,192,163770,128,0,163876:0:0:0:0:
320,192,163876,128,0,163982:0:0:0:0:
64,192,163982,1,0,0:0:0:0:
448,192,163982,128,0,164193:0:0:0:0:
320,192,164087,128,0,164193:0:0:0:0:
192,192,164193,1,0,0:0:0:0:
64,192,164193,1,0,0:0:0:0:
320,192,164299,1,0,0:0:0:0:
192,192,164404,1,0,0:0:0:0:
448,192,164404,1,0,0:0:0:0:
192,192,164510,1,0,0:0:0:0:
448,192,164510,1,0,0:0:0:0:
64,192,164615,128,0,165461:0:0:0:0:
320,192,164615,128,0,164721:0:0:0:0:
192,192,164615,128,0,164721:0:0:0:0:
448,192,164721,128,0,164827:0:0:0:0:
192,192,164827,128,0,164932:0:0:0:0:
320,192,164932,128,0,165038:0:0:0:0:
448,192,165038,128,0,165249:0:0:0:0:
192,192,165038,128,0,165144:0:0:0:0:
320,192,165144,128,0,165249:0:0:0:0:
192,192,165249,128,0,165355:0:0:0:0:
448,192,165355,128,0,165461:0:0:0:0:
192,192,165461,128,0,165672:0:0:0:0:
320,192,165461,128,0,166306:0:0:0:0:
64,192,165566,128,0,165672:0:0:0:0:
448,192,165672,128,0,165777:0:0:0:0:
192,192,165777,128,0,165883:0:0:0:0:
64,192,165883,128,0,165989:0:0:0:0:
448,192,165883,128,0,166094:0:0:0:0:
192,192,165989,128,0,166094:0:0:0:0:
64,192,166094,128,0,166200:0:0:0:0:
448,192,166200,128,0,166306:0:0:0:0:
192,192,166306,128,0,167151:0:0:0:0:
64,192,166306,128,0,166517:0:0:0:0:
320,192,166411,128,0,166517:0:0:0:0:
448,192,166517,128,0,166623:0:0:0:0:
64,192,166623,128,0,166728:0:0:0:0:
320,192,166728,128,0,166939:0:0:0:0:
448,192,166728,128,0,166834:0:0:0:0:
64,192,166834,128,0,166939:0:0:0:0:
448,192,166939,128,0,167045:0:0:0:0:
320,192,167045,128,0,167151:0:0:0:0:
448,192,167151,128,0,167996:0:0:0:0:
64,192,167151,128,0,167256:0:0:0:0:
192,192,167203,128,0,167256:0:0:0:0:
320,192,167256,128,0,167362:0:0:0:0:
192,192,167362,128,0,167468:0:0:0:0:
64,192,167468,128,0,167573:0:0:0:0:
320,192,167573,128,0,167784:0:0:0:0:
192,192,167573,128,0,167679:0:0:0:0:
64,192,167679,128,0,167784:0:0:0:0:
192,192,167784,128,0,167890:0:0:0:0:
64,192,167890,128,0,167996:0:0:0:0:
320,192,167996,1,0,0:0:0:0:
192,192,168049,1,0,0:0:0:0:
64,192,168101,1,0,0:0:0:0:
320,192,168207,1,0,0:0:0:0:
448,192,168207,1,0,0:0:0:0:
192,192,168313,1,0,0:0:0:0:
64,192,168313,1,0,0:0:0:0:
192,192,168418,1,0,0:0:0:0:
320,192,168418,1,0,0:0:0:0:
320,192,168524,1,0,0:0:0:0:
64,192,168630,1,0,0:0:0:0:
448,192,168630,1,0,0:0:0:0:
192,192,168735,1,0,0:0:0:0:
320,192,168841,1,0,0:0:0:0:
448,192,168841,1,0,0:0:0:0:
192,192,168946,1,0,0:0:0:0:
64,192,169052,1,0,0:0:0:0:
320,192,169158,1,0,0:0:0:0:
192,192,169263,1,0,0:0:0:0:
448,192,169263,1,0,0:0:0:0:
320,192,169369,1,0,0:0:0:0:
64,192,169475,1,0,0:0:0:0:
192,192,169580,1,0,0:0:0:0:
64,192,169686,1,0,0:0:0:0:
448,192,169686,1,0,0:0:0:0:
320,192,169792,1,0,0:0:0:0:
192,192,169897,1,0,0:0:0:0:
448,192,170003,1,0,0:0:0:0:
64,192,170108,1,0,0:0:0:0:
320,192,170108,1,0,0:0:0:0:
192,192,170214,1,0,0:0:0:0:
320,192,170320,1,0,0:0:0:0:
448,192,170425,1,0,0:0:0:0:
192,192,170531,1,0,0:0:0:0:
64,192,170531,1,0,0:0:0:0:
320,192,170584,1,0,0:0:0:0:
448,192,170637,1,0,0:0:0:0:
64,192,170742,128,0,170953:0:0:0:0:
192,192,170742,128,0,170848:0:0:0:0:
320,192,170848,128,0,170953:0:0:0:0:
448,192,170953,128,0,171165:0:0:0:0:
192,192,170953,128,0,171059:0:0:0:0:
64,192,171059,128,0,171270:0:0:0:0:
320,192,171059,128,0,171165:0:0:0:0:
192,192,171165,128,0,171376:0:0:0:0:
320,192,171270,128,0,171376:0:0:0:0:
448,192,171376,1,0,0:0:0:0:
64,192,171376,1,0,0:0:0:0:
320,192,171482,1,0,0:0:0:0:
192,192,171587,1,0,0:0:0:0:
320,192,171693,1,0,0:0:0:0:
192,192,171799,1,0,0:0:0:0:
448,192,171799,1,0,0:0:0:0:
64,192,171799,1,0,0:0:0:0:
320,192,171904,1,0,0:0:0:0:
64,192,172010,1,0,0:0:0:0:
192,192,172115,1,0,0:0:0:0:
320,192,172221,1,0,0:0:0:0:
448,192,172221,1,0,0:0:0:0:
64,192,172221,1,0,0:0:0:0:
192,192,172327,1,0,0:0:0:0:
448,192,172432,1,0,0:0:0:0:
64,192,172538,1,0,0:0:0:0:
192,192,172644,1,0,0:0:0:0:
320,192,172644,1,0,0:0:0:0:
448,192,172644,1,0,0:0:0:0:
320,192,172749,1,0,0:0:0:0:
64,192,172855,1,0,0:0:0:0:
192,192,172961,1,0,0:0:0:0:
320,192,173066,1,0,0:0:0:0:
448,192,173066,1,0,0:0:0:0:
64,192,173066,1,0,0:0:0:0:
192,192,173172,1,0,0:0:0:0:
448,192,173277,1,0,0:0:0:0:
320,192,173383,1,0,0:0:0:0:
64,192,173489,1,0,0:0:0:0:
192,192,173489,1,0,0:0:0:0:
320,192,173489,1,0,0:0:0:0:
192,192,173594,1,0,0:0:0:0:
448,192,173700,1,0,0:0:0:0:
64,192,173806,1,0,0:0:0:0:
192,192,173911,1,0,0:0:0:0:
448,192,173911,1,0,0:0:0:0:
320,192,173911,1,0,0:0:0:0:
64,192,174017,1,0,0:0:0:0:
448,192,174123,1,0,0:0:0:0:
192,192,174228,1,0,0:0:0:0:
320,192,174334,1,0,0:0:0:0:
448,192,174334,1,0,0:0:0:0:
64,192,174334,1,0,0:0:0:0:
192,192,174439,1,0,0:0:0:0:
320,192,174439,1,0,0:0:0:0:
64,192,174545,1,0,0:0:0:0:
448,192,174545,1,0,0:0:0:0:
320,192,174651,1,0,0:0:0:0:
192,192,174756,1,0,0:0:0:0:
64,192,174756,1,0,0:0:0:0:
448,192,174756,1,0,0:0:0:0:
320,192,174862,1,0,0:0:0:0:
64,192,174968,1,0,0:0:0:0:
192,192,175073,1,0,0:0:0:0:
320,192,175179,1,0,0:0:0:0:
448,192,175179,1,0,0:0:0:0:
64,192,175179,1,0,0:0:0:0:
192,192,175284,1,0,0:0:0:0:
448,192,175390,1,0,0:0:0:0:
64,192,175496,1,0,0:0:0:0:
192,192,175601,1,0,0:0:0:0:
320,192,175601,1,0,0:0:0:0:
448,192,175601,1,0,0:0:0:0:
64,192,175707,1,0,0:0:0:0:
320,192,175813,1,0,0:0:0:0:
448,192,175918,1,0,0:0:0:0:
320,192,176024,1,0,0:0:0:0:
192,192,176024,1,0,0:0:0:0:
64,192,176024,1,0,0:0:0:0:
448,192,176130,1,0,0:0:0:0:
192,192,176235,1,0,0:0:0:0:
320,192,176341,1,0,0:0:0:0:
64,192,176446,1,0,0:0:0:0:
192,192,176446,1,0,0:0:0:0:
448,192,176446,1,0,0:0:0:0:
320,192,176552,1,0,0:0:0:0:
192,192,176658,1,0,0:0:0:0:
448,192,176763,1,0,0:0:0:0:
320,192,176869,1,0,0:0:0:0:
64,192,176869,1,0,0:0:0:0:
192,192,176869,1,0,0:0:0:0:
320,192,176975,1,0,0:0:0:0:
64,192,177080,1,0,0:0:0:0:
192,192,177186,1,0,0:0:0:0:
320,192,177292,1,0,0:0:0:0:
448,192,177292,1,0,0:0:0:0:
64,192,177292,1,0,0:0:0:0:
192,192,177397,1,0,0:0:0:0:
64,192,177503,1,0,0:0:0:0:
320,192,177608,1,0,0:0:0:0:
192,192,177714,1,0,0:0:0:0:
64,192,177714,1,0,0:0:0:0:
448,192,177714,1,0,0:0:0:0:
320,192,177820,1,0,0:0:0:0:
192,192,177925,1,0,0:0:0:0:
64,192,177925,1,0,0:0:0:0:
64,192,178031,1,0,0:0:0:0:
192,192,178031,1,0,0:0:0:0:
64,192,178137,1,0,0:0:0:0:
192,192,178137,1,0,0:0:0:0:
320,192,178137,1,0,0:0:0:0:
448,192,178242,1,0,0:0:0:0:
192,192,178348,1,0,0:0:0:0:
320,192,178348,1,0,0:0:0:0:
64,192,178453,1,0,0:0:0:0:
192,192,178559,1,0,0:0:0:0:
448,192,178559,1,0,0:0:0:0:
320,192,178665,1,0,0:0:0:0:
192,192,178770,1,0,0:0:0:0:
64,192,178770,1,0,0:0:0:0:
320,192,178876,1,0,0:0:0:0:
64,192,178982,1,0,0:0:0:0:
448,192,178982,1,0,0:0:0:0:
192,192,179087,1,0,0:0:0:0:
320,192,179193,1,0,0:0:0:0:
448,192,179193,1,0,0:0:0:0:
320,192,179299,1,0,0:0:0:0:
448,192,179299,1,0,0:0:0:0:
192,192,179404,1,0,0:0:0:0:
64,192,179404,1,0,0:0:0:0:
320,192,179510,1,0,0:0:0:0:
64,192,179615,1,0,0:0:0:0:
448,192,179615,1,0,0:0:0:0:
192,192,179721,1,0,0:0:0:0:
320,192,179827,1,0,0:0:0:0:
64,192,179827,1,0,0:0:0:0:
192,192,179932,1,0,0:0:0:0:
320,192,180038,1,0,0:0:0:0:
448,192,180038,1,0,0:0:0:0:
192,192,180144,1,0,0:0:0:0:
64,192,180249,1,0,0:0:0:0:
448,192,180249,1,0,0:0:0:0:
320,192,180355,1,0,0:0:0:0:
192,192,180461,1,0,0:0:0:0:
64,192,180461,1,0,0:0:0:0:
320,192,180566,1,0,0:0:0:0:
64,192,180672,1,0,0:0:0:0:
448,192,180672,1,0,0:0:0:0:
192,192,180725,1,0,0:0:0:0:
320,192,180777,1,0,0:0:0:0:
64,192,180883,1,0,0:0:0:0:
192,192,180883,1,0,0:0:0:0:
64,192,180989,1,0,0:0:0:0:
192,192,180989,1,0,0:0:0:0:
320,192,181094,1,0,0:0:0:0:
448,192,181094,1,0,0:0:0:0:
320,192,181200,1,0,0:0:0:0:
448,192,181200,1,0,0:0:0:0:
192,192,181306,1,0,0:0:0:0:
64,192,181306,1,0,0:0:0:0:
64,192,181411,1,0,0:0:0:0:
192,192,181411,1,0,0:0:0:0:
320,192,181517,1,0,0:0:0:0:
448,192,181517,1,0,0:0:0:0:
192,192,181570,1,0,0:0:0:0:
64,192,181623,1,0,0:0:0:0:
320,192,181728,1,0,0:0:0:0:
192,192,181834,1,0,0:0:0:0:
320,192,181939,1,0,0:0:0:0:
64,192,181939,1,0,0:0:0:0:
192,192,182045,1,0,0:0:0:0:
320,192,182151,1,0,0:0:0:0:
192,192,182256,1,0,0:0:0:0:
448,192,182362,1,0,0:0:0:0:
320,192,182362,1,0,0:0:0:0:
192,192,182468,1,0,0:0:0:0:
64,192,182468,1,0,0:0:0:0:
320,192,182573,1,0,0:0:0:0:
448,192,182573,1,0,0:0:0:0:
192,192,182679,1,0,0:0:0:0:
64,192,182679,1,0,0:0:0:0:
320,192,182784,1,0,0:0:0:0:
448,192,182784,1,0,0:0:0:0:
192,192,182890,1,0,0:0:0:0:
64,192,182890,1,0,0:0:0:0:
320,192,182996,1,0,0:0:0:0:
448,192,182996,1,0,0:0:0:0:
192,192,183101,1,0,0:0:0:0:
64,192,183101,1,0,0:0:0:0:
320,192,183207,1,0,0:0:0:0:
448,192,183207,1,0,0:0:0:0:
192,192,183313,1,0,0:0:0:0:
64,192,183313,1,0,0:0:0:0:
320,192,183418,1,0,0:0:0:0:
448,192,183418,1,0,0:0:0:0:
192,192,183524,1,0,0:0:0:0:
64,192,183524,1,0,0:0:0:0:
320,192,183630,1,0,0:0:0:0:
448,192,183630,1,0,0:0:0:0:
64,192,183735,1,0,0:0:0:0:
192,192,183735,1,0,0:0:0:0:
320,192,183841,1,0,0:0:0:0:
448,192,183841,1,0,0:0:0:0:
192,192,183946,1,0,0:0:0:0:
64,192,183946,1,0,0:0:0:0:
320,192,184052,1,0,0:0:0:0:
448,192,184052,1,0,0:0:0:0:
192,192,184105,1,0,0:0:0:0:
64,192,184158,1,0,0:0:0:0:
320,192,184211,1,0,0:0:0:0:
192,192,184263,1,0,0:0:0:0:
448,192,184263,1,0,0:0:0:0:
192,192,184369,1,0,0:0:0:0:
64,192,184369,1,0,0:0:0:0:
320,192,184475,1,0,0:0:0:0:
448,192,184475,1,0,0:0:0:0:
64,192,184527,1,0,0:0:0:0:
192,192,184580,1,0,0:0:0:0:
320,192,184633,1,0,0:0:0:0:
448,192,184686,1,0,0:0:0:0:
64,192,184686,1,0,0:0:0:0:
192,192,184792,1,0,0:0:0:0:
64,192,184792,1,0,0:0:0:0:
448,192,184897,128,0,185742:0:0:0:0:
320,192,184897,128,0,185108:0:0:0:0:
64,192,184897,128,0,185003:0:0:0:0:
192,192,185003,128,0,185108:0:0:0:0:
64,192,185108,128,0,185214:0:0:0:0:
192,192,185214,128,0,185320:0:0:0:0:
320,192,185320,128,0,185742:0:0:0:0:
64,192,185320,128,0,185425:0:0:0:0:
192,192,185425,128,0,185531:0:0:0:0:
64,192,185531,128,0,185637:0:0:0:0:
192,192,185637,128,0,185742:0:0:0:0:
64,192,185742,128,0,186165:0:0:0:0:
192,192,185848,128,0,185953:0:0:0:0:
320,192,185953,128,0,186059:0:0:0:0:
448,192,186059,128,0,186165:0:0:0:0:
192,192,186165,128,0,186376:0:0:0:0:
320,192,186165,128,0,186270:0:0:0:0:
64,192,186270,128,0,186376:0:0:0:0:
448,192,186376,128,0,186587:0:0:0:0:
320,192,186376,128,0,186482:0:0:0:0:
192,192,186482,128,0,186587:0:0:0:0:
64,192,186587,128,0,187432:0:0:0:0:
320,192,186587,128,0,186693:0:0:0:0:
192,192,186693,128,0,186799:0:0:0:0:
448,192,186799,128,0,186904:0:0:0:0:
320,192,186904,128,0,187010:0:0:0:0:
192,192,187010,128,0,187432:0:0:0:0:
448,192,187010,128,0,187115:0:0:0:0:
320,192,187115,128,0,187221:0:0:0:0:
448,192,187221,128,0,187327:0:0:0:0:
320,192,187327,128,0,187432:0:0:0:0:
448,192,187432,128,0,187855:0:0:0:0:
192,192,187538,128,0,187644:0:0:0:0:
64,192,187644,128,0,187749:0:0:0:0:
320,192,187749,128,0,187855:0:0:0:0:
192,192,187855,1,0,0:0:0:0:
64,192,187855,1,0,0:0:0:0:
320,192,188066,1,0,0:0:0:0:
320,192,188172,1,0,0:0:0:0:
64,192,188277,1,0,0:0:0:0:
192,192,188277,1,0,0:0:0:0:
448,192,188277,1,0,0:0:0:0:
192,192,188489,1,0,0:0:0:0:
192,192,188594,1,0,0:0:0:0:
320,192,188700,1,0,0:0:0:0:
448,192,188700,1,0,0:0:0:0:
64,192,188806,1,0,0:0:0:0:
320,192,188911,1,0,0:0:0:0:
320,192,189017,1,0,0:0:0:0:
192,192,189123,1,0,0:0:0:0:
320,192,189123,1,0,0:0:0:0:
448,192,189123,1,0,0:0:0:0:
448,192,189228,1,0,0:0:0:0:
192,192,189334,1,0,0:0:0:0:
192,192,189439,1,0,0:0:0:0:
64,192,189545,1,0,0:0:0:0:
320,192,189545,1,0,0:0:0:0:
192,192,189651,1,0,0:0:0:0:
448,192,189756,1,0,0:0:0:0:
448,192,189862,1,0,0:0:0:0:
64,192,189968,1,0,0:0:0:0:
192,192,189968,1,0,0:0:0:0:
448,192,189968,1,0,0:0:0:0:
320,192,189968,1,0,0:0:0:0:
192,192,190073,1,0,0:0:0:0:
320,192,190179,1,0,0:0:0:0:
320,192,190284,1,0,0:0:0:0:
192,192,190390,1,0,0:0:0:0:
64,192,190390,1,0,0:0:0:0:
448,192,190390,1,0,0:0:0:0:
320,192,190496,1,0,0:0:0:0:
192,192,190601,1,0,0:0:0:0:
192,192,190707,1,0,0:0:0:0:
64,192,190813,1,0,0:0:0:0:
320,192,190813,1,0,0:0:0:0:
192,192,190813,1,0,0:0:0:0:
448,192,191024,1,0,0:0:0:0:
320,192,191024,1,0,0:0:0:0:
192,192,191130,1,0,0:0:0:0:
64,192,191130,1,0,0:0:0:0:
320,192,191235,1,0,0:0:0:0:
448,192,191235,1,0,0:0:0:0:
64,192,191235,128,0,191446:0:0:0:0:
320,192,191446,1,0,0:0:0:0:
192,192,191446,128,0,191658:0:0:0:0:
448,192,191446,1,0,0:0:0:0:
448,192,191658,128,0,192503:0:0:0:0:
320,192,191658,128,0,191869:0:0:0:0:
64,192,191658,128,0,191763:0:0:0:0:
192,192,191763,128,0,191869:0:0:0:0:
64,192,191869,128,0,191975:0:0:0:0:
192,192,191975,128,0,192080:0:0:0:0:
320,192,192080,128,0,192503:0:0:0:0:
64,192,192080,128,0,192186:0:0:0:0:
192,192,192186,128,0,192292:0:0:0:0:
64,192,192292,128,0,192397:0:0:0:0:
192,192,192397,128,0,192503:0:0:0:0:
64,192,192503,128,0,192925:0:0:0:0:
192,192,192608,128,0,192714:0:0:0:0:
320,192,192714,128,0,192820:0:0:0:0:
448,192,192820,128,0,192925:0:0:0:0:
192,192,192925,128,0,193137:0:0:0:0:
320,192,192925,128,0,193031:0:0:0:0:
64,192,193031,128,0,193137:0:0:0:0:
448,192,193137,128,0,193348:0:0:0:0:
320,192,193137,128,0,193242:0:0:0:0:
192,192,193242,128,0,193348:0:0:0:0:
64,192,193348,128,0,194193:0:0:0:0:
320,192,193348,128,0,193453:0:0:0:0:
192,192,193453,128,0,193559:0:0:0:0:
448,192,193559,128,0,193665:0:0:0:0:
320,192,193665,128,0,193770:0:0:0:0:
192,192,193770,128,0,194193:0:0:0:0:
448,192,193770,128,0,193876:0:0:0:0:
320,192,193876,128,0,193982:0:0:0:0:
448,192,193982,128,0,194087:0:0:0:0:
320,192,194087,128,0,194193:0:0:0:0:
448,192,194193,128,0,194615:0:0:0:0:
192,192,194299,128,0,194404:0:0:0:0:
64,192,194404,128,0,194510:0:0:0:0:
320,192,194510,128,0,194615:0:0:0:0:
192,192,194615,1,0,0:0:0:0:
64,192,194615,128,0,194827:0:0:0:0:
320,192,194721,1,0,0:0:0:0:
448,192,194827,128,0,195038:0:0:0:0:
320,192,194932,1,0,0:0:0:0:
64,192,195038,1,0,0:0:0:0:
192,192,195038,1,0,0:0:0:0:
192,192,195249,1,0,0:0:0:0:
192,192,195355,1,0,0:0:0:0:
320,192,195461,1,0,0:0:0:0:
320,192,195672,1,0,0:0:0:0:
320,192,195777,1,0,0:0:0:0:
192,192,195883,1,0,0:0:0:0:
448,192,195883,1,0,0:0:0:0:
192,192,196094,1,0,0:0:0:0:
192,192,196200,1,0,0:0:0:0:
320,192,196306,1,0,0:0:0:0:
448,192,196517,1,0,0:0:0:0:
448,192,196623,1,0,0:0:0:0:
64,192,196728,1,0,0:0:0:0:
192,192,196728,1,0,0:0:0:0:
448,192,196834,1,0,0:0:0:0:
320,192,196834,1,0,0:0:0:0:
64,192,196939,1,0,0:0:0:0:
192,192,196939,1,0,0:0:0:0:
192,192,197045,1,0,0:0:0:0:
448,192,197151,1,0,0:0:0:0:
320,192,197151,1,0,0:0:0:0:
192,192,197256,1,0,0:0:0:0:
64,192,197256,1,0,0:0:0:0:
320,192,197362,1,0,0:0:0:0:
448,192,197362,1,0,0:0:0:0:
192,192,197468,1,0,0:0:0:0:
64,192,197468,1,0,0:0:0:0:
320,192,197573,1,0,0:0:0:0:
448,192,197573,1,0,0:0:0:0:
192,192,197626,1,0,0:0:0:0:
64,192,197679,1,0,0:0:0:0:
320,192,197732,1,0,0:0:0:0:
192,192,197784,1,0,0:0:0:0:
448,192,197784,1,0,0:0:0:0:
64,192,197890,1,0,0:0:0:0:
192,192,197890,1,0,0:0:0:0:
320,192,197996,1,0,0:0:0:0:
448,192,197996,1,0,0:0:0:0:
192,192,198101,1,0,0:0:0:0:
64,192,198101,1,0,0:0:0:0:
192,192,198207,1,0,0:0:0:0:
320,192,198207,1,0,0:0:0:0:
64,192,198313,1,0,0:0:0:0:
448,192,198313,1,0,0:0:0:0:
320,192,198418,1,0,0:0:0:0:
192,192,198418,1,0,0:0:0:0:
64,192,198418,1,0,0:0:0:0:
448,192,198418,128,0,205179:0:0:0:0:
64,192,205179,1,0,0:0:0:0:
192,192,205179,1,0,0:0:0:0:
320,192,205390,1,0,0:0:0:0:
64,192,205496,1,0,0:0:0:0:
448,192,205496,1,0,0:0:0:0:
192,192,205601,1,0,0:0:0:0:
320,192,205813,1,0,0:0:0:0:
448,192,205813,1,0,0:0:0:0:
192,192,206024,1,0,0:0:0:0:
64,192,206024,1,0,0:0:0:0:
320,192,206130,1,0,0:0:0:0:
192,192,206235,1,0,0:0:0:0:
64,192,206341,1,0,0:0:0:0:
448,192,206341,1,0,0:0:0:0:
192,192,206446,1,0,0:0:0:0:
320,192,206658,1,0,0:0:0:0:
448,192,206658,1,0,0:0:0:0:
192,192,206869,1,0,0:0:0:0:
64,192,206869,1,0,0:0:0:0:
320,192,207080,1,0,0:0:0:0:
64,192,207186,1,0,0:0:0:0:
448,192,207186,1,0,0:0:0:0:
192,192,207292,1,0,0:0:0:0:
320,192,207503,1,0,0:0:0:0:
192,192,207503,1,0,0:0:0:0:
64,192,207714,1,0,0:0:0:0:
192,192,207714,1,0,0:0:0:0:
320,192,207820,1,0,0:0:0:0:
192,192,207925,1,0,0:0:0:0:
320,192,208031,1,0,0:0:0:0:
448,192,208031,1,0,0:0:0:0:
64,192,208137,1,0,0:0:0:0:
192,192,208348,1,0,0:0:0:0:
320,192,208348,1,0,0:0:0:0:
192,192,208559,1,0,0:0:0:0:
448,192,208559,1,0,0:0:0:0:
320,192,208770,1,0,0:0:0:0:
64,192,208876,1,0,0:0:0:0:
448,192,208876,1,0,0:0:0:0:
192,192,208982,1,0,0:0:0:0:
320,192,209193,1,0,0:0:0:0:
64,192,209193,1,0,0:0:0:0:
192,192,209404,1,0,0:0:0:0:
320,192,209404,1,0,0:0:0:0:
448,192,209510,1,0,0:0:0:0:
320,192,209615,1,0,0:0:0:0:
192,192,209721,1,0,0:0:0:0:
64,192,209721,1,0,0:0:0:0:
320,192,209827,1,0,0:0:0:0:
192,192,210038,1,0,0:0:0:0:
448,192,210038,1,0,0:0:0:0:
320,192,210249,1,0,0:0:0:0:
192,192,210249,1,0,0:0:0:0:
320,192,210461,1,0,0:0:0:0:
64,192,210566,1,0,0:0:0:0:
448,192,210566,1,0,0:0:0:0:
192,192,210672,1,0,0:0:0:0:
320,192,210883,1,0,0:0:0:0:
448,192,210883,1,0,0:0:0:0:
192,192,211094,1,0,0:0:0:0:
448,192,211094,1,0,0:0:0:0:
320,192,211200,1,0,0:0:0:0:
64,192,211306,1,0,0:0:0:0:
192,192,211411,1,0,0:0:0:0:
320,192,211411,1,0,0:0:0:0:
448,192,211517,1,0,0:0:0:0:
192,192,211728,1,0,0:0:0:0:
64,192,211728,1,0,0:0:0:0:
320,192,211939,1,0,0:0:0:0:
448,192,211939,1,0,0:0:0:0:
192,192,212151,1,0,0:0:0:0:
64,192,212256,1,0,0:0:0:0:
448,192,212256,1,0,0:0:0:0:
320,192,212362,1,0,0:0:0:0:
192,192,212573,1,0,0:0:0:0:
64,192,212573,1,0,0:0:0:0:
320,192,212784,1,0,0:0:0:0:
448,192,212784,1,0,0:0:0:0:
192,192,212890,1,0,0:0:0:0:
64,192,212996,1,0,0:0:0:0:
192,192,213101,1,0,0:0:0:0:
448,192,213101,1,0,0:0:0:0:
320,192,213207,1,0,0:0:0:0:
64,192,213418,1,0,0:0:0:0:
448,192,213418,1,0,0:0:0:0:
192,192,213630,1,0,0:0:0:0:
320,192,213630,1,0,0:0:0:0:
320,192,213841,1,0,0:0:0:0:
448,192,213946,1,0,0:0:0:0:
192,192,213946,1,0,0:0:0:0:
64,192,214052,1,0,0:0:0:0:
320,192,214263,1,0,0:0:0:0:
448,192,214263,1,0,0:0:0:0:
192,192,214475,1,0,0:0:0:0:
64,192,214475,1,0,0:0:0:0:
320,192,214580,1,0,0:0:0:0:
192,192,214686,1,0,0:0:0:0:
320,192,214792,1,0,0:0:0:0:
448,192,214792,1,0,0:0:0:0:
192,192,214897,1,0,0:0:0:0:
64,192,215108,1,0,0:0:0:0:
320,192,215108,1,0,0:0:0:0:
192,192,215320,1,0,0:0:0:0:
448,192,215320,1,0,0:0:0:0:
320,192,215531,1,0,0:0:0:0:
64,192,215637,1,0,0:0:0:0:
448,192,215637,1,0,0:0:0:0:
192,192,215742,1,0,0:0:0:0:
320,192,215953,1,0,0:0:0:0:
64,192,215953,1,0,0:0:0:0:
192,192,216165,1,0,0:0:0:0:
320,192,216165,1,0,0:0:0:0:
448,192,216376,1,0,0:0:0:0:
320,192,216482,1,0,0:0:0:0:
64,192,216482,1,0,0:0:0:0:
192,192,216587,1,0,0:0:0:0:
320,192,216799,1,0,0:0:0:0:
448,192,216799,1,0,0:0:0:0:
192,192,217010,1,0,0:0:0:0:
64,192,217010,1,0,0:0:0:0:
320,192,217221,1,0,0:0:0:0:
64,192,217327,1,0,0:0:0:0:
448,192,217327,1,0,0:0:0:0:
192,192,217432,1,0,0:0:0:0:
320,192,217644,1,0,0:0:0:0:
448,192,217644,1,0,0:0:0:0:
192,192,217855,1,0,0:0:0:0:
64,192,217855,1,0,0:0:0:0:
320,192,217961,1,0,0:0:0:0:
192,192,218066,1,0,0:0:0:0:
64,192,218172,1,0,0:0:0:0:
320,192,218172,1,0,0:0:0:0:
192,192,218277,1,0,0:0:0:0:
320,192,218489,1,0,0:0:0:0:
448,192,218489,1,0,0:0:0:0:
192,192,218700,1,0,0:0:0:0:
320,192,218700,1,0,0:0:0:0:
64,192,218911,1,0,0:0:0:0:
192,192,219017,1,0,0:0:0:0:
448,192,219017,1,0,0:0:0:0:
320,192,219123,1,0,0:0:0:0:
192,192,219334,1,0,0:0:0:0:
320,192,219334,1,0,0:0:0:0:
64,192,219545,1,0,0:0:0:0:
448,192,219545,1,0,0:0:0:0:
192,192,219651,1,0,0:0:0:0:
320,192,219756,1,0,0:0:0:0:
192,192,219862,1,0,0:0:0:0:
64,192,219862,1,0,0:0:0:0:
320,192,219968,1,0,0:0:0:0:
448,192,220179,1,0,0:0:0:0:
192,192,220179,1,0,0:0:0:0:
320,192,220390,1,0,0:0:0:0:
64,192,220390,1,0,0:0:0:0:
192,192,220601,1,0,0:0:0:0:
64,192,220707,1,0,0:0:0:0:
448,192,220707,1,0,0:0:0:0:
320,192,220813,1,0,0:0:0:0:
192,192,221024,1,0,0:0:0:0:
64,192,221024,1,0,0:0:0:0:
320,192,221235,1,0,0:0:0:0:
448,192,221235,1,0,0:0:0:0:
192,192,221341,1,0,0:0:0:0:
64,192,221446,1,0,0:0:0:0:
320,192,221552,1,0,0:0:0:0:
448,192,221552,1,0,0:0:0:0:
192,192,221658,1,0,0:0:0:0:
320,192,221869,1,0,0:0:0:0:
64,192,221869,1,0,0:0:0:0:
448,192,222080,128,0,225461:0:0:0:0:
64,192,222080,1,0,0:0:0:0:
192,192,222080,1,0,0:0:0:0:
192,192,222292,1,0,0:0:0:0:
64,192,222397,1,0,0:0:0:0:
320,192,222397,1,0,0:0:0:0:
192,192,222503,1,0,0:0:0:0:
192,192,222714,1,0,0:0:0:0:
320,192,222714,1,0,0:0:0:0:
64,192,222925,1,0,0:0:0:0:
192,192,222925,1,0,0:0:0:0:
320,192,223031,1,0,0:0:0:0:
64,192,223137,1,0,0:0:0:0:
192,192,223242,1,0,0:0:0:0:
320,192,223242,1,0,0:0:0:0:
192,192,223348,1,0,0:0:0:0:
64,192,223559,1,0,0:0:0:0:
320,192,223559,1,0,0:0:0:0:
192,192,223770,1,0,0:0:0:0:
64,192,223770,1,0,0:0:0:0:
320,192,223982,1,0,0:0:0:0:
64,192,224087,1,0,0:0:0:0:
320,192,224087,1,0,0:0:0:0:
192,192,224193,1,0,0:0:0:0:
64,192,224404,1,0,0:0:0:0:
192,192,224404,1,0,0:0:0:0:
320,192,224615,1,0,0:0:0:0:
192,192,224615,1,0,0:0:0:0:
64,192,224721,1,0,0:0:0:0:
192,192,224827,1,0,0:0:0:0:
320,192,224932,1,0,0:0:0:0:
64,192,224932,1,0,0:0:0:0:
192,192,225038,1,0,0:0:0:0:
64,192,225249,1,0,0:0:0:0:
192,192,225249,1,0,0:0:0:0:
320,192,225461,1,0,0:0:0:0:
192,192,225461,1,0,0:0:0:0:
64,192,225672,1,0,0:0:0:0:
320,192,225777,1,0,0:0:0:0:
448,192,225777,1,0,0:0:0:0:
192,192,225883,1,0,0:0:0:0:
64,192,226094,1,0,0:0:0:0:
320,192,226094,1,0,0:0:0:0:
192,192,226306,1,0,0:0:0:0:
448,192,226306,1,0,0:0:0:0:
320,192,226411,1,0,0:0:0:0:
192,192,226517,1,0,0:0:0:0:
64,192,226623,1,0,0:0:0:0:
448,192,226623,1,0,0:0:0:0:
320,192,226728,1,0,0:0:0:0:
192,192,226939,1,0,0:0:0:0:
64,192,226939,1,0,0:0:0:0:
320,192,227151,1,0,0:0:0:0:
448,192,227151,1,0,0:0:0:0:
192,192,227362,1,0,0:0:0:0:
64,192,227468,1,0,0:0:0:0:
320,192,227468,1,0,0:0:0:0:
448,192,227573,1,0,0:0:0:0:
320,192,227784,1,0,0:0:0:0:
192,192,227784,1,0,0:0:0:0:
64,192,227996,1,0,0:0:0:0:
192,192,227996,1,0,0:0:0:0:
320,192,228101,1,0,0:0:0:0:
64,192,228207,1,0,0:0:0:0:
192,192,228313,1,0,0:0:0:0:
448,192,228313,1,0,0:0:0:0:
320,192,228418,1,0,0:0:0:0:
192,192,228630,1,0,0:0:0:0:
64,192,228630,1,0,0:0:0:0:
192,192,228841,1,0,0:0:0:0:
64,192,228841,1,0,0:0:0:0:
320,192,229052,1,0,0:0:0:0:
64,192,229158,1,0,0:0:0:0:
448,192,229158,1,0,0:0:0:0:
192,192,229263,1,0,0:0:0:0:
320,192,229475,1,0,0:0:0:0:
448,192,229475,1,0,0:0:0:0:
320,192,229686,1,0,0:0:0:0:
192,192,229686,1,0,0:0:0:0:
64,192,229792,1,0,0:0:0:0:
320,192,229897,1,0,0:0:0:0:
192,192,230003,1,0,0:0:0:0:
448,192,230003,1,0,0:0:0:0:
64,192,230108,1,0,0:0:0:0:
320,192,230320,1,0,0:0:0:0:
192,192,230320,1,0,0:0:0:0:
64,192,230531,1,0,0:0:0:0:
192,192,230531,1,0,0:0:0:0:
320,192,230742,1,0,0:0:0:0:
192,192,230848,1,0,0:0:0:0:
448,192,230848,1,0,0:0:0:0:
320,192,230953,1,0,0:0:0:0:
192,192,231165,1,0,0:0:0:0:
64,192,231165,1,0,0:0:0:0:
320,192,231376,1,0,0:0:0:0:
448,192,231376,1,0,0:0:0:0:
192,192,231482,1,0,0:0:0:0:
64,192,231587,1,0,0:0:0:0:
320,192,231693,1,0,0:0:0:0:
192,192,231693,1,0,0:0:0:0:
448,192,231799,1,0,0:0:0:0:
192,192,232010,1,0,0:0:0:0:
64,192,232010,1,0,0:0:0:0:
320,192,232221,128,0,235601:0:0:0:0:
448,192,233779,128,0,234545:0:0:0:0:
64,192,234545,128,0,234651:0:0:0:0:
192,192,234545,128,0,234651:0:0:0:0:
64,192,234756,1,0,0:0:0:0:
192,192,234756,1,0,0:0:0:0:
64,192,234968,1,0,0:0:0:0:
192,192,234968,1,0,0:0:0:0:
64,192,235179,1,0,0:0:0:0:
192,192,235179,1,0,0:0:0:0:
64,192,235390,1,0,0:0:0:0:
192,192,235390,1,0,0:0:0:0:
448,192,235601,128,0,236024:0:0:0:0:
192,192,235813,128,0,236024:0:0:0:0:
64,192,236024,128,0,236446:0:0:0:0:
320,192,236235,128,0,236446:0:0:0:0:
192,192,236446,128,0,236869:0:0:0:0:
448,192,236658,128,0,236869:0:0:0:0:
320,192,236869,128,0,237292:0:0:0:0:
64,192,237080,128,0,237292:0:0:0:0:
192,192,237292,128,0,237714:0:0:0:0:
320,192,237503,128,0,237714:0:0:0:0:
448,192,237714,128,0,238137:0:0:0:0:
320,192,237925,128,0,238137:0:0:0:0:
192,192,238137,128,0,238559:0:0:0:0:
320,192,238348,128,0,238559:0:0:0:0:
64,192,238559,128,0,238982:0:0:0:0:
192,192,238770,128,0,238982:0:0:0:0:
320,192,238982,128,0,239404:0:0:0:0:
448,192,239193,128,0,239404:0:0:0:0:
192,192,239404,128,0,239827:0:0:0:0:
64,192,239615,128,0,239827:0:0:0:0:
320,192,239827,128,0,240249:0:0:0:0:
448,192,240038,128,0,240249:0:0:0:0:
64,192,240249,128,0,240672:0:0:0:0:
320,192,240461,128,0,240672:0:0:0:0:
320,192,242362,128,0,242634:0:0:0:0:
192,192,242634,128,0,242725:0:0:0:0:
64,192,242634,128,0,242725:0:0:0:0:
64,192,242907,128,0,242998:0:0:0:0:
192,192,242907,128,0,242998:0:0:0:0:
320,192,243180,128,0,243362:0:0:0:0:
192,192,243452,128,0,243725:0:0:0:0:
448,192,243725,128,0,243816:0:0:0:0:
320,192,243725,128,0,243816:0:0:0:0:
320,192,243998,128,0,244089:0:0:0:0:
448,192,243998,128,0,244089:0:0:0:0:
64,192,244271,1,0,0:0:0:0:
192,192,244362,1,0,0:0:0:0:
320,192,244452,1,0,0:0:0:0:
64,192,244543,128,0,244816:0:0:0:0:
192,192,244816,128,0,244907:0:0:0:0:
320,192,244816,128,0,244907:0:0:0:0:
448,192,245089,128,0,245362:0:0:0:0:
320,192,245362,128,0,245452:0:0:0:0:
192,192,245362,128,0,245452:0:0:0:0:
320,192,245634,128,0,245907:0:0:0:0:
192,192,245907,128,0,245998:0:0:0:0:
64,192,245907,128,0,245998:0:0:0:0:
64,192,246180,128,0,246271:0:0:0:0:
192,192,246180,128,0,246271:0:0:0:0:
320,192,246452,1,0,0:0:0:0:
192,192,246589,1,0,0:0:0:0:
64,192,246725,128,0,246998:0:0:0:0:
320,192,246998,128,0,247089:0:0:0:0:
448,192,246998,128,0,247089:0:0:0:0:
320,192,247271,128,0,247362:0:0:0:0:
448,192,247271,128,0,247362:0:0:0:0:
64,192,247543,128,0,247680:0:0:0:0:
192,192,247680,1,0,0:0:0:0:
320,192,247748,1,0,0:0:0:0:
448,192,247816,128,0,248089:0:0:0:0:
64,192,248089,128,0,248180:0:0:0:0:
320,192,248089,128,0,248180:0:0:0:0:
64,192,248362,128,0,248452:0:0:0:0:
320,192,248362,128,0,248452:0:0:0:0:
192,192,248634,1,0,0:0:0:0:
320,192,248725,1,0,0:0:0:0:
448,192,248816,1,0,0:0:0:0:
64,192,248907,128,0,249180:0:0:0:0:
192,192,249180,128,0,249271:0:0:0:0:
448,192,249180,128,0,249271:0:0:0:0:
320,192,249452,128,0,249725:0:0:0:0:
64,192,249725,128,0,249816:0:0:0:0:
448,192,249725,128,0,249816:0:0:0:0:
192,192,250000,128,0,251091:0:0:0:0:
64,192,251636,128,0,252045:0:0:0:0:
320,192,251636,128,0,252045:0:0:0:0:
192,192,251636,128,0,252045:0:0:0:0:
192,192,252182,128,0,252591:0:0:0:0:
64,192,252182,128,0,252591:0:0:0:0:
448,192,252182,128,0,252591:0:0:0:0:
192,192,252727,128,0,253136:0:0:0:0:
320,192,252727,128,0,253136:0:0:0:0:
448,192,252727,128,0,253136:0:0:0:0:
64,192,253273,128,0,253545:0:0:0:0:
320,192,253545,128,0,253682:0:0:0:0:
192,192,253545,128,0,253682:0:0:0:0:
192,192,253818,128,0,253954:0:0:0:0:
320,192,253818,128,0,253954:0:0:0:0:
448,192,254091,128,0,254273:0:0:0:0:
64,192,254364,128,0,254636:0:0:0:0:
320,192,254636,128,0,254727:0:0:0:0:
448,192,254636,128,0,254727:0:0:0:0:
320,192,254909,128,0,255000:0:0:0:0:
448,192,254909,128,0,255000:0:0:0:0:
192,192,255182,1,0,0:0:0:0:
320,192,255273,1,0,0:0:0:0:
448,192,255364,1,0,0:0:0:0:
192,192,255454,128,0,255727:0:0:0:0:
320,192,255727,128,0,255818:0:0:0:0:
64,192,255727,128,0,255818:0:0:0:0:
192,192,256000,128,0,256273:0:0:0:0:
320,192,256273,128,0,256364:0:0:0:0:
448,192,256273,128,0,256364:0:0:0:0:
192,192,256545,128,0,256818:0:0:0:0:
64,192,256818,128,0,256909:0:0:0:0:
448,192,256818,128,0,256909:0:0:0:0:
320,192,257091,128,0,257182:0:0:0:0:
192,192,257091,128,0,257182:0:0:0:0:
448,192,257364,1,0,0:0:0:0:
64,192,257500,1,0,0:0:0:0:
320,192,257636,128,0,257909:0:0:0:0:
192,192,257909,128,0,258000:0:0:0:0:
448,192,257909,128,0,258000:0:0:0:0:
192,192,258182,128,0,258273:0:0:0:0:
448,192,258182,128,0,258273:0:0:0:0:
320,192,258454,1,0,0:0:0:0:
64,192,258591,1,0,0:0:0:0:
448,192,258727,128,0,259000:0:0:0:0:
192,192,259000,128,0,259091:0:0:0:0:
64,192,259000,128,0,259091:0:0:0:0:
64,192,259273,128,0,259364:0:0:0:0:
192,192,259273,128,0,259364:0:0:0:0:
192,192,259545,128,0,259818:0:0:0:0:
320,192,259818,128,0,265390:0:0:0:0:
448,192,259818,128,0,263083:0:0:0:0:
64,192,263083,128,0,265390:0:0:0:0:
320,192,268543,128,0,268648:0:0:0:0:
320,192,268965,128,0,269071:0:0:0:0:
192,192,269388,128,0,269599:0:0:0:0:
320,192,269388,1,0,0:0:0:0:
448,192,269388,1,0,0:0:0:0:
64,192,269704,1,0,0:0:0:0:
192,192,269704,1,0,0:0:0:0:
320,192,269810,1,0,0:0:0:0:
448,192,269810,1,0,0:0:0:0:
320,192,270021,1,0,0:0:0:0:
448,192,270021,1,0,0:0:0:0:
64,192,270233,128,0,270338:0:0:0:0:
192,192,270233,128,0,270338:0:0:0:0:
448,192,270233,128,0,270338:0:0:0:0:
320,192,270338,128,0,270444:0:0:0:0:
192,192,270444,128,0,270550:0:0:0:0:
64,192,270550,128,0,270655:0:0:0:0:
320,192,270655,128,0,270761:0:0:0:0:
448,192,270655,128,0,271078:0:0:0:0:
192,192,270655,128,0,270761:0:0:0:0:
64,192,270761,128,0,270866:0:0:0:0:
192,192,270866,128,0,270972:0:0:0:0:
320,192,270972,128,0,271078:0:0:0:0:
64,192,271078,128,0,271500:0:0:0:0:
192,192,271078,128,0,271183:0:0:0:0:
320,192,271183,128,0,271289:0:0:0:0:
448,192,271289,128,0,271395:0:0:0:0:
192,192,271395,128,0,271500:0:0:0:0:
320,192,271500,128,0,271606:0:0:0:0:
448,192,271500,128,0,271606:0:0:0:0:
192,192,271606,128,0,271712:0:0:0:0:
64,192,271712,128,0,271817:0:0:0:0:
320,192,271712,128,0,271817:0:0:0:0:
192,192,271817,128,0,271923:0:0:0:0:
448,192,271923,128,0,272028:0:0:0:0:
320,192,271923,128,0,272028:0:0:0:0:
64,192,271923,128,0,272028:0:0:0:0:
192,192,272028,128,0,272134:0:0:0:0:
320,192,272134,128,0,272240:0:0:0:0:
448,192,272240,128,0,272345:0:0:0:0:
192,192,272345,128,0,272768:0:0:0:0:
64,192,272345,128,0,272451:0:0:0:0:
320,192,272345,128,0,272451:0:0:0:0:
448,192,272451,128,0,272557:0:0:0:0:
64,192,272557,128,0,272662:0:0:0:0:
320,192,272662,128,0,272768:0:0:0:0:
448,192,272768,128,0,273190:0:0:0:0:
64,192,272768,128,0,272873:0:0:0:0:
192,192,272873,128,0,272979:0:0:0:0:
64,192,272979,128,0,273085:0:0:0:0:
320,192,273085,128,0,273190:0:0:0:0:
192,192,273190,128,0,273402:0:0:0:0:
64,192,273190,128,0,273296:0:0:0:0:
320,192,273296,128,0,273507:0:0:0:0:
448,192,273402,128,0,273613:0:0:0:0:
64,192,273507,128,0,273613:0:0:0:0:
192,192,273613,128,0,273824:0:0:0:0:
320,192,273613,128,0,273719:0:0:0:0:
64,192,273719,128,0,273824:0:0:0:0:
448,192,273824,128,0,273930:0:0:0:0:
320,192,273824,128,0,273930:0:0:0:0:
192,192,273930,128,0,274035:0:0:0:0:
64,192,273930,128,0,274035:0:0:0:0:
320,192,274035,128,0,274141:0:0:0:0:
448,192,274035,128,0,274247:0:0:0:0:
192,192,274141,128,0,274247:0:0:0:0:
320,192,274247,128,0,274352:0:0:0:0:
64,192,274247,1,0,0:0:0:0:
192,192,274352,1,0,0:0:0:0:
448,192,274352,1,0,0:0:0:0:
192,192,274458,1,0,0:0:0:0:
320,192,274458,1,0,0:0:0:0:
448,192,274458,1,0,0:0:0:0:
64,192,274458,128,0,274564:0:0:0:0:
192,192,274564,128,0,274669:0:0:0:0:
448,192,274669,128,0,274775:0:0:0:0:
320,192,274669,128,0,274775:0:0:0:0:
192,192,274775,128,0,274881:0:0:0:0:
64,192,274775,128,0,274881:0:0:0:0:
320,192,274881,128,0,274986:0:0:0:0:
448,192,274881,128,0,274986:0:0:0:0:
192,192,274986,128,0,275092:0:0:0:0:
64,192,275092,128,0,275197:0:0:0:0:
320,192,275092,1,0,0:0:0:0:
448,192,275197,1,0,0:0:0:0:
320,192,275197,1,0,0:0:0:0:
64,192,275303,1,0,0:0:0:0:
192,192,275303,1,0,0:0:0:0:
320,192,275303,1,0,0:0:0:0:
448,192,275303,1,0,0:0:0:0:
320,192,275409,1,0,0:0:0:0:
192,192,275514,1,0,0:0:0:0:
448,192,275620,1,0,0:0:0:0:
320,192,275726,1,0,0:0:0:0:
192,192,275726,1,0,0:0:0:0:
64,192,275726,1,0,0:0:0:0:
320,192,275831,128,0,275937:0:0:0:0:
192,192,275937,128,0,276043:0:0:0:0:
64,192,276043,128,0,276148:0:0:0:0:
320,192,276148,128,0,276359:0:0:0:0:
448,192,276148,128,0,276359:0:0:0:0:
192,192,276148,1,0,0:0:0:0:
64,192,276359,128,0,276465:0:0:0:0:
192,192,276359,128,0,276465:0:0:0:0:
320,192,276571,128,0,276676:0:0:0:0:
448,192,276571,128,0,276676:0:0:0:0:
192,192,276571,1,0,0:0:0:0:
192,192,276782,128,0,276888:0:0:0:0:
64,192,276782,128,0,276888:0:0:0:0:
320,192,276782,1,0,0:0:0:0:
448,192,276993,128,0,277099:0:0:0:0:
64,192,276993,1,0,0:0:0:0:
192,192,276993,1,0,0:0:0:0:
320,192,276993,128,0,277099:0:0:0:0:
192,192,277099,128,0,277204:0:0:0:0:
64,192,277204,128,0,277310:0:0:0:0:
320,192,277310,128,0,277416:0:0:0:0:
448,192,277416,128,0,277838:0:0:0:0:
192,192,277416,128,0,277521:0:0:0:0:
64,192,277416,1,0,0:0:0:0:
320,192,277521,128,0,277627:0:0:0:0:
64,192,277627,128,0,277733:0:0:0:0:
320,192,277733,128,0,277838:0:0:0:0:
192,192,277838,128,0,278261:0:0:0:0:
64,192,277838,128,0,277944:0:0:0:0:
320,192,277944,128,0,278050:0:0:0:0:
448,192,278050,128,0,278155:0:0:0:0:
64,192,278155,128,0,278261:0:0:0:0:
448,192,278261,1,0,0:0:0:0:
320,192,278261,128,0,278472:0:0:0:0:
192,192,278366,128,0,278472:0:0:0:0:
64,192,278472,128,0,278578:0:0:0:0:
448,192,278578,128,0,278683:0:0:0:0:
320,192,278683,1,0,0:0:0:0:
192,192,278683,1,0,0:0:0:0:
64,192,278683,128,0,278789:0:0:0:0:
320,192,278789,128,0,278895:0:0:0:0:
192,192,278895,128,0,279000:0:0:0:0:
448,192,279000,128,0,279106:0:0:0:0:
64,192,279106,128,0,279528:0:0:0:0:
192,192,279106,1,0,0:0:0:0:
320,192,279106,128,0,279212:0:0:0:0:
448,192,279212,128,0,279317:0:0:0:0:
192,192,279317,128,0,279423:0:0:0:0:
320,192,279423,128,0,279528:0:0:0:0:
192,192,279528,128,0,279951:0:0:0:0:
448,192,279528,128,0,279634:0:0:0:0:
320,192,279634,128,0,279740:0:0:0:0:
64,192,279740,128,0,279845:0:0:0:0:
448,192,279845,128,0,279951:0:0:0:0:
320,192,279951,1,0,0:0:0:0:
64,192,279951,128,0,280162:0:0:0:0:
192,192,280057,128,0,280162:0:0:0:0:
320,192,280162,128,0,280268:0:0:0:0:
448,192,280162,128,0,280373:0:0:0:0:
64,192,280373,1,0,0:0:0:0:
192,192,280373,1,0,0:0:0:0:
320,192,280373,1,0,0:0:0:0:
320,192,280479,1,0,0:0:0:0:
192,192,280585,1,0,0:0:0:0:
64,192,280585,1,0,0:0:0:0:
320,192,280690,1,0,0:0:0:0:
448,192,280690,1,0,0:0:0:0:
192,192,280796,1,0,0:0:0:0:
64,192,280796,1,0,0:0:0:0:
320,192,280902,1,0,0:0:0:0:
192,192,281007,1,0,0:0:0:0:
448,192,281007,1,0,0:0:0:0:
64,192,281113,1,0,0:0:0:0:
320,192,281113,1,0,0:0:0:0:
192,192,281219,1,0,0:0:0:0:
64,192,281219,1,0,0:0:0:0:
320,192,281219,1,0,0:0:0:0:
448,192,281219,1,0,0:0:0:0:
192,192,281324,1,0,0:0:0:0:
448,192,281430,1,0,0:0:0:0:
320,192,281430,1,0,0:0:0:0:
192,192,281535,1,0,0:0:0:0:
64,192,281535,1,0,0:0:0:0:
320,192,281641,1,0,0:0:0:0:
448,192,281641,1,0,0:0:0:0:
192,192,281747,1,0,0:0:0:0:
64,192,281852,1,0,0:0:0:0:
320,192,281852,1,0,0:0:0:0:
448,192,281958,1,0,0:0:0:0:
192,192,281958,1,0,0:0:0:0:
64,192,282064,1,0,0:0:0:0:
192,192,282064,1,0,0:0:0:0:
320,192,282064,1,0,0:0:0:0:
448,192,282064,1,0,0:0:0:0:
320,192,282169,1,0,0:0:0:0:
192,192,282275,1,0,0:0:0:0:
64,192,282381,1,0,0:0:0:0:
320,192,282486,1,0,0:0:0:0:
448,192,282486,1,0,0:0:0:0:
192,192,282486,1,0,0:0:0:0:
320,192,282592,1,0,0:0:0:0:
192,192,282697,1,0,0:0:0:0:
448,192,282803,1,0,0:0:0:0:
64,192,282909,1,0,0:0:0:0:
192,192,282909,1,0,0:0:0:0:
320,192,282909,1,0,0:0:0:0:
320,192,283014,1,0,0:0:0:0:
192,192,283120,1,0,0:0:0:0:
64,192,283120,1,0,0:0:0:0:
320,192,283226,1,0,0:0:0:0:
448,192,283226,1,0,0:0:0:0:
192,192,283331,1,0,0:0:0:0:
64,192,283331,1,0,0:0:0:0:
320,192,283437,1,0,0:0:0:0:
448,192,283437,1,0,0:0:0:0:
192,192,283543,1,0,0:0:0:0:
64,192,283543,1,0,0:0:0:0:
320,192,283648,1,0,0:0:0:0:
448,192,283648,1,0,0:0:0:0:
64,192,283754,128,0,284599:0:0:0:0:
192,192,283754,1,0,0:0:0:0:
448,192,283754,128,0,283859:0:0:0:0:
320,192,283754,1,0,0:0:0:0:
192,192,283859,128,0,283965:0:0:0:0:
320,192,283965,128,0,284071:0:0:0:0:
448,192,284071,128,0,284176:0:0:0:0:
192,192,284176,128,0,284599:0:0:0:0:
320,192,284176,128,0,284282:0:0:0:0:
448,192,284282,128,0,284388:0:0:0:0:
320,192,284388,128,0,284493:0:0:0:0:
448,192,284493,128,0,284599:0:0:0:0:
320,192,284599,128,0,285021:0:0:0:0:
192,192,284704,128,0,284810:0:0:0:0:
64,192,284810,128,0,284916:0:0:0:0:
448,192,284916,128,0,285021:0:0:0:0:
192,192,285021,128,0,285127:0:0:0:0:
64,192,285021,1,0,0:0:0:0:
448,192,285127,1,0,0:0:0:0:
320,192,285233,128,0,285338:0:0:0:0:
192,192,285233,1,0,0:0:0:0:
64,192,285338,1,0,0:0:0:0:
448,192,285444,128,0,286289:0:0:0:0:
192,192,285444,1,0,0:0:0:0:
320,192,285444,1,0,0:0:0:0:
64,192,285444,128,0,285550:0:0:0:0:
192,192,285550,128,0,285655:0:0:0:0:
320,192,285655,128,0,285761:0:0:0:0:
64,192,285761,128,0,285866:0:0:0:0:
320,192,285866,128,0,286289:0:0:0:0:
192,192,285866,128,0,285972:0:0:0:0:
64,192,285972,128,0,286078:0:0:0:0:
192,192,286078,128,0,286183:0:0:0:0:
64,192,286183,128,0,286289:0:0:0:0:
192,192,286289,128,0,286712:0:0:0:0:
320,192,286395,128,0,286500:0:0:0:0:
64,192,286500,128,0,286606:0:0:0:0:
448,192,286606,128,0,286712:0:0:0:0:
320,192,286712,128,0,286817:0:0:0:0:
64,192,286712,1,0,0:0:0:0:
192,192,286817,1,0,0:0:0:0:
448,192,286923,128,0,287028:0:0:0:0:
320,192,286923,1,0,0:0:0:0:
64,192,287028,1,0,0:0:0:0:
64,192,287134,1,0,0:0:0:0:
192,192,287134,1,0,0:0:0:0:
320,192,287134,1,0,0:0:0:0:
448,192,287134,1,0,0:0:0:0:
320,192,287240,128,0,287345:0:0:0:0:
192,192,287345,128,0,287451:0:0:0:0:
64,192,287451,128,0,287557:0:0:0:0:
320,192,287557,128,0,287662:0:0:0:0:
448,192,287557,128,0,287662:0:0:0:0:
192,192,287662,128,0,287768:0:0:0:0:
64,192,287768,128,0,287873:0:0:0:0:
320,192,287873,128,0,287979:0:0:0:0:
64,192,287979,1,0,0:0:0:0:
192,192,287979,1,0,0:0:0:0:
448,192,287979,1,0,0:0:0:0:
192,192,288085,128,0,288190:0:0:0:0:
448,192,288190,128,0,288296:0:0:0:0:
320,192,288296,128,0,288402:0:0:0:0:
192,192,288402,128,0,288507:0:0:0:0:
64,192,288402,128,0,288507:0:0:0:0:
448,192,288507,128,0,288613:0:0:0:0:
320,192,288613,128,0,288719:0:0:0:0:
192,192,288719,128,0,288824:0:0:0:0:
64,192,288824,1,0,0:0:0:0:
320,192,288824,1,0,0:0:0:0:
448,192,288824,1,0,0:0:0:0:
448,192,288930,128,0,289035:0:0:0:0:
192,192,289035,128,0,289141:0:0:0:0:
320,192,289141,128,0,289247:0:0:0:0:
64,192,289247,1,0,0:0:0:0:
192,192,289247,1,0,0:0:0:0:
448,192,289247,1,0,0:0:0:0:
64,192,289352,128,0,289458:0:0:0:0:
320,192,289458,128,0,289564:0:0:0:0:
448,192,289564,128,0,289669:0:0:0:0:
64,192,289669,128,0,289881:0:0:0:0:
192,192,289669,128,0,289881:0:0:0:0:
320,192,289669,1,0,0:0:0:0:
320,192,289881,128,0,289986:0:0:0:0:
448,192,289881,128,0,289986:0:0:0:0:
64,192,290092,128,0,290197:0:0:0:0:
320,192,290092,1,0,0:0:0:0:
192,192,290092,128,0,290197:0:0:0:0:
320,192,290303,128,0,290409:0:0:0:0:
448,192,290303,128,0,290409:0:0:0:0:
192,192,290303,1,0,0:0:0:0:
64,192,290514,1,0,0:0:0:0:
192,192,290514,1,0,0:0:0:0:
320,192,290514,1,0,0:0:0:0:
448,192,290514,1,0,0:0:0:0:
192,192,290620,128,0,290726:0:0:0:0:
320,192,290726,128,0,290831:0:0:0:0:
448,192,290726,128,0,290831:0:0:0:0:
192,192,290831,128,0,290937:0:0:0:0:
64,192,290937,128,0,291043:0:0:0:0:
320,192,290937,128,0,291043:0:0:0:0:
192,192,291043,128,0,291148:0:0:0:0:
448,192,291148,128,0,291254:0:0:0:0:
64,192,291148,128,0,291254:0:0:0:0:
320,192,291254,128,0,291359:0:0:0:0:
192,192,291359,128,0,291465:0:0:0:0:
64,192,291359,128,0,291465:0:0:0:0:
320,192,291465,128,0,291571:0:0:0:0:
192,192,291571,128,0,291676:0:0:0:0:
448,192,291571,128,0,291676:0:0:0:0:
64,192,291676,128,0,291782:0:0:0:0:
192,192,291782,128,0,291888:0:0:0:0:
320,192,291782,128,0,291888:0:0:0:0:
448,192,291888,128,0,291993:0:0:0:0:
192,192,291993,128,0,292099:0:0:0:0:
64,192,291993,128,0,292099:0:0:0:0:
320,192,292099,128,0,292204:0:0:0:0:
64,192,292204,128,0,292310:0:0:0:0:
192,192,292204,128,0,292310:0:0:0:0:
448,192,292204,128,0,292310:0:0:0:0:
320,192,292310,128,0,292416:0:0:0:0:
64,192,292416,128,0,292521:0:0:0:0:
448,192,292416,128,0,292521:0:0:0:0:
192,192,292521,128,0,292627:0:0:0:0:
320,192,292627,128,0,292733:0:0:0:0:
448,192,292627,128,0,292733:0:0:0:0:
192,192,292733,128,0,292838:0:0:0:0:
64,192,292838,128,0,292944:0:0:0:0:
320,192,292838,128,0,292944:0:0:0:0:
192,192,292944,128,0,293050:0:0:0:0:
448,192,293050,128,0,293155:0:0:0:0:
320,192,293050,128,0,293155:0:0:0:0:
64,192,293155,128,0,293261:0:0:0:0:
192,192,293261,128,0,293366:0:0:0:0:
320,192,293261,128,0,293366:0:0:0:0:
448,192,293366,128,0,293472:0:0:0:0:
192,192,293472,128,0,293578:0:0:0:0:
64,192,293472,128,0,293578:0:0:0:0:
320,192,293578,128,0,293683:0:0:0:0:
192,192,293683,128,0,293789:0:0:0:0:
448,192,293683,128,0,293789:0:0:0:0:
64,192,293789,128,0,293895:0:0:0:0:
192,192,293895,128,0,294106:0:0:0:0:
320,192,293895,128,0,294000:0:0:0:0:
448,192,293895,128,0,294000:0:0:0:0:
64,192,294000,128,0,294106:0:0:0:0:
320,192,294106,128,0,294212:0:0:0:0:
448,192,294212,128,0,294317:0:0:0:0:
192,192,294317,128,0,294423:0:0:0:0:
64,192,294317,128,0,294423:0:0:0:0:
320,192,294423,128,0,294528:0:0:0:0:
192,192,294528,128,0,294634:0:0:0:0:
320,192,294634,128,0,294740:0:0:0:0:
64,192,294740,1,0,0:0:0:0:
192,192,294740,1,0,0:0:0:0:
448,192,294740,1,0,0:0:0:0:
320,192,294845,1,0,0:0:0:0:
448,192,294845,1,0,0:0:0:0:
192,192,294951,1,0,0:0:0:0:
64,192,294951,1,0,0:0:0:0:
320,192,295057,1,0,0:0:0:0:
448,192,295057,1,0,0:0:0:0:
192,192,295162,1,0,0:0:0:0:
64,192,295162,1,0,0:0:0:0:
448,192,295268,1,0,0:0:0:0:
320,192,295268,1,0,0:0:0:0:
64,192,295373,1,0,0:0:0:0:
192,192,295373,1,0,0:0:0:0:
320,192,295479,1,0,0:0:0:0:
448,192,295479,1,0,0:0:0:0:
192,192,295585,1,0,0:0:0:0:
64,192,295585,1,0,0:0:0:0:
320,192,295585,1,0,0:0:0:0:
448,192,295585,1,0,0:0:0:0:
192,192,295690,1,0,0:0:0:0:
64,192,295690,1,0,0:0:0:0:
320,192,295796,1,0,0:0:0:0:
448,192,295796,1,0,0:0:0:0:
192,192,295902,1,0,0:0:0:0:
64,192,295902,1,0,0:0:0:0:
320,192,296007,1,0,0:0:0:0:
448,192,296007,1,0,0:0:0:0:
192,192,296113,1,0,0:0:0:0:
64,192,296113,1,0,0:0:0:0:
320,192,296219,1,0,0:0:0:0:
448,192,296219,1,0,0:0:0:0:
64,192,296324,1,0,0:0:0:0:
192,192,296324,1,0,0:0:0:0:
448,192,296430,1,0,0:0:0:0:
320,192,296430,1,0,0:0:0:0:
64,192,296430,1,0,0:0:0:0:
192,192,296430,1,0,0:0:0:0:
320,192,296535,1,0,0:0:0:0:
448,192,296535,1,0,0:0:0:0:
192,192,296641,1,0,0:0:0:0:
64,192,296641,1,0,0:0:0:0:
320,192,296747,1,0,0:0:0:0:
448,192,296747,1,0,0:0:0:0:
192,192,296852,1,0,0:0:0:0:
64,192,296852,1,0,0:0:0:0:
320,192,296958,1,0,0:0:0:0:
448,192,296958,1,0,0:0:0:0:
192,192,297064,1,0,0:0:0:0:
64,192,297064,1,0,0:0:0:0:
448,192,297169,1,0,0:0:0:0:
320,192,297169,1,0,0:0:0:0:
64,192,297275,128,0,297381:0:0:0:0:
320,192,297275,128,0,297381:0:0:0:0:
448,192,297275,128,0,297381:0:0:0:0:
192,192,297381,128,0,297486:0:0:0:0:
320,192,297486,128,0,297592:0:0:0:0:
448,192,297486,128,0,297592:0:0:0:0:
192,192,297592,128,0,297697:0:0:0:0:
64,192,297697,128,0,297803:0:0:0:0:
448,192,297697,128,0,297803:0:0:0:0:
320,192,297803,128,0,297909:0:0:0:0:
192,192,297909,128,0,298014:0:0:0:0:
64,192,297909,128,0,298014:0:0:0:0:
320,192,298014,128,0,298120:0:0:0:0:
448,192,298120,128,0,298226:0:0:0:0:
64,192,298120,128,0,298226:0:0:0:0:
192,192,298226,128,0,298331:0:0:0:0:
320,192,298331,128,0,298437:0:0:0:0:
448,192,298331,128,0,298437:0:0:0:0:
192,192,298437,128,0,298543:0:0:0:0:
64,192,298543,128,0,298648:0:0:0:0:
448,192,298543,128,0,298648:0:0:0:0:
320,192,298648,128,0,298754:0:0:0:0:
192,192,298754,128,0,298859:0:0:0:0:
64,192,298754,128,0,298859:0:0:0:0:
320,192,298859,128,0,298965:0:0:0:0:
64,192,298965,128,0,299071:0:0:0:0:
192,192,298965,128,0,299071:0:0:0:0:
448,192,298965,128,0,299071:0:0:0:0:
320,192,299071,128,0,299176:0:0:0:0:
64,192,299176,128,0,299282:0:0:0:0:
192,192,299176,128,0,299282:0:0:0:0:
448,192,299282,128,0,299388:0:0:0:0:
320,192,299388,128,0,299493:0:0:0:0:
192,192,299388,128,0,299493:0:0:0:0:
64,192,299493,128,0,299599:0:0:0:0:
192,192,299599,128,0,299704:0:0:0:0:
448,192,299599,128,0,299704:0:0:0:0:
320,192,299704,128,0,299810:0:0:0:0:
64,192,299810,128,0,299916:0:0:0:0:
192,192,299810,128,0,299916:0:0:0:0:
448,192,299916,128,0,300021:0:0:0:0:
320,192,300021,128,0,300127:0:0:0:0:
64,192,300127,128,0,300233:0:0:0:0:
192,192,300233,128,0,300338:0:0:0:0:
448,192,300233,128,0,300338:0:0:0:0:
320,192,300338,128,0,300444:0:0:0:0:
64,192,300444,128,0,300550:0:0:0:0:
192,192,300444,128,0,300550:0:0:0:0:
320,192,300550,128,0,300655:0:0:0:0:
448,192,300655,128,0,300761:0:0:0:0:
64,192,300655,128,0,300761:0:0:0:0:
192,192,300655,128,0,300761:0:0:0:0:
320,192,300761,128,0,300866:0:0:0:0:
64,192,300866,128,0,300972:0:0:0:0:
448,192,300866,128,0,300972:0:0:0:0:
192,192,300972,128,0,301078:0:0:0:0:
320,192,301078,128,0,301183:0:0:0:0:
448,192,301078,128,0,301183:0:0:0:0:
192,192,301183,128,0,301289:0:0:0:0:
64,192,301289,128,0,301395:0:0:0:0:
320,192,301289,128,0,301395:0:0:0:0:
448,192,301395,128,0,301500:0:0:0:0:
320,192,301500,128,0,301606:0:0:0:0:
192,192,301500,128,0,301606:0:0:0:0:
64,192,301500,128,0,301606:0:0:0:0:
448,192,301606,128,0,301712:0:0:0:0:
192,192,301712,128,0,301817:0:0:0:0:
64,192,301712,128,0,301817:0:0:0:0:
320,192,301817,128,0,301923:0:0:0:0:
192,192,301923,128,0,302028:0:0:0:0:
448,192,301923,128,0,302028:0:0:0:0:
320,192,302028,128,0,302134:0:0:0:0:
192,192,302134,128,0,302240:0:0:0:0:
64,192,302134,128,0,302240:0:0:0:0:
320,192,302240,128,0,302345:0:0:0:0:
192,192,302345,128,0,302451:0:0:0:0:
64,192,302345,128,0,302451:0:0:0:0:
448,192,302345,128,0,302451:0:0:0:0:
320,192,302451,128,0,302557:0:0:0:0:
192,192,302557,128,0,302662:0:0:0:0:
448,192,302557,128,0,302662:0:0:0:0:
320,192,302662,128,0,302768:0:0:0:0:
192,192,302768,128,0,302873:0:0:0:0:
64,192,302768,128,0,302873:0:0:0:0:
448,192,302768,128,0,302873:0:0:0:0:
320,192,302873,128,0,302979:0:0:0:0:
64,192,302979,128,0,303085:0:0:0:0:
192,192,303085,128,0,303190:0:0:0:0:
320,192,303190,128,0,303296:0:0:0:0:
448,192,303190,128,0,303296:0:0:0:0:
64,192,303190,128,0,303296:0:0:0:0:
192,192,303296,128,0,303402:0:0:0:0:
320,192,303402,128,0,303507:0:0:0:0:
448,192,303402,128,0,303507:0:0:0:0:
192,192,303507,128,0,303613:0:0:0:0:
64,192,303613,128,0,303719:0:0:0:0:
320,192,303613,128,0,303719:0:0:0:0:
192,192,303719,128,0,303824:0:0:0:0:
320,192,303824,1,0,0:0:0:0:
448,192,303824,1,0,0:0:0:0:
320,192,303930,1,0,0:0:0:0:
448,192,303930,1,0,0:0:0:0:
320,192,304035,1,0,0:0:0:0:
448,192,304035,1,0,0:0:0:0:
64,192,304035,128,0,304247:0:0:0:0:
192,192,304035,128,0,304141:0:0:0:0:
320,192,304141,128,0,304247:0:0:0:0:
448,192,304247,128,0,304352:0:0:0:0:
192,192,304247,128,0,304352:0:0:0:0:
320,192,304352,128,0,304458:0:0:0:0:
64,192,304458,128,0,304564:0:0:0:0:
192,192,304458,128,0,304564:0:0:0:0:
320,192,304564,128,0,304669:0:0:0:0:
448,192,304669,128,0,304881:0:0:0:0:
64,192,304669,128,0,304775:0:0:0:0:
192,192,304775,128,0,304881:0:0:0:0:
320,192,304881,128,0,305092:0:0:0:0:
64,192,304881,128,0,304986:0:0:0:0:
192,192,304986,128,0,305092:0:0:0:0:
448,192,305092,128,0,305197:0:0:0:0:
64,192,305092,128,0,305197:0:0:0:0:
320,192,305197,128,0,305303:0:0:0:0:
192,192,305303,128,0,305409:0:0:0:0:
64,192,305303,128,0,305409:0:0:0:0:
448,192,305409,128,0,305514:0:0:0:0:
320,192,305514,128,0,305620:0:0:0:0:
192,192,305514,128,0,305620:0:0:0:0:
64,192,305620,128,0,305726:0:0:0:0:
192,192,305726,128,0,305831:0:0:0:0:
320,192,305726,128,0,305831:0:0:0:0:
448,192,305726,128,0,305937:0:0:0:0:
64,192,305831,128,0,305937:0:0:0:0:
192,192,305937,128,0,306043:0:0:0:0:
320,192,305937,128,0,306043:0:0:0:0:
64,192,306043,128,0,306148:0:0:0:0:
448,192,306148,128,0,306254:0:0:0:0:
320,192,306148,128,0,306254:0:0:0:0:
192,192,306254,128,0,306359:0:0:0:0:
64,192,306359,128,0,306465:0:0:0:0:
320,192,306359,128,0,306465:0:0:0:0:
192,192,306465,128,0,306571:0:0:0:0:
320,192,306571,128,0,306676:0:0:0:0:
448,192,306571,128,0,306676:0:0:0:0:
64,192,306676,128,0,306782:0:0:0:0:
192,192,306782,128,0,306888:0:0:0:0:
448,192,306782,128,0,306888:0:0:0:0:
320,192,306888,128,0,306993:0:0:0:0:
64,192,306993,128,0,307204:0:0:0:0:
192,192,306993,128,0,307099:0:0:0:0:
448,192,307099,128,0,307204:0:0:0:0:
320,192,307204,128,0,307416:0:0:0:0:
192,192,307204,128,0,307310:0:0:0:0:
64,192,307310,128,0,307416:0:0:0:0:
448,192,307416,128,0,307627:0:0:0:0:
192,192,307416,128,0,307521:0:0:0:0:
320,192,307521,128,0,307627:0:0:0:0:
192,192,307627,128,0,307838:0:0:0:0:
64,192,307627,128,0,307733:0:0:0:0:
320,192,307733,128,0,307838:0:0:0:0:
448,192,307838,128,0,308050:0:0:0:0:
64,192,307838,128,0,307944:0:0:0:0:
192,192,307944,128,0,308050:0:0:0:0:
320,192,308050,128,0,308261:0:0:0:0:
64,192,308050,128,0,308155:0:0:0:0:
192,192,308155,128,0,308261:0:0:0:0:
448,192,308261,128,0,308366:0:0:0:0:
64,192,308261,128,0,308472:0:0:0:0:
192,192,308366,128,0,308472:0:0:0:0:
320,192,308472,128,0,308683:0:0:0:0:
448,192,308472,128,0,308578:0:0:0:0:
192,192,308578,128,0,308683:0:0:0:0:
64,192,308683,128,0,308895:0:0:0:0:
448,192,308683,128,0,308789:0:0:0:0:
192,192,308789,128,0,308895:0:0:0:0:
320,192,308895,128,0,309106:0:0:0:0:
448,192,308895,1,0,0:0:0:0:
192,192,309000,128,0,309106:0:0:0:0:
448,192,309106,1,0,0:0:0:0:
64,192,309106,1,0,0:0:0:0:
320,192,309212,1,0,0:0:0:0:
448,192,309212,1,0,0:0:0:0:
320,192,309317,1,0,0:0:0:0:
448,192,309317,1,0,0:0:0:0:
320,192,309528,1,0,0:0:0:0:
448,192,309528,1,0,0:0:0:0:
320,192,309740,1,0,0:0:0:0:
448,192,309740,1,0,0:0:0:0:
448,192,309845,1,0,0:0:0:0:
320,192,309845,1,0,0:0:0:0:
320,192,309951,1,0,0:0:0:0:
448,192,309951,1,0,0:0:0:0:
