osu file format v14

[General]
AudioFilename: audio.mp3
AudioLeadIn: 0
PreviewTime: 143934
Countdown: 0
SampleSet: Normal
StackLeniency: 0.2
Mode: 1
LetterboxInBreaks: 0
WidescreenStoryboard: 0

[Editor]
DistanceSpacing: 1.3
BeatDivisor: 4
GridSize: 32
TimelineZoom: 2.699999

[Metadata]
Title:Nobore! Susume! Takai Tou
TitleUnicode:のぼれ!すすめ!高い塔
Artist:KikuoHana
ArtistUnicode:きくおはな
Creator:Raphalge
Version:High Tower
Source:
Tags:きくお, 花たん, Hanatan, YURiCa, 第一幕, Daiichimaku, SCGA-00045
BeatmapID:1154795
BeatmapSetID:545005

[Difficulty]
HPDrainRate:5
CircleSize:2
OverallDifficulty:6
ApproachRate:10
SliderMultiplier:1.4
SliderTickRate:1

[Events]
//Background and Video events
0,0,"maxresdefault.jpg",0,0
//Break Periods
//Storyboard Layer 0 (Background)
//Storyboard Layer 1 (Fail)
//Storyboard Layer 2 (Pass)
//Storyboard Layer 3 (Foreground)
//Storyboard Sound Samples

[TimingPoints]
9146,422.535211267606,4,1,0,80,1,0
9146,-100,4,1,0,80,0,0
22667,-95.2380952380952,4,1,0,80,0,1
28582,-95.2380952380952,4,1,0,80,0,0
29427,-100,4,1,0,80,0,0
42948,-90.9090909090909,4,1,0,80,0,1
48864,-90.9090909090909,4,1,0,80,0,0
49709,-100,4,1,0,80,0,0
63230,-90.9090909090909,4,1,0,80,0,1
69146,-90.9090909090909,4,1,0,80,0,0
69991,-90.9090909090909,4,1,0,80,0,1
83512,-90.9090909090909,4,1,0,80,0,0
83829,-100,4,1,0,80,0,0
110554,-86.9565217391304,4,1,0,80,0,1
116469,-86.9565217391304,4,1,0,80,0,0
117315,-100,4,1,0,80,0,0
144357,-83.3333333333333,4,1,0,80,0,1
198441,-83.3333333333333,4,1,0,80,0,0
205202,-100,4,1,0,80,0,0
242385,545.454545454546,4,1,0,60,1,0
268566,422.535211267606,4,1,0,80,1,0
270256,-80,4,1,0,80,0,1
309974,-80,4,1,0,80,0,0

[Colours]
Combo1 : 207,255,159
Combo2 : 255,217,179
Combo3 : 189,222,255
Combo4 : 205,155,255

[HitObjects]
256,192,9145,5,0,0:0:0:0:
256,192,9357,1,8,0:0:0:0:
256,192,9568,1,0,0:0:0:0:
256,192,9779,1,8,0:0:0:0:
256,192,9991,1,0,0:0:0:0:
256,192,10202,1,8,0:0:0:0:
256,192,10413,1,0,0:0:0:0:
256,192,10624,1,8,0:0:0:0:
256,192,10836,1,0,0:0:0:0:
256,192,11047,1,8,0:0:0:0:
256,192,11258,1,0,0:0:0:0:
256,192,11364,1,0,0:0:0:0:
256,192,11469,1,8,0:0:0:0:
288,192,11681,1,0,0:0:0:0:
256,192,11892,1,8,0:0:0:0:
256,192,11998,1,0,0:0:0:0:
256,192,12209,1,0,0:0:0:0:
256,192,12315,1,8,0:0:0:0:
256,192,12526,1,0,0:0:0:0:
256,192,12737,1,8,0:0:0:0:
256,192,12948,1,0,0:0:0:0:
256,192,13160,1,8,0:0:0:0:
256,192,13371,1,0,0:0:0:0:
256,192,13582,1,8,0:0:0:0:
256,192,13793,1,0,0:0:0:0:
256,192,14005,1,8,0:0:0:0:
256,192,14216,1,12,0:0:0:0:
256,192,14638,1,12,0:0:0:0:
256,192,15061,1,12,0:0:0:0:
256,192,15378,1,4,0:0:0:0:
256,192,15906,1,0,0:0:0:0:
256,192,16117,1,8,0:0:0:0:
256,192,16188,1,0,0:0:0:0:
256,192,16258,1,0,0:0:0:0:
256,192,16329,1,8,0:0:0:0:
256,192,16540,1,8,0:0:0:0:
256,192,16751,1,0,0:0:0:0:
256,192,16962,1,8,0:0:0:0:
256,192,17033,1,0,0:0:0:0:
256,192,17103,1,0,0:0:0:0:
256,192,17174,1,8,0:0:0:0:
256,192,17385,1,8,0:0:0:0:
256,192,17596,1,0,0:0:0:0:
256,192,17807,1,8,0:0:0:0:
256,192,17878,1,0,0:0:0:0:
256,192,17948,1,0,0:0:0:0:
256,192,18019,1,8,0:0:0:0:
256,192,18230,1,8,0:0:0:0:
256,192,18441,1,0,0:0:0:0:
256,192,18653,1,0,0:0:0:0:
256,192,18758,1,8,0:0:0:0:
256,192,19075,1,0,0:0:0:0:
256,192,19286,1,0,0:0:0:0:
256,192,19603,1,8,0:0:0:0:
256,192,19920,1,0,0:0:0:0:
256,192,20131,1,0,0:0:0:0:
256,192,20448,1,8,0:0:0:0:
256,192,20765,1,0,0:0:0:0:
256,192,20976,1,8,0:0:0:0:
256,192,21399,1,8,0:0:0:0:
256,192,21822,1,0,0:0:0:0:
256,192,22033,1,0,0:0:0:0:
256,192,22138,1,0,0:0:0:0:
256,192,22244,1,8,0:0:0:0:
256,192,22455,1,8,0:0:0:0:
256,192,22667,1,4,0:0:0:0:
256,192,22878,1,0,0:0:0:0:
256,192,23089,1,8,0:0:0:0:
256,192,23300,1,8,0:0:0:0:
256,192,23512,1,0,0:0:0:0:
256,192,23723,1,8,0:0:0:0:
256,192,23829,1,8,0:0:0:0:
256,192,23934,1,8,0:0:0:0:
256,192,24146,1,8,0:0:0:0:
256,192,24357,1,4,0:0:0:0:
256,192,24568,1,0,0:0:0:0:
256,192,24674,1,0,0:0:0:0:
256,192,24779,1,0,0:0:0:0:
256,192,24991,1,8,0:0:0:0:
256,192,25202,1,0,0:0:0:0:
256,192,25413,1,8,0:0:0:0:
256,192,25519,1,8,0:0:0:0:
256,192,25624,1,8,0:0:0:0:
256,192,25836,1,8,0:0:0:0:
256,192,26047,1,4,0:0:0:0:
256,192,26258,1,0,0:0:0:0:
256,192,26469,1,8,0:0:0:0:
256,192,26681,1,8,0:0:0:0:
256,192,26892,1,4,0:0:0:0:
256,192,27103,1,0,0:0:0:0:
256,192,27315,1,8,0:0:0:0:
256,192,27526,1,8,0:0:0:0:
256,192,27737,1,4,0:0:0:0:
256,192,27948,1,8,0:0:0:0:
256,192,28160,1,4,0:0:0:0:
256,192,28371,1,8,0:0:0:0:
256,192,28582,1,4,0:0:0:0:
256,192,29427,1,0,0:0:0:0:
256,192,29638,1,8,0:0:0:0:
256,192,29850,1,0,0:0:0:0:
256,192,30061,1,8,0:0:0:0:
256,192,30272,1,0,0:0:0:0:
256,192,30484,1,8,0:0:0:0:
256,192,30695,1,0,0:0:0:0:
256,192,30906,1,8,0:0:0:0:
256,192,31117,1,0,0:0:0:0:
256,192,31329,1,8,0:0:0:0:
256,192,31540,1,0,0:0:0:0:
256,192,31751,1,8,0:0:0:0:
256,192,31962,1,0,0:0:0:0:
256,192,32174,1,8,0:0:0:0:
256,192,32279,1,8,0:0:0:0:
256,192,32491,1,8,0:0:0:0:
256,192,32596,1,8,0:0:0:0:
256,192,32807,1,0,0:0:0:0:
256,192,33019,1,8,0:0:0:0:
256,192,33230,1,0,0:0:0:0:
256,192,33441,1,8,0:0:0:0:
256,192,33653,1,0,0:0:0:0:
256,192,33864,1,8,0:0:0:0:
256,192,34075,1,0,0:0:0:0:
256,192,34286,1,8,0:0:0:0:
256,192,34498,1,12,0:0:0:0:
256,192,35343,1,0,0:0:0:0:
256,192,35448,1,8,0:0:0:0:
256,192,35554,1,0,0:0:0:0:
256,192,35660,1,8,0:0:0:0:
256,192,35765,1,0,0:0:0:0:
256,192,35976,1,8,0:0:0:0:
256,192,36188,1,0,0:0:0:0:
256,192,36399,1,8,0:0:0:0:
256,192,36469,1,8,0:0:0:0:
256,192,36540,1,8,0:0:0:0:
256,192,36610,1,0,0:0:0:0:
256,192,36822,1,8,0:0:0:0:
256,192,37033,1,0,0:0:0:0:
256,192,37244,1,8,0:0:0:0:
256,192,37315,1,8,0:0:0:0:
256,192,37385,1,8,0:0:0:0:
256,192,37455,1,0,0:0:0:0:
256,192,37667,1,8,0:0:0:0:
256,192,37878,1,0,0:0:0:0:
256,192,38089,1,8,0:0:0:0:
256,192,38160,1,8,0:0:0:0:
256,192,38230,1,8,0:0:0:0:
256,192,38300,1,0,0:0:0:0:
256,192,38512,1,8,0:0:0:0:
256,192,38723,1,0,0:0:0:0:
256,192,38934,1,0,0:0:0:0:
256,192,39040,1,8,0:0:0:0:
256,192,39146,1,0,0:0:0:0:
256,192,39357,1,0,0:0:0:0:
256,192,39568,1,8,0:0:0:0:
256,192,39779,1,0,0:0:0:0:
256,192,39885,1,8,0:0:0:0:
256,192,39991,1,0,0:0:0:0:
256,192,40202,1,8,0:0:0:0:
256,192,40413,1,0,0:0:0:0:
256,192,40624,1,8,0:0:0:0:
256,192,40730,1,0,0:0:0:0:
256,192,40836,1,8,0:0:0:0:
256,192,41047,1,8,0:0:0:0:
256,192,41258,1,0,0:0:0:0:
256,192,41469,1,8,0:0:0:0:
256,192,41681,1,0,0:0:0:0:
256,192,41892,1,8,0:0:0:0:
256,192,42103,1,0,0:0:0:0:
256,192,42948,1,4,0:0:0:0:
256,192,43160,1,0,0:0:0:0:
256,192,43371,1,8,0:0:0:0:
256,192,43582,1,0,0:0:0:0:
256,192,43688,1,0,0:0:0:0:
256,192,43793,1,8,0:0:0:0:
256,192,44005,1,0,0:0:0:0:
256,192,44216,1,8,0:0:0:0:
256,192,44427,1,8,0:0:0:0:
256,192,44638,1,4,0:0:0:0:
256,192,44850,1,8,0:0:0:0:
256,192,44955,1,0,0:0:0:0:
256,192,45061,1,8,0:0:0:0:
256,192,45167,1,0,0:0:0:0:
256,192,45272,1,8,0:0:0:0:
256,192,45484,1,8,0:0:0:0:
256,192,45695,1,0,0:0:0:0:
256,192,45800,1,0,0:0:0:0:
256,192,45906,1,8,0:0:0:0:
256,192,46117,1,8,0:0:0:0:
256,192,46329,1,4,0:0:0:0:
256,192,46540,1,0,0:0:0:0:
256,192,46751,1,8,0:0:0:0:
256,192,46962,1,0,0:0:0:0:
256,192,47174,1,4,0:0:0:0:
256,192,47385,1,0,0:0:0:0:
256,192,47596,1,8,0:0:0:0:
256,192,47807,1,8,0:0:0:0:
256,192,48019,1,4,0:0:0:0:
256,192,48230,1,8,0:0:0:0:
256,192,48441,1,4,0:0:0:0:
256,192,48653,1,8,0:0:0:0:
256,192,48864,1,4,0:0:0:0:
256,192,49709,1,0,0:0:0:0:
256,192,49920,1,8,0:0:0:0:
256,192,50131,1,0,0:0:0:0:
256,192,50343,1,8,0:0:0:0:
256,192,50554,1,0,0:0:0:0:
256,192,50765,1,8,0:0:0:0:
256,192,50976,1,0,0:0:0:0:
256,192,51188,1,8,0:0:0:0:
256,192,51399,1,0,0:0:0:0:
256,192,51610,1,8,0:0:0:0:
256,192,51822,1,0,0:0:0:0:
256,192,51927,1,0,0:0:0:0:
256,192,52033,1,8,0:0:0:0:
256,192,52138,1,8,0:0:0:0:
256,192,52244,1,0,0:0:0:0:
256,192,52455,1,8,0:0:0:0:
256,192,52561,1,0,0:0:0:0:
256,192,52772,1,0,0:0:0:0:
256,192,52878,1,8,0:0:0:0:
256,192,53089,1,0,0:0:0:0:
256,192,53300,1,8,0:0:0:0:
256,192,53512,1,0,0:0:0:0:
256,192,53617,1,0,0:0:0:0:
256,192,53723,1,8,0:0:0:0:
256,192,53829,1,8,0:0:0:0:
256,192,53934,1,0,0:0:0:0:
256,192,54146,1,8,0:0:0:0:
256,192,54251,1,0,0:0:0:0:
256,192,54462,1,0,0:0:0:0:
256,192,54568,1,8,0:0:0:0:
256,192,54674,1,8,0:0:0:0:
256,192,54779,1,0,0:0:0:0:
256,192,54991,1,0,0:0:0:0:
256,192,55202,1,8,0:0:0:0:
256,192,55413,1,8,0:0:0:0:
256,192,55624,1,0,0:0:0:0:
256,192,55730,1,8,0:0:0:0:
256,192,55836,1,0,0:0:0:0:
256,192,55941,1,8,0:0:0:0:
256,192,56047,1,0,0:0:0:0:
256,192,56258,1,8,0:0:0:0:
256,192,56469,1,0,0:0:0:0:
256,192,56681,1,8,0:0:0:0:
256,192,56786,1,0,0:0:0:0:
256,192,56892,1,8,0:0:0:0:
256,192,57103,1,8,0:0:0:0:
256,192,57315,1,0,0:0:0:0:
256,192,57526,1,8,0:0:0:0:
256,192,57631,1,8,0:0:0:0:
256,192,57737,1,0,0:0:0:0:
256,192,57948,1,8,0:0:0:0:
256,192,58160,1,0,0:0:0:0:
256,192,58371,1,0,0:0:0:0:
256,192,58476,1,0,0:0:0:0:
256,192,58582,1,8,0:0:0:0:
256,192,58793,1,8,0:0:0:0:
256,192,59005,1,0,0:0:0:0:
256,192,59216,1,8,0:0:0:0:
256,192,59322,1,8,0:0:0:0:
256,192,59427,1,0,0:0:0:0:
256,192,59638,1,8,0:0:0:0:
256,192,59850,1,0,0:0:0:0:
256,192,60061,1,0,0:0:0:0:
256,192,60167,1,0,0:0:0:0:
256,192,60272,1,8,0:0:0:0:
256,192,60484,1,8,0:0:0:0:
256,192,60695,1,0,0:0:0:0:
256,192,60906,1,8,0:0:0:0:
256,192,61012,1,0,0:0:0:0:
256,192,61117,1,8,0:0:0:0:
256,192,61329,1,8,0:0:0:0:
256,192,61540,1,0,0:0:0:0:
256,192,61751,1,8,0:0:0:0:
256,192,61857,1,0,0:0:0:0:
256,192,61962,1,8,0:0:0:0:
256,192,62174,1,8,0:0:0:0:
256,192,62279,1,8,0:0:0:0:
256,192,62385,1,0,0:0:0:0:
256,192,62596,1,2,0:0:0:0:
256,192,62807,1,2,0:0:0:0:
256,192,63230,1,4,0:0:0:0:
256,192,63441,1,0,0:0:0:0:
256,192,63653,1,8,0:0:0:0:
256,192,63864,1,8,0:0:0:0:
256,192,63969,1,8,0:0:0:0:
256,192,64075,1,0,0:0:0:0:
256,192,64181,1,0,0:0:0:0:
256,192,64286,1,8,0:0:0:0:
256,192,64498,1,8,0:0:0:0:
256,192,64709,1,8,0:0:0:0:
256,192,64920,1,4,0:0:0:0:
256,192,65131,1,8,0:0:0:0:
256,192,65237,1,0,0:0:0:0:
256,192,65343,1,8,0:0:0:0:
256,192,65554,1,8,0:0:0:0:
256,192,65660,1,8,0:0:0:0:
256,192,65765,1,0,0:0:0:0:
256,192,65871,1,0,0:0:0:0:
256,192,65976,1,8,0:0:0:0:
256,192,66188,1,8,0:0:0:0:
256,192,66399,1,8,0:0:0:0:
256,192,66610,1,4,0:0:0:0:
256,192,66822,1,8,0:0:0:0:
256,192,66927,1,8,0:0:0:0:
256,192,67033,1,0,0:0:0:0:
256,192,67244,1,8,0:0:0:0:
256,192,67455,1,4,0:0:0:0:
256,192,67667,1,8,0:0:0:0:
256,192,67772,1,8,0:0:0:0:
256,192,67878,1,0,0:0:0:0:
256,192,68089,1,8,0:0:0:0:
256,192,68300,1,4,0:0:0:0:
256,192,68512,1,8,0:0:0:0:
256,192,68723,1,4,0:0:0:0:
256,192,68934,1,8,0:0:0:0:
256,192,69146,1,4,0:0:0:0:
256,192,69991,1,4,0:0:0:0:
256,192,70202,1,0,0:0:0:0:
256,192,70413,1,8,0:0:0:0:
256,192,70624,1,8,0:0:0:0:
256,192,70730,1,8,0:0:0:0:
256,192,70836,1,8,0:0:0:0:
256,192,71047,1,0,0:0:0:0:
256,192,71258,1,8,0:0:0:0:
256,192,71469,1,0,0:0:0:0:
256,192,71575,1,0,0:0:0:0:
256,192,71681,1,8,0:0:0:0:
256,192,71892,1,0,0:0:0:0:
256,192,72103,1,8,0:0:0:0:
256,192,72315,1,8,0:0:0:0:
256,192,72526,1,0,0:0:0:0:
256,192,72737,1,10,0:0:0:0:
256,192,72843,1,10,0:0:0:0:
256,192,72948,1,0,0:0:0:0:
256,192,73160,1,8,0:0:0:0:
256,192,73371,1,8,0:0:0:0:
256,192,73582,1,0,0:0:0:0:
256,192,73688,1,0,0:0:0:0:
256,192,73793,1,8,0:0:0:0:
256,192,74005,1,0,0:0:0:0:
256,192,74216,1,8,0:0:0:0:
256,192,74322,1,0,0:0:0:0:
256,192,74427,1,8,0:0:0:0:
256,192,74638,1,8,0:0:0:0:
256,192,74850,1,0,0:0:0:0:
256,192,74955,1,0,0:0:0:0:
256,192,75061,1,8,0:0:0:0:
256,192,75272,1,0,0:0:0:0:
256,192,75484,1,8,0:0:0:0:
256,192,75589,1,8,0:0:0:0:
256,192,75695,1,0,0:0:0:0:
256,192,75906,1,0,0:0:0:0:
256,192,76117,1,8,0:0:0:0:
256,192,76223,1,0,0:0:0:0:
256,192,76329,1,8,0:0:0:0:
256,192,76540,1,8,0:0:0:0:
256,192,76751,1,0,0:0:0:0:
256,192,76962,1,0,0:0:0:0:
256,192,77174,1,8,0:0:0:0:
256,192,77385,1,0,0:0:0:0:
256,192,77491,1,0,0:0:0:0:
256,192,77596,1,8,0:0:0:0:
256,192,77807,1,8,0:0:0:0:
256,192,78019,1,0,0:0:0:0:
256,192,78230,1,8,0:0:0:0:
256,192,78336,1,8,0:0:0:0:
256,192,78441,1,0,0:0:0:0:
256,192,78653,1,8,0:0:0:0:
256,192,78758,1,0,0:0:0:0:
256,192,78864,1,8,0:0:0:0:
256,192,79075,1,8,0:0:0:0:
256,192,79286,1,0,0:0:0:0:
256,192,79498,1,8,0:0:0:0:
256,192,79603,1,8,0:0:0:0:
256,192,79709,1,0,0:0:0:0:
256,192,79920,1,8,0:0:0:0:
256,192,80131,1,0,0:0:0:0:
256,192,80343,1,0,0:0:0:0:
256,192,80448,1,0,0:0:0:0:
256,192,80554,1,8,0:0:0:0:
256,192,80660,1,8,0:0:0:0:
256,192,80765,1,0,0:0:0:0:
256,192,80976,1,8,0:0:0:0:
256,192,81082,1,8,0:0:0:0:
256,192,81188,1,0,0:0:0:0:
256,192,81293,1,0,0:0:0:0:
256,192,81399,1,8,0:0:0:0:
256,192,81610,1,8,0:0:0:0:
256,192,81822,1,0,0:0:0:0:
256,192,82033,1,8,0:0:0:0:
256,192,82138,1,8,0:0:0:0:
256,192,82244,1,0,0:0:0:0:
256,192,82455,1,8,0:0:0:0:
256,192,82667,1,0,0:0:0:0:
256,192,83089,1,0,0:0:0:0:
256,192,83195,1,0,0:0:0:0:
96,160,83300,1,0,0:0:0:0:
256,192,83406,1,8,0:0:0:0:
256,192,83512,1,0,0:0:0:0:
256,192,83829,1,8,0:0:0:0:
256,192,83934,1,0,0:0:0:0:
256,192,84146,1,8,0:0:0:0:
256,192,84357,1,4,0:0:0:0:
256,192,84674,1,0,0:0:0:0:
256,192,84779,1,8,0:0:0:0:
256,192,84991,1,8,0:0:0:0:
256,192,85202,1,4,0:0:0:0:
256,192,85519,1,8,0:0:0:0:
256,192,85624,1,0,0:0:0:0:
256,192,85836,1,8,0:0:0:0:
256,192,86047,1,4,0:0:0:0:
256,192,86364,1,0,0:0:0:0:
256,192,86469,1,8,0:0:0:0:
256,192,86681,1,8,0:0:0:0:
256,192,86892,1,12,0:0:0:0:
256,192,87209,1,0,0:0:0:0:
256,192,87315,1,8,0:0:0:0:
256,192,87526,1,8,0:0:0:0:
256,192,87737,1,4,0:0:0:0:
256,192,88054,1,0,0:0:0:0:
256,192,88160,1,8,0:0:0:0:
256,192,88371,1,8,0:0:0:0:
256,192,88582,1,12,0:0:0:0:
256,192,88899,1,0,0:0:0:0:
256,192,89005,1,8,0:0:0:0:
256,192,89216,1,0,0:0:0:0:
256,192,89427,1,4,0:0:0:0:
256,192,89638,1,8,0:0:0:0:
256,192,89850,1,4,0:0:0:0:
256,192,90061,1,8,0:0:0:0:
256,192,90272,1,4,0:0:0:0:
256,192,90484,1,8,0:0:0:0:
256,192,90589,1,0,0:0:0:0:
256,192,90695,1,8,0:0:0:0:
256,192,90800,1,8,0:0:0:0:
256,192,90906,1,0,0:0:0:0:
256,192,91117,1,4,0:0:0:0:
256,192,91329,1,0,0:0:0:0:
256,192,91434,1,0,0:0:0:0:
256,192,91540,1,8,0:0:0:0:
256,192,91646,1,8,0:0:0:0:
256,192,91751,1,0,0:0:0:0:
256,192,91962,1,4,0:0:0:0:
256,192,92174,1,0,0:0:0:0:
256,192,92279,1,0,0:0:0:0:
256,192,92385,1,8,0:0:0:0:
256,192,92491,1,8,0:0:0:0:
256,192,92596,1,0,0:0:0:0:
256,192,92702,1,0,0:0:0:0:
256,192,92807,1,8,0:0:0:0:
256,192,92913,1,8,0:0:0:0:
256,192,93019,1,0,0:0:0:0:
256,192,93124,1,8,0:0:0:0:
256,192,93230,1,8,0:0:0:0:
256,192,93336,1,8,0:0:0:0:
256,192,93441,1,0,0:0:0:0:
256,192,93547,1,0,0:0:0:0:
256,192,93653,1,8,0:0:0:0:
256,192,93864,1,0,0:0:0:0:
256,192,94075,1,8,0:0:0:0:
256,192,94286,1,8,0:0:0:0:
256,192,94498,1,4,0:0:0:0:
256,192,94709,1,0,0:0:0:0:
256,192,94920,1,8,0:0:0:0:
256,192,95131,1,8,0:0:0:0:
256,192,95343,1,4,0:0:0:0:
256,192,95554,1,8,0:0:0:0:
256,192,95765,1,4,0:0:0:0:
256,192,95976,1,8,0:0:0:0:
256,192,96188,1,4,0:0:0:0:
224,192,97033,1,0,0:0:0:0:
224,192,97244,1,8,0:0:0:0:
224,192,97455,1,0,0:0:0:0:
224,192,97667,1,8,0:0:0:0:
224,192,97878,1,0,0:0:0:0:
224,192,98089,1,8,0:0:0:0:
224,192,98300,1,0,0:0:0:0:
224,192,98406,1,0,0:0:0:0:
224,192,98512,1,8,0:0:0:0:
224,192,98723,1,0,0:0:0:0:
224,192,98934,1,8,0:0:0:0:
224,192,99040,1,8,0:0:0:0:
224,192,99146,1,0,0:0:0:0:
224,192,99251,1,0,0:0:0:0:
224,192,99357,1,8,0:0:0:0:
224,192,99568,1,0,0:0:0:0:
224,192,99779,1,8,0:0:0:0:
224,192,99885,1,0,0:0:0:0:
224,192,100096,1,0,0:0:0:0:
224,192,100202,1,8,0:0:0:0:
224,192,100413,1,0,0:0:0:0:
224,192,100624,1,8,0:0:0:0:
224,192,100836,1,0,0:0:0:0:
224,192,101047,1,8,0:0:0:0:
224,192,101258,1,0,0:0:0:0:
224,192,101469,1,8,0:0:0:0:
224,192,101681,1,0,0:0:0:0:
224,192,101892,1,8,0:0:0:0:
256,192,102737,1,0,0:0:0:0:
256,192,102807,1,0,0:0:0:0:
256,192,102878,1,0,0:0:0:0:
256,192,102948,1,8,0:0:0:0:
256,192,103054,1,0,0:0:0:0:
256,192,103160,1,8,0:0:0:0:
256,192,103265,1,8,0:0:0:0:
256,192,103371,1,0,0:0:0:0:
256,192,103476,1,0,0:0:0:0:
256,192,103582,1,8,0:0:0:0:
256,192,103793,1,0,0:0:0:0:
256,192,104005,1,0,0:0:0:0:
256,192,104110,1,0,0:0:0:0:
256,192,104216,1,8,0:0:0:0:
256,192,104427,1,8,0:0:0:0:
256,192,104638,1,0,0:0:0:0:
256,192,104850,1,8,0:0:0:0:
256,192,104955,1,8,0:0:0:0:
256,192,105061,1,8,0:0:0:0:
256,192,105272,1,0,0:0:0:0:
256,192,105484,1,8,0:0:0:0:
256,192,105695,1,0,0:0:0:0:
256,192,105800,1,0,0:0:0:0:
256,192,105906,1,8,0:0:0:0:
256,192,106117,1,0,0:0:0:0:
256,192,106329,1,8,0:0:0:0:
256,192,106540,1,8,0:0:0:0:
256,192,106646,1,8,0:0:0:0:
256,192,106751,1,8,0:0:0:0:
256,192,106962,1,8,0:0:0:0:
256,192,107174,1,0,0:0:0:0:
256,192,107385,1,8,0:0:0:0:
256,192,107491,1,0,0:0:0:0:
256,192,107596,1,8,0:0:0:0:
256,192,107702,1,8,0:0:0:0:
256,192,107807,1,0,0:0:0:0:
256,192,108019,1,8,0:0:0:0:
256,192,108230,1,0,0:0:0:0:
256,192,108336,1,8,0:0:0:0:
256,192,108441,1,0,0:0:0:0:
256,192,108547,1,0,0:0:0:0:
256,192,108653,1,8,0:0:0:0:
256,192,108864,1,4,0:0:0:0:
256,192,109075,1,8,0:0:0:0:
256,192,109286,1,4,0:0:0:0:
256,192,109498,1,8,0:0:0:0:
256,192,109709,1,4,0:0:0:0:
256,192,109920,1,0,0:0:0:0:
256,192,110026,1,0,0:0:0:0:
256,192,110131,1,0,0:0:0:0:
256,192,110343,1,8,0:0:0:0:
256,192,110554,1,4,0:0:0:0:
256,192,110765,1,8,0:0:0:0:
256,192,110871,1,0,0:0:0:0:
256,192,110976,1,8,0:0:0:0:
256,192,111188,1,8,0:0:0:0:
256,192,111399,1,0,0:0:0:0:
256,192,111610,1,8,0:0:0:0:
256,192,111716,1,8,0:0:0:0:
256,192,111822,1,0,0:0:0:0:
256,192,112033,1,8,0:0:0:0:
256,192,112244,1,4,0:0:0:0:
256,192,112455,1,0,0:0:0:0:
256,192,112561,1,0,0:0:0:0:
256,192,112667,1,8,0:0:0:0:
256,192,112772,1,8,0:0:0:0:
256,192,112878,1,0,0:0:0:0:
256,192,113089,1,8,0:0:0:0:
256,192,113300,1,0,0:0:0:0:
256,192,113406,1,0,0:0:0:0:
256,192,113512,1,8,0:0:0:0:
256,192,113723,1,8,0:0:0:0:
256,192,113934,1,4,0:0:0:0:
256,192,114146,1,8,0:0:0:0:
256,192,114251,1,0,0:0:0:0:
256,192,114357,1,8,0:0:0:0:
256,192,114568,1,8,0:0:0:0:
256,192,114779,1,4,0:0:0:0:
256,192,114991,1,8,0:0:0:0:
256,192,115096,1,8,0:0:0:0:
256,192,115202,1,0,0:0:0:0:
256,192,115413,1,8,0:0:0:0:
256,192,115624,1,4,0:0:0:0:
256,192,115836,1,8,0:0:0:0:
256,192,116047,1,4,0:0:0:0:
256,192,116258,1,8,0:0:0:0:
256,192,116469,1,4,0:0:0:0:
256,192,117315,1,0,0:0:0:0:
256,192,117526,1,8,0:0:0:0:
256,192,117631,1,8,0:0:0:0:
256,192,117737,1,0,0:0:0:0:
256,192,117948,1,8,0:0:0:0:
256,192,118160,1,0,0:0:0:0:
256,192,118371,1,8,0:0:0:0:
256,192,118476,1,8,0:0:0:0:
256,192,118582,1,0,0:0:0:0:
256,192,118688,1,0,0:0:0:0:
256,192,118793,1,8,0:0:0:0:
256,192,119005,1,0,0:0:0:0:
256,192,119216,1,8,0:0:0:0:
256,192,119322,1,8,0:0:0:0:
256,192,119427,1,0,0:0:0:0:
256,192,119638,1,8,0:0:0:0:
256,192,119850,1,0,0:0:0:0:
256,192,120061,1,0,0:0:0:0:
256,192,120167,1,8,0:0:0:0:
256,192,120272,1,0,0:0:0:0:
256,192,120378,1,0,0:0:0:0:
256,192,120484,1,8,0:0:0:0:
256,192,120695,1,0,0:0:0:0:
256,192,120906,1,8,0:0:0:0:
256,192,121012,1,8,0:0:0:0:
256,192,121117,1,0,0:0:0:0:
256,192,121329,1,8,0:0:0:0:
256,192,121540,1,0,0:0:0:0:
256,192,121751,1,8,0:0:0:0:
256,192,121857,1,8,0:0:0:0:
256,192,121962,1,0,0:0:0:0:
256,192,122174,1,8,0:0:0:0:
256,192,122385,1,0,0:0:0:0:
256,192,122596,1,0,0:0:0:0:
256,192,122702,1,0,0:0:0:0:
256,192,122807,1,8,0:0:0:0:
256,192,123230,1,8,0:0:0:0:
256,192,123336,1,0,0:0:0:0:
256,192,123441,1,8,0:0:0:0:
256,192,123547,1,8,0:0:0:0:
256,192,123653,1,0,0:0:0:0:
256,192,123864,1,8,0:0:0:0:
256,192,124075,1,0,0:0:0:0:
256,192,124286,1,8,0:0:0:0:
256,192,124392,1,8,0:0:0:0:
256,192,124498,1,0,0:0:0:0:
256,192,124603,1,0,0:0:0:0:
256,192,124709,1,8,0:0:0:0:
256,192,124920,1,0,0:0:0:0:
256,192,125131,1,8,0:0:0:0:
256,192,125237,1,8,0:0:0:0:
256,192,125343,1,0,0:0:0:0:
256,192,125554,1,8,0:0:0:0:
256,192,125765,1,0,0:0:0:0:
256,192,125976,1,8,0:0:0:0:
256,192,126082,1,0,0:0:0:0:
256,192,126188,1,8,0:0:0:0:
256,192,126293,1,8,0:0:0:0:
256,192,126399,1,0,0:0:0:0:
256,192,126610,1,8,0:0:0:0:
256,192,126822,1,0,0:0:0:0:
256,192,126927,1,0,0:0:0:0:
256,192,127033,1,8,0:0:0:0:
256,192,127244,1,0,0:0:0:0:
256,192,127455,1,0,0:0:0:0:
256,192,127667,1,0,0:0:0:0:
256,192,127772,1,0,0:0:0:0:
256,192,127878,1,8,0:0:0:0:
256,192,128089,1,0,0:0:0:0:
256,192,128300,1,8,0:0:0:0:
256,192,128512,1,8,0:0:0:0:
256,192,128617,1,0,0:0:0:0:
256,192,128723,1,8,0:0:0:0:
256,192,128934,1,8,0:0:0:0:
256,192,129146,1,0,0:0:0:0:
256,192,129357,1,8,0:0:0:0:
256,192,129462,1,8,0:0:0:0:
256,192,129568,1,0,0:0:0:0:
256,192,129779,1,8,0:0:0:0:
256,192,129885,1,8,0:0:0:0:
256,192,129991,1,0,0:0:0:0:
256,192,130836,1,0,0:0:0:0:
256,192,131047,1,8,0:0:0:0:
256,192,131153,1,8,0:0:0:0:
256,192,131258,1,0,0:0:0:0:
256,192,131469,1,8,0:0:0:0:
256,192,131681,1,0,0:0:0:0:
256,192,131892,1,8,0:0:0:0:
256,192,131998,1,8,0:0:0:0:
256,192,132103,1,0,0:0:0:0:
256,192,132209,1,0,0:0:0:0:
256,192,132315,1,8,0:0:0:0:
256,192,132420,1,8,0:0:0:0:
256,192,132526,1,0,0:0:0:0:
256,192,132737,1,8,0:0:0:0:
256,192,132948,1,0,0:0:0:0:
256,192,133160,1,8,0:0:0:0:
256,192,133265,1,8,0:0:0:0:
256,192,133371,1,0,0:0:0:0:
256,192,133476,1,8,0:0:0:0:
256,192,133582,1,0,0:0:0:0:
256,192,133688,1,0,0:0:0:0:
256,192,133793,1,8,0:0:0:0:
256,192,134005,1,0,0:0:0:0:
256,192,134216,1,8,0:0:0:0:
256,192,134427,1,0,0:0:0:0:
256,192,134533,1,0,0:0:0:0:
256,192,134638,1,8,0:0:0:0:
256,192,134850,1,0,0:0:0:0:
256,192,135061,1,8,0:0:0:0:
256,192,135272,1,8,0:0:0:0:
256,192,135378,1,8,0:0:0:0:
256,192,135484,1,0,0:0:0:0:
256,192,135695,1,8,0:0:0:0:
256,192,135906,1,0,0:0:0:0:
256,192,136329,1,8,0:0:0:0:
256,192,136540,1,0,0:0:0:0:
256,192,136610,1,0,0:0:0:0:
256,192,136681,1,0,0:0:0:0:
256,192,136751,1,8,0:0:0:0:
256,192,136962,1,8,0:0:0:0:
256,192,137174,1,0,0:0:0:0:
256,192,137279,1,0,0:0:0:0:
256,192,137385,1,8,0:0:0:0:
256,192,137596,1,0,0:0:0:0:
256,192,137807,1,8,0:0:0:0:
256,192,137913,1,8,0:0:0:0:
256,192,138019,1,0,0:0:0:0:
256,192,138124,1,0,0:0:0:0:
256,192,138230,1,8,0:0:0:0:
256,192,138441,1,0,0:0:0:0:
256,192,138653,1,8,0:0:0:0:
256,192,138758,1,0,0:0:0:0:
256,192,138864,1,8,0:0:0:0:
256,192,138969,1,8,0:0:0:0:
256,192,139075,1,0,0:0:0:0:
256,192,139286,1,8,0:0:0:0:
256,192,139498,1,0,0:0:0:0:
256,192,139603,1,0,0:0:0:0:
256,192,139709,1,8,0:0:0:0:
256,192,139815,1,8,0:0:0:0:
256,192,139920,1,0,0:0:0:0:
256,192,140131,1,8,0:0:0:0:
256,192,140343,1,0,0:0:0:0:
256,192,140448,1,0,0:0:0:0:
256,192,140554,1,8,0:0:0:0:
256,192,140765,1,0,0:0:0:0:
256,192,140976,1,8,0:0:0:0:
256,192,141188,1,0,0:0:0:0:
256,192,141293,1,0,0:0:0:0:
256,192,141399,1,8,0:0:0:0:
256,192,141505,1,8,0:0:0:0:
256,192,141610,1,0,0:0:0:0:
256,192,141716,1,0,0:0:0:0:
256,192,141822,1,8,0:0:0:0:
256,192,142033,1,0,0:0:0:0:
256,192,142244,1,8,0:0:0:0:
256,192,142455,1,0,0:0:0:0:
256,192,142561,1,0,0:0:0:0:
256,192,142667,1,8,0:0:0:0:
256,192,142878,1,8,0:0:0:0:
256,192,142984,1,8,0:0:0:0:
256,192,143089,1,0,0:0:0:0:
256,192,143300,1,8,0:0:0:0:
256,192,143512,1,0,0:0:0:0:
256,192,144357,1,4,0:0:0:0:
256,192,144568,1,8,0:0:0:0:
256,192,144674,1,8,0:0:0:0:
256,192,144779,1,0,0:0:0:0:
256,192,144991,1,8,0:0:0:0:
256,192,145096,1,8,0:0:0:0:
256,192,145202,1,0,0:0:0:0:
256,192,145307,1,0,0:0:0:0:
256,192,145413,1,8,0:0:0:0:
256,192,145519,1,8,0:0:0:0:
256,192,145624,1,0,0:0:0:0:
256,192,145836,1,8,0:0:0:0:
256,192,146047,1,4,0:0:0:0:
256,192,146258,1,8,0:0:0:0:
256,192,146364,1,0,0:0:0:0:
256,192,146469,1,8,0:0:0:0:
256,192,146681,1,8,0:0:0:0:
256,192,146786,1,8,0:0:0:0:
256,192,146892,1,0,0:0:0:0:
256,192,146998,1,8,0:0:0:0:
256,192,147103,1,0,0:0:0:0:
256,192,147209,1,0,0:0:0:0:
256,192,147315,1,8,0:0:0:0:
256,192,147526,1,8,0:0:0:0:
256,192,147737,1,4,0:0:0:0:
256,192,147948,1,8,0:0:0:0:
256,192,148054,1,8,0:0:0:0:
256,192,148160,1,0,0:0:0:0:
256,192,148371,1,8,0:0:0:0:
256,192,148582,1,4,0:0:0:0:
256,192,148793,1,8,0:0:0:0:
256,192,148899,1,8,0:0:0:0:
256,192,149005,1,0,0:0:0:0:
256,192,149110,1,0,0:0:0:0:
256,192,149216,1,8,0:0:0:0:
256,192,149427,1,4,0:0:0:0:
256,192,149638,1,8,0:0:0:0:
256,192,149850,1,4,0:0:0:0:
256,192,150061,1,8,0:0:0:0:
256,192,150272,1,4,0:0:0:0:
256,192,150484,1,0,0:0:0:0:
256,192,150589,1,0,0:0:0:0:
256,192,150695,1,0,0:0:0:0:
256,192,150906,1,8,0:0:0:0:
256,192,151117,1,4,0:0:0:0:
256,192,151329,1,8,0:0:0:0:
256,192,151434,1,8,0:0:0:0:
256,192,151540,1,0,0:0:0:0:
256,192,151751,1,0,0:0:0:0:
256,192,151857,1,8,0:0:0:0:
256,192,151962,1,0,0:0:0:0:
256,192,152068,1,0,0:0:0:0:
256,192,152174,1,8,0:0:0:0:
256,192,152279,1,8,0:0:0:0:
256,192,152385,1,0,0:0:0:0:
256,192,152596,1,8,0:0:0:0:
256,192,152807,1,4,0:0:0:0:
256,192,153019,1,8,0:0:0:0:
256,192,153124,1,0,0:0:0:0:
256,192,153230,1,8,0:0:0:0:
256,192,153336,1,8,0:0:0:0:
256,192,153441,1,0,0:0:0:0:
256,192,153547,1,0,0:0:0:0:
256,192,153653,1,8,0:0:0:0:
256,192,153758,1,0,0:0:0:0:
256,192,153864,1,8,0:0:0:0:
256,192,153969,1,8,0:0:0:0:
256,192,154075,1,0,0:0:0:0:
256,192,154286,1,8,0:0:0:0:
256,192,154498,1,4,0:0:0:0:
256,192,154709,1,8,0:0:0:0:
256,192,154815,1,8,0:0:0:0:
256,192,154920,1,0,0:0:0:0:
256,192,155131,1,8,0:0:0:0:
256,192,155343,1,4,0:0:0:0:
256,192,155554,1,8,0:0:0:0:
256,192,155660,1,8,0:0:0:0:
256,192,155765,1,0,0:0:0:0:
256,192,155871,1,0,0:0:0:0:
256,192,155976,1,8,0:0:0:0:
256,192,156188,1,4,0:0:0:0:
256,192,156399,1,8,0:0:0:0:
256,192,156610,1,4,0:0:0:0:
256,192,156822,1,8,0:0:0:0:
256,192,157033,1,4,0:0:0:0:
256,192,157244,1,8,0:0:0:0:
256,192,157350,1,0,0:0:0:0:
256,192,157455,1,0,0:0:0:0:
256,192,157561,1,0,0:0:0:0:
256,192,157667,1,8,0:0:0:0:
256,192,157878,1,4,0:0:0:0:
256,192,158089,1,8,0:0:0:0:
256,192,158195,1,8,0:0:0:0:
256,192,158300,1,0,0:0:0:0:
256,192,158512,1,8,0:0:0:0:
256,192,158723,1,0,0:0:0:0:
256,192,158829,1,0,0:0:0:0:
256,192,158934,1,8,0:0:0:0:
256,192,159040,1,8,0:0:0:0:
256,192,159146,1,0,0:0:0:0:
256,192,159357,1,8,0:0:0:0:
256,192,159568,1,0,0:0:0:0:
256,192,159674,1,8,0:0:0:0:
256,192,159779,1,0,0:0:0:0:
256,192,159885,1,0,0:0:0:0:
256,192,159991,1,8,0:0:0:0:
256,192,160096,1,8,0:0:0:0:
256,192,160202,1,0,0:0:0:0:
256,192,160307,1,0,0:0:0:0:
256,192,160413,1,8,0:0:0:0:
256,192,160624,1,0,0:0:0:0:
256,192,160836,1,8,0:0:0:0:
256,192,161047,1,0,0:0:0:0:
256,192,161153,1,0,0:0:0:0:
256,192,161258,1,8,0:0:0:0:
256,192,161469,1,8,0:0:0:0:
256,192,161681,1,0,0:0:0:0:
256,192,161892,1,8,0:0:0:0:
256,192,161998,1,8,0:0:0:0:
256,192,162103,1,0,0:0:0:0:
256,192,162209,1,0,0:0:0:0:
256,192,162315,1,8,0:0:0:0:
256,192,162526,1,0,0:0:0:0:
256,192,162737,1,8,0:0:0:0:
256,192,162843,1,0,0:0:0:0:
256,192,162948,1,8,0:0:0:0:
256,192,163054,1,8,0:0:0:0:
256,192,163160,1,0,0:0:0:0:
256,192,163265,1,0,0:0:0:0:
256,192,163371,1,8,0:0:0:0:
256,192,163476,1,8,0:0:0:0:
256,192,163582,1,0,0:0:0:0:
256,192,163688,1,0,0:0:0:0:
256,192,163793,1,8,0:0:0:0:
256,192,164005,1,0,0:0:0:0:
256,192,164216,1,8,0:0:0:0:
256,192,164427,1,8,0:0:0:0:
256,192,164533,1,8,0:0:0:0:
256,192,164638,1,0,0:0:0:0:
256,192,164850,1,8,0:0:0:0:
256,192,165061,1,0,0:0:0:0:
256,192,165272,1,8,0:0:0:0:
256,192,165378,1,0,0:0:0:0:
256,192,165484,1,8,0:0:0:0:
256,192,165589,1,8,0:0:0:0:
256,192,165695,1,0,0:0:0:0:
256,192,165800,1,0,0:0:0:0:
256,192,165906,1,8,0:0:0:0:
256,192,166117,1,0,0:0:0:0:
256,192,166329,1,8,0:0:0:0:
256,192,166540,1,0,0:0:0:0:
256,192,166646,1,0,0:0:0:0:
256,192,166751,1,8,0:0:0:0:
256,192,166962,1,0,0:0:0:0:
256,192,167174,1,8,0:0:0:0:
256,192,167385,1,8,0:0:0:0:
256,192,167491,1,8,0:0:0:0:
256,192,167596,1,8,0:0:0:0:
256,192,167807,1,8,0:0:0:0:
256,192,167913,1,8,0:0:0:0:
256,192,168019,1,0,0:0:0:0:
256,192,168230,1,8,0:0:0:0:
256,192,168441,1,0,0:0:0:0:
256,192,168547,1,0,0:0:0:0:
256,192,168653,1,8,0:0:0:0:
256,192,168864,1,0,0:0:0:0:
256,192,169075,1,8,0:0:0:0:
256,192,169181,1,8,0:0:0:0:
256,192,169286,1,0,0:0:0:0:
256,192,169498,1,8,0:0:0:0:
256,192,169709,1,0,0:0:0:0:
256,192,169920,1,8,0:0:0:0:
256,192,170131,1,0,0:0:0:0:
256,192,170343,1,8,0:0:0:0:
256,192,170554,1,0,0:0:0:0:
256,192,170765,1,8,0:0:0:0:
256,192,170871,1,8,0:0:0:0:
256,192,170976,1,0,0:0:0:0:
256,192,171082,1,0,0:0:0:0:
256,192,171188,1,8,0:0:0:0:
256,192,171293,1,8,0:0:0:0:
256,192,171399,1,0,0:0:0:0:
256,192,171610,1,8,0:0:0:0:
256,192,171822,1,0,0:0:0:0:
256,192,172033,1,8,0:0:0:0:
256,192,172138,1,8,0:0:0:0:
256,192,172244,1,0,0:0:0:0:
256,192,172350,1,8,0:0:0:0:
256,192,172455,1,0,0:0:0:0:
256,192,172561,1,0,0:0:0:0:
256,192,172667,1,8,0:0:0:0:
256,192,172878,1,0,0:0:0:0:
256,192,173089,1,8,0:0:0:0:
256,192,173195,1,8,0:0:0:0:
256,192,173300,1,0,0:0:0:0:
256,192,173406,1,0,0:0:0:0:
256,192,173512,1,8,0:0:0:0:
256,192,173617,1,0,0:0:0:0:
256,192,173723,1,8,0:0:0:0:
256,192,173829,1,8,0:0:0:0:
256,192,173934,1,0,0:0:0:0:
256,192,174146,1,8,0:0:0:0:
256,192,174357,1,0,0:0:0:0:
256,192,174568,1,8,0:0:0:0:
256,192,174674,1,8,0:0:0:0:
256,192,174779,1,0,0:0:0:0:
256,192,174991,1,8,0:0:0:0:
256,192,175202,1,0,0:0:0:0:
256,192,175307,1,0,0:0:0:0:
256,192,175413,1,8,0:0:0:0:
256,192,175624,1,0,0:0:0:0:
256,192,175730,1,0,0:0:0:0:
256,192,175836,1,8,0:0:0:0:
256,192,175941,1,8,0:0:0:0:
256,192,176047,1,0,0:0:0:0:
256,192,176258,1,8,0:0:0:0:
256,192,176469,1,0,0:0:0:0:
256,192,176575,1,8,0:0:0:0:
256,192,176681,1,0,0:0:0:0:
256,192,176786,1,0,0:0:0:0:
256,192,176892,1,8,0:0:0:0:
256,192,176998,1,0,0:0:0:0:
256,192,177103,1,8,0:0:0:0:
256,192,177209,1,8,0:0:0:0:
256,192,177315,1,0,0:0:0:0:
256,192,177526,1,8,0:0:0:0:
256,192,177737,1,0,0:0:0:0:
256,192,177948,1,8,0:0:0:0:
256,192,178054,1,8,0:0:0:0:
256,192,178160,1,0,0:0:0:0:
256,192,178371,1,8,0:0:0:0:
256,192,178582,1,0,0:0:0:0:
256,192,178688,1,0,0:0:0:0:
256,192,178793,1,8,0:0:0:0:
256,192,178899,1,8,0:0:0:0:
256,192,179005,1,0,0:0:0:0:
256,192,179216,1,8,0:0:0:0:
256,192,179322,1,8,0:0:0:0:
256,192,179427,1,0,0:0:0:0:
256,192,179638,1,8,0:0:0:0:
256,192,179850,1,0,0:0:0:0:
256,192,179955,1,8,0:0:0:0:
256,192,180061,1,0,0:0:0:0:
256,192,180167,1,0,0:0:0:0:
256,192,180272,1,8,0:0:0:0:
256,192,180378,1,0,0:0:0:0:
256,192,180484,1,8,0:0:0:0:
256,192,180589,1,8,0:0:0:0:
256,192,180695,1,0,0:0:0:0:
256,192,180906,1,8,0:0:0:0:
256,192,181117,1,0,0:0:0:0:
256,192,181329,1,8,0:0:0:0:
256,192,181434,1,0,0:0:0:0:
256,192,181540,1,8,0:0:0:0:
256,192,181751,1,0,0:0:0:0:
256,192,181962,1,8,0:0:0:0:
256,192,182174,1,0,0:0:0:0:
256,192,182279,1,0,0:0:0:0:
256,192,182385,1,8,0:0:0:0:
256,192,182491,1,8,0:0:0:0:
256,192,182596,1,0,0:0:0:0:
256,192,182702,1,0,0:0:0:0:
256,192,182807,1,8,0:0:0:0:
256,192,183019,1,0,0:0:0:0:
256,192,183124,1,8,0:0:0:0:
256,192,183230,1,0,0:0:0:0:
256,192,183336,1,0,0:0:0:0:
256,192,183441,1,8,0:0:0:0:
256,192,183547,1,8,0:0:0:0:
256,192,183653,1,0,0:0:0:0:
256,192,183758,1,8,0:0:0:0:
256,192,183864,1,0,0:0:0:0:
256,192,183969,1,0,0:0:0:0:
256,192,184075,1,8,0:0:0:0:
224,192,184498,1,8,0:0:0:0:
256,192,184709,1,8,0:0:0:0:
256,192,184920,1,4,0:0:0:0:
256,192,185131,1,8,0:0:0:0:
256,192,185343,1,0,0:0:0:0:
256,192,185448,1,0,0:0:0:0:
256,192,185554,1,8,0:0:0:0:
256,192,185660,1,8,0:0:0:0:
256,192,185765,1,0,0:0:0:0:
256,192,185976,1,8,0:0:0:0:
256,192,186188,1,0,0:0:0:0:
256,192,186399,1,8,0:0:0:0:
256,192,186610,1,4,0:0:0:0:
256,192,186822,1,8,0:0:0:0:
256,192,186927,1,8,0:0:0:0:
256,192,187033,1,0,0:0:0:0:
256,192,187138,1,0,0:0:0:0:
256,192,187244,1,8,0:0:0:0:
256,192,187350,1,8,0:0:0:0:
256,192,187455,1,0,0:0:0:0:
256,192,187667,1,8,0:0:0:0:
256,192,187878,1,0,0:0:0:0:
256,192,188089,1,8,0:0:0:0:
256,192,188300,1,4,0:0:0:0:
256,192,188512,1,8,0:0:0:0:
256,192,188617,1,8,0:0:0:0:
256,192,188723,1,0,0:0:0:0:
256,192,188934,1,8,0:0:0:0:
256,192,189146,1,4,0:0:0:0:
256,192,189357,1,8,0:0:0:0:
256,192,189462,1,8,0:0:0:0:
256,192,189568,1,0,0:0:0:0:
256,192,189674,1,0,0:0:0:0:
256,192,189779,1,8,0:0:0:0:
256,192,189991,1,4,0:0:0:0:
256,192,190202,1,8,0:0:0:0:
256,192,190413,1,4,0:0:0:0:
256,192,190624,1,8,0:0:0:0:
256,192,190836,1,4,0:0:0:0:
256,192,191047,1,8,0:0:0:0:
256,192,191153,1,0,0:0:0:0:
256,192,191258,1,0,0:0:0:0:
256,192,191364,1,0,0:0:0:0:
256,192,191469,1,8,0:0:0:0:
256,192,191681,1,4,0:0:0:0:
256,192,191892,1,8,0:0:0:0:
256,192,191998,1,8,0:0:0:0:
256,192,192103,1,0,0:0:0:0:
256,192,192315,1,8,0:0:0:0:
256,192,192526,1,0,0:0:0:0:
256,192,192631,1,0,0:0:0:0:
256,192,192737,1,8,0:0:0:0:
256,192,192843,1,0,0:0:0:0:
256,192,192948,1,0,0:0:0:0:
256,192,193160,1,8,0:0:0:0:
256,192,193371,1,4,0:0:0:0:
256,192,193582,1,8,0:0:0:0:
256,192,193688,1,8,0:0:0:0:
256,192,193793,1,0,0:0:0:0:
256,192,194005,1,8,0:0:0:0:
256,192,194216,1,0,0:0:0:0:
256,192,194322,1,8,0:0:0:0:
256,192,194427,1,0,0:0:0:0:
256,192,194533,1,8,0:0:0:0:
256,192,194638,1,0,0:0:0:0:
256,192,194850,1,8,0:0:0:0:
256,192,195061,1,4,0:0:0:0:
256,192,195272,1,8,0:0:0:0:
256,192,195378,1,8,0:0:0:0:
256,192,195484,1,0,0:0:0:0:
256,192,195695,1,8,0:0:0:0:
256,192,195906,1,4,0:0:0:0:
256,192,196117,1,8,0:0:0:0:
256,192,196223,1,8,0:0:0:0:
256,192,196329,1,0,0:0:0:0:
256,192,196434,1,0,0:0:0:0:
256,192,196540,1,8,0:0:0:0:
256,192,196751,1,4,0:0:0:0:
256,192,196962,1,8,0:0:0:0:
256,192,197174,1,4,0:0:0:0:
256,192,197385,1,8,0:0:0:0:
256,192,197596,1,4,0:0:0:0:
256,192,197807,1,0,0:0:0:0:
256,192,197913,1,0,0:0:0:0:
256,192,198019,1,0,0:0:0:0:
256,192,198230,1,8,0:0:0:0:
256,192,198441,12,8,204779,0:0:0:0:
256,192,205202,5,0,0:0:0:0:
256,192,205413,1,8,0:0:0:0:
256,192,205519,1,8,0:0:0:0:
256,192,205624,1,0,0:0:0:0:
256,192,205836,1,8,0:0:0:0:
256,192,206047,1,0,0:0:0:0:
256,192,206153,1,8,0:0:0:0:
256,192,206364,1,8,0:0:0:0:
256,192,206469,1,0,0:0:0:0:
256,192,206681,1,8,0:0:0:0:
256,192,206892,1,0,0:0:0:0:
256,192,206998,1,0,0:0:0:0:
256,192,207103,1,8,0:0:0:0:
256,192,207209,1,8,0:0:0:0:
256,192,207315,1,0,0:0:0:0:
256,192,207526,1,8,0:0:0:0:
256,192,207737,1,0,0:0:0:0:
256,192,207843,1,8,0:0:0:0:
256,192,208054,1,0,0:0:0:0:
256,192,208160,1,8,0:0:0:0:
256,192,208371,1,0,0:0:0:0:
256,192,208582,1,8,0:0:0:0:
256,192,208793,1,0,0:0:0:0:
256,192,208899,1,8,0:0:0:0:
256,192,209005,1,0,0:0:0:0:
256,192,209216,1,8,0:0:0:0:
256,192,209427,1,0,0:0:0:0:
256,192,209533,1,8,0:0:0:0:
256,192,209744,1,8,0:0:0:0:
256,192,209850,1,0,0:0:0:0:
256,192,210061,1,8,0:0:0:0:
256,192,210272,1,0,0:0:0:0:
256,192,210378,1,8,0:0:0:0:
256,192,210484,1,8,0:0:0:0:
256,192,210589,1,8,0:0:0:0:
256,192,210695,1,0,0:0:0:0:
256,192,210906,1,8,0:0:0:0:
256,192,211117,1,0,0:0:0:0:
256,192,211223,1,8,0:0:0:0:
256,192,211434,1,0,0:0:0:0:
256,192,211540,1,8,0:0:0:0:
256,192,211751,1,8,0:0:0:0:
256,192,211962,1,0,0:0:0:0:
256,192,212174,1,0,0:0:0:0:
256,192,212279,1,0,0:0:0:0:
256,192,212385,1,8,0:0:0:0:
256,192,212596,1,0,0:0:0:0:
256,192,212807,1,8,0:0:0:0:
256,192,212913,1,0,0:0:0:0:
256,192,213124,1,0,0:0:0:0:
256,192,213230,1,8,0:0:0:0:
256,192,213441,1,0,0:0:0:0:
256,192,213653,1,8,0:0:0:0:
256,192,213758,1,8,0:0:0:0:
256,192,213864,1,0,0:0:0:0:
256,192,213969,1,0,0:0:0:0:
256,192,214075,1,8,0:0:0:0:
256,192,214286,1,0,0:0:0:0:
256,192,214498,1,8,0:0:0:0:
256,192,214603,1,0,0:0:0:0:
256,192,214815,1,0,0:0:0:0:
256,192,214920,1,8,0:0:0:0:
256,192,215131,1,0,0:0:0:0:
256,192,215343,1,8,0:0:0:0:
256,192,215554,1,0,0:0:0:0:
256,192,215660,1,8,0:0:0:0:
256,192,215765,1,8,0:0:0:0:
256,192,215976,1,0,0:0:0:0:
256,192,216188,1,8,0:0:0:0:
256,192,216293,1,0,0:0:0:0:
256,192,216505,1,0,0:0:0:0:
256,192,216610,1,8,0:0:0:0:
256,192,216822,1,0,0:0:0:0:
256,192,217033,1,8,0:0:0:0:
256,192,217138,1,0,0:0:0:0:
256,192,217244,1,8,0:0:0:0:
256,192,217350,1,8,0:0:0:0:
256,192,217455,1,0,0:0:0:0:
256,192,217667,1,8,0:0:0:0:
256,192,217878,1,0,0:0:0:0:
256,192,217984,1,0,0:0:0:0:
256,192,218089,1,8,0:0:0:0:
256,192,218195,1,0,0:0:0:0:
256,192,218300,1,8,0:0:0:0:
256,192,218406,1,8,0:0:0:0:
256,192,218512,1,8,0:0:0:0:
256,192,218723,1,0,0:0:0:0:
256,192,218934,1,8,0:0:0:0:
256,192,219040,1,8,0:0:0:0:
256,192,219146,1,0,0:0:0:0:
256,192,219357,1,8,0:0:0:0:
256,192,219568,1,0,0:0:0:0:
256,192,219674,1,8,0:0:0:0:
256,192,219885,1,8,0:0:0:0:
256,192,219991,1,0,0:0:0:0:
256,192,220202,1,8,0:0:0:0:
256,192,220413,1,0,0:0:0:0:
256,192,220519,1,8,0:0:0:0:
256,192,220624,1,0,0:0:0:0:
256,192,220730,1,0,0:0:0:0:
256,192,220836,1,8,0:0:0:0:
256,192,221047,1,0,0:0:0:0:
256,192,221258,1,8,0:0:0:0:
256,192,221364,1,0,0:0:0:0:
256,192,221575,1,0,0:0:0:0:
256,192,221681,1,8,0:0:0:0:
256,192,221892,1,0,0:0:0:0:
256,192,222103,1,8,0:0:0:0:
256,192,222315,1,0,0:0:0:0:
256,192,222420,1,0,0:0:0:0:
256,192,222526,1,8,0:0:0:0:
256,192,222737,1,0,0:0:0:0:
256,192,222948,1,8,0:0:0:0:
256,192,223054,1,8,0:0:0:0:
256,192,223160,1,0,0:0:0:0:
256,192,223265,1,0,0:0:0:0:
256,192,223371,1,8,0:0:0:0:
256,192,223582,1,0,0:0:0:0:
256,192,223793,1,8,0:0:0:0:
256,192,223899,1,0,0:0:0:0:
256,192,224110,1,0,0:0:0:0:
256,192,224216,1,8,0:0:0:0:
256,192,224427,1,0,0:0:0:0:
256,192,224638,1,8,0:0:0:0:
256,192,224744,1,8,0:0:0:0:
256,192,224850,1,0,0:0:0:0:
256,192,224955,1,8,0:0:0:0:
256,192,225061,1,0,0:0:0:0:
256,192,225272,1,8,0:0:0:0:
256,192,225484,1,0,0:0:0:0:
256,192,225695,1,8,0:0:0:0:
256,192,225800,1,8,0:0:0:0:
256,192,225906,1,0,0:0:0:0:
256,192,226117,1,8,0:0:0:0:
256,192,226329,1,0,0:0:0:0:
256,192,226434,1,8,0:0:0:0:
256,192,226646,1,8,0:0:0:0:
256,192,226751,1,0,0:0:0:0:
256,192,226962,1,8,0:0:0:0:
256,192,227174,1,0,0:0:0:0:
256,192,227279,1,8,0:0:0:0:
256,192,227385,1,0,0:0:0:0:
256,192,227491,1,0,0:0:0:0:
256,192,227596,1,8,0:0:0:0:
256,192,227702,1,8,0:0:0:0:
256,192,227807,1,0,0:0:0:0:
256,192,228019,1,8,0:0:0:0:
256,192,228124,1,0,0:0:0:0:
256,192,228336,1,0,0:0:0:0:
256,192,228441,1,8,0:0:0:0:
256,192,228653,1,0,0:0:0:0:
256,192,228864,1,8,0:0:0:0:
256,192,229075,1,0,0:0:0:0:
256,192,229181,1,0,0:0:0:0:
256,192,229286,1,8,0:0:0:0:
256,192,229392,1,0,0:0:0:0:
256,192,229498,1,8,0:0:0:0:
256,192,229603,1,8,0:0:0:0:
256,192,229709,1,0,0:0:0:0:
256,192,229920,1,8,0:0:0:0:
256,192,230026,1,0,0:0:0:0:
256,192,230237,1,0,0:0:0:0:
256,192,230343,1,8,0:0:0:0:
256,192,230554,1,0,0:0:0:0:
256,192,230660,1,8,0:0:0:0:
256,192,230765,1,0,0:0:0:0:
256,192,230871,1,8,0:0:0:0:
256,192,230976,1,0,0:0:0:0:
256,192,231082,1,0,0:0:0:0:
256,192,231188,1,8,0:0:0:0:
256,192,231293,1,8,0:0:0:0:
256,192,231399,1,0,0:0:0:0:
256,192,231610,1,8,0:0:0:0:
256,192,231822,1,0,0:0:0:0:
256,192,232033,1,0,0:0:0:0:
256,192,232244,1,8,0:0:0:0:
256,192,233723,12,0,240695,0:0:0:0:
256,192,242385,5,0,0:0:0:0:
256,192,242657,1,8,0:0:0:0:
256,192,242794,1,0,0:0:0:0:
256,192,242930,1,8,0:0:0:0:
256,192,243066,1,0,0:0:0:0:
256,192,243203,1,8,0:0:0:0:
256,192,243475,1,0,0:0:0:0:
256,192,243748,1,8,0:0:0:0:
256,192,244021,1,8,0:0:0:0:
256,192,244566,1,0,0:0:0:0:
256,192,244703,1,8,0:0:0:0:
256,192,244839,1,0,0:0:0:0:
256,192,244975,1,0,0:0:0:0:
256,192,245112,1,8,0:0:0:0:
256,192,245385,1,8,0:0:0:0:
256,192,245657,1,0,0:0:0:0:
256,192,245930,1,8,0:0:0:0:
256,192,246203,1,8,0:0:0:0:
256,192,246748,1,0,0:0:0:0:
256,192,246885,1,0,0:0:0:0:
256,192,247021,1,8,0:0:0:0:
256,192,247157,1,0,0:0:0:0:
256,192,247294,1,8,0:0:0:0:
256,192,247566,1,0,0:0:0:0:
256,192,247703,1,0,0:0:0:0:
256,192,247839,1,8,0:0:0:0:
256,192,248112,1,8,0:0:0:0:
256,192,248385,1,8,0:0:0:0:
256,192,248930,1,0,0:0:0:0:
256,192,249203,1,8,0:0:0:0:
256,192,249339,1,8,0:0:0:0:
256,192,249475,1,0,0:0:0:0:
256,192,249612,1,0,0:0:0:0:
256,192,249748,1,8,0:0:0:0:
256,192,250021,12,0,251112,0:0:0:0:
256,192,251657,5,0,0:0:0:0:
256,192,252203,1,8,0:0:0:0:
256,192,252748,1,8,0:0:0:0:
256,192,253294,1,0,0:0:0:0:
256,192,253566,1,8,0:0:0:0:
256,192,253703,1,0,0:0:0:0:
256,192,253839,1,8,0:0:0:0:
256,192,253975,1,0,0:0:0:0:
256,192,254112,1,8,0:0:0:0:
256,192,254248,1,8,0:0:0:0:
256,192,254385,1,0,0:0:0:0:
256,192,254657,1,8,0:0:0:0:
256,192,254930,1,8,0:0:0:0:
256,192,255475,1,0,0:0:0:0:
256,192,255748,1,8,0:0:0:0:
256,192,255885,1,0,0:0:0:0:
256,192,256021,1,8,0:0:0:0:
256,192,256157,1,8,0:0:0:0:
256,192,256294,5,0,0:0:0:0:
256,192,256430,1,0,0:0:0:0:
256,192,256566,1,8,0:0:0:0:
256,192,256839,1,0,0:0:0:0:
256,192,257112,1,8,0:0:0:0:
256,192,257657,1,0,0:0:0:0:
256,192,257930,1,8,0:0:0:0:
256,192,258066,1,0,0:0:0:0:
256,192,258339,1,0,0:0:0:0:
256,192,258475,1,8,0:0:0:0:
256,192,258612,1,8,0:0:0:0:
256,192,258748,1,0,0:0:0:0:
256,192,259021,1,8,0:0:0:0:
256,192,259294,1,8,0:0:0:0:
256,192,259566,1,0,0:0:0:0:
256,192,259839,12,8,265294,0:0:0:0:
256,192,268566,5,2,0:0:0:0:
256,192,268988,1,2,0:0:0:0:
256,192,269411,1,0,0:0:0:0:
256,192,269727,1,8,0:0:0:0:
256,192,269833,1,0,0:0:0:0:
256,192,270044,1,8,0:0:0:0:
256,192,270256,1,4,0:0:0:0:
256,192,270467,1,8,0:0:0:0:
256,192,270573,1,8,0:0:0:0:
256,192,270678,1,0,0:0:0:0:
256,192,270889,1,8,0:0:0:0:
256,192,271101,1,0,0:0:0:0:
256,192,271206,1,8,0:0:0:0:
256,192,271312,1,0,0:0:0:0:
256,192,271418,1,0,0:0:0:0:
256,192,271523,1,8,0:0:0:0:
256,192,271629,1,0,0:0:0:0:
256,192,271735,1,8,0:0:0:0:
256,192,271946,1,4,0:0:0:0:
256,192,272157,1,8,0:0:0:0:
256,192,272263,1,8,0:0:0:0:
256,192,272368,1,0,0:0:0:0:
256,192,272474,1,0,0:0:0:0:
256,192,272580,1,8,0:0:0:0:
256,192,272685,1,0,0:0:0:0:
256,192,272791,1,8,0:0:0:0:
256,192,273002,1,0,0:0:0:0:
256,192,273213,1,8,0:0:0:0:
256,192,273319,1,8,0:0:0:0:
256,192,273425,1,8,0:0:0:0:
256,192,273636,1,4,0:0:0:0:
256,192,273847,1,8,0:0:0:0:
256,192,273953,1,8,0:0:0:0:
256,192,274058,1,0,0:0:0:0:
256,192,274164,1,0,0:0:0:0:
256,192,274270,1,8,0:0:0:0:
256,192,274481,1,4,0:0:0:0:
256,192,274692,1,8,0:0:0:0:
256,192,274798,1,0,0:0:0:0:
256,192,274904,1,8,0:0:0:0:
256,192,275009,1,0,0:0:0:0:
256,192,275115,1,8,0:0:0:0:
256,192,275326,1,4,0:0:0:0:
256,192,275537,1,8,0:0:0:0:
256,192,275749,1,4,0:0:0:0:
256,192,275960,1,8,0:0:0:0:
256,192,276171,1,4,0:0:0:0:
256,192,276382,1,8,0:0:0:0:
256,192,276488,1,8,0:0:0:0:
256,192,276594,1,0,0:0:0:0:
256,192,276699,1,8,0:0:0:0:
256,192,276805,1,0,0:0:0:0:
256,192,276911,1,0,0:0:0:0:
256,192,277016,1,8,0:0:0:0:
256,192,277227,1,0,0:0:0:0:
256,192,277439,1,8,0:0:0:0:
256,192,277544,1,0,0:0:0:0:
256,192,277650,1,8,0:0:0:0:
256,192,277756,1,8,0:0:0:0:
256,192,277861,1,0,0:0:0:0:
256,192,278073,1,8,0:0:0:0:
256,192,278284,1,0,0:0:0:0:
256,192,278389,1,0,0:0:0:0:
256,192,278495,1,8,0:0:0:0:
256,192,278706,1,4,0:0:0:0:
256,192,278918,1,8,0:0:0:0:
256,192,279023,1,0,0:0:0:0:
256,192,279129,1,0,0:0:0:0:
256,192,279235,1,8,0:0:0:0:
256,192,279340,1,0,0:0:0:0:
256,192,279446,1,0,0:0:0:0:
256,192,279551,1,8,0:0:0:0:
256,192,279763,1,0,0:0:0:0:
256,192,279974,1,8,0:0:0:0:
256,192,280080,1,8,0:0:0:0:
256,192,280185,1,8,0:0:0:0:
256,192,280396,1,4,0:0:0:0:
256,192,280608,1,8,0:0:0:0:
256,192,280713,1,8,0:0:0:0:
256,192,280819,1,0,0:0:0:0:
256,192,280925,1,8,0:0:0:0:
256,192,281030,1,8,0:0:0:0:
256,192,281242,1,4,0:0:0:0:
256,192,281453,1,8,0:0:0:0:
256,192,281558,1,8,0:0:0:0:
256,192,281664,1,0,0:0:0:0:
256,192,281770,1,0,0:0:0:0:
256,192,281875,1,8,0:0:0:0:
256,192,282087,1,4,0:0:0:0:
256,192,282298,1,8,0:0:0:0:
256,192,282509,1,4,0:0:0:0:
256,192,282720,1,8,0:0:0:0:
256,192,282932,1,4,0:0:0:0:
256,192,283143,1,8,0:0:0:0:
256,192,283249,1,8,0:0:0:0:
256,192,283354,1,0,0:0:0:0:
256,192,283460,1,8,0:0:0:0:
256,192,283566,1,8,0:0:0:0:
256,192,283671,1,0,0:0:0:0:
256,192,283777,1,8,0:0:0:0:
256,192,283988,1,0,0:0:0:0:
256,192,284199,1,8,0:0:0:0:
256,192,284305,1,0,0:0:0:0:
256,192,284411,1,8,0:0:0:0:
256,192,284516,1,8,0:0:0:0:
256,192,284622,1,0,0:0:0:0:
256,192,284833,1,8,0:0:0:0:
256,192,285044,1,0,0:0:0:0:
256,192,285150,1,0,0:0:0:0:
256,192,285256,1,8,0:0:0:0:
256,192,285467,1,4,0:0:0:0:
256,192,285678,1,8,0:0:0:0:
256,192,285784,1,8,0:0:0:0:
256,192,285889,1,0,0:0:0:0:
256,192,285995,1,8,0:0:0:0:
256,192,286101,1,0,0:0:0:0:
256,192,286206,1,0,0:0:0:0:
256,192,286312,1,8,0:0:0:0:
256,192,286418,1,8,0:0:0:0:
256,192,286523,1,0,0:0:0:0:
256,192,286629,1,0,0:0:0:0:
256,192,286735,1,8,0:0:0:0:
256,192,286946,1,8,0:0:0:0:
256,192,287157,1,4,0:0:0:0:
256,192,287368,1,8,0:0:0:0:
256,192,287474,1,8,0:0:0:0:
256,192,287580,1,0,0:0:0:0:
256,192,287685,1,0,0:0:0:0:
256,192,287791,1,8,0:0:0:0:
256,192,288002,1,4,0:0:0:0:
256,192,288213,1,8,0:0:0:0:
256,192,288319,1,8,0:0:0:0:
256,192,288425,1,0,0:0:0:0:
256,192,288530,1,8,0:0:0:0:
256,192,288636,1,8,0:0:0:0:
256,192,288847,1,4,0:0:0:0:
256,192,289058,1,8,0:0:0:0:
256,192,289270,1,4,0:0:0:0:
256,192,289481,1,8,0:0:0:0:
256,192,289692,1,4,0:0:0:0:
256,192,289904,1,8,0:0:0:0:
256,192,290009,1,0,0:0:0:0:
256,192,290115,1,8,0:0:0:0:
256,192,290220,1,8,0:0:0:0:
256,192,290326,1,0,0:0:0:0:
256,192,290432,1,8,0:0:0:0:
256,192,290537,1,0,0:0:0:0:
256,192,290749,1,8,0:0:0:0:
256,192,290854,1,0,0:0:0:0:
256,192,290960,1,8,0:0:0:0:
256,192,291066,1,8,0:0:0:0:
256,192,291171,1,0,0:0:0:0:
256,192,291277,1,0,0:0:0:0:
256,192,291382,1,8,0:0:0:0:
256,192,291594,1,0,0:0:0:0:
256,192,291699,1,0,0:0:0:0:
256,192,291805,1,8,0:0:0:0:
256,192,292016,1,8,0:0:0:0:
256,192,292227,1,4,0:0:0:0:
256,192,292439,1,8,0:0:0:0:
256,192,292544,1,8,0:0:0:0:
256,192,292650,1,0,0:0:0:0:
256,192,292756,1,0,0:0:0:0:
256,192,292861,1,8,0:0:0:0:
256,192,292967,1,0,0:0:0:0:
256,192,293073,1,8,0:0:0:0:
256,192,293178,1,8,0:0:0:0:
256,192,293284,1,0,0:0:0:0:
256,192,293495,1,8,0:0:0:0:
256,192,293706,1,8,0:0:0:0:
256,192,293918,1,4,0:0:0:0:
256,192,294129,1,8,0:0:0:0:
256,192,294235,1,8,0:0:0:0:
256,192,294340,1,8,0:0:0:0:
256,192,294446,1,0,0:0:0:0:
256,192,294551,1,8,0:0:0:0:
256,192,294763,1,4,0:0:0:0:
256,192,294974,1,8,0:0:0:0:
256,192,295080,1,0,0:0:0:0:
256,192,295185,1,8,0:0:0:0:
256,192,295291,1,8,0:0:0:0:
256,192,295396,1,8,0:0:0:0:
256,192,295608,1,4,0:0:0:0:
256,192,295819,1,8,0:0:0:0:
256,192,295925,1,0,0:0:0:0:
256,192,296030,1,0,0:0:0:0:
256,192,296136,1,0,0:0:0:0:
256,192,296242,1,8,0:0:0:0:
256,192,296453,1,4,0:0:0:0:
256,192,296664,1,8,0:0:0:0:
256,192,296770,1,8,0:0:0:0:
256,192,296875,1,0,0:0:0:0:
256,192,296981,1,0,0:0:0:0:
256,192,297087,1,8,0:0:0:0:
256,192,297298,1,4,0:0:0:0:
256,192,297509,1,8,0:0:0:0:
256,192,297615,1,8,0:0:0:0:
256,192,297720,1,0,0:0:0:0:
256,192,297826,1,8,0:0:0:0:
256,192,297932,1,0,0:0:0:0:
256,192,298037,1,0,0:0:0:0:
256,192,298143,1,8,0:0:0:0:
256,192,298249,1,8,0:0:0:0:
256,192,298354,1,0,0:0:0:0:
256,192,298460,1,0,0:0:0:0:
256,192,298566,1,8,0:0:0:0:
256,192,298671,1,0,0:0:0:0:
256,192,298777,1,8,0:0:0:0:
256,192,298988,1,4,0:0:0:0:
256,192,299199,1,8,0:0:0:0:
256,192,299305,1,0,0:0:0:0:
256,192,299411,1,8,0:0:0:0:
256,192,299516,1,8,0:0:0:0:
256,192,299622,1,0,0:0:0:0:
256,192,299727,1,0,0:0:0:0:
256,192,299833,1,8,0:0:0:0:
256,192,299939,1,0,0:0:0:0:
256,192,300044,1,8,0:0:0:0:
256,192,300150,1,8,0:0:0:0:
256,192,300256,1,0,0:0:0:0:
256,192,300361,1,0,0:0:0:0:
256,192,300467,1,8,0:0:0:0:
256,192,300678,1,4,0:0:0:0:
256,192,300889,1,8,0:0:0:0:
256,192,300995,1,0,0:0:0:0:
256,192,301101,1,0,0:0:0:0:
256,192,301206,1,0,0:0:0:0:
256,192,301312,1,8,0:0:0:0:
256,192,301523,1,4,0:0:0:0:
256,192,301735,1,8,0:0:0:0:
256,192,301840,1,0,0:0:0:0:
256,192,301946,1,8,0:0:0:0:
256,192,302051,1,0,0:0:0:0:
256,192,302157,1,8,0:0:0:0:
256,192,302368,1,4,0:0:0:0:
256,192,302580,1,8,0:0:0:0:
256,192,302791,1,4,0:0:0:0:
256,192,303002,1,8,0:0:0:0:
256,192,303213,1,4,0:0:0:0:
256,192,303425,1,8,0:0:0:0:
256,192,303530,1,0,0:0:0:0:
256,192,303636,1,8,0:0:0:0:
256,192,303742,1,0,0:0:0:0:
256,192,303847,1,8,0:0:0:0:
256,192,304058,1,4,0:0:0:0:
256,192,304270,1,8,0:0:0:0:
256,192,304375,1,0,0:0:0:0:
256,192,304481,1,8,0:0:0:0:
256,192,304587,1,0,0:0:0:0:
256,192,304692,1,8,0:0:0:0:
256,192,304798,1,8,0:0:0:0:
256,192,304904,1,0,0:0:0:0:
256,192,305009,1,0,0:0:0:0:
256,192,305115,1,8,0:0:0:0:
256,192,305220,1,8,0:0:0:0:
256,192,305326,1,0,0:0:0:0:
256,192,305432,1,0,0:0:0:0:
256,192,305537,1,8,0:0:0:0:
256,192,305749,1,4,0:0:0:0:
256,192,305960,1,8,0:0:0:0:
256,192,306066,1,0,0:0:0:0:
256,192,306171,1,8,0:0:0:0:
256,192,306277,1,8,0:0:0:0:
256,192,306382,1,0,0:0:0:0:
256,192,306488,1,8,0:0:0:0:
256,192,306594,1,0,0:0:0:0:
256,192,306699,1,0,0:0:0:0:
256,192,306805,1,8,0:0:0:0:
256,192,306911,1,0,0:0:0:0:
256,192,307016,1,8,0:0:0:0:
256,192,307122,1,0,0:0:0:0:
256,192,307227,1,8,0:0:0:0:
256,192,307439,1,4,0:0:0:0:
256,192,307650,1,8,0:0:0:0:
256,192,307756,1,8,0:0:0:0:
256,192,307861,1,0,0:0:0:0:
256,192,307967,1,0,0:0:0:0:
256,192,308073,1,8,0:0:0:0:
256,192,308284,1,4,0:0:0:0:
256,192,308495,1,8,0:0:0:0:
256,192,308601,1,8,0:0:0:0:
256,192,308706,1,0,0:0:0:0:
256,192,308812,1,0,0:0:0:0:
256,192,308918,1,8,0:0:0:0:
256,192,309129,1,8,0:0:0:0:
256,192,309235,1,8,0:0:0:0:
256,192,309340,1,0,0:0:0:0:
256,192,309446,1,8,0:0:0:0:
256,192,309551,1,0,0:0:0:0:
256,192,309763,1,0,0:0:0:0:
256,192,309974,1,12,0:0:0:0:
