osu file format v14

[General]
AudioFilename: audio.mp3
AudioLeadIn: 0
PreviewTime: 143928
Countdown: 0
SampleSet: Soft
StackLeniency: 0.7
Mode: 3
LetterboxInBreaks: 0
SpecialStyle: 0
WidescreenStoryboard: 0

[Editor]
DistanceSpacing: 1.3
BeatDivisor: 4
GridSize: 8
TimelineZoom: 1.8

[Metadata]
Title:Nobore! Susume! Takai Tou
TitleUnicode:のぼれ! すすめ! 高い塔
Artist:KikuoHana
ArtistUnicode:きくおはな (きくおと花たん)
Creator:Purrinya
Version:Nobore! Nobore! Nobore!
Source:
Tags:
BeatmapID:2178289
BeatmapSetID:1042281

[Difficulty]
HPDrainRate:8
CircleSize:7
OverallDifficulty:8
ApproachRate:5
SliderMultiplier:1.4
SliderTickRate:1

[Events]
//Background and Video events
0,0,"chrome_3bNn3PPQgt.jpg",0,0
//Break Periods
//Storyboard Layer 0 (Background)
//Storyboard Layer 1 (Fail)
//Storyboard Layer 2 (Pass)
//Storyboard Layer 3 (Foreground)
//Storyboard Layer 4 (Overlay)
//Storyboard Sound Samples

[TimingPoints]
420,545.454545454546,4,2,1,30,1,0
420,-90.9090909090909,4,2,1,30,0,0
9140,422.535211267606,4,2,1,30,1,0
242362,545.454545454546,4,2,1,30,1,8
242364,545.454545454546,4,2,1,30,1,0
260364,410.958904109589,4,2,1,30,1,8
260569,476.190476190476,4,2,1,30,1,8
260807,340.909090909091,4,2,1,30,1,8
260977,410.958904109589,4,2,1,30,1,8
261182,340.909090909091,4,2,1,30,1,8
261352,410.958904109589,4,2,1,30,1,8
261557,340.909090909091,4,2,1,30,1,8
261727,410.958904109589,4,2,1,30,1,8
261932,451.127819548872,4,2,1,30,1,0
262157,422.535211267606,4,2,1,30,1,8
262368,405.405405405405,4,2,1,30,1,8
262570,483.870967741935,4,2,1,30,1,8
262811,545.454545454546,4,2,1,30,1,8
263083,576.923076923077,4,2,1,30,1,8
265390,576.923076923077,4,2,1,30,1,8
266364,545.454545454546,4,2,1,30,1,0
268543,422.535211267606,4,2,1,30,1,0

[HitObjects]
475,192,420,128,0,692:0:0:0:0:
36,192,420,128,0,692:0:0:0:0:
109,192,692,128,0,829:0:0:0:0:
402,192,692,128,0,829:0:0:0:0:
109,192,965,128,0,1101:0:0:0:0:
402,192,965,128,0,1101:0:0:0:0:
182,192,1238,128,0,1510:0:0:0:0:
329,192,1510,128,0,1783:0:0:0:0:
256,192,1783,128,0,1920:0:0:0:0:
36,192,1783,128,0,1920:0:0:0:0:
36,192,2056,128,0,2192:0:0:0:0:
182,192,2056,128,0,2192:0:0:0:0:
256,192,2329,128,0,2420:0:0:0:0:
329,192,2420,128,0,2510:0:0:0:0:
402,192,2510,128,0,2601:0:0:0:0:
475,192,2601,128,0,2874:0:0:0:0:
402,192,2874,128,0,3010:0:0:0:0:
182,192,2874,128,0,3010:0:0:0:0:
256,192,3147,128,0,3420:0:0:0:0:
329,192,3420,128,0,3556:0:0:0:0:
109,192,3420,128,0,3556:0:0:0:0:
182,192,3692,128,0,3965:0:0:0:0:
36,192,3965,128,0,4101:0:0:0:0:
256,192,3965,128,0,4101:0:0:0:0:
256,192,4238,128,0,4374:0:0:0:0:
475,192,4238,128,0,4374:0:0:0:0:
402,192,4510,128,0,4647:0:0:0:0:
329,192,4647,128,0,4783:0:0:0:0:
256,192,4783,128,0,5056:0:0:0:0:
36,192,5056,128,0,5192:0:0:0:0:
329,192,5056,128,0,5192:0:0:0:0:
109,192,5329,128,0,5465:0:0:0:0:
402,192,5329,128,0,5465:0:0:0:0:
182,192,5601,128,0,5738:0:0:0:0:
36,192,5738,128,0,5806:0:0:0:0:
109,192,5806,128,0,5874:0:0:0:0:
182,192,5874,128,0,6147:0:0:0:0:
256,192,6147,128,0,6283:0:0:0:0:
475,192,6147,128,0,6283:0:0:0:0:
402,192,6420,128,0,6556:0:0:0:0:
182,192,6420,128,0,6556:0:0:0:0:
329,192,6692,128,0,6783:0:0:0:0:
256,192,6783,128,0,6874:0:0:0:0:
182,192,6874,128,0,6965:0:0:0:0:
109,192,6965,128,0,7238:0:0:0:0:
36,192,7238,128,0,7374:0:0:0:0:
402,192,7238,128,0,7374:0:0:0:0:
329,192,7510,128,0,7783:0:0:0:0:
475,192,7783,128,0,7920:0:0:0:0:
109,192,7783,128,0,7920:0:0:0:0:
256,192,8056,128,0,8329:0:0:0:0:
402,192,8329,128,0,8465:0:0:0:0:
182,192,8329,128,0,8465:0:0:0:0:
109,192,8533,128,0,8601:0:0:0:0:
475,192,8601,128,0,9140:0:0:0:0:
36,192,8601,128,0,9140:0:0:0:0:
109,192,9140,128,0,9245:0:0:0:0:
329,192,9140,128,0,9245:0:0:0:0:
182,192,9351,128,0,9456:0:0:0:0:
402,192,9351,128,0,9456:0:0:0:0:
36,192,9562,128,0,9668:0:0:0:0:
329,192,9562,128,0,9668:0:0:0:0:
182,192,9773,128,0,9879:0:0:0:0:
475,192,9773,128,0,9879:0:0:0:0:
402,192,9985,128,0,10090:0:0:0:0:
256,192,9985,128,0,10090:0:0:0:0:
329,192,10196,128,0,10301:0:0:0:0:
182,192,10196,128,0,10301:0:0:0:0:
256,192,10407,128,0,10513:0:0:0:0:
475,192,10407,128,0,10513:0:0:0:0:
329,192,10618,128,0,10724:0:0:0:0:
36,192,10618,128,0,10724:0:0:0:0:
109,192,10830,128,0,10935:0:0:0:0:
402,192,10830,128,0,10935:0:0:0:0:
256,192,11041,128,0,11147:0:0:0:0:
475,192,11041,128,0,11147:0:0:0:0:
109,192,11358,128,0,11463:0:0:0:0:
329,192,11358,128,0,11463:0:0:0:0:
182,192,11463,128,0,11569:0:0:0:0:
402,192,11463,128,0,11569:0:0:0:0:
475,192,11675,128,0,11780:0:0:0:0:
36,192,11675,128,0,11780:0:0:0:0:
182,192,11886,128,0,11992:0:0:0:0:
329,192,11886,128,0,11992:0:0:0:0:
109,192,11992,128,0,12203:0:0:0:0:
402,192,11992,128,0,12203:0:0:0:0:
256,192,12309,128,0,12414:0:0:0:0:
475,192,12309,128,0,12414:0:0:0:0:
402,192,12520,128,0,12625:0:0:0:0:
182,192,12520,128,0,12625:0:0:0:0:
36,192,12731,128,0,12837:0:0:0:0:
256,192,12731,128,0,12837:0:0:0:0:
109,192,12942,128,0,13048:0:0:0:0:
329,192,12942,128,0,13048:0:0:0:0:
256,192,13154,128,0,13259:0:0:0:0:
402,192,13154,128,0,13259:0:0:0:0:
182,192,13365,128,0,13470:0:0:0:0:
475,192,13365,128,0,13470:0:0:0:0:
109,192,13576,128,0,13682:0:0:0:0:
36,192,13576,128,0,13682:0:0:0:0:
402,192,13576,128,0,13682:0:0:0:0:
182,192,13787,128,0,13893:0:0:0:0:
475,192,13787,128,0,13893:0:0:0:0:
109,192,13999,128,0,14104:0:0:0:0:
36,192,13999,128,0,14104:0:0:0:0:
402,192,13999,128,0,14104:0:0:0:0:
329,192,14210,128,0,14632:0:0:0:0:
36,192,14210,128,0,14527:0:0:0:0:
109,192,14210,128,0,14527:0:0:0:0:
182,192,14632,128,0,14949:0:0:0:0:
109,192,14632,128,0,14949:0:0:0:0:
402,192,14632,128,0,15055:0:0:0:0:
182,192,15055,128,0,15266:0:0:0:0:
256,192,15055,128,0,15266:0:0:0:0:
475,192,15055,128,0,15372:0:0:0:0:
256,192,15372,128,0,15689:0:0:0:0:
329,192,15372,128,0,15689:0:0:0:0:
36,192,15372,128,0,15689:0:0:0:0:
109,192,15900,128,0,16111:0:0:0:0:
182,192,15900,128,0,16111:0:0:0:0:
256,192,16111,1,0,0:0:0:0:
475,192,16111,1,0,0:0:0:0:
402,192,16182,1,0,0:0:0:0:
182,192,16182,1,0,0:0:0:0:
329,192,16252,1,0,0:0:0:0:
109,192,16252,1,0,0:0:0:0:
36,192,16323,1,0,0:0:0:0:
256,192,16323,1,0,0:0:0:0:
109,192,16534,128,0,16745:0:0:0:0:
182,192,16534,128,0,16745:0:0:0:0:
329,192,16745,128,0,16956:0:0:0:0:
402,192,16745,128,0,16956:0:0:0:0:
256,192,16956,1,0,0:0:0:0:
36,192,16956,1,0,0:0:0:0:
109,192,17027,1,0,0:0:0:0:
329,192,17027,1,0,0:0:0:0:
182,192,17097,1,0,0:0:0:0:
402,192,17097,1,0,0:0:0:0:
475,192,17168,1,0,0:0:0:0:
256,192,17168,1,0,0:0:0:0:
329,192,17379,128,0,17590:0:0:0:0:
402,192,17379,128,0,17590:0:0:0:0:
36,192,17590,128,0,17801:0:0:0:0:
109,192,17590,128,0,17801:0:0:0:0:
475,192,17801,1,0,0:0:0:0:
329,192,17801,1,0,0:0:0:0:
256,192,17872,1,0,0:0:0:0:
402,192,17872,1,0,0:0:0:0:
182,192,17942,1,0,0:0:0:0:
329,192,17942,1,0,0:0:0:0:
109,192,18013,1,0,0:0:0:0:
256,192,18013,1,0,0:0:0:0:
109,192,18224,128,0,18435:0:0:0:0:
36,192,18224,128,0,18435:0:0:0:0:
475,192,18435,128,0,18647:0:0:0:0:
329,192,18435,128,0,18647:0:0:0:0:
402,192,18752,128,0,19069:0:0:0:0:
256,192,18752,128,0,19069:0:0:0:0:
329,192,19069,128,0,19280:0:0:0:0:
182,192,19069,128,0,19280:0:0:0:0:
402,192,19280,128,0,19703:0:0:0:0:
475,192,19280,128,0,19703:0:0:0:0:
36,192,19597,128,0,19914:0:0:0:0:
109,192,19597,128,0,19914:0:0:0:0:
256,192,19914,128,0,20125:0:0:0:0:
402,192,19914,128,0,20125:0:0:0:0:
329,192,20125,128,0,20548:0:0:0:0:
475,192,20125,128,0,20548:0:0:0:0:
182,192,20442,128,0,20759:0:0:0:0:
109,192,20442,128,0,20759:0:0:0:0:
256,192,20759,128,0,20970:0:0:0:0:
402,192,20759,128,0,20970:0:0:0:0:
329,192,20970,128,0,21041:0:0:0:0:
475,192,20970,128,0,21041:0:0:0:0:
36,192,20970,128,0,21041:0:0:0:0:
109,192,21393,128,0,21463:0:0:0:0:
256,192,21393,128,0,21463:0:0:0:0:
402,192,21393,128,0,21463:0:0:0:0:
182,192,21816,128,0,21886:0:0:0:0:
402,192,21816,128,0,21886:0:0:0:0:
36,192,21816,128,0,21886:0:0:0:0:
475,192,22027,1,0,0:0:0:0:
402,192,22080,1,0,0:0:0:0:
329,192,22132,1,0,0:0:0:0:
256,192,22185,1,0,0:0:0:0:
182,192,22238,1,0,0:0:0:0:
109,192,22291,1,0,0:0:0:0:
36,192,22344,1,0,0:0:0:0:
475,192,22344,1,0,0:0:0:0:
402,192,22397,1,0,0:0:0:0:
329,192,22449,1,0,0:0:0:0:
256,192,22502,1,0,0:0:0:0:
182,192,22555,1,0,0:0:0:0:
109,192,22608,1,0,0:0:0:0:
36,192,22661,1,0,0:0:0:0:
329,192,22661,1,0,0:0:0:0:
402,192,22661,1,0,0:0:0:0:
475,192,22661,1,0,0:0:0:0:
109,192,22872,128,0,22978:0:0:0:0:
256,192,22872,128,0,22978:0:0:0:0:
475,192,22872,1,0,0:0:0:0:
109,192,23083,128,0,23189:0:0:0:0:
256,192,23083,128,0,23189:0:0:0:0:
402,192,23083,1,0,0:0:0:0:
475,192,23294,1,0,0:0:0:0:
329,192,23294,1,0,0:0:0:0:
256,192,23400,1,0,0:0:0:0:
182,192,23506,1,0,0:0:0:0:
36,192,23506,1,0,0:0:0:0:
402,192,23506,1,0,0:0:0:0:
329,192,23611,1,0,0:0:0:0:
256,192,23717,1,0,0:0:0:0:
109,192,23717,1,0,0:0:0:0:
182,192,23928,1,0,0:0:0:0:
329,192,23928,1,0,0:0:0:0:
475,192,23928,1,0,0:0:0:0:
109,192,24140,1,0,0:0:0:0:
402,192,24140,1,0,0:0:0:0:
36,192,24351,1,0,0:0:0:0:
182,192,24351,1,0,0:0:0:0:
256,192,24351,1,0,0:0:0:0:
475,192,24351,1,0,0:0:0:0:
329,192,24562,128,0,24668:0:0:0:0:
402,192,24562,128,0,24668:0:0:0:0:
109,192,24562,1,0,0:0:0:0:
329,192,24773,128,0,24879:0:0:0:0:
402,192,24773,128,0,24879:0:0:0:0:
182,192,24773,1,0,0:0:0:0:
36,192,24985,1,0,0:0:0:0:
256,192,24985,1,0,0:0:0:0:
329,192,25090,1,0,0:0:0:0:
402,192,25196,1,0,0:0:0:0:
182,192,25196,1,0,0:0:0:0:
475,192,25196,1,0,0:0:0:0:
256,192,25301,1,0,0:0:0:0:
329,192,25407,1,0,0:0:0:0:
109,192,25407,1,0,0:0:0:0:
182,192,25618,1,0,0:0:0:0:
402,192,25618,1,0,0:0:0:0:
36,192,25618,1,0,0:0:0:0:
256,192,25830,1,0,0:0:0:0:
475,192,25830,1,0,0:0:0:0:
329,192,26041,1,0,0:0:0:0:
402,192,26041,1,0,0:0:0:0:
109,192,26041,1,0,0:0:0:0:
36,192,26041,1,0,0:0:0:0:
182,192,26252,128,0,26305:0:0:0:0:
256,192,26252,128,0,26305:0:0:0:0:
329,192,26463,1,0,0:0:0:0:
475,192,26463,1,0,0:0:0:0:
402,192,26463,1,0,0:0:0:0:
36,192,26675,1,0,0:0:0:0:
109,192,26675,128,0,26728:0:0:0:0:
182,192,26675,128,0,26728:0:0:0:0:
475,192,26886,1,0,0:0:0:0:
36,192,26886,1,0,0:0:0:0:
109,192,26886,1,0,0:0:0:0:
256,192,26886,1,0,0:0:0:0:
329,192,27097,128,0,27150:0:0:0:0:
402,192,27097,128,0,27150:0:0:0:0:
36,192,27203,128,0,27256:0:0:0:0:
109,192,27256,128,0,27309:0:0:0:0:
182,192,27309,128,0,27361:0:0:0:0:
475,192,27309,1,0,0:0:0:0:
256,192,27520,128,0,27573:0:0:0:0:
402,192,27520,128,0,27573:0:0:0:0:
329,192,27731,1,0,0:0:0:0:
109,192,27731,1,0,0:0:0:0:
36,192,27731,1,0,0:0:0:0:
182,192,27731,1,0,0:0:0:0:
256,192,27942,128,0,27995:0:0:0:0:
402,192,27942,128,0,27995:0:0:0:0:
475,192,28154,1,0,0:0:0:0:
109,192,28154,1,0,0:0:0:0:
182,192,28154,128,0,28206:0:0:0:0:
329,192,28154,128,0,28206:0:0:0:0:
256,192,28365,128,0,28418:0:0:0:0:
109,192,28365,128,0,28418:0:0:0:0:
36,192,28576,128,0,28787:0:0:0:0:
329,192,28576,1,0,0:0:0:0:
402,192,28576,1,0,0:0:0:0:
475,192,28576,128,0,28629:0:0:0:0:
256,192,28717,1,0,0:0:0:0:
109,192,28787,128,0,28999:0:0:0:0:
402,192,28840,1,0,0:0:0:0:
329,192,28928,1,0,0:0:0:0:
182,192,28999,128,0,29210:0:0:0:0:
475,192,28999,1,0,0:0:0:0:
402,192,29069,1,0,0:0:0:0:
329,192,29140,1,0,0:0:0:0:
109,192,29210,128,0,29421:0:0:0:0:
256,192,29210,1,0,0:0:0:0:
36,192,29421,1,0,0:0:0:0:
182,192,29421,1,0,0:0:0:0:
402,192,29421,1,0,0:0:0:0:
329,192,29632,128,0,29685:0:0:0:0:
402,192,29632,128,0,29685:0:0:0:0:
36,192,29844,1,0,0:0:0:0:
182,192,29844,1,0,0:0:0:0:
475,192,29844,1,0,0:0:0:0:
329,192,30055,128,0,30108:0:0:0:0:
256,192,30055,128,0,30108:0:0:0:0:
36,192,30266,1,0,0:0:0:0:
182,192,30266,1,0,0:0:0:0:
475,192,30266,1,0,0:0:0:0:
329,192,30478,128,0,30530:0:0:0:0:
402,192,30478,128,0,30530:0:0:0:0:
36,192,30689,1,0,0:0:0:0:
182,192,30689,1,0,0:0:0:0:
475,192,30689,1,0,0:0:0:0:
402,192,30900,128,0,30953:0:0:0:0:
256,192,30900,128,0,30953:0:0:0:0:
36,192,31111,1,0,0:0:0:0:
182,192,31111,1,0,0:0:0:0:
475,192,31111,1,0,0:0:0:0:
402,192,31182,1,0,0:0:0:0:
329,192,31252,1,0,0:0:0:0:
256,192,31323,1,0,0:0:0:0:
36,192,31393,1,0,0:0:0:0:
109,192,31463,1,0,0:0:0:0:
182,192,31534,1,0,0:0:0:0:
475,192,31534,1,0,0:0:0:0:
329,192,31534,1,0,0:0:0:0:
402,192,31604,1,0,0:0:0:0:
329,192,31675,1,0,0:0:0:0:
256,192,31745,1,0,0:0:0:0:
182,192,31816,1,0,0:0:0:0:
109,192,31886,1,0,0:0:0:0:
36,192,31956,1,0,0:0:0:0:
475,192,31956,1,0,0:0:0:0:
402,192,31956,1,0,0:0:0:0:
36,192,32168,128,0,32379:0:0:0:0:
329,192,32168,128,0,32379:0:0:0:0:
109,192,32273,128,0,32485:0:0:0:0:
402,192,32273,128,0,32485:0:0:0:0:
182,192,32485,128,0,32801:0:0:0:0:
475,192,32485,128,0,32801:0:0:0:0:
256,192,32590,128,0,32801:0:0:0:0:
329,192,32590,128,0,32801:0:0:0:0:
36,192,32801,128,0,33118:0:0:0:0:
402,192,32801,128,0,33118:0:0:0:0:
109,192,32801,1,0,0:0:0:0:
182,192,33013,128,0,33066:0:0:0:0:
256,192,33013,128,0,33066:0:0:0:0:
109,192,33224,1,0,0:0:0:0:
36,192,33224,1,0,0:0:0:0:
402,192,33224,1,0,0:0:0:0:
256,192,33435,128,0,33488:0:0:0:0:
329,192,33435,128,0,33488:0:0:0:0:
36,192,33647,1,0,0:0:0:0:
109,192,33647,1,0,0:0:0:0:
402,192,33647,1,0,0:0:0:0:
182,192,33858,128,0,33911:0:0:0:0:
329,192,33858,128,0,33911:0:0:0:0:
109,192,34069,1,0,0:0:0:0:
36,192,34069,1,0,0:0:0:0:
402,192,34069,1,0,0:0:0:0:
182,192,34280,128,0,34333:0:0:0:0:
256,192,34280,128,0,34333:0:0:0:0:
109,192,34492,1,0,0:0:0:0:
36,192,34492,1,0,0:0:0:0:
402,192,34492,1,0,0:0:0:0:
36,192,35231,128,0,36182:0:0:0:0:
475,192,35231,128,0,36182:0:0:0:0:
109,192,35337,1,0,0:0:0:0:
182,192,35337,1,0,0:0:0:0:
256,192,35442,1,0,0:0:0:0:
329,192,35442,1,0,0:0:0:0:
109,192,35548,1,0,0:0:0:0:
402,192,35548,1,0,0:0:0:0:
182,192,35654,1,0,0:0:0:0:
256,192,35654,1,0,0:0:0:0:
329,192,35759,1,0,0:0:0:0:
402,192,35759,1,0,0:0:0:0:
182,192,35970,1,0,0:0:0:0:
256,192,35970,1,0,0:0:0:0:
109,192,36182,1,0,0:0:0:0:
329,192,36182,1,0,0:0:0:0:
402,192,36182,1,0,0:0:0:0:
182,192,36182,128,0,36393:0:0:0:0:
109,192,36393,1,0,0:0:0:0:
475,192,36393,1,0,0:0:0:0:
402,192,36463,1,0,0:0:0:0:
329,192,36534,1,0,0:0:0:0:
36,192,36604,1,0,0:0:0:0:
256,192,36604,1,0,0:0:0:0:
182,192,36604,1,0,0:0:0:0:
329,192,36816,128,0,37027:0:0:0:0:
475,192,36816,128,0,37027:0:0:0:0:
182,192,36816,1,0,0:0:0:0:
256,192,37027,1,0,0:0:0:0:
402,192,37027,1,0,0:0:0:0:
36,192,37027,1,0,0:0:0:0:
36,192,37238,1,0,0:0:0:0:
109,192,37309,1,0,0:0:0:0:
182,192,37379,1,0,0:0:0:0:
256,192,37449,1,0,0:0:0:0:
475,192,37449,1,0,0:0:0:0:
36,192,37449,1,0,0:0:0:0:
109,192,37661,128,0,37872:0:0:0:0:
182,192,37661,128,0,37872:0:0:0:0:
402,192,37872,1,0,0:0:0:0:
256,192,37872,1,0,0:0:0:0:
475,192,37872,1,0,0:0:0:0:
329,192,38083,1,0,0:0:0:0:
256,192,38154,1,0,0:0:0:0:
182,192,38224,1,0,0:0:0:0:
109,192,38294,1,0,0:0:0:0:
402,192,38294,1,0,0:0:0:0:
475,192,38294,1,0,0:0:0:0:
182,192,38506,128,0,38717:0:0:0:0:
329,192,38506,128,0,38717:0:0:0:0:
36,192,38506,1,0,0:0:0:0:
109,192,38717,1,0,0:0:0:0:
402,192,38717,1,0,0:0:0:0:
475,192,38717,1,0,0:0:0:0:
36,192,38787,1,0,0:0:0:0:
256,192,38858,1,0,0:0:0:0:
182,192,38928,1,0,0:0:0:0:
109,192,38999,1,0,0:0:0:0:
182,192,39069,128,0,39140:0:0:0:0:
256,192,39069,128,0,39140:0:0:0:0:
402,192,39140,1,0,0:0:0:0:
475,192,39140,1,0,0:0:0:0:
36,192,39140,1,0,0:0:0:0:
329,192,39210,1,0,0:0:0:0:
256,192,39280,1,0,0:0:0:0:
475,192,39351,1,0,0:0:0:0:
182,192,39351,1,0,0:0:0:0:
109,192,39351,1,0,0:0:0:0:
402,192,39421,1,0,0:0:0:0:
329,192,39492,1,0,0:0:0:0:
256,192,39562,1,0,0:0:0:0:
109,192,39562,1,0,0:0:0:0:
182,192,39562,1,0,0:0:0:0:
36,192,39562,128,0,40196:0:0:0:0:
475,192,39773,1,0,0:0:0:0:
109,192,39773,128,0,39879:0:0:0:0:
329,192,39879,1,0,0:0:0:0:
256,192,39879,128,0,39985:0:0:0:0:
475,192,39985,1,0,0:0:0:0:
402,192,39985,1,0,0:0:0:0:
109,192,39985,128,0,40090:0:0:0:0:
182,192,40196,128,0,40301:0:0:0:0:
402,192,40407,1,0,0:0:0:0:
109,192,40407,1,0,0:0:0:0:
329,192,40407,1,0,0:0:0:0:
475,192,40407,128,0,41041:0:0:0:0:
36,192,40618,128,0,40724:0:0:0:0:
256,192,40618,1,0,0:0:0:0:
109,192,40724,128,0,40830:0:0:0:0:
329,192,40724,1,0,0:0:0:0:
402,192,40830,1,0,0:0:0:0:
182,192,40830,128,0,40935:0:0:0:0:
256,192,40830,1,0,0:0:0:0:
109,192,41041,128,0,41147:0:0:0:0:
36,192,41252,128,0,41463:0:0:0:0:
329,192,41252,128,0,41358:0:0:0:0:
475,192,41252,1,0,0:0:0:0:
109,192,41463,128,0,41675:0:0:0:0:
402,192,41463,128,0,41569:0:0:0:0:
256,192,41569,1,0,0:0:0:0:
475,192,41675,128,0,41886:0:0:0:0:
182,192,41675,128,0,41780:0:0:0:0:
329,192,41675,1,0,0:0:0:0:
109,192,41886,128,0,41992:0:0:0:0:
402,192,41886,128,0,42097:0:0:0:0:
256,192,41992,1,0,0:0:0:0:
36,192,42097,128,0,42520:0:0:0:0:
329,192,42097,128,0,42520:0:0:0:0:
182,192,42097,1,0,0:0:0:0:
36,192,42942,1,0,0:0:0:0:
475,192,42942,1,0,0:0:0:0:
182,192,42942,1,0,0:0:0:0:
256,192,42942,1,0,0:0:0:0:
109,192,43154,128,0,43259:0:0:0:0:
402,192,43154,128,0,43259:0:0:0:0:
329,192,43154,1,0,0:0:0:0:
109,192,43365,128,0,43470:0:0:0:0:
402,192,43365,128,0,43470:0:0:0:0:
256,192,43365,1,0,0:0:0:0:
475,192,43576,1,0,0:0:0:0:
182,192,43576,1,0,0:0:0:0:
256,192,43682,1,0,0:0:0:0:
182,192,43787,1,0,0:0:0:0:
36,192,43787,1,0,0:0:0:0:
402,192,43787,1,0,0:0:0:0:
329,192,43893,1,0,0:0:0:0:
109,192,43999,1,0,0:0:0:0:
402,192,43999,1,0,0:0:0:0:
182,192,44210,1,0,0:0:0:0:
329,192,44210,1,0,0:0:0:0:
475,192,44210,1,0,0:0:0:0:
109,192,44421,1,0,0:0:0:0:
402,192,44421,1,0,0:0:0:0:
36,192,44632,1,0,0:0:0:0:
182,192,44632,1,0,0:0:0:0:
475,192,44632,1,0,0:0:0:0:
256,192,44632,1,0,0:0:0:0:
109,192,44844,128,0,44949:0:0:0:0:
329,192,44844,128,0,44949:0:0:0:0:
402,192,44844,1,0,0:0:0:0:
109,192,45055,128,0,45161:0:0:0:0:
329,192,45055,128,0,45161:0:0:0:0:
182,192,45055,1,0,0:0:0:0:
36,192,45266,1,0,0:0:0:0:
256,192,45266,1,0,0:0:0:0:
329,192,45372,1,0,0:0:0:0:
402,192,45478,1,0,0:0:0:0:
182,192,45478,1,0,0:0:0:0:
109,192,45478,1,0,0:0:0:0:
475,192,45583,1,0,0:0:0:0:
329,192,45689,1,0,0:0:0:0:
256,192,45689,1,0,0:0:0:0:
402,192,45900,1,0,0:0:0:0:
36,192,45900,1,0,0:0:0:0:
475,192,45900,1,0,0:0:0:0:
329,192,46111,1,0,0:0:0:0:
109,192,46111,1,0,0:0:0:0:
402,192,46323,1,0,0:0:0:0:
36,192,46323,1,0,0:0:0:0:
182,192,46323,1,0,0:0:0:0:
475,192,46323,1,0,0:0:0:0:
256,192,46534,128,0,46587:0:0:0:0:
109,192,46534,128,0,46587:0:0:0:0:
475,192,46745,1,0,0:0:0:0:
402,192,46745,1,0,0:0:0:0:
182,192,46745,1,0,0:0:0:0:
256,192,46956,128,0,47009:0:0:0:0:
329,192,46956,128,0,47009:0:0:0:0:
109,192,46956,1,0,0:0:0:0:
475,192,47168,1,0,0:0:0:0:
36,192,47168,1,0,0:0:0:0:
109,192,47168,1,0,0:0:0:0:
402,192,47168,1,0,0:0:0:0:
256,192,47379,128,0,47432:0:0:0:0:
182,192,47379,128,0,47432:0:0:0:0:
475,192,47485,128,0,47537:0:0:0:0:
402,192,47537,128,0,47590:0:0:0:0:
329,192,47590,128,0,47643:0:0:0:0:
36,192,47590,1,0,0:0:0:0:
256,192,47801,128,0,47854:0:0:0:0:
109,192,47801,128,0,47854:0:0:0:0:
329,192,48013,1,0,0:0:0:0:
36,192,48013,1,0,0:0:0:0:
475,192,48013,1,0,0:0:0:0:
402,192,48013,1,0,0:0:0:0:
256,192,48224,128,0,48277:0:0:0:0:
182,192,48224,128,0,48277:0:0:0:0:
475,192,48435,1,0,0:0:0:0:
329,192,48435,128,0,48488:0:0:0:0:
109,192,48435,128,0,48488:0:0:0:0:
36,192,48435,1,0,0:0:0:0:
256,192,48647,128,0,48699:0:0:0:0:
109,192,48647,128,0,48699:0:0:0:0:
402,192,48858,1,0,0:0:0:0:
475,192,48858,128,0,48911:0:0:0:0:
182,192,48858,128,0,49069:0:0:0:0:
36,192,48858,1,0,0:0:0:0:
329,192,48999,1,0,0:0:0:0:
109,192,49069,128,0,49280:0:0:0:0:
256,192,49122,1,0,0:0:0:0:
402,192,49210,1,0,0:0:0:0:
36,192,49280,128,0,49492:0:0:0:0:
475,192,49280,1,0,0:0:0:0:
256,192,49351,1,0,0:0:0:0:
329,192,49421,1,0,0:0:0:0:
109,192,49492,128,0,49703:0:0:0:0:
402,192,49492,1,0,0:0:0:0:
36,192,49703,1,0,0:0:0:0:
182,192,49703,1,0,0:0:0:0:
402,192,49703,1,0,0:0:0:0:
402,192,49914,1,0,0:0:0:0:
475,192,49914,1,0,0:0:0:0:
256,192,49914,1,0,0:0:0:0:
329,192,50125,1,0,0:0:0:0:
109,192,50125,1,0,0:0:0:0:
36,192,50125,1,0,0:0:0:0:
402,192,50337,1,0,0:0:0:0:
475,192,50337,1,0,0:0:0:0:
182,192,50337,1,0,0:0:0:0:
256,192,50548,1,0,0:0:0:0:
109,192,50548,1,0,0:0:0:0:
36,192,50548,1,0,0:0:0:0:
402,192,50759,1,0,0:0:0:0:
475,192,50759,1,0,0:0:0:0:
329,192,50759,1,0,0:0:0:0:
329,192,50970,1,0,0:0:0:0:
109,192,50970,1,0,0:0:0:0:
182,192,50970,1,0,0:0:0:0:
256,192,51182,1,0,0:0:0:0:
402,192,51182,1,0,0:0:0:0:
475,192,51182,1,0,0:0:0:0:
36,192,51393,1,0,0:0:0:0:
109,192,51393,1,0,0:0:0:0:
182,192,51393,1,0,0:0:0:0:
402,192,51604,1,0,0:0:0:0:
475,192,51604,1,0,0:0:0:0:
109,192,51604,1,0,0:0:0:0:
329,192,51816,1,0,0:0:0:0:
256,192,51816,1,0,0:0:0:0:
36,192,51816,1,0,0:0:0:0:
182,192,51921,1,0,0:0:0:0:
109,192,52027,1,0,0:0:0:0:
402,192,52027,1,0,0:0:0:0:
475,192,52027,1,0,0:0:0:0:
36,192,52238,1,0,0:0:0:0:
182,192,52238,1,0,0:0:0:0:
329,192,52238,1,0,0:0:0:0:
402,192,52449,1,0,0:0:0:0:
475,192,52449,1,0,0:0:0:0:
109,192,52449,1,0,0:0:0:0:
182,192,52555,1,0,0:0:0:0:
256,192,52661,1,0,0:0:0:0:
329,192,52661,1,0,0:0:0:0:
36,192,52661,1,0,0:0:0:0:
402,192,52872,1,0,0:0:0:0:
475,192,52872,1,0,0:0:0:0:
256,192,52872,1,0,0:0:0:0:
109,192,52872,1,0,0:0:0:0:
36,192,53083,1,0,0:0:0:0:
109,192,53083,1,0,0:0:0:0:
475,192,53083,1,0,0:0:0:0:
402,192,53136,1,0,0:0:0:0:
329,192,53189,1,0,0:0:0:0:
256,192,53242,1,0,0:0:0:0:
402,192,53294,1,0,0:0:0:0:
475,192,53294,1,0,0:0:0:0:
36,192,53294,1,0,0:0:0:0:
329,192,53347,1,0,0:0:0:0:
256,192,53400,1,0,0:0:0:0:
182,192,53453,1,0,0:0:0:0:
36,192,53506,1,0,0:0:0:0:
109,192,53506,1,0,0:0:0:0:
475,192,53506,1,0,0:0:0:0:
402,192,53559,1,0,0:0:0:0:
329,192,53611,1,0,0:0:0:0:
256,192,53664,1,0,0:0:0:0:
36,192,53717,1,0,0:0:0:0:
109,192,53717,1,0,0:0:0:0:
475,192,53717,1,0,0:0:0:0:
182,192,53770,1,0,0:0:0:0:
256,192,53823,1,0,0:0:0:0:
329,192,53875,1,0,0:0:0:0:
402,192,53928,1,0,0:0:0:0:
475,192,53928,1,0,0:0:0:0:
36,192,53928,1,0,0:0:0:0:
109,192,53981,1,0,0:0:0:0:
182,192,54034,1,0,0:0:0:0:
256,192,54087,1,0,0:0:0:0:
475,192,54140,1,0,0:0:0:0:
36,192,54140,1,0,0:0:0:0:
109,192,54140,1,0,0:0:0:0:
402,192,54192,1,0,0:0:0:0:
329,192,54245,1,0,0:0:0:0:
256,192,54298,1,0,0:0:0:0:
36,192,54351,1,0,0:0:0:0:
402,192,54351,1,0,0:0:0:0:
475,192,54351,1,0,0:0:0:0:
109,192,54404,1,0,0:0:0:0:
182,192,54456,1,0,0:0:0:0:
256,192,54509,1,0,0:0:0:0:
36,192,54562,1,0,0:0:0:0:
109,192,54562,1,0,0:0:0:0:
402,192,54562,1,0,0:0:0:0:
182,192,54615,1,0,0:0:0:0:
256,192,54668,1,0,0:0:0:0:
329,192,54720,1,0,0:0:0:0:
402,192,54773,1,0,0:0:0:0:
475,192,54773,1,0,0:0:0:0:
36,192,54773,128,0,54985:0:0:0:0:
109,192,54826,1,0,0:0:0:0:
182,192,54879,1,0,0:0:0:0:
256,192,54932,1,0,0:0:0:0:
109,192,54985,128,0,55196:0:0:0:0:
475,192,55037,1,0,0:0:0:0:
402,192,55090,1,0,0:0:0:0:
329,192,55143,1,0,0:0:0:0:
182,192,55196,128,0,55407:0:0:0:0:
475,192,55249,1,0,0:0:0:0:
402,192,55301,1,0,0:0:0:0:
329,192,55354,1,0,0:0:0:0:
256,192,55407,128,0,55618:0:0:0:0:
36,192,55460,1,0,0:0:0:0:
109,192,55513,1,0,0:0:0:0:
182,192,55566,1,0,0:0:0:0:
329,192,55618,128,0,55830:0:0:0:0:
109,192,55671,1,0,0:0:0:0:
182,192,55724,1,0,0:0:0:0:
256,192,55777,1,0,0:0:0:0:
402,192,55830,128,0,56041:0:0:0:0:
36,192,55882,1,0,0:0:0:0:
109,192,55935,1,0,0:0:0:0:
182,192,55988,1,0,0:0:0:0:
475,192,56041,128,0,56252:0:0:0:0:
329,192,56094,1,0,0:0:0:0:
256,192,56147,1,0,0:0:0:0:
182,192,56199,1,0,0:0:0:0:
36,192,56252,128,0,56463:0:0:0:0:
402,192,56305,1,0,0:0:0:0:
329,192,56358,1,0,0:0:0:0:
256,192,56411,1,0,0:0:0:0:
182,192,56463,1,0,0:0:0:0:
109,192,56463,1,0,0:0:0:0:
475,192,56463,1,0,0:0:0:0:
36,192,56675,1,0,0:0:0:0:
109,192,56675,1,0,0:0:0:0:
256,192,56675,1,0,0:0:0:0:
329,192,56780,1,0,0:0:0:0:
475,192,56816,128,0,57097:0:0:0:0:
402,192,56816,128,0,57097:0:0:0:0:
256,192,56886,1,0,0:0:0:0:
182,192,56886,1,0,0:0:0:0:
109,192,57097,1,0,0:0:0:0:
36,192,57097,1,0,0:0:0:0:
329,192,57097,1,0,0:0:0:0:
402,192,57309,1,0,0:0:0:0:
256,192,57309,1,0,0:0:0:0:
475,192,57309,1,0,0:0:0:0:
109,192,57520,1,0,0:0:0:0:
36,192,57520,1,0,0:0:0:0:
182,192,57520,1,0,0:0:0:0:
475,192,57661,128,0,57942:0:0:0:0:
402,192,57661,128,0,57942:0:0:0:0:
256,192,57731,1,0,0:0:0:0:
182,192,57731,1,0,0:0:0:0:
109,192,57942,1,0,0:0:0:0:
36,192,57942,1,0,0:0:0:0:
329,192,57942,1,0,0:0:0:0:
475,192,58154,1,0,0:0:0:0:
256,192,58154,1,0,0:0:0:0:
182,192,58154,1,0,0:0:0:0:
109,192,58365,1,0,0:0:0:0:
36,192,58365,1,0,0:0:0:0:
329,192,58365,1,0,0:0:0:0:
182,192,58470,1,0,0:0:0:0:
402,192,58506,128,0,58787:0:0:0:0:
475,192,58506,128,0,58787:0:0:0:0:
256,192,58576,1,0,0:0:0:0:
329,192,58576,1,0,0:0:0:0:
109,192,58787,1,0,0:0:0:0:
36,192,58787,1,0,0:0:0:0:
256,192,58787,1,0,0:0:0:0:
182,192,58999,1,0,0:0:0:0:
329,192,58999,1,0,0:0:0:0:
402,192,58999,1,0,0:0:0:0:
109,192,59210,1,0,0:0:0:0:
36,192,59210,1,0,0:0:0:0:
256,192,59210,1,0,0:0:0:0:
402,192,59351,128,0,59632:0:0:0:0:
475,192,59351,128,0,59632:0:0:0:0:
329,192,59421,1,0,0:0:0:0:
182,192,59421,1,0,0:0:0:0:
109,192,59632,1,0,0:0:0:0:
36,192,59632,1,0,0:0:0:0:
256,192,59632,1,0,0:0:0:0:
329,192,59632,1,0,0:0:0:0:
475,192,59844,1,0,0:0:0:0:
402,192,59844,1,0,0:0:0:0:
182,192,59844,1,0,0:0:0:0:
329,192,60055,1,0,0:0:0:0:
36,192,60055,1,0,0:0:0:0:
475,192,60055,1,0,0:0:0:0:
109,192,60161,128,0,60478:0:0:0:0:
182,192,60161,128,0,60478:0:0:0:0:
256,192,60266,1,0,0:0:0:0:
402,192,60266,1,0,0:0:0:0:
329,192,60478,1,0,0:0:0:0:
475,192,60478,1,0,0:0:0:0:
36,192,60478,1,0,0:0:0:0:
182,192,60689,1,0,0:0:0:0:
402,192,60689,1,0,0:0:0:0:
256,192,60689,1,0,0:0:0:0:
36,192,60900,1,0,0:0:0:0:
109,192,60900,1,0,0:0:0:0:
329,192,60900,1,0,0:0:0:0:
182,192,61006,128,0,61323:0:0:0:0:
402,192,61006,128,0,61323:0:0:0:0:
256,192,61111,1,0,0:0:0:0:
475,192,61111,1,0,0:0:0:0:
109,192,61323,1,0,0:0:0:0:
36,192,61323,1,0,0:0:0:0:
329,192,61323,1,0,0:0:0:0:
475,192,61534,128,0,61640:0:0:0:0:
256,192,61534,128,0,61640:0:0:0:0:
36,192,61534,1,0,0:0:0:0:
109,192,61534,1,0,0:0:0:0:
402,192,61745,1,0,0:0:0:0:
329,192,61745,1,0,0:0:0:0:
182,192,61745,1,0,0:0:0:0:
109,192,61851,1,0,0:0:0:0:
36,192,61851,1,0,0:0:0:0:
109,192,61956,1,0,0:0:0:0:
36,192,61956,1,0,0:0:0:0:
256,192,61956,128,0,62062:0:0:0:0:
475,192,61956,128,0,62062:0:0:0:0:
182,192,62168,1,0,0:0:0:0:
109,192,62168,1,0,0:0:0:0:
329,192,62168,1,0,0:0:0:0:
402,192,62273,1,0,0:0:0:0:
475,192,62273,1,0,0:0:0:0:
475,192,62379,1,0,0:0:0:0:
402,192,62379,1,0,0:0:0:0:
256,192,62379,128,0,62485:0:0:0:0:
36,192,62379,128,0,62485:0:0:0:0:
329,192,62590,128,0,62696:0:0:0:0:
182,192,62590,128,0,62696:0:0:0:0:
182,192,62801,128,0,63224:0:0:0:0:
329,192,62801,128,0,63224:0:0:0:0:
36,192,63224,1,0,0:0:0:0:
402,192,63224,1,0,0:0:0:0:
475,192,63224,1,0,0:0:0:0:
109,192,63224,1,0,0:0:0:0:
109,192,63435,128,0,63541:0:0:0:0:
256,192,63435,1,0,0:0:0:0:
475,192,63435,128,0,63541:0:0:0:0:
109,192,63647,128,0,63752:0:0:0:0:
256,192,63647,1,0,0:0:0:0:
402,192,63647,128,0,63752:0:0:0:0:
475,192,63858,1,0,0:0:0:0:
182,192,63858,1,0,0:0:0:0:
256,192,63963,1,0,0:0:0:0:
182,192,64069,1,0,0:0:0:0:
36,192,64069,1,0,0:0:0:0:
402,192,64069,1,0,0:0:0:0:
329,192,64175,1,0,0:0:0:0:
256,192,64280,1,0,0:0:0:0:
109,192,64280,1,0,0:0:0:0:
475,192,64492,1,0,0:0:0:0:
182,192,64492,1,0,0:0:0:0:
402,192,64492,1,0,0:0:0:0:
109,192,64703,1,0,0:0:0:0:
329,192,64703,1,0,0:0:0:0:
36,192,64914,1,0,0:0:0:0:
256,192,64914,1,0,0:0:0:0:
475,192,64914,1,0,0:0:0:0:
402,192,64914,1,0,0:0:0:0:
109,192,65125,1,0,0:0:0:0:
402,192,65125,128,0,65231:0:0:0:0:
182,192,65125,128,0,65231:0:0:0:0:
329,192,65337,128,0,65442:0:0:0:0:
402,192,65337,128,0,65442:0:0:0:0:
109,192,65337,1,0,0:0:0:0:
36,192,65548,1,0,0:0:0:0:
256,192,65548,1,0,0:0:0:0:
329,192,65654,1,0,0:0:0:0:
402,192,65759,1,0,0:0:0:0:
182,192,65759,1,0,0:0:0:0:
475,192,65759,1,0,0:0:0:0:
329,192,65865,1,0,0:0:0:0:
109,192,65970,1,0,0:0:0:0:
256,192,65970,1,0,0:0:0:0:
402,192,66182,1,0,0:0:0:0:
36,192,66182,1,0,0:0:0:0:
329,192,66182,1,0,0:0:0:0:
256,192,66393,1,0,0:0:0:0:
475,192,66393,1,0,0:0:0:0:
402,192,66604,1,0,0:0:0:0:
109,192,66604,1,0,0:0:0:0:
36,192,66604,1,0,0:0:0:0:
182,192,66604,1,0,0:0:0:0:
256,192,66816,128,0,66868:0:0:0:0:
329,192,66816,128,0,66868:0:0:0:0:
182,192,67027,1,0,0:0:0:0:
109,192,67027,1,0,0:0:0:0:
36,192,67027,1,0,0:0:0:0:
329,192,67238,128,0,67291:0:0:0:0:
402,192,67238,128,0,67291:0:0:0:0:
182,192,67238,1,0,0:0:0:0:
475,192,67449,1,0,0:0:0:0:
36,192,67449,1,0,0:0:0:0:
109,192,67449,1,0,0:0:0:0:
256,192,67449,1,0,0:0:0:0:
329,192,67661,128,0,67713:0:0:0:0:
402,192,67661,128,0,67713:0:0:0:0:
109,192,67766,128,0,67819:0:0:0:0:
182,192,67819,128,0,67872:0:0:0:0:
475,192,67872,1,0,0:0:0:0:
256,192,67872,128,0,67925:0:0:0:0:
402,192,68083,128,0,68136:0:0:0:0:
182,192,68083,128,0,68136:0:0:0:0:
329,192,68294,1,0,0:0:0:0:
109,192,68294,1,0,0:0:0:0:
36,192,68294,1,0,0:0:0:0:
256,192,68294,1,0,0:0:0:0:
402,192,68506,128,0,68559:0:0:0:0:
182,192,68506,128,0,68559:0:0:0:0:
256,192,68506,128,0,68559:0:0:0:0:
475,192,68717,1,0,0:0:0:0:
329,192,68717,128,0,68770:0:0:0:0:
109,192,68717,128,0,68770:0:0:0:0:
36,192,68717,1,0,0:0:0:0:
256,192,68717,128,0,68770:0:0:0:0:
182,192,68928,128,0,68981:0:0:0:0:
402,192,68928,128,0,68981:0:0:0:0:
256,192,68928,128,0,68981:0:0:0:0:
329,192,69140,1,0,0:0:0:0:
402,192,69140,1,0,0:0:0:0:
475,192,69140,128,0,69192:0:0:0:0:
36,192,69140,128,0,69192:0:0:0:0:
109,192,69351,1,0,0:0:0:0:
182,192,69351,1,0,0:0:0:0:
402,192,69351,1,0,0:0:0:0:
182,192,69562,1,0,0:0:0:0:
109,192,69562,1,0,0:0:0:0:
329,192,69562,1,0,0:0:0:0:
182,192,69773,1,0,0:0:0:0:
109,192,69773,1,0,0:0:0:0:
475,192,69773,1,0,0:0:0:0:
36,192,69985,128,0,70196:0:0:0:0:
256,192,69985,1,0,0:0:0:0:
329,192,69985,1,0,0:0:0:0:
402,192,69985,1,0,0:0:0:0:
256,192,70301,128,0,70407:0:0:0:0:
182,192,70407,128,0,70618:0:0:0:0:
402,192,70407,1,0,0:0:0:0:
329,192,70513,1,0,0:0:0:0:
109,192,70618,128,0,70830:0:0:0:0:
475,192,70618,1,0,0:0:0:0:
256,192,70618,1,0,0:0:0:0:
36,192,70830,128,0,71041:0:0:0:0:
402,192,70830,1,0,0:0:0:0:
329,192,70830,1,0,0:0:0:0:
182,192,70830,1,0,0:0:0:0:
256,192,71147,128,0,71252:0:0:0:0:
329,192,71252,128,0,71463:0:0:0:0:
182,192,71252,1,0,0:0:0:0:
402,192,71463,128,0,71675:0:0:0:0:
36,192,71463,1,0,0:0:0:0:
256,192,71463,1,0,0:0:0:0:
182,192,71675,128,0,71886:0:0:0:0:
329,192,71675,1,0,0:0:0:0:
475,192,71675,1,0,0:0:0:0:
109,192,71675,1,0,0:0:0:0:
329,192,71992,128,0,72097:0:0:0:0:
256,192,72097,128,0,72309:0:0:0:0:
36,192,72097,1,0,0:0:0:0:
109,192,72203,1,0,0:0:0:0:
402,192,72309,128,0,72520:0:0:0:0:
182,192,72309,1,0,0:0:0:0:
329,192,72309,1,0,0:0:0:0:
475,192,72520,128,0,72731:0:0:0:0:
256,192,72520,1,0,0:0:0:0:
109,192,72520,1,0,0:0:0:0:
36,192,72520,1,0,0:0:0:0:
182,192,72731,128,0,72837:0:0:0:0:
256,192,72731,128,0,72837:0:0:0:0:
329,192,72872,1,0,0:0:0:0:
36,192,72942,128,0,73154:0:0:0:0:
402,192,72942,1,0,0:0:0:0:
475,192,72942,1,0,0:0:0:0:
109,192,73154,128,0,73365:0:0:0:0:
329,192,73154,128,0,73259:0:0:0:0:
256,192,73154,128,0,73259:0:0:0:0:
475,192,73365,1,0,0:0:0:0:
402,192,73365,1,0,0:0:0:0:
36,192,73365,1,0,0:0:0:0:
182,192,73365,128,0,73576:0:0:0:0:
402,192,73682,128,0,73787:0:0:0:0:
329,192,73787,128,0,73999:0:0:0:0:
182,192,73787,1,0,0:0:0:0:
109,192,73893,1,0,0:0:0:0:
36,192,73999,1,0,0:0:0:0:
475,192,73999,1,0,0:0:0:0:
256,192,73999,128,0,74210:0:0:0:0:
109,192,74210,128,0,74421:0:0:0:0:
182,192,74210,1,0,0:0:0:0:
402,192,74210,1,0,0:0:0:0:
329,192,74210,1,0,0:0:0:0:
182,192,74527,128,0,74632:0:0:0:0:
256,192,74632,128,0,74844:0:0:0:0:
402,192,74632,1,0,0:0:0:0:
109,192,74844,128,0,75055:0:0:0:0:
329,192,74844,1,0,0:0:0:0:
475,192,74844,1,0,0:0:0:0:
36,192,75055,128,0,75266:0:0:0:0:
402,192,75055,1,0,0:0:0:0:
182,192,75055,1,0,0:0:0:0:
256,192,75055,1,0,0:0:0:0:
256,192,75372,128,0,75478:0:0:0:0:
182,192,75478,128,0,75689:0:0:0:0:
402,192,75478,1,0,0:0:0:0:
475,192,75583,1,0,0:0:0:0:
109,192,75689,128,0,75900:0:0:0:0:
329,192,75689,1,0,0:0:0:0:
256,192,75689,1,0,0:0:0:0:
36,192,75900,128,0,76111:0:0:0:0:
402,192,75900,1,0,0:0:0:0:
475,192,75900,1,0,0:0:0:0:
256,192,75900,1,0,0:0:0:0:
329,192,76111,128,0,76217:0:0:0:0:
402,192,76111,128,0,76217:0:0:0:0:
256,192,76252,1,0,0:0:0:0:
182,192,76323,1,0,0:0:0:0:
109,192,76323,1,0,0:0:0:0:
36,192,76323,1,0,0:0:0:0:
475,192,76323,128,0,76534:0:0:0:0:
256,192,76428,128,0,76534:0:0:0:0:
329,192,76428,128,0,76534:0:0:0:0:
402,192,76534,128,0,76745:0:0:0:0:
182,192,76534,128,0,76640:0:0:0:0:
109,192,76534,128,0,76640:0:0:0:0:
36,192,76745,1,0,0:0:0:0:
182,192,76745,1,0,0:0:0:0:
109,192,76745,1,0,0:0:0:0:
256,192,76956,1,0,0:0:0:0:
329,192,77062,128,0,77168:0:0:0:0:
402,192,77168,128,0,77379:0:0:0:0:
182,192,77168,1,0,0:0:0:0:
256,192,77379,128,0,77590:0:0:0:0:
109,192,77379,1,0,0:0:0:0:
36,192,77379,1,0,0:0:0:0:
329,192,77590,128,0,77801:0:0:0:0:
402,192,77590,1,0,0:0:0:0:
475,192,77590,1,0,0:0:0:0:
182,192,77590,1,0,0:0:0:0:
36,192,77801,1,0,0:0:0:0:
109,192,77907,1,0,0:0:0:0:
402,192,77907,128,0,78013:0:0:0:0:
182,192,78013,1,0,0:0:0:0:
329,192,78013,128,0,78224:0:0:0:0:
182,192,78224,128,0,78435:0:0:0:0:
256,192,78224,1,0,0:0:0:0:
475,192,78224,1,0,0:0:0:0:
109,192,78435,128,0,78647:0:0:0:0:
402,192,78435,1,0,0:0:0:0:
329,192,78435,1,0,0:0:0:0:
475,192,78435,1,0,0:0:0:0:
256,192,78647,1,0,0:0:0:0:
329,192,78752,1,0,0:0:0:0:
182,192,78752,128,0,78858:0:0:0:0:
402,192,78858,1,0,0:0:0:0:
256,192,78858,128,0,79069:0:0:0:0:
475,192,79069,128,0,79280:0:0:0:0:
109,192,79069,1,0,0:0:0:0:
36,192,79069,1,0,0:0:0:0:
329,192,79280,128,0,79492:0:0:0:0:
256,192,79280,1,0,0:0:0:0:
182,192,79280,1,0,0:0:0:0:
109,192,79280,1,0,0:0:0:0:
109,192,79492,128,0,79597:0:0:0:0:
36,192,79492,128,0,79597:0:0:0:0:
329,192,79703,1,0,0:0:0:0:
402,192,79703,1,0,0:0:0:0:
475,192,79703,1,0,0:0:0:0:
256,192,79703,128,0,79914:0:0:0:0:
182,192,79914,128,0,80020:0:0:0:0:
109,192,79914,128,0,80020:0:0:0:0:
329,192,80125,1,0,0:0:0:0:
402,192,80125,1,0,0:0:0:0:
475,192,80125,1,0,0:0:0:0:
36,192,80125,128,0,80337:0:0:0:0:
109,192,80337,128,0,80548:0:0:0:0:
329,192,80337,1,0,0:0:0:0:
256,192,80442,1,0,0:0:0:0:
329,192,80548,128,0,80759:0:0:0:0:
402,192,80548,1,0,0:0:0:0:
475,192,80548,1,0,0:0:0:0:
182,192,80548,1,0,0:0:0:0:
256,192,80759,128,0,80970:0:0:0:0:
182,192,80759,1,0,0:0:0:0:
475,192,80970,1,0,0:0:0:0:
402,192,80970,1,0,0:0:0:0:
36,192,80970,1,0,0:0:0:0:
109,192,80970,128,0,81182:0:0:0:0:
182,192,81182,128,0,81393:0:0:0:0:
329,192,81182,1,0,0:0:0:0:
475,192,81393,128,0,81604:0:0:0:0:
256,192,81393,1,0,0:0:0:0:
36,192,81393,1,0,0:0:0:0:
402,192,81393,1,0,0:0:0:0:
402,192,81604,128,0,81816:0:0:0:0:
109,192,81604,1,0,0:0:0:0:
329,192,81816,1,0,0:0:0:0:
36,192,81816,1,0,0:0:0:0:
256,192,81816,128,0,82027:0:0:0:0:
109,192,81816,1,0,0:0:0:0:
182,192,81816,128,0,82027:0:0:0:0:
402,192,82027,1,0,0:0:0:0:
475,192,82027,1,0,0:0:0:0:
36,192,82238,1,0,0:0:0:0:
256,192,82238,128,0,82449:0:0:0:0:
329,192,82238,128,0,82449:0:0:0:0:
402,192,82238,1,0,0:0:0:0:
182,192,82238,1,0,0:0:0:0:
109,192,82449,1,0,0:0:0:0:
36,192,82449,1,0,0:0:0:0:
402,192,82661,128,0,82872:0:0:0:0:
475,192,82661,128,0,82872:0:0:0:0:
256,192,82661,1,0,0:0:0:0:
182,192,82661,1,0,0:0:0:0:
109,192,82661,1,0,0:0:0:0:
475,192,83083,128,0,83189:0:0:0:0:
402,192,83189,128,0,83294:0:0:0:0:
329,192,83294,128,0,83400:0:0:0:0:
256,192,83400,128,0,83506:0:0:0:0:
475,192,83506,1,0,0:0:0:0:
36,192,83506,128,0,84773:0:0:0:0:
182,192,83506,1,0,0:0:0:0:
109,192,83506,1,0,0:0:0:0:
402,192,83928,1,0,0:0:0:0:
329,192,84034,1,0,0:0:0:0:
256,192,84140,1,0,0:0:0:0:
109,192,84140,1,0,0:0:0:0:
182,192,84351,1,0,0:0:0:0:
402,192,84351,1,0,0:0:0:0:
329,192,84351,1,0,0:0:0:0:
256,192,84773,128,0,84879:0:0:0:0:
475,192,84773,1,0,0:0:0:0:
182,192,84879,128,0,84985:0:0:0:0:
109,192,84985,128,0,85090:0:0:0:0:
402,192,84985,1,0,0:0:0:0:
329,192,84985,1,0,0:0:0:0:
36,192,85090,128,0,85196:0:0:0:0:
475,192,85196,128,0,86463:0:0:0:0:
256,192,85196,1,0,0:0:0:0:
182,192,85196,1,0,0:0:0:0:
402,192,85196,1,0,0:0:0:0:
36,192,85618,1,0,0:0:0:0:
109,192,85724,1,0,0:0:0:0:
182,192,85830,1,0,0:0:0:0:
256,192,85830,1,0,0:0:0:0:
36,192,86041,1,0,0:0:0:0:
329,192,86041,1,0,0:0:0:0:
402,192,86041,1,0,0:0:0:0:
256,192,86393,1,0,0:0:0:0:
36,192,86463,128,0,86675:0:0:0:0:
329,192,86463,128,0,86675:0:0:0:0:
182,192,86463,1,0,0:0:0:0:
109,192,86675,128,0,86886:0:0:0:0:
402,192,86675,128,0,86886:0:0:0:0:
256,192,86675,1,0,0:0:0:0:
36,192,86886,1,0,0:0:0:0:
475,192,86886,128,0,87731:0:0:0:0:
182,192,86886,1,0,0:0:0:0:
329,192,86886,1,0,0:0:0:0:
182,192,87309,1,0,0:0:0:0:
109,192,87414,1,0,0:0:0:0:
36,192,87520,1,0,0:0:0:0:
329,192,87520,1,0,0:0:0:0:
109,192,87731,128,0,88154:0:0:0:0:
402,192,87731,128,0,88154:0:0:0:0:
256,192,87731,1,0,0:0:0:0:
182,192,87731,1,0,0:0:0:0:
329,192,88154,128,0,88576:0:0:0:0:
36,192,88154,128,0,88576:0:0:0:0:
256,192,88154,1,0,0:0:0:0:
182,192,88259,1,0,0:0:0:0:
109,192,88365,1,0,0:0:0:0:
475,192,88365,1,0,0:0:0:0:
256,192,88576,128,0,89421:0:0:0:0:
402,192,88576,1,0,0:0:0:0:
182,192,88576,1,0,0:0:0:0:
109,192,88576,1,0,0:0:0:0:
36,192,88999,1,0,0:0:0:0:
109,192,89104,1,0,0:0:0:0:
182,192,89210,1,0,0:0:0:0:
475,192,89210,1,0,0:0:0:0:
36,192,89421,128,0,90266:0:0:0:0:
475,192,89421,128,0,90266:0:0:0:0:
402,192,89421,1,0,0:0:0:0:
329,192,89421,1,0,0:0:0:0:
109,192,89421,1,0,0:0:0:0:
109,192,89844,1,0,0:0:0:0:
182,192,89844,1,0,0:0:0:0:
402,192,89844,1,0,0:0:0:0:
256,192,90055,1,0,0:0:0:0:
329,192,90266,1,0,0:0:0:0:
402,192,90266,1,0,0:0:0:0:
109,192,90266,1,0,0:0:0:0:
256,192,90478,1,0,0:0:0:0:
475,192,90478,1,0,0:0:0:0:
182,192,90583,1,0,0:0:0:0:
402,192,90583,1,0,0:0:0:0:
109,192,90689,1,0,0:0:0:0:
329,192,90689,1,0,0:0:0:0:
36,192,90794,1,0,0:0:0:0:
256,192,90794,1,0,0:0:0:0:
109,192,90900,1,0,0:0:0:0:
329,192,90900,1,0,0:0:0:0:
475,192,90900,1,0,0:0:0:0:
402,192,91111,1,0,0:0:0:0:
182,192,91111,1,0,0:0:0:0:
256,192,91111,1,0,0:0:0:0:
36,192,91111,1,0,0:0:0:0:
109,192,91323,1,0,0:0:0:0:
329,192,91323,1,0,0:0:0:0:
182,192,91428,1,0,0:0:0:0:
402,192,91428,1,0,0:0:0:0:
475,192,91534,1,0,0:0:0:0:
256,192,91534,1,0,0:0:0:0:
402,192,91640,1,0,0:0:0:0:
182,192,91640,1,0,0:0:0:0:
329,192,91745,1,0,0:0:0:0:
109,192,91745,1,0,0:0:0:0:
36,192,91745,1,0,0:0:0:0:
475,192,91956,1,0,0:0:0:0:
402,192,91956,1,0,0:0:0:0:
256,192,91956,1,0,0:0:0:0:
182,192,91956,1,0,0:0:0:0:
36,192,92168,1,0,0:0:0:0:
329,192,92168,1,0,0:0:0:0:
109,192,92273,1,0,0:0:0:0:
402,192,92273,1,0,0:0:0:0:
182,192,92379,1,0,0:0:0:0:
475,192,92379,1,0,0:0:0:0:
402,192,92485,1,0,0:0:0:0:
109,192,92485,1,0,0:0:0:0:
329,192,92590,1,0,0:0:0:0:
36,192,92590,1,0,0:0:0:0:
256,192,92590,1,0,0:0:0:0:
182,192,92696,1,0,0:0:0:0:
475,192,92696,1,0,0:0:0:0:
402,192,92801,1,0,0:0:0:0:
109,192,92801,1,0,0:0:0:0:
36,192,92801,1,0,0:0:0:0:
329,192,92801,1,0,0:0:0:0:
475,192,92907,1,0,0:0:0:0:
182,192,92907,1,0,0:0:0:0:
36,192,93013,1,0,0:0:0:0:
256,192,93013,1,0,0:0:0:0:
109,192,93118,1,0,0:0:0:0:
329,192,93118,1,0,0:0:0:0:
182,192,93224,1,0,0:0:0:0:
402,192,93224,1,0,0:0:0:0:
475,192,93224,1,0,0:0:0:0:
256,192,93224,1,0,0:0:0:0:
329,192,93330,1,0,0:0:0:0:
109,192,93330,1,0,0:0:0:0:
256,192,93435,1,0,0:0:0:0:
36,192,93435,1,0,0:0:0:0:
329,192,93541,1,0,0:0:0:0:
109,192,93541,1,0,0:0:0:0:
402,192,93647,1,0,0:0:0:0:
182,192,93647,1,0,0:0:0:0:
475,192,93647,1,0,0:0:0:0:
256,192,93858,1,0,0:0:0:0:
182,192,93963,1,0,0:0:0:0:
109,192,94069,1,0,0:0:0:0:
36,192,94069,1,0,0:0:0:0:
475,192,94069,1,0,0:0:0:0:
329,192,94280,1,0,0:0:0:0:
402,192,94492,1,0,0:0:0:0:
475,192,94492,1,0,0:0:0:0:
256,192,94492,1,0,0:0:0:0:
182,192,94492,1,0,0:0:0:0:
329,192,94703,1,0,0:0:0:0:
256,192,94914,1,0,0:0:0:0:
182,192,94914,1,0,0:0:0:0:
36,192,94914,1,0,0:0:0:0:
109,192,95125,1,0,0:0:0:0:
329,192,95125,1,0,0:0:0:0:
475,192,95337,1,0,0:0:0:0:
402,192,95337,1,0,0:0:0:0:
36,192,95337,1,0,0:0:0:0:
329,192,95390,1,0,0:0:0:0:
256,192,95442,1,0,0:0:0:0:
182,192,95495,1,0,0:0:0:0:
109,192,95548,1,0,0:0:0:0:
475,192,95548,1,0,0:0:0:0:
36,192,95548,1,0,0:0:0:0:
402,192,95601,1,0,0:0:0:0:
329,192,95654,1,0,0:0:0:0:
256,192,95706,1,0,0:0:0:0:
36,192,95759,1,0,0:0:0:0:
109,192,95759,1,0,0:0:0:0:
182,192,95759,1,0,0:0:0:0:
475,192,95759,1,0,0:0:0:0:
402,192,95812,1,0,0:0:0:0:
329,192,95865,1,0,0:0:0:0:
256,192,95918,1,0,0:0:0:0:
36,192,95970,1,0,0:0:0:0:
402,192,95970,1,0,0:0:0:0:
475,192,95970,1,0,0:0:0:0:
109,192,96023,1,0,0:0:0:0:
182,192,96076,1,0,0:0:0:0:
256,192,96129,1,0,0:0:0:0:
329,192,96182,1,0,0:0:0:0:
402,192,96182,1,0,0:0:0:0:
475,192,96182,1,0,0:0:0:0:
36,192,96182,1,0,0:0:0:0:
109,192,96235,1,0,0:0:0:0:
182,192,96287,1,0,0:0:0:0:
256,192,96340,1,0,0:0:0:0:
475,192,96393,1,0,0:0:0:0:
402,192,96446,1,0,0:0:0:0:
329,192,96499,1,0,0:0:0:0:
256,192,96551,1,0,0:0:0:0:
182,192,96604,1,0,0:0:0:0:
36,192,97027,1,0,0:0:0:0:
182,192,97238,1,0,0:0:0:0:
109,192,97449,1,0,0:0:0:0:
256,192,97661,1,0,0:0:0:0:
182,192,97872,1,0,0:0:0:0:
329,192,98083,1,0,0:0:0:0:
256,192,98294,1,0,0:0:0:0:
402,192,98506,1,0,0:0:0:0:
329,192,98717,1,0,0:0:0:0:
475,192,98928,1,0,0:0:0:0:
329,192,99245,1,0,0:0:0:0:
402,192,99351,1,0,0:0:0:0:
256,192,99562,1,0,0:0:0:0:
329,192,99773,1,0,0:0:0:0:
182,192,99879,1,0,0:0:0:0:
256,192,100196,1,0,0:0:0:0:
182,192,100407,1,0,0:0:0:0:
36,192,100618,1,0,0:0:0:0:
329,192,100830,1,0,0:0:0:0:
475,192,101041,1,0,0:0:0:0:
256,192,101252,1,0,0:0:0:0:
36,192,101463,1,0,0:0:0:0:
329,192,101675,1,0,0:0:0:0:
475,192,101886,1,0,0:0:0:0:
256,192,102731,128,0,102801:0:0:0:0:
475,192,102731,128,0,102801:0:0:0:0:
182,192,102801,128,0,102872:0:0:0:0:
402,192,102801,128,0,102872:0:0:0:0:
109,192,102872,128,0,102942:0:0:0:0:
329,192,102872,128,0,102942:0:0:0:0:
256,192,102942,128,0,102995:0:0:0:0:
36,192,102942,128,0,102995:0:0:0:0:
182,192,103048,128,0,103101:0:0:0:0:
475,192,103048,128,0,103101:0:0:0:0:
402,192,103154,128,0,103206:0:0:0:0:
109,192,103154,128,0,103206:0:0:0:0:
36,192,103259,128,0,103312:0:0:0:0:
329,192,103259,128,0,103312:0:0:0:0:
109,192,103365,128,0,103418:0:0:0:0:
475,192,103365,128,0,103418:0:0:0:0:
182,192,103470,128,0,103523:0:0:0:0:
402,192,103470,128,0,103523:0:0:0:0:
36,192,103576,128,0,103629:0:0:0:0:
256,192,103576,128,0,103629:0:0:0:0:
109,192,103682,128,0,103735:0:0:0:0:
329,192,103682,128,0,103735:0:0:0:0:
182,192,103787,1,0,0:0:0:0:
256,192,103893,1,0,0:0:0:0:
329,192,103999,1,0,0:0:0:0:
36,192,103999,1,0,0:0:0:0:
109,192,104104,1,0,0:0:0:0:
182,192,104210,1,0,0:0:0:0:
256,192,104210,1,0,0:0:0:0:
475,192,104210,1,0,0:0:0:0:
402,192,104316,1,0,0:0:0:0:
329,192,104421,1,0,0:0:0:0:
182,192,104421,1,0,0:0:0:0:
256,192,104527,1,0,0:0:0:0:
329,192,104632,1,0,0:0:0:0:
182,192,104738,1,0,0:0:0:0:
256,192,104844,1,0,0:0:0:0:
36,192,104844,1,0,0:0:0:0:
182,192,104949,1,0,0:0:0:0:
109,192,105055,1,0,0:0:0:0:
475,192,105055,1,0,0:0:0:0:
329,192,105055,1,0,0:0:0:0:
402,192,105161,1,0,0:0:0:0:
329,192,105266,1,0,0:0:0:0:
36,192,105266,1,0,0:0:0:0:
256,192,105372,1,0,0:0:0:0:
182,192,105478,1,0,0:0:0:0:
36,192,105583,1,0,0:0:0:0:
109,192,105689,1,0,0:0:0:0:
256,192,105689,1,0,0:0:0:0:
329,192,105794,1,0,0:0:0:0:
402,192,105900,1,0,0:0:0:0:
182,192,105900,1,0,0:0:0:0:
36,192,105900,1,0,0:0:0:0:
109,192,106006,1,0,0:0:0:0:
182,192,106111,1,0,0:0:0:0:
475,192,106111,1,0,0:0:0:0:
402,192,106217,1,0,0:0:0:0:
329,192,106323,1,0,0:0:0:0:
402,192,106428,1,0,0:0:0:0:
475,192,106534,1,0,0:0:0:0:
182,192,106534,1,0,0:0:0:0:
256,192,106640,1,0,0:0:0:0:
329,192,106745,1,0,0:0:0:0:
402,192,106745,1,0,0:0:0:0:
182,192,106745,1,0,0:0:0:0:
109,192,106851,1,0,0:0:0:0:
36,192,106956,1,0,0:0:0:0:
256,192,106956,1,0,0:0:0:0:
182,192,107062,1,0,0:0:0:0:
256,192,107168,1,0,0:0:0:0:
329,192,107273,1,0,0:0:0:0:
402,192,107379,1,0,0:0:0:0:
109,192,107379,1,0,0:0:0:0:
182,192,107485,1,0,0:0:0:0:
256,192,107590,1,0,0:0:0:0:
475,192,107590,1,0,0:0:0:0:
36,192,107590,1,0,0:0:0:0:
109,192,107696,1,0,0:0:0:0:
182,192,107801,1,0,0:0:0:0:
402,192,107801,1,0,0:0:0:0:
475,192,107907,1,0,0:0:0:0:
256,192,108013,1,0,0:0:0:0:
329,192,108118,1,0,0:0:0:0:
402,192,108224,1,0,0:0:0:0:
256,192,108224,1,0,0:0:0:0:
182,192,108330,1,0,0:0:0:0:
109,192,108435,1,0,0:0:0:0:
329,192,108435,1,0,0:0:0:0:
475,192,108435,1,0,0:0:0:0:
256,192,108541,1,0,0:0:0:0:
182,192,108647,1,0,0:0:0:0:
36,192,108647,1,0,0:0:0:0:
109,192,108752,1,0,0:0:0:0:
182,192,108858,1,0,0:0:0:0:
329,192,108858,1,0,0:0:0:0:
475,192,108858,1,0,0:0:0:0:
402,192,108858,1,0,0:0:0:0:
256,192,108963,1,0,0:0:0:0:
182,192,109069,1,0,0:0:0:0:
182,192,109175,1,0,0:0:0:0:
256,192,109280,1,0,0:0:0:0:
36,192,109280,1,0,0:0:0:0:
475,192,109280,1,0,0:0:0:0:
329,192,109386,1,0,0:0:0:0:
402,192,109492,1,0,0:0:0:0:
402,192,109597,1,0,0:0:0:0:
182,192,109703,1,0,0:0:0:0:
109,192,109703,1,0,0:0:0:0:
329,192,109703,1,0,0:0:0:0:
475,192,109914,1,0,0:0:0:0:
402,192,109914,1,0,0:0:0:0:
256,192,109914,1,0,0:0:0:0:
182,192,110020,1,0,0:0:0:0:
109,192,110020,1,0,0:0:0:0:
36,192,110020,1,0,0:0:0:0:
475,192,110125,1,0,0:0:0:0:
402,192,110125,1,0,0:0:0:0:
329,192,110125,1,0,0:0:0:0:
182,192,110337,1,0,0:0:0:0:
256,192,110337,1,0,0:0:0:0:
109,192,110337,1,0,0:0:0:0:
256,192,110548,1,0,0:0:0:0:
109,192,110548,1,0,0:0:0:0:
36,192,110548,1,0,0:0:0:0:
475,192,110548,1,0,0:0:0:0:
