osu file format v14

[General]
AudioFilename: audio.mp3
AudioLeadIn: 0
PreviewTime: 143911
Countdown: 0
SampleSet: Normal
StackLeniency: 0.4
Mode: 1
LetterboxInBreaks: 0
WidescreenStoryboard: 1

[Editor]
Bookmarks: 22644,29404,42925,49686,63207,69123,69968,83489,96165,110531,117292,144334,157855,184897,205179,270233,283754,297275
DistanceSpacing: 1.4
BeatDivisor: 4
GridSize: 32
TimelineZoom: 1.9

[Metadata]
Title:Nobore! Susume! Takai Tou
TitleUnicode:のぼれ!すすめ!高い塔
Artist:KikuoHana
ArtistUnicode:きくおはな
Creator:Kuron-kun
Version:gh's Taiko-tou
Source:
Tags:きくお 花たん Hanatan YURiCa 第一幕 Daiichimaku SCGA-00045 Eraser ghm12 marathon
BeatmapID:1281042
BeatmapSetID:580273

[Difficulty]
HPDrainRate:5.5
CircleSize:3
OverallDifficulty:6
ApproachRate:6
SliderMultiplier:1.4
SliderTickRate:1

[Events]
//Background and Video events
0,0,"alice.jpg",0,0
//Break Periods
//Storyboard Layer 0 (Background)
//Storyboard Layer 1 (Fail)
//Storyboard Layer 2 (Pass)
//Storyboard Layer 3 (Foreground)
//Storyboard Sound Samples

[TimingPoints]
408,545.454545454546,4,1,0,50,1,0
408,-117.647058823529,4,1,0,50,0,0
9123,422.535211267606,4,1,0,65,1,0
9123,-125,4,1,0,65,0,0
14193,-123.456790123457,4,1,0,65,0,0
14615,-120.481927710843,4,1,0,65,0,0
15038,-117.647058823529,4,1,0,65,0,0
15355,-116.279069767442,4,1,0,65,0,0
15883,-111.111111111111,4,1,0,65,0,0
22221,-105.263157894737,4,1,0,69,0,0
22432,-102.564102564103,4,1,0,72,0,0
22644,-100,4,1,0,75,0,1
28559,-102.040816326531,4,1,0,73,0,1
28770,-104.166666666667,4,1,0,71,0,1
28982,-106.382978723404,4,1,0,69,0,1
29193,-108.695652173913,4,1,0,67,0,1
29404,-111.111111111111,4,1,0,65,0,0
42503,-107.52688172043,4,1,0,69,0,0
42714,-104.166666666667,4,1,0,72,0,0
42925,-100,4,1,0,75,0,1
48841,-102.040816326531,4,1,0,73,0,1
49052,-104.166666666667,4,1,0,71,0,1
49263,-106.382978723404,4,1,0,69,0,1
49475,-108.695652173913,4,1,0,67,0,1
49686,-111.111111111111,4,1,0,65,0,0
59827,-108.695652173913,4,1,0,67,0,0
60672,-106.382978723404,4,1,0,69,0,0
61517,-104.166666666667,4,1,0,71,0,0
62151,-103.092783505155,4,1,0,71,0,0
62362,-102.040816326531,4,1,0,73,0,0
62573,-101.010101010101,4,1,0,75,0,0
62784,-100,4,1,0,75,0,0
63207,-100,4,1,0,75,0,1
69123,-100,4,1,0,65,0,0
69968,-100,4,1,0,75,0,1
82644,-100,4,1,0,65,0,0
83066,-100,4,1,0,67,0,0
83172,-100,4,1,0,69,0,0
83277,-100,4,1,0,71,0,0
83383,-100,4,1,0,73,0,0
83489,-100,4,1,0,75,0,1
97010,-133.333333333333,4,1,0,65,0,0
102714,-100,4,1,0,70,0,0
110531,-100,4,1,0,75,0,1
117292,-100,4,1,0,70,0,0
144334,-100,4,1,0,75,0,1
157432,-99.009900990099,4,1,0,76,0,1
157644,-97.0873786407767,4,1,0,78,0,1
157749,-96.1538461538461,4,1,0,79,0,1
157855,-95.2380952380952,4,1,0,80,0,1
170953,-94.3396226415094,4,1,0,81,0,1
171059,-93.4579439252336,4,1,0,82,0,1
171165,-92.5925925925926,4,1,0,83,0,1
171270,-91.743119266055,4,1,0,84,0,1
171376,-90.9090909090909,4,1,0,85,0,1
178137,-90.0900900900901,4,1,0,86,0,1
178982,-89.2857142857143,4,1,0,87,0,1
179827,-88.4955752212389,4,1,0,88,0,1
180672,-87.719298245614,4,1,0,89,0,1
181517,-86.9565217391304,4,1,0,90,0,1
198418,-86.9565217391304,4,1,0,90,0,0
198735,-111.111111111111,4,1,0,65,0,0
242362,545.454545454546,4,1,0,65,1,8
242364,545.454545454546,4,1,0,65,1,0
260364,410.958904109589,4,1,0,65,1,8
260569,476.190476190476,4,1,0,65,1,8
260807,340.909090909091,4,1,0,65,1,8
260977,410.958904109589,4,1,0,65,1,8
261182,340.909090909091,4,1,0,65,1,8
261352,410.958904109589,4,1,0,65,1,8
261557,340.909090909091,4,1,0,65,1,8
261727,410.958904109589,4,1,0,65,1,8
261932,451.127819548872,4,1,0,65,1,0
262157,422.535211267606,4,1,0,65,1,8
262368,405.405405405405,4,1,0,65,1,8
262570,483.870967741935,4,1,0,65,1,8
262811,545.454545454546,4,1,0,65,1,8
263083,576.923076923077,4,1,0,65,1,8
265390,576.923076923077,4,1,0,50,1,8
266364,545.454545454546,4,1,0,50,1,0
268543,422.535211267606,4,1,0,70,1,0
270233,-100,4,1,0,75,0,1
283754,-98.0392156862745,4,1,0,80,0,1
290514,-96.1538461538461,4,1,0,85,0,1
293895,-94.3396226415094,4,1,0,86,0,1
294740,-92.5925925925926,4,1,0,87,0,1
295585,-90.9090909090909,4,1,0,88,0,1
296430,-89.2857142857143,4,1,0,89,0,1
297275,-87.719298245614,4,1,0,90,0,1
298965,-86.2068965517241,4,1,0,90,0,1
300655,-84.7457627118644,4,1,0,90,0,1
301500,-83.3333333333333,4,1,0,90,0,1
302345,-81.9672131147541,4,1,0,90,0,1
304035,-80.6451612903226,4,1,0,90,0,1
305726,-79.3650793650794,4,1,0,90,0,1
307416,-78.125,4,1,0,90,0,1
308261,-76.9230769230769,4,1,0,90,0,1
309951,-76.9230769230769,4,1,0,90,0,0

[Colours]
Combo1 : 244,153,70
Combo2 : 250,199,223
Combo3 : 189,215,230
Combo4 : 214,238,181
Combo5 : 253,207,185
Combo6 : 250,67,168
Combo7 : 85,117,244
Combo8 : 124,248,71

[HitObjects]
256,192,408,5,0,0:0:0:0:
256,192,680,1,8,0:0:0:0:
256,192,953,1,8,0:0:0:0:
256,192,1226,1,8,0:0:0:0:
256,192,1362,1,8,0:0:0:0:
256,192,1498,1,0,0:0:0:0:
256,192,1771,1,8,0:0:0:0:
256,192,2044,1,8,0:0:0:0:
256,192,2317,1,8,0:0:0:0:
256,192,2453,1,8,0:0:0:0:
256,192,2589,1,0,0:0:0:0:
256,192,2862,1,8,0:0:0:0:
256,192,3135,1,0,0:0:0:0:
256,192,3408,1,8,0:0:0:0:
256,192,3680,1,0,0:0:0:0:
256,192,3953,1,8,0:0:0:0:
256,192,4226,1,8,0:0:0:0:
256,192,4498,1,0,0:0:0:0:
256,192,4635,1,0,0:0:0:0:
256,192,4771,1,0,0:0:0:0:
256,192,5044,1,8,0:0:0:0:
256,192,5317,1,8,0:0:0:0:
256,192,5589,1,8,0:0:0:0:
256,192,5726,1,8,0:0:0:0:
256,192,5862,1,0,0:0:0:0:
256,192,6135,1,8,0:0:0:0:
256,192,6408,1,8,0:0:0:0:
256,192,6680,1,8,0:0:0:0:
256,192,6817,1,8,0:0:0:0:
256,192,6953,1,0,0:0:0:0:
256,192,7226,1,8,0:0:0:0:
256,192,7498,1,0,0:0:0:0:
256,192,7771,1,8,0:0:0:0:
256,192,8044,1,0,0:0:0:0:
256,192,8317,1,8,0:0:0:0:
256,192,8589,1,8,0:0:0:0:
256,192,9123,1,0,0:0:0:0:
256,192,9334,1,8,0:0:0:0:
256,192,9545,1,0,0:0:0:0:
256,192,9756,1,8,0:0:0:0:
256,192,9968,1,0,0:0:0:0:
256,192,10179,1,8,0:0:0:0:
256,192,10390,1,0,0:0:0:0:
256,192,10601,1,8,0:0:0:0:
256,192,10813,1,0,0:0:0:0:
256,192,11024,1,8,0:0:0:0:
256,192,11235,1,0,0:0:0:0:
256,192,11341,1,0,0:0:0:0:
256,192,11446,1,8,0:0:0:0:
256,192,11658,1,0,0:0:0:0:
256,192,11869,1,8,0:0:0:0:
256,192,11975,1,0,0:0:0:0:
256,192,12292,1,8,0:0:0:0:
256,192,12503,1,0,0:0:0:0:
256,192,12714,1,8,0:0:0:0:
256,192,12925,1,0,0:0:0:0:
256,192,13137,1,8,0:0:0:0:
256,192,13348,1,0,0:0:0:0:
256,192,13559,1,8,0:0:0:0:
256,192,13770,1,0,0:0:0:0:
256,192,13982,1,8,0:0:0:0:
256,192,14193,1,0,0:0:0:0:
256,192,14615,1,8,0:0:0:0:
256,192,15038,1,0,0:0:0:0:
256,192,15355,1,8,0:0:0:0:
256,192,15883,1,0,0:0:0:0:
256,192,16094,1,8,0:0:0:0:
256,192,16165,1,0,0:0:0:0:
256,192,16235,1,0,0:0:0:0:
256,192,16306,1,8,0:0:0:0:
256,192,16517,1,8,0:0:0:0:
256,192,16728,1,0,0:0:0:0:
256,192,16939,1,8,0:0:0:0:
256,192,17010,1,0,0:0:0:0:
256,192,17080,1,0,0:0:0:0:
256,192,17151,1,8,0:0:0:0:
256,192,17362,1,8,0:0:0:0:
256,192,17573,1,0,0:0:0:0:
256,192,17784,1,8,0:0:0:0:
256,192,17855,1,0,0:0:0:0:
256,192,17925,1,0,0:0:0:0:
256,192,17996,1,8,0:0:0:0:
256,192,18207,1,8,0:0:0:0:
256,192,18418,1,0,0:0:0:0:
256,192,18735,1,8,0:0:0:0:
256,192,19052,1,8,0:0:0:0:
256,192,19263,1,0,0:0:0:0:
256,192,19580,1,8,0:0:0:0:
256,192,19897,1,8,0:0:0:0:
256,192,20108,1,0,0:0:0:0:
256,192,20425,1,8,0:0:0:0:
256,192,20742,1,8,0:0:0:0:
256,192,20953,1,0,0:0:0:0:
256,192,21165,1,0,0:0:0:0:
256,192,21376,1,8,0:0:0:0:
256,192,21587,1,8,0:0:0:0:
256,192,21799,1,0,0:0:0:0:
256,192,22221,1,8,0:0:0:0:
256,192,22432,1,8,0:0:0:0:
256,192,22644,1,4,0:0:0:0:
256,192,23066,1,0,0:0:0:0:
256,192,23277,1,8,0:0:0:0:
256,192,23489,1,0,0:0:0:0:
256,192,23594,1,0,0:0:0:0:
256,192,23700,1,8,0:0:0:0:
256,192,23911,1,0,0:0:0:0:
256,192,24123,1,8,0:0:0:0:
256,192,24334,1,4,0:0:0:0:
256,192,24756,1,0,0:0:0:0:
256,192,24968,1,8,0:0:0:0:
256,192,25179,1,0,0:0:0:0:
256,192,25284,1,0,0:0:0:0:
256,192,25390,1,8,0:0:0:0:
256,192,25601,1,0,0:0:0:0:
256,192,25813,1,8,0:0:0:0:
256,192,26024,1,4,0:0:0:0:
256,192,26446,1,8,0:0:0:0:
256,192,26658,1,8,0:0:0:0:
256,192,26869,1,4,0:0:0:0:
256,192,27080,1,8,0:0:0:0:
256,192,27186,1,8,0:0:0:0:
256,192,27292,1,0,0:0:0:0:
256,192,27503,1,8,0:0:0:0:
256,192,27714,1,4,0:0:0:0:
256,192,27925,1,8,0:0:0:0:
256,192,28137,1,8,0:0:0:0:
256,192,28348,1,0,0:0:0:0:
256,192,28559,1,8,0:0:0:0:
256,192,28770,1,0,0:0:0:0:
256,192,28982,1,8,0:0:0:0:
256,192,29193,1,8,0:0:0:0:
256,192,29404,1,0,0:0:0:0:
256,192,29615,1,8,0:0:0:0:
256,192,29827,1,0,0:0:0:0:
256,192,30038,1,8,0:0:0:0:
256,192,30249,1,0,0:0:0:0:
256,192,30461,1,8,0:0:0:0:
256,192,30672,1,0,0:0:0:0:
256,192,30883,1,8,0:0:0:0:
256,192,31094,1,8,0:0:0:0:
256,192,31200,1,8,0:0:0:0:
256,192,31306,1,0,0:0:0:0:
256,192,31411,1,0,0:0:0:0:
256,192,31517,1,8,0:0:0:0:
256,192,31728,1,8,0:0:0:0:
256,192,31939,1,0,0:0:0:0:
256,192,32151,1,8,0:0:0:0:
256,192,32256,1,8,0:0:0:0:
256,192,32468,1,0,0:0:0:0:
256,192,32573,1,8,0:0:0:0:
256,192,32784,1,0,0:0:0:0:
256,192,32996,1,8,0:0:0:0:
256,192,33207,1,0,0:0:0:0:
256,192,33418,1,8,0:0:0:0:
256,192,33630,1,0,0:0:0:0:
256,192,33841,1,8,0:0:0:0:
256,192,34052,1,0,0:0:0:0:
256,192,34263,1,8,0:0:0:0:
256,192,34475,1,0,0:0:0:0:
256,192,35320,1,8,0:0:0:0:
256,192,35425,1,0,0:0:0:0:
256,192,35531,1,8,0:0:0:0:
256,192,35637,1,8,0:0:0:0:
256,192,35742,1,0,0:0:0:0:
256,192,35953,1,8,0:0:0:0:
256,192,36165,1,0,0:0:0:0:
256,192,36376,1,8,0:0:0:0:
256,192,36446,1,8,0:0:0:0:
256,192,36517,1,8,0:0:0:0:
256,192,36587,1,0,0:0:0:0:
256,192,36799,1,8,0:0:0:0:
256,192,37010,1,0,0:0:0:0:
256,192,37221,1,8,0:0:0:0:
256,192,37292,1,8,0:0:0:0:
256,192,37362,1,8,0:0:0:0:
256,192,37432,1,0,0:0:0:0:
256,192,37644,1,8,0:0:0:0:
256,192,37855,1,0,0:0:0:0:
256,192,38066,1,8,0:0:0:0:
256,192,38172,1,8,0:0:0:0:
256,192,38277,1,0,0:0:0:0:
256,192,38489,1,8,0:0:0:0:
256,192,38700,1,8,0:0:0:0:
256,192,38806,1,8,0:0:0:0:
256,192,38911,1,0,0:0:0:0:
256,192,39017,1,0,0:0:0:0:
256,192,39123,1,8,0:0:0:0:
256,192,39334,1,8,0:0:0:0:
256,192,39545,1,0,0:0:0:0:
256,192,39756,1,8,0:0:0:0:
256,192,39862,1,0,0:0:0:0:
256,192,39968,1,8,0:0:0:0:
256,192,40179,1,8,0:0:0:0:
256,192,40390,1,0,0:0:0:0:
256,192,40601,1,8,0:0:0:0:
256,192,40707,1,0,0:0:0:0:
256,192,40813,1,8,0:0:0:0:
256,192,41024,1,8,0:0:0:0:
256,192,41235,1,0,0:0:0:0:
256,192,41446,1,8,0:0:0:0:
256,192,41552,1,8,0:0:0:0:
256,192,41658,1,0,0:0:0:0:
256,192,41869,1,8,0:0:0:0:
256,192,42080,1,0,0:0:0:0:
256,192,42503,1,8,0:0:0:0:
256,192,42714,1,8,0:0:0:0:
256,192,42925,1,4,0:0:0:0:
256,192,43137,1,8,0:0:0:0:
256,192,43348,1,8,0:0:0:0:
256,192,43559,1,0,0:0:0:0:
256,192,43770,1,0,0:0:0:0:
256,192,43876,1,0,0:0:0:0:
256,192,43982,1,8,0:0:0:0:
256,192,44193,1,0,0:0:0:0:
256,192,44404,1,8,0:0:0:0:
256,192,44615,1,4,0:0:0:0:
256,192,44827,1,8,0:0:0:0:
256,192,45038,1,8,0:0:0:0:
256,192,45249,1,0,0:0:0:0:
256,192,45461,1,0,0:0:0:0:
256,192,45566,1,0,0:0:0:0:
256,192,45672,1,8,0:0:0:0:
256,192,45883,1,0,0:0:0:0:
256,192,46094,1,8,0:0:0:0:
256,192,46306,1,4,0:0:0:0:
256,192,46728,1,8,0:0:0:0:
256,192,46939,1,8,0:0:0:0:
256,192,47151,1,4,0:0:0:0:
256,192,47362,1,8,0:0:0:0:
256,192,47468,1,8,0:0:0:0:
256,192,47573,1,0,0:0:0:0:
256,192,47784,1,8,0:0:0:0:
256,192,47996,1,4,0:0:0:0:
256,192,48207,1,0,0:0:0:0:
256,192,48313,1,0,0:0:0:0:
256,192,48418,1,8,0:0:0:0:
256,192,48630,1,0,0:0:0:0:
256,192,48841,1,8,0:0:0:0:
256,192,49052,1,0,0:0:0:0:
256,192,49263,1,8,0:0:0:0:
256,192,49475,1,8,0:0:0:0:
256,192,49686,1,0,0:0:0:0:
256,192,49897,1,8,0:0:0:0:
256,192,50108,1,0,0:0:0:0:
256,192,50320,1,8,0:0:0:0:
256,192,50531,1,0,0:0:0:0:
256,192,50742,1,8,0:0:0:0:
256,192,50953,1,0,0:0:0:0:
256,192,51165,1,8,0:0:0:0:
256,192,51376,1,0,0:0:0:0:
256,192,51587,1,8,0:0:0:0:
256,192,51799,1,0,0:0:0:0:
256,192,51904,1,0,0:0:0:0:
256,192,52010,1,8,0:0:0:0:
256,192,52221,1,0,0:0:0:0:
256,192,52432,1,8,0:0:0:0:
256,192,52538,1,0,0:0:0:0:
256,192,52855,1,8,0:0:0:0:
256,192,53066,1,0,0:0:0:0:
256,192,53277,1,8,0:0:0:0:
256,192,53489,1,0,0:0:0:0:
256,192,53700,1,8,0:0:0:0:
256,192,53911,1,0,0:0:0:0:
256,192,54123,1,8,0:0:0:0:
256,192,54334,1,8,0:0:0:0:
256,192,54545,1,8,0:0:0:0:
256,192,54756,1,0,0:0:0:0:
256,192,55601,1,8,0:0:0:0:
256,192,55742,1,8,0:0:0:0:
256,192,55883,1,8,0:0:0:0:
256,192,56024,1,0,0:0:0:0:
256,192,56165,1,8,0:0:0:0:
256,192,56306,1,8,0:0:0:0:
256,192,56446,1,0,0:0:0:0:
256,192,56658,1,8,0:0:0:0:
256,192,56763,1,8,0:0:0:0:
256,192,56869,1,0,0:0:0:0:
256,192,57080,1,8,0:0:0:0:
256,192,57292,1,0,0:0:0:0:
256,192,57503,1,8,0:0:0:0:
256,192,57608,1,8,0:0:0:0:
256,192,57714,1,0,0:0:0:0:
256,192,57925,1,8,0:0:0:0:
256,192,58137,1,0,0:0:0:0:
256,192,58348,1,8,0:0:0:0:
256,192,58453,1,8,0:0:0:0:
256,192,58559,1,0,0:0:0:0:
256,192,58770,1,8,0:0:0:0:
256,192,58982,1,0,0:0:0:0:
256,192,59193,1,8,0:0:0:0:
256,192,59299,1,0,0:0:0:0:
256,192,59404,1,8,0:0:0:0:
256,192,59615,1,8,0:0:0:0:
256,192,59827,1,0,0:0:0:0:
256,192,60038,1,8,0:0:0:0:
256,192,60144,1,8,0:0:0:0:
256,192,60249,1,0,0:0:0:0:
256,192,60461,1,8,0:0:0:0:
256,192,60672,1,0,0:0:0:0:
256,192,60883,1,8,0:0:0:0:
256,192,60989,1,8,0:0:0:0:
256,192,61094,1,8,0:0:0:0:
256,192,61306,1,8,0:0:0:0:
256,192,61517,1,0,0:0:0:0:
256,192,61728,1,8,0:0:0:0:
256,192,61834,1,8,0:0:0:0:
256,192,61939,1,0,0:0:0:0:
256,192,62151,1,8,0:0:0:0:
256,192,62256,1,8,0:0:0:0:
256,192,62362,1,0,0:0:0:0:
256,192,62573,1,8,0:0:0:0:
256,192,62784,1,8,0:0:0:0:
256,192,63207,1,4,0:0:0:0:
256,192,63418,1,8,0:0:0:0:
256,192,63630,1,8,0:0:0:0:
256,192,63841,1,0,0:0:0:0:
256,192,63946,1,0,0:0:0:0:
256,192,64052,1,8,0:0:0:0:
256,192,64263,1,0,0:0:0:0:
256,192,64475,1,8,0:0:0:0:
256,192,64580,1,0,0:0:0:0:
256,192,64686,1,8,0:0:0:0:
256,192,64897,1,4,0:0:0:0:
256,192,65108,1,8,0:0:0:0:
256,192,65320,1,8,0:0:0:0:
256,192,65425,1,8,0:0:0:0:
256,192,65531,1,0,0:0:0:0:
256,192,65637,1,0,0:0:0:0:
256,192,65742,1,8,0:0:0:0:
256,192,65953,1,0,0:0:0:0:
256,192,66165,1,8,0:0:0:0:
256,192,66270,1,0,0:0:0:0:
256,192,66376,1,8,0:0:0:0:
256,192,66587,1,4,0:0:0:0:
256,192,66799,1,0,0:0:0:0:
256,192,67010,1,8,0:0:0:0:
256,192,67221,1,8,0:0:0:0:
256,192,67432,1,4,0:0:0:0:
256,192,67644,1,8,0:0:0:0:
256,192,67749,1,8,0:0:0:0:
256,192,67855,1,0,0:0:0:0:
256,192,68066,1,8,0:0:0:0:
256,192,68277,1,4,0:0:0:0:
256,192,68489,1,8,0:0:0:0:
256,192,68700,1,8,0:0:0:0:
256,192,68911,1,0,0:0:0:0:
256,192,69123,1,8,0:0:0:0:
256,192,69334,1,0,0:0:0:0:
256,192,69545,1,8,0:0:0:0:
256,192,69756,1,8,0:0:0:0:
256,192,69968,1,4,0:0:0:0:
256,192,70179,1,8,0:0:0:0:
256,192,70390,1,8,0:0:0:0:
256,192,70496,1,8,0:0:0:0:
256,192,70601,1,8,0:0:0:0:
256,192,70813,1,4,0:0:0:0:
256,192,71235,1,0,0:0:0:0:
256,192,71446,1,8,0:0:0:0:
256,192,71658,1,4,0:0:0:0:
256,192,71869,1,8,0:0:0:0:
256,192,71975,1,8,0:0:0:0:
256,192,72080,1,0,0:0:0:0:
256,192,72186,1,0,0:0:0:0:
256,192,72292,1,8,0:0:0:0:
256,192,72503,1,0,0:0:0:0:
256,192,72714,1,8,0:0:0:0:
256,192,72925,1,0,0:0:0:0:
256,192,73137,1,8,0:0:0:0:
256,192,73348,1,4,0:0:0:0:
256,192,73559,1,8,0:0:0:0:
256,192,73770,1,8,0:0:0:0:
256,192,73876,1,8,0:0:0:0:
256,192,73982,1,8,0:0:0:0:
256,192,74193,1,4,0:0:0:0:
256,192,74615,1,0,0:0:0:0:
256,192,74827,1,8,0:0:0:0:
256,192,75038,1,4,0:0:0:0:
256,192,75249,1,8,0:0:0:0:
256,192,75355,1,8,0:0:0:0:
256,192,75461,1,0,0:0:0:0:
256,192,75566,1,0,0:0:0:0:
256,192,75672,1,8,0:0:0:0:
256,192,75883,1,0,0:0:0:0:
256,192,76094,1,8,0:0:0:0:
256,192,76306,1,0,0:0:0:0:
256,192,76517,1,8,0:0:0:0:
256,192,76728,1,4,0:0:0:0:
256,192,76939,1,0,0:0:0:0:
256,192,77045,1,0,0:0:0:0:
256,192,77151,1,8,0:0:0:0:
256,192,77362,1,8,0:0:0:0:
256,192,77573,1,4,0:0:0:0:
256,192,77784,1,8,0:0:0:0:
256,192,77890,1,0,0:0:0:0:
256,192,77996,1,8,0:0:0:0:
256,192,78207,1,8,0:0:0:0:
256,192,78418,1,4,0:0:0:0:
256,192,78630,1,8,0:0:0:0:
256,192,78735,1,8,0:0:0:0:
256,192,78841,1,8,0:0:0:0:
256,192,79052,1,8,0:0:0:0:
256,192,79263,1,4,0:0:0:0:
256,192,79475,1,8,0:0:0:0:
256,192,79580,1,8,0:0:0:0:
256,192,79686,1,0,0:0:0:0:
256,192,79897,1,8,0:0:0:0:
256,192,80108,1,4,0:0:0:0:
256,192,80320,1,8,0:0:0:0:
256,192,80425,1,0,0:0:0:0:
256,192,80531,1,8,0:0:0:0:
256,192,80742,1,8,0:0:0:0:
256,192,80953,1,4,0:0:0:0:
256,192,81165,1,0,0:0:0:0:
256,192,81270,1,0,0:0:0:0:
256,192,81376,1,8,0:0:0:0:
256,192,81587,1,8,0:0:0:0:
256,192,81799,1,0,0:0:0:0:
256,192,82010,1,8,0:0:0:0:
256,192,82115,1,8,0:0:0:0:
256,192,82221,1,0,0:0:0:0:
256,192,82432,1,8,0:0:0:0:
256,192,82538,1,8,0:0:0:0:
256,192,82644,1,0,0:0:0:0:
256,192,83066,1,0,0:0:0:0:
256,192,83172,1,8,0:0:0:0:
256,192,83277,1,8,0:0:0:0:
256,192,83383,1,0,0:0:0:0:
256,192,83489,1,8,0:0:0:0:
256,192,83700,1,0,0:0:0:0:
256,192,83911,1,8,0:0:0:0:
256,192,84017,1,0,0:0:0:0:
256,192,84123,1,8,0:0:0:0:
256,192,84334,1,4,0:0:0:0:
256,192,84756,1,8,0:0:0:0:
256,192,84862,1,8,0:0:0:0:
256,192,84968,1,0,0:0:0:0:
256,192,85073,1,0,0:0:0:0:
256,192,85179,1,8,0:0:0:0:
256,192,85390,1,0,0:0:0:0:
256,192,85601,1,8,0:0:0:0:
256,192,85707,1,8,0:0:0:0:
256,192,85813,1,0,0:0:0:0:
256,192,86024,1,4,0:0:0:0:
256,192,86446,1,4,0:0:0:0:
256,192,86658,1,8,0:0:0:0:
256,192,86869,1,4,0:0:0:0:
256,192,87080,1,8,0:0:0:0:
256,192,87292,1,8,0:0:0:0:
256,192,87397,1,0,0:0:0:0:
256,192,87503,1,8,0:0:0:0:
256,192,87714,1,4,0:0:0:0:
256,192,88137,1,8,0:0:0:0:
256,192,88348,1,8,0:0:0:0:
256,192,88559,1,4,0:0:0:0:
256,192,88770,1,8,0:0:0:0:
256,192,88982,1,8,0:0:0:0:
256,192,89087,1,8,0:0:0:0:
256,192,89193,1,0,0:0:0:0:
256,192,89404,1,4,0:0:0:0:
256,192,89827,1,4,0:0:0:0:
256,192,90249,1,4,0:0:0:0:
256,192,90461,1,0,0:0:0:0:
256,192,90566,1,8,0:0:0:0:
256,192,90672,1,8,0:0:0:0:
256,192,90777,1,0,0:0:0:0:
256,192,90883,1,8,0:0:0:0:
256,192,91094,1,4,0:0:0:0:
256,192,91306,1,8,0:0:0:0:
256,192,91411,1,0,0:0:0:0:
256,192,91517,1,8,0:0:0:0:
256,192,91623,1,8,0:0:0:0:
256,192,91728,1,0,0:0:0:0:
256,192,91939,1,4,0:0:0:0:
256,192,92151,1,8,0:0:0:0:
256,192,92256,1,8,0:0:0:0:
256,192,92362,1,0,0:0:0:0:
256,192,92468,1,0,0:0:0:0:
256,192,92573,1,8,0:0:0:0:
256,192,92679,1,0,0:0:0:0:
256,192,92784,1,8,0:0:0:0:
256,192,92890,1,8,0:0:0:0:
256,192,92996,1,8,0:0:0:0:
256,192,93101,1,0,0:0:0:0:
256,192,93207,1,8,0:0:0:0:
256,192,93313,1,0,0:0:0:0:
256,192,93418,1,8,0:0:0:0:
256,192,93524,1,8,0:0:0:0:
256,192,93630,1,4,0:0:0:0:
256,192,93841,1,8,0:0:0:0:
256,192,93946,1,8,0:0:0:0:
256,192,94052,1,8,0:0:0:0:
256,192,94263,1,8,0:0:0:0:
256,192,94475,1,4,0:0:0:0:
256,192,94686,1,0,0:0:0:0:
256,192,94792,1,0,0:0:0:0:
256,192,94897,1,8,0:0:0:0:
256,192,95108,1,8,0:0:0:0:
256,192,95320,1,0,0:0:0:0:
256,192,95531,1,8,0:0:0:0:
256,192,95637,1,8,0:0:0:0:
256,192,95742,1,0,0:0:0:0:
256,192,95953,1,8,0:0:0:0:
256,192,96059,1,8,0:0:0:0:
256,192,96165,1,0,0:0:0:0:
256,192,97010,1,0,0:0:0:0:
256,192,97221,1,8,0:0:0:0:
256,192,97432,1,0,0:0:0:0:
256,192,97644,1,8,0:0:0:0:
256,192,97855,1,0,0:0:0:0:
256,192,98066,1,8,0:0:0:0:
256,192,98277,1,0,0:0:0:0:
256,192,98489,1,8,0:0:0:0:
256,192,98700,1,0,0:0:0:0:
256,192,98911,1,8,0:0:0:0:
256,192,99123,1,0,0:0:0:0:
256,192,99228,1,0,0:0:0:0:
256,192,99334,1,8,0:0:0:0:
256,192,99545,1,0,0:0:0:0:
256,192,99756,1,8,0:0:0:0:
256,192,99862,1,0,0:0:0:0:
256,192,100179,1,8,0:0:0:0:
256,192,100390,1,0,0:0:0:0:
256,192,100601,1,8,0:0:0:0:
256,192,100813,1,0,0:0:0:0:
256,192,101024,1,8,0:0:0:0:
256,192,101235,1,0,0:0:0:0:
256,192,101446,1,8,0:0:0:0:
256,192,101658,1,0,0:0:0:0:
256,192,101869,1,8,0:0:0:0:
256,192,102714,1,0,0:0:0:0:
256,192,102784,1,0,0:0:0:0:
256,192,102855,1,0,0:0:0:0:
256,192,102925,1,8,0:0:0:0:
256,192,103031,1,8,0:0:0:0:
256,192,103137,1,0,0:0:0:0:
256,192,103242,1,0,0:0:0:0:
256,192,103348,1,8,0:0:0:0:
256,192,103453,1,0,0:0:0:0:
256,192,103559,1,8,0:0:0:0:
256,192,103665,1,8,0:0:0:0:
256,192,103770,1,0,0:0:0:0:
256,192,103982,1,8,0:0:0:0:
256,192,104087,1,8,0:0:0:0:
256,192,104193,1,0,0:0:0:0:
256,192,104404,1,8,0:0:0:0:
256,192,104615,1,0,0:0:0:0:
256,192,104827,1,0,0:0:0:0:
256,192,104932,1,0,0:0:0:0:
256,192,105038,1,8,0:0:0:0:
256,192,105249,1,8,0:0:0:0:
256,192,105461,1,0,0:0:0:0:
256,192,105672,1,8,0:0:0:0:
256,192,105777,1,8,0:0:0:0:
256,192,105883,1,0,0:0:0:0:
256,192,106094,1,8,0:0:0:0:
256,192,106306,1,0,0:0:0:0:
256,192,106517,1,8,0:0:0:0:
256,192,106623,1,0,0:0:0:0:
256,192,106728,1,8,0:0:0:0:
256,192,106939,1,8,0:0:0:0:
256,192,107151,1,0,0:0:0:0:
256,192,107362,1,8,0:0:0:0:
256,192,107468,1,8,0:0:0:0:
256,192,107573,1,0,0:0:0:0:
256,192,107784,1,8,0:0:0:0:
256,192,107996,1,8,0:0:0:0:
256,192,108101,1,8,0:0:0:0:
256,192,108207,1,0,0:0:0:0:
256,192,108313,1,0,0:0:0:0:
256,192,108418,1,8,0:0:0:0:
256,192,108630,1,8,0:0:0:0:
256,192,108841,1,0,0:0:0:0:
256,192,109052,1,0,0:0:0:0:
256,192,109158,1,0,0:0:0:0:
256,192,109263,1,8,0:0:0:0:
256,192,109475,1,8,0:0:0:0:
256,192,109580,1,8,0:0:0:0:
256,192,109686,1,0,0:0:0:0:
256,192,109897,1,8,0:0:0:0:
256,192,110003,1,8,0:0:0:0:
256,192,110108,1,8,0:0:0:0:
256,192,110320,1,8,0:0:0:0:
256,192,110531,1,4,0:0:0:0:
256,192,110742,1,8,0:0:0:0:
256,192,110953,1,8,0:0:0:0:
256,192,111059,1,8,0:0:0:0:
256,192,111165,1,0,0:0:0:0:
256,192,111270,1,0,0:0:0:0:
256,192,111376,1,8,0:0:0:0:
256,192,111587,1,0,0:0:0:0:
256,192,111799,1,8,0:0:0:0:
256,192,111904,1,8,0:0:0:0:
256,192,112010,1,0,0:0:0:0:
256,192,112221,1,4,0:0:0:0:
256,192,112432,1,8,0:0:0:0:
256,192,112644,1,0,0:0:0:0:
256,192,112749,1,8,0:0:0:0:
256,192,112855,1,8,0:0:0:0:
256,192,112961,1,0,0:0:0:0:
256,192,113066,1,8,0:0:0:0:
256,192,113277,1,0,0:0:0:0:
256,192,113489,1,8,0:0:0:0:
256,192,113594,1,0,0:0:0:0:
256,192,113700,1,8,0:0:0:0:
256,192,113911,1,4,0:0:0:0:
256,192,114123,1,8,0:0:0:0:
256,192,114228,1,8,0:0:0:0:
256,192,114334,1,0,0:0:0:0:
256,192,114545,1,8,0:0:0:0:
256,192,114756,1,4,0:0:0:0:
256,192,114968,1,0,0:0:0:0:
256,192,115073,1,0,0:0:0:0:
256,192,115179,1,8,0:0:0:0:
256,192,115390,1,8,0:0:0:0:
256,192,115601,1,4,0:0:0:0:
256,192,115813,1,8,0:0:0:0:
256,192,115918,1,8,0:0:0:0:
256,192,116024,1,0,0:0:0:0:
256,192,116235,1,8,0:0:0:0:
256,192,116341,1,0,0:0:0:0:
256,192,116446,1,8,0:0:0:0:
256,192,116552,1,8,0:0:0:0:
256,192,116658,1,0,0:0:0:0:
256,192,116869,1,8,0:0:0:0:
256,192,117080,1,8,0:0:0:0:
256,192,117186,1,8,0:0:0:0:
256,192,117292,1,4,0:0:0:0:
256,192,117503,1,0,0:0:0:0:
256,192,117608,1,0,0:0:0:0:
256,192,117714,1,8,0:0:0:0:
256,192,117925,1,0,0:0:0:0:
256,192,118137,1,8,0:0:0:0:
256,192,118348,1,8,0:0:0:0:
256,192,118453,1,0,0:0:0:0:
256,192,118559,1,8,0:0:0:0:
256,192,118770,1,8,0:0:0:0:
256,192,118982,1,0,0:0:0:0:
256,192,119193,1,8,0:0:0:0:
256,192,119299,1,8,0:0:0:0:
256,192,119404,1,0,0:0:0:0:
256,192,119615,1,8,0:0:0:0:
256,192,119827,1,0,0:0:0:0:
256,192,120038,1,8,0:0:0:0:
256,192,120144,1,8,0:0:0:0:
256,192,120249,1,0,0:0:0:0:
256,192,120355,1,0,0:0:0:0:
256,192,120461,1,8,0:0:0:0:
256,192,120566,1,8,0:0:0:0:
256,192,120672,1,0,0:0:0:0:
256,192,120883,1,0,0:0:0:0:
256,192,120989,1,0,0:0:0:0:
256,192,121094,1,8,0:0:0:0:
256,192,121306,1,8,0:0:0:0:
256,192,121517,1,0,0:0:0:0:
256,192,121728,1,8,0:0:0:0:
256,192,121834,1,8,0:0:0:0:
256,192,121939,1,8,0:0:0:0:
256,192,122151,1,8,0:0:0:0:
256,192,122362,1,0,0:0:0:0:
256,192,122784,1,8,0:0:0:0:
256,192,122890,1,8,0:0:0:0:
256,192,122996,1,0,0:0:0:0:
256,192,123101,1,0,0:0:0:0:
256,192,123207,1,8,0:0:0:0:
256,192,123418,1,8,0:0:0:0:
256,192,123630,1,0,0:0:0:0:
256,192,123841,1,8,0:0:0:0:
256,192,123946,1,8,0:0:0:0:
256,192,124052,1,4,0:0:0:0:
256,192,124263,1,0,0:0:0:0:
256,192,124369,1,0,0:0:0:0:
256,192,124475,1,8,0:0:0:0:
256,192,124686,1,0,0:0:0:0:
256,192,124897,1,8,0:0:0:0:
256,192,125003,1,0,0:0:0:0:
256,192,125108,1,8,0:0:0:0:
256,192,125214,1,8,0:0:0:0:
256,192,125320,1,0,0:0:0:0:
256,192,125531,1,8,0:0:0:0:
256,192,125742,1,0,0:0:0:0:
256,192,125953,1,0,0:0:0:0:
256,192,126059,1,0,0:0:0:0:
256,192,126165,1,8,0:0:0:0:
256,192,126376,1,0,0:0:0:0:
256,192,126587,1,8,0:0:0:0:
256,192,126693,1,8,0:0:0:0:
256,192,126799,1,0,0:0:0:0:
256,192,126904,1,0,0:0:0:0:
256,192,127010,1,8,0:0:0:0:
256,192,127221,1,8,0:0:0:0:
256,192,127327,1,8,0:0:0:0:
256,192,127432,1,0,0:0:0:0:
256,192,127644,1,0,0:0:0:0:
256,192,127749,1,0,0:0:0:0:
256,192,127855,1,8,0:0:0:0:
256,192,128066,1,0,0:0:0:0:
256,192,128277,1,8,0:0:0:0:
256,192,128383,1,8,0:0:0:0:
256,192,128489,1,0,0:0:0:0:
256,192,128594,1,0,0:0:0:0:
256,192,128700,1,8,0:0:0:0:
256,192,128911,1,8,0:0:0:0:
256,192,129123,1,0,0:0:0:0:
256,192,129334,1,8,0:0:0:0:
256,192,129439,1,8,0:0:0:0:
256,192,129545,1,0,0:0:0:0:
256,192,129756,1,8,0:0:0:0:
256,192,129862,1,0,0:0:0:0:
256,192,129968,1,8,0:0:0:0:
256,192,130073,1,8,0:0:0:0:
256,192,130179,1,0,0:0:0:0:
256,192,130284,1,8,0:0:0:0:
256,192,130496,1,8,0:0:0:0:
256,192,130601,1,0,0:0:0:0:
256,192,130813,1,4,0:0:0:0:
256,192,131024,1,0,0:0:0:0:
256,192,131130,1,0,0:0:0:0:
256,192,131235,1,8,0:0:0:0:
256,192,131446,1,8,0:0:0:0:
256,192,131658,1,0,0:0:0:0:
256,192,131869,1,8,0:0:0:0:
256,192,131975,1,8,0:0:0:0:
256,192,132080,1,0,0:0:0:0:
256,192,132292,1,8,0:0:0:0:
256,192,132503,1,0,0:0:0:0:
256,192,132714,1,8,0:0:0:0:
256,192,132820,1,8,0:0:0:0:
256,192,132925,1,0,0:0:0:0:
256,192,133031,1,0,0:0:0:0:
256,192,133137,1,8,0:0:0:0:
256,192,133242,1,0,0:0:0:0:
256,192,133348,1,8,0:0:0:0:
256,192,133453,1,8,0:0:0:0:
256,192,133559,1,8,0:0:0:0:
256,192,133665,1,0,0:0:0:0:
256,192,133770,1,8,0:0:0:0:
256,192,133876,1,0,0:0:0:0:
256,192,133982,1,8,0:0:0:0:
256,192,134087,1,8,0:0:0:0:
256,192,134193,1,0,0:0:0:0:
256,192,134404,1,8,0:0:0:0:
256,192,134510,1,8,0:0:0:0:
256,192,134615,1,0,0:0:0:0:
256,192,134827,1,8,0:0:0:0:
256,192,135038,1,0,0:0:0:0:
256,192,135249,1,0,0:0:0:0:
256,192,135355,1,0,0:0:0:0:
256,192,135461,1,8,0:0:0:0:
256,192,135672,1,8,0:0:0:0:
256,192,135883,1,0,0:0:0:0:
256,192,136306,1,8,0:0:0:0:
256,192,136517,1,0,0:0:0:0:
256,192,136587,1,0,0:0:0:0:
256,192,136658,1,0,0:0:0:0:
256,192,136728,1,8,0:0:0:0:
256,192,136939,1,0,0:0:0:0:
256,192,137151,1,8,0:0:0:0:
256,192,137362,1,8,0:0:0:0:
256,192,137468,1,8,0:0:0:0:
256,192,137573,1,4,0:0:0:0:
256,192,137784,1,8,0:0:0:0:
256,192,137890,1,0,0:0:0:0:
256,192,137996,1,8,0:0:0:0:
256,192,138207,1,8,0:0:0:0:
256,192,138418,1,0,0:0:0:0:
256,192,138630,1,0,0:0:0:0:
256,192,138735,1,0,0:0:0:0:
256,192,138841,1,8,0:0:0:0:
256,192,139052,1,8,0:0:0:0:
256,192,139263,1,0,0:0:0:0:
256,192,139475,1,8,0:0:0:0:
256,192,139580,1,0,0:0:0:0:
256,192,139686,1,8,0:0:0:0:
256,192,139897,1,0,0:0:0:0:
256,192,140108,1,8,0:0:0:0:
256,192,140214,1,8,0:0:0:0:
256,192,140320,1,0,0:0:0:0:
256,192,140425,1,0,0:0:0:0:
256,192,140531,1,8,0:0:0:0:
256,192,140742,1,8,0:0:0:0:
256,192,140953,1,0,0:0:0:0:
256,192,141165,1,8,0:0:0:0:
256,192,141270,1,8,0:0:0:0:
256,192,141376,1,0,0:0:0:0:
256,192,141587,1,8,0:0:0:0:
256,192,141799,1,0,0:0:0:0:
256,192,141904,1,8,0:0:0:0:
256,192,142010,1,8,0:0:0:0:
256,192,142115,1,0,0:0:0:0:
256,192,142221,1,8,0:0:0:0:
256,192,142432,1,8,0:0:0:0:
256,192,142644,1,0,0:0:0:0:
256,192,142855,1,8,0:0:0:0:
256,192,142961,1,8,0:0:0:0:
256,192,143066,1,0,0:0:0:0:
256,192,143277,1,8,0:0:0:0:
256,192,143383,1,8,0:0:0:0:
256,192,143489,1,0,0:0:0:0:
256,192,143911,1,8,0:0:0:0:
256,192,144123,1,8,0:0:0:0:
256,192,144334,1,4,0:0:0:0:
256,192,144545,1,8,0:0:0:0:
256,192,144756,1,8,0:0:0:0:
256,192,144862,1,8,0:0:0:0:
256,192,144968,1,0,0:0:0:0:
256,192,145073,1,0,0:0:0:0:
256,192,145179,1,8,0:0:0:0:
256,192,145390,1,0,0:0:0:0:
256,192,145601,1,8,0:0:0:0:
256,192,145707,1,0,0:0:0:0:
256,192,145813,1,8,0:0:0:0:
256,192,145918,1,8,0:0:0:0:
256,192,146024,1,4,0:0:0:0:
256,192,146235,1,8,0:0:0:0:
256,192,146446,1,0,0:0:0:0:
256,192,146552,1,8,0:0:0:0:
256,192,146658,1,8,0:0:0:0:
256,192,146763,1,0,0:0:0:0:
256,192,146869,1,8,0:0:0:0:
256,192,147080,1,0,0:0:0:0:
256,192,147292,1,8,0:0:0:0:
256,192,147397,1,8,0:0:0:0:
256,192,147503,1,0,0:0:0:0:
256,192,147714,1,4,0:0:0:0:
256,192,147925,1,8,0:0:0:0:
256,192,148031,1,8,0:0:0:0:
256,192,148137,1,0,0:0:0:0:
256,192,148348,1,8,0:0:0:0:
256,192,148559,1,4,0:0:0:0:
256,192,148770,1,0,0:0:0:0:
256,192,148876,1,0,0:0:0:0:
256,192,148982,1,8,0:0:0:0:
256,192,149193,1,8,0:0:0:0:
256,192,149404,1,4,0:0:0:0:
256,192,149615,1,8,0:0:0:0:
256,192,149721,1,8,0:0:0:0:
256,192,149827,1,0,0:0:0:0:
256,192,150038,1,8,0:0:0:0:
256,192,150144,1,0,0:0:0:0:
256,192,150249,1,8,0:0:0:0:
256,192,150355,1,8,0:0:0:0:
256,192,150461,1,0,0:0:0:0:
256,192,150672,1,8,0:0:0:0:
256,192,150777,1,0,0:0:0:0:
256,192,150883,1,8,0:0:0:0:
256,192,151094,1,4,0:0:0:0:
256,192,151306,1,8,0:0:0:0:
256,192,151517,1,8,0:0:0:0:
256,192,151623,1,8,0:0:0:0:
256,192,151728,1,0,0:0:0:0:
256,192,151834,1,0,0:0:0:0:
256,192,151939,1,8,0:0:0:0:
256,192,152151,1,0,0:0:0:0:
256,192,152362,1,8,0:0:0:0:
256,192,152468,1,0,0:0:0:0:
256,192,152573,1,8,0:0:0:0:
256,192,152679,1,8,0:0:0:0:
256,192,152784,1,4,0:0:0:0:
256,192,152996,1,8,0:0:0:0:
256,192,153207,1,0,0:0:0:0:
256,192,153313,1,8,0:0:0:0:
256,192,153418,1,8,0:0:0:0:
256,192,153524,1,0,0:0:0:0:
256,192,153630,1,8,0:0:0:0:
256,192,153841,1,0,0:0:0:0:
256,192,154052,1,8,0:0:0:0:
256,192,154158,1,8,0:0:0:0:
256,192,154263,1,0,0:0:0:0:
256,192,154475,1,4,0:0:0:0:
256,192,154686,1,8,0:0:0:0:
256,192,154792,1,8,0:0:0:0:
256,192,154897,1,0,0:0:0:0:
256,192,155108,1,8,0:0:0:0:
256,192,155320,1,4,0:0:0:0:
256,192,155531,1,8,0:0:0:0:
256,192,155637,1,0,0:0:0:0:
256,192,155742,1,8,0:0:0:0:
256,192,155953,1,8,0:0:0:0:
256,192,156165,1,4,0:0:0:0:
256,192,156376,1,8,0:0:0:0:
256,192,156482,1,8,0:0:0:0:
256,192,156587,1,0,0:0:0:0:
256,192,156799,1,8,0:0:0:0:
256,192,156904,1,8,0:0:0:0:
256,192,157010,1,0,0:0:0:0:
256,192,157115,1,8,0:0:0:0:
256,192,157221,1,8,0:0:0:0:
256,192,157327,1,0,0:0:0:0:
256,192,157432,1,8,0:0:0:0:
256,192,157644,1,8,0:0:0:0:
256,192,157749,1,8,0:0:0:0:
256,192,157855,1,4,0:0:0:0:
256,192,158066,1,0,0:0:0:0:
256,192,158172,1,0,0:0:0:0:
256,192,158277,1,8,0:0:0:0:
256,192,158489,1,0,0:0:0:0:
256,192,158700,1,8,0:0:0:0:
256,192,158806,1,8,0:0:0:0:
256,192,158911,1,0,0:0:0:0:
256,192,159123,1,8,0:0:0:0:
256,192,159334,1,0,0:0:0:0:
256,192,159545,1,8,0:0:0:0:
256,192,159651,1,8,0:0:0:0:
256,192,159756,1,0,0:0:0:0:
256,192,159862,1,0,0:0:0:0:
256,192,159968,1,8,0:0:0:0:
256,192,160179,1,0,0:0:0:0:
256,192,160390,1,8,0:0:0:0:
256,192,160496,1,8,0:0:0:0:
256,192,160601,1,0,0:0:0:0:
256,192,160707,1,0,0:0:0:0:
256,192,160813,1,8,0:0:0:0:
256,192,160918,1,0,0:0:0:0:
256,192,161024,1,8,0:0:0:0:
256,192,161130,1,8,0:0:0:0:
256,192,161235,1,0,0:0:0:0:
256,192,161446,1,0,0:0:0:0:
256,192,161552,1,0,0:0:0:0:
256,192,161658,1,8,0:0:0:0:
256,192,161869,1,0,0:0:0:0:
256,192,162080,1,8,0:0:0:0:
256,192,162186,1,0,0:0:0:0:
256,192,162292,1,8,0:0:0:0:
256,192,162397,1,8,0:0:0:0:
256,192,162503,1,0,0:0:0:0:
256,192,162714,1,8,0:0:0:0:
256,192,162925,1,0,0:0:0:0:
256,192,163137,1,0,0:0:0:0:
256,192,163242,1,0,0:0:0:0:
256,192,163348,1,8,0:0:0:0:
256,192,163559,1,8,0:0:0:0:
256,192,163770,1,0,0:0:0:0:
256,192,163982,1,8,0:0:0:0:
256,192,164087,1,8,0:0:0:0:
256,192,164193,1,0,0:0:0:0:
256,192,164299,1,0,0:0:0:0:
256,192,164404,1,8,0:0:0:0:
256,192,164510,1,8,0:0:0:0:
256,192,164615,1,0,0:0:0:0:
256,192,164827,1,8,0:0:0:0:
256,192,164932,1,0,0:0:0:0:
256,192,165038,1,8,0:0:0:0:
256,192,165249,1,8,0:0:0:0:
256,192,165461,1,0,0:0:0:0:
256,192,165672,1,0,0:0:0:0:
256,192,165777,1,0,0:0:0:0:
256,192,165883,1,8,0:0:0:0:
256,192,166094,1,8,0:0:0:0:
256,192,166306,1,8,0:0:0:0:
256,192,166411,1,8,0:0:0:0:
256,192,166517,1,0,0:0:0:0:
256,192,166623,1,0,0:0:0:0:
256,192,166728,1,8,0:0:0:0:
256,192,166939,1,8,0:0:0:0:
256,192,167151,1,0,0:0:0:0:
256,192,167256,1,8,0:0:0:0:
256,192,167362,1,8,0:0:0:0:
256,192,167468,1,0,0:0:0:0:
256,192,167573,1,8,0:0:0:0:
256,192,167679,1,0,0:0:0:0:
256,192,167784,1,8,0:0:0:0:
256,192,167890,1,8,0:0:0:0:
256,192,167996,1,0,0:0:0:0:
256,192,168207,1,8,0:0:0:0:
256,192,168313,1,0,0:0:0:0:
256,192,168418,1,8,0:0:0:0:
256,192,168630,1,8,0:0:0:0:
256,192,168841,1,0,0:0:0:0:
256,192,169052,1,0,0:0:0:0:
256,192,169158,1,0,0:0:0:0:
256,192,169263,1,8,0:0:0:0:
256,192,169475,1,8,0:0:0:0:
256,192,169686,1,0,0:0:0:0:
256,192,169792,1,0,0:0:0:0:
256,192,169897,1,8,0:0:0:0:
256,192,170003,1,8,0:0:0:0:
256,192,170108,1,0,0:0:0:0:
256,192,170320,1,8,0:0:0:0:
256,192,170531,1,8,0:0:0:0:
256,192,170637,1,8,0:0:0:0:
256,192,170742,1,0,0:0:0:0:
256,192,170848,1,0,0:0:0:0:
256,192,170953,1,8,0:0:0:0:
256,192,171059,1,0,0:0:0:0:
256,192,171165,1,8,0:0:0:0:
256,192,171270,1,8,0:0:0:0:
256,192,171376,1,0,0:0:0:0:
256,192,171587,1,0,0:0:0:0:
256,192,171693,1,0,0:0:0:0:
256,192,171799,1,8,0:0:0:0:
256,192,172010,1,8,0:0:0:0:
256,192,172115,1,8,0:0:0:0:
256,192,172221,1,0,0:0:0:0:
256,192,172432,1,0,0:0:0:0:
256,192,172538,1,0,0:0:0:0:
256,192,172644,1,8,0:0:0:0:
256,192,172855,1,0,0:0:0:0:
256,192,173066,1,8,0:0:0:0:
256,192,173172,1,0,0:0:0:0:
256,192,173277,1,8,0:0:0:0:
256,192,173383,1,8,0:0:0:0:
256,192,173489,1,0,0:0:0:0:
256,192,173700,1,8,0:0:0:0:
256,192,173911,1,8,0:0:0:0:
256,192,174017,1,0,0:0:0:0:
256,192,174123,1,8,0:0:0:0:
256,192,174228,1,8,0:0:0:0:
256,192,174334,1,8,0:0:0:0:
256,192,174439,1,0,0:0:0:0:
256,192,174545,1,8,0:0:0:0:
256,192,174651,1,8,0:0:0:0:
256,192,174756,1,0,0:0:0:0:
256,192,174968,1,0,0:0:0:0:
256,192,175073,1,0,0:0:0:0:
256,192,175179,1,8,0:0:0:0:
256,192,175390,1,0,0:0:0:0:
256,192,175601,1,8,0:0:0:0:
256,192,175707,1,0,0:0:0:0:
256,192,175813,1,8,0:0:0:0:
256,192,175918,1,8,0:0:0:0:
256,192,176024,1,0,0:0:0:0:
256,192,176130,1,0,0:0:0:0:
256,192,176235,1,8,0:0:0:0:
256,192,176341,1,8,0:0:0:0:
256,192,176446,1,0,0:0:0:0:
256,192,176658,1,0,0:0:0:0:
256,192,176763,1,0,0:0:0:0:
256,192,176869,1,8,0:0:0:0:
256,192,177080,1,8,0:0:0:0:
256,192,177292,1,8,0:0:0:0:
256,192,177397,1,8,0:0:0:0:
256,192,177503,1,0,0:0:0:0:
256,192,177608,1,0,0:0:0:0:
256,192,177714,1,8,0:0:0:0:
256,192,177925,1,8,0:0:0:0:
256,192,178031,1,8,0:0:0:0:
256,192,178137,1,0,0:0:0:0:
256,192,178348,1,8,0:0:0:0:
256,192,178453,1,0,0:0:0:0:
256,192,178559,1,8,0:0:0:0:
256,192,178770,1,8,0:0:0:0:
256,192,178982,1,0,0:0:0:0:
256,192,179193,1,8,0:0:0:0:
256,192,179299,1,0,0:0:0:0:
256,192,179404,1,8,0:0:0:0:
256,192,179510,1,8,0:0:0:0:
256,192,179615,1,0,0:0:0:0:
256,192,179721,1,0,0:0:0:0:
256,192,179827,1,8,0:0:0:0:
256,192,180038,1,0,0:0:0:0:
256,192,180144,1,0,0:0:0:0:
256,192,180249,1,8,0:0:0:0:
256,192,180461,1,8,0:0:0:0:
256,192,180672,1,8,0:0:0:0:
256,192,180777,1,0,0:0:0:0:
256,192,180883,1,8,0:0:0:0:
256,192,180989,1,8,0:0:0:0:
256,192,181094,1,8,0:0:0:0:
256,192,181200,1,0,0:0:0:0:
256,192,181306,1,8,0:0:0:0:
256,192,181411,1,8,0:0:0:0:
256,192,181517,1,0,0:0:0:0:
256,192,181623,1,0,0:0:0:0:
256,192,181728,1,8,0:0:0:0:
256,192,181834,1,0,0:0:0:0:
256,192,181939,1,8,0:0:0:0:
256,192,182045,1,8,0:0:0:0:
256,192,182151,1,0,0:0:0:0:
256,192,182256,1,0,0:0:0:0:
256,192,182362,1,8,0:0:0:0:
256,192,182468,1,0,0:0:0:0:
256,192,182573,1,8,0:0:0:0:
256,192,182679,1,8,0:0:0:0:
256,192,182784,1,8,0:0:0:0:
256,192,182890,1,0,0:0:0:0:
256,192,182996,1,8,0:0:0:0:
256,192,183101,1,0,0:0:0:0:
256,192,183207,1,8,0:0:0:0:
256,192,183313,1,8,0:0:0:0:
256,192,183418,1,0,0:0:0:0:
256,192,183524,1,0,0:0:0:0:
256,192,183630,1,8,0:0:0:0:
256,192,183735,1,0,0:0:0:0:
256,192,183841,1,8,0:0:0:0:
256,192,183946,1,8,0:0:0:0:
256,192,184052,1,0,0:0:0:0:
256,192,184123,1,0,0:0:0:0:
256,192,184193,1,0,0:0:0:0:
256,192,184263,1,8,0:0:0:0:
256,192,184369,1,8,0:0:0:0:
256,192,184475,1,0,0:0:0:0:
256,192,184545,1,0,0:0:0:0:
256,192,184615,1,0,0:0:0:0:
256,192,184686,1,8,0:0:0:0:
256,192,184792,1,8,0:0:0:0:
256,192,184897,1,4,0:0:0:0:
256,192,185108,1,8,0:0:0:0:
256,192,185320,1,8,0:0:0:0:
256,192,185425,1,8,0:0:0:0:
256,192,185531,1,0,0:0:0:0:
256,192,185637,1,0,0:0:0:0:
256,192,185742,1,8,0:0:0:0:
256,192,185953,1,0,0:0:0:0:
256,192,186165,1,8,0:0:0:0:
256,192,186270,1,0,0:0:0:0:
256,192,186376,1,8,0:0:0:0:
256,192,186482,1,8,0:0:0:0:
256,192,186587,1,4,0:0:0:0:
256,192,186799,1,8,0:0:0:0:
256,192,187010,1,0,0:0:0:0:
256,192,187115,1,8,0:0:0:0:
256,192,187221,1,8,0:0:0:0:
256,192,187327,1,0,0:0:0:0:
256,192,187432,1,8,0:0:0:0:
256,192,187644,1,0,0:0:0:0:
256,192,187855,1,8,0:0:0:0:
256,192,187961,1,8,0:0:0:0:
256,192,188066,1,0,0:0:0:0:
256,192,188277,1,4,0:0:0:0:
256,192,188489,1,8,0:0:0:0:
256,192,188594,1,8,0:0:0:0:
256,192,188700,1,0,0:0:0:0:
256,192,188911,1,8,0:0:0:0:
256,192,189123,1,4,0:0:0:0:
256,192,189334,1,8,0:0:0:0:
256,192,189439,1,0,0:0:0:0:
256,192,189545,1,8,0:0:0:0:
256,192,189756,1,8,0:0:0:0:
256,192,189968,1,4,0:0:0:0:
256,192,190179,1,8,0:0:0:0:
256,192,190284,1,8,0:0:0:0:
256,192,190390,1,0,0:0:0:0:
256,192,190601,1,8,0:0:0:0:
256,192,190707,1,0,0:0:0:0:
256,192,190813,1,8,0:0:0:0:
256,192,190918,1,8,0:0:0:0:
256,192,191024,1,0,0:0:0:0:
256,192,191130,1,0,0:0:0:0:
256,192,191235,1,8,0:0:0:0:
256,192,191446,1,8,0:0:0:0:
256,192,191552,1,8,0:0:0:0:
256,192,191658,1,4,0:0:0:0:
256,192,191869,1,8,0:0:0:0:
256,192,192080,1,8,0:0:0:0:
256,192,192186,1,8,0:0:0:0:
256,192,192292,1,0,0:0:0:0:
256,192,192397,1,0,0:0:0:0:
256,192,192503,1,8,0:0:0:0:
256,192,192714,1,0,0:0:0:0:
256,192,192925,1,8,0:0:0:0:
256,192,193031,1,0,0:0:0:0:
256,192,193137,1,8,0:0:0:0:
256,192,193242,1,8,0:0:0:0:
256,192,193348,1,4,0:0:0:0:
256,192,193559,1,8,0:0:0:0:
256,192,193770,1,0,0:0:0:0:
256,192,193876,1,8,0:0:0:0:
256,192,193982,1,8,0:0:0:0:
256,192,194087,1,0,0:0:0:0:
256,192,194193,1,8,0:0:0:0:
256,192,194404,1,0,0:0:0:0:
256,192,194615,1,8,0:0:0:0:
256,192,194721,1,8,0:0:0:0:
256,192,194827,1,0,0:0:0:0:
256,192,195038,1,4,0:0:0:0:
256,192,195249,1,8,0:0:0:0:
256,192,195355,1,8,0:0:0:0:
256,192,195461,1,0,0:0:0:0:
256,192,195672,1,8,0:0:0:0:
256,192,195883,1,4,0:0:0:0:
256,192,196094,1,0,0:0:0:0:
256,192,196200,1,0,0:0:0:0:
256,192,196306,1,8,0:0:0:0:
256,192,196517,1,8,0:0:0:0:
256,192,196728,1,4,0:0:0:0:
256,192,196939,1,8,0:0:0:0:
256,192,197045,1,8,0:0:0:0:
256,192,197151,1,4,0:0:0:0:
256,192,197362,1,8,0:0:0:0:
256,192,197468,1,0,0:0:0:0:
256,192,197573,1,8,0:0:0:0:
256,192,197644,1,8,0:0:0:0:
256,192,197714,1,8,0:0:0:0:
256,192,197784,1,0,0:0:0:0:
256,192,197890,1,0,0:0:0:0:
256,192,197996,1,8,0:0:0:0:
256,192,198101,1,0,0:0:0:0:
256,192,198207,1,8,0:0:0:0:
256,192,198313,1,8,0:0:0:0:
256,192,198418,1,4,0:0:0:0:
256,192,198630,12,0,204968,0:0:0:0:
256,192,205179,5,8,0:0:0:0:
256,192,205390,1,8,0:0:0:0:
256,192,205496,1,0,0:0:0:0:
256,192,205601,1,8,0:0:0:0:
256,192,205813,1,8,0:0:0:0:
256,192,206024,1,0,0:0:0:0:
256,192,206130,1,8,0:0:0:0:
256,192,206341,1,0,0:0:0:0:
256,192,206446,1,8,0:0:0:0:
256,192,206658,1,0,0:0:0:0:
256,192,206869,1,8,0:0:0:0:
256,192,207080,1,0,0:0:0:0:
256,192,207186,1,0,0:0:0:0:
256,192,207292,1,0,0:0:0:0:
256,192,207503,1,8,0:0:0:0:
256,192,207714,1,0,0:0:0:0:
256,192,207820,1,8,0:0:0:0:
256,192,208031,1,0,0:0:0:0:
256,192,208137,1,8,0:0:0:0:
256,192,208348,1,0,0:0:0:0:
256,192,208559,1,8,0:0:0:0:
256,192,208770,1,8,0:0:0:0:
256,192,208876,1,0,0:0:0:0:
256,192,208982,1,8,0:0:0:0:
256,192,209193,1,8,0:0:0:0:
256,192,209404,1,0,0:0:0:0:
256,192,209510,1,8,0:0:0:0:
256,192,209721,1,0,0:0:0:0:
256,192,209827,1,8,0:0:0:0:
256,192,210038,1,0,0:0:0:0:
256,192,210249,1,8,0:0:0:0:
256,192,210461,1,0,0:0:0:0:
256,192,210566,1,0,0:0:0:0:
256,192,210672,1,0,0:0:0:0:
256,192,210883,1,8,0:0:0:0:
256,192,211094,1,0,0:0:0:0:
256,192,211200,1,8,0:0:0:0:
256,192,211411,1,0,0:0:0:0:
256,192,211517,1,8,0:0:0:0:
256,192,211728,1,0,0:0:0:0:
256,192,211939,1,8,0:0:0:0:
256,192,212151,1,0,0:0:0:0:
256,192,212362,1,0,0:0:0:0:
256,192,212573,1,8,0:0:0:0:
256,192,212784,1,0,0:0:0:0:
256,192,212890,1,8,0:0:0:0:
256,192,213101,1,0,0:0:0:0:
256,192,213207,1,8,0:0:0:0:
256,192,213418,1,0,0:0:0:0:
256,192,213630,1,8,0:0:0:0:
256,192,213841,1,0,0:0:0:0:
256,192,214052,1,0,0:0:0:0:
256,192,214263,1,8,0:0:0:0:
256,192,214475,1,0,0:0:0:0:
256,192,214580,1,8,0:0:0:0:
256,192,214792,1,0,0:0:0:0:
256,192,214897,1,8,0:0:0:0:
256,192,215108,1,8,0:0:0:0:
256,192,215320,1,0,0:0:0:0:
256,192,215531,1,0,0:0:0:0:
256,192,215742,1,0,0:0:0:0:
256,192,215953,1,8,0:0:0:0:
256,192,216165,1,0,0:0:0:0:
256,192,216270,1,8,0:0:0:0:
256,192,216482,1,0,0:0:0:0:
256,192,216587,1,8,0:0:0:0:
256,192,216799,1,0,0:0:0:0:
256,192,217010,1,8,0:0:0:0:
256,192,217221,1,0,0:0:0:0:
256,192,217432,1,0,0:0:0:0:
256,192,217644,1,8,0:0:0:0:
256,192,217855,1,0,0:0:0:0:
256,192,217961,1,8,0:0:0:0:
256,192,218066,1,8,0:0:0:0:
256,192,218172,1,0,0:0:0:0:
256,192,218277,1,8,0:0:0:0:
256,192,218383,1,0,0:0:0:0:
256,192,218489,1,8,0:0:0:0:
256,192,218594,1,8,0:0:0:0:
256,192,218700,1,0,0:0:0:0:
256,192,218911,1,8,0:0:0:0:
256,192,219017,1,8,0:0:0:0:
256,192,219123,1,0,0:0:0:0:
256,192,219334,1,8,0:0:0:0:
256,192,219545,1,0,0:0:0:0:
256,192,219651,1,8,0:0:0:0:
256,192,219862,1,0,0:0:0:0:
256,192,219968,1,8,0:0:0:0:
256,192,220179,1,0,0:0:0:0:
256,192,220390,1,8,0:0:0:0:
256,192,220601,1,8,0:0:0:0:
256,192,220707,1,0,0:0:0:0:
256,192,220813,1,8,0:0:0:0:
256,192,221024,1,8,0:0:0:0:
256,192,221235,1,0,0:0:0:0:
256,192,221341,1,8,0:0:0:0:
256,192,221552,1,0,0:0:0:0:
256,192,221658,1,8,0:0:0:0:
256,192,221869,1,0,0:0:0:0:
256,192,222080,1,8,0:0:0:0:
256,192,222292,1,8,0:0:0:0:
256,192,222397,1,8,0:0:0:0:
256,192,222503,1,0,0:0:0:0:
256,192,222714,1,8,0:0:0:0:
256,192,222925,1,0,0:0:0:0:
256,192,223031,1,8,0:0:0:0:
256,192,223242,1,0,0:0:0:0:
256,192,223348,1,8,0:0:0:0:
256,192,223559,1,0,0:0:0:0:
256,192,223770,1,8,0:0:0:0:
256,192,223982,1,8,0:0:0:0:
256,192,224087,1,0,0:0:0:0:
256,192,224193,1,8,0:0:0:0:
256,192,224404,1,8,0:0:0:0:
256,192,224615,1,0,0:0:0:0:
256,192,224721,1,8,0:0:0:0:
256,192,224932,1,0,0:0:0:0:
256,192,225038,1,8,0:0:0:0:
256,192,225249,1,0,0:0:0:0:
256,192,225461,1,8,0:0:0:0:
256,192,225672,1,8,0:0:0:0:
256,192,225777,1,8,0:0:0:0:
256,192,225883,1,0,0:0:0:0:
256,192,226094,1,8,0:0:0:0:
256,192,226306,1,0,0:0:0:0:
256,192,226411,1,8,0:0:0:0:
256,192,226623,1,0,0:0:0:0:
256,192,226728,1,8,0:0:0:0:
256,192,226939,1,0,0:0:0:0:
256,192,227151,1,8,0:0:0:0:
256,192,227362,1,0,0:0:0:0:
256,192,227468,1,0,0:0:0:0:
256,192,227573,1,8,0:0:0:0:
256,192,227784,1,8,0:0:0:0:
256,192,227996,1,0,0:0:0:0:
256,192,228101,1,8,0:0:0:0:
256,192,228313,1,0,0:0:0:0:
256,192,228418,1,8,0:0:0:0:
256,192,228630,1,8,0:0:0:0:
256,192,228841,1,0,0:0:0:0:
256,192,229052,1,8,0:0:0:0:
256,192,229158,1,8,0:0:0:0:
256,192,229263,1,0,0:0:0:0:
256,192,229475,1,8,0:0:0:0:
256,192,229686,1,0,0:0:0:0:
256,192,229792,1,8,0:0:0:0:
256,192,230003,1,0,0:0:0:0:
256,192,230108,1,8,0:0:0:0:
256,192,230320,1,0,0:0:0:0:
256,192,230531,1,8,0:0:0:0:
256,192,230742,1,0,0:0:0:0:
256,192,230848,1,0,0:0:0:0:
256,192,230953,1,8,0:0:0:0:
256,192,231165,1,8,0:0:0:0:
256,192,231376,1,0,0:0:0:0:
256,192,231482,1,8,0:0:0:0:
256,192,231693,1,0,0:0:0:0:
256,192,231799,1,8,0:0:0:0:
256,192,232010,1,8,0:0:0:0:
256,192,232221,1,0,0:0:0:0:
256,192,233700,12,0,240672,0:0:0:0:
256,192,242364,5,0,0:0:0:0:
256,192,242636,1,8,0:0:0:0:
256,192,242773,1,0,0:0:0:0:
256,192,242909,1,8,0:0:0:0:
256,192,243045,1,0,0:0:0:0:
256,192,243182,1,8,0:0:0:0:
256,192,243318,1,8,0:0:0:0:
256,192,243454,1,0,0:0:0:0:
256,192,243727,1,0,0:0:0:0:
256,192,244000,1,8,0:0:0:0:
256,192,244273,1,0,0:0:0:0:
256,192,244545,1,8,0:0:0:0:
256,192,244682,1,0,0:0:0:0:
256,192,244818,1,8,0:0:0:0:
256,192,244954,1,8,0:0:0:0:
256,192,245091,1,0,0:0:0:0:
256,192,245364,1,8,0:0:0:0:
256,192,245636,1,8,0:0:0:0:
256,192,245909,1,0,0:0:0:0:
256,192,246182,1,8,0:0:0:0:
256,192,246727,1,0,0:0:0:0:
256,192,246864,1,8,0:0:0:0:
256,192,247000,1,8,0:0:0:0:
256,192,247136,1,0,0:0:0:0:
256,192,247273,1,8,0:0:0:0:
256,192,247545,1,8,0:0:0:0:
256,192,247682,1,8,0:0:0:0:
256,192,247818,1,0,0:0:0:0:
256,192,248091,1,0,0:0:0:0:
256,192,248364,1,8,0:0:0:0:
256,192,248636,1,0,0:0:0:0:
256,192,248909,1,8,0:0:0:0:
256,192,249045,1,0,0:0:0:0:
256,192,249182,1,8,0:0:0:0:
256,192,249318,1,8,0:0:0:0:
256,192,249454,1,0,0:0:0:0:
256,192,249591,1,0,0:0:0:0:
256,192,249727,1,8,0:0:0:0:
256,192,249864,1,8,0:0:0:0:
256,192,250000,1,0,0:0:0:0:
256,192,250273,1,0,0:0:0:0:
256,192,250545,1,8,0:0:0:0:
256,192,251636,1,0,0:0:0:0:
256,192,252182,1,8,0:0:0:0:
256,192,252727,1,8,0:0:0:0:
256,192,253273,1,0,0:0:0:0:
256,192,253409,1,8,0:0:0:0:
256,192,253545,1,8,0:0:0:0:
256,192,253682,1,0,0:0:0:0:
256,192,253818,1,8,0:0:0:0:
256,192,253954,1,0,0:0:0:0:
256,192,254091,1,8,0:0:0:0:
256,192,254227,1,8,0:0:0:0:
256,192,254364,1,0,0:0:0:0:
256,192,254636,1,8,0:0:0:0:
256,192,254909,1,8,0:0:0:0:
256,192,255182,1,0,0:0:0:0:
256,192,255454,1,8,0:0:0:0:
256,192,255591,1,0,0:0:0:0:
256,192,255727,1,8,0:0:0:0:
256,192,255864,1,8,0:0:0:0:
256,192,256000,1,0,0:0:0:0:
256,192,256136,1,8,0:0:0:0:
256,192,256273,1,8,0:0:0:0:
256,192,256409,1,0,0:0:0:0:
256,192,256545,1,8,0:0:0:0:
256,192,256682,1,0,0:0:0:0:
256,192,256818,1,8,0:0:0:0:
256,192,256954,1,8,0:0:0:0:
256,192,257091,1,0,0:0:0:0:
256,192,257636,1,0,0:0:0:0:
256,192,257909,1,8,0:0:0:0:
256,192,258045,1,8,0:0:0:0:
256,192,258318,1,0,0:0:0:0:
256,192,258454,1,8,0:0:0:0:
256,192,258591,1,8,0:0:0:0:
256,192,258727,1,0,0:0:0:0:
256,192,259000,1,0,0:0:0:0:
256,192,259273,1,8,0:0:0:0:
256,192,259818,12,0,265390,0:0:0:0:
256,192,268543,5,8,0:0:0:0:
256,192,268965,1,8,0:0:0:0:
256,192,269388,1,0,0:0:0:0:
256,192,269704,1,0,0:0:0:0:
256,192,269810,1,0,0:0:0:0:
256,192,270021,1,0,0:0:0:0:
256,192,270233,1,4,0:0:0:0:
256,192,270444,1,8,0:0:0:0:
256,192,270655,1,8,0:0:0:0:
256,192,270761,1,8,0:0:0:0:
256,192,270866,1,0,0:0:0:0:
256,192,270972,1,0,0:0:0:0:
256,192,271078,1,8,0:0:0:0:
256,192,271289,1,0,0:0:0:0:
256,192,271500,1,8,0:0:0:0:
256,192,271606,1,0,0:0:0:0:
256,192,271712,1,8,0:0:0:0:
256,192,271817,1,8,0:0:0:0:
256,192,271923,1,4,0:0:0:0:
256,192,272134,1,8,0:0:0:0:
256,192,272345,1,0,0:0:0:0:
256,192,272451,1,8,0:0:0:0:
256,192,272557,1,8,0:0:0:0:
256,192,272662,1,0,0:0:0:0:
256,192,272768,1,8,0:0:0:0:
256,192,272979,1,0,0:0:0:0:
256,192,273190,1,8,0:0:0:0:
256,192,273296,1,0,0:0:0:0:
256,192,273402,1,8,0:0:0:0:
256,192,273507,1,8,0:0:0:0:
256,192,273613,1,4,0:0:0:0:
256,192,273824,1,0,0:0:0:0:
256,192,273930,1,0,0:0:0:0:
256,192,274035,1,8,0:0:0:0:
256,192,274247,1,8,0:0:0:0:
256,192,274352,1,8,0:0:0:0:
256,192,274458,1,4,0:0:0:0:
256,192,274669,1,0,0:0:0:0:
256,192,274775,1,0,0:0:0:0:
256,192,274881,1,8,0:0:0:0:
256,192,275092,1,8,0:0:0:0:
256,192,275197,1,8,0:0:0:0:
256,192,275303,1,4,0:0:0:0:
256,192,275514,1,8,0:0:0:0:
256,192,275620,1,8,0:0:0:0:
256,192,275726,1,4,0:0:0:0:
256,192,275937,1,8,0:0:0:0:
256,192,276043,1,0,0:0:0:0:
256,192,276148,1,8,0:0:0:0:
256,192,276254,1,8,0:0:0:0:
256,192,276359,1,0,0:0:0:0:
256,192,276571,1,8,0:0:0:0:
256,192,276782,1,8,0:0:0:0:
256,192,276888,1,8,0:0:0:0:
256,192,276993,1,4,0:0:0:0:
256,192,277204,1,8,0:0:0:0:
256,192,277416,1,8,0:0:0:0:
256,192,277521,1,8,0:0:0:0:
256,192,277627,1,0,0:0:0:0:
256,192,277733,1,0,0:0:0:0:
256,192,277838,1,8,0:0:0:0:
256,192,278050,1,0,0:0:0:0:
256,192,278261,1,8,0:0:0:0:
256,192,278366,1,0,0:0:0:0:
256,192,278472,1,8,0:0:0:0:
256,192,278578,1,8,0:0:0:0:
256,192,278683,1,4,0:0:0:0:
256,192,278895,1,8,0:0:0:0:
256,192,279106,1,0,0:0:0:0:
256,192,279212,1,8,0:0:0:0:
256,192,279317,1,8,0:0:0:0:
256,192,279423,1,0,0:0:0:0:
256,192,279528,1,8,0:0:0:0:
256,192,279740,1,0,0:0:0:0:
256,192,279951,1,8,0:0:0:0:
256,192,280057,1,0,0:0:0:0:
256,192,280162,1,8,0:0:0:0:
256,192,280268,1,8,0:0:0:0:
256,192,280373,1,4,0:0:0:0:
256,192,280585,1,0,0:0:0:0:
256,192,280690,1,0,0:0:0:0:
256,192,280796,1,8,0:0:0:0:
256,192,281007,1,8,0:0:0:0:
256,192,281113,1,8,0:0:0:0:
256,192,281219,1,4,0:0:0:0:
256,192,281430,1,0,0:0:0:0:
256,192,281535,1,0,0:0:0:0:
256,192,281641,1,8,0:0:0:0:
256,192,281852,1,8,0:0:0:0:
256,192,281958,1,8,0:0:0:0:
256,192,282064,1,4,0:0:0:0:
256,192,282275,1,8,0:0:0:0:
256,192,282381,1,8,0:0:0:0:
256,192,282486,1,4,0:0:0:0:
256,192,282697,1,8,0:0:0:0:
256,192,282803,1,0,0:0:0:0:
256,192,282909,1,8,0:0:0:0:
256,192,283014,1,8,0:0:0:0:
256,192,283120,1,0,0:0:0:0:
256,192,283331,1,8,0:0:0:0:
256,192,283437,1,0,0:0:0:0:
256,192,283543,1,8,0:0:0:0:
256,192,283648,1,8,0:0:0:0:
256,192,283754,1,4,0:0:0:0:
256,192,283965,1,0,0:0:0:0:
256,192,284071,1,0,0:0:0:0:
256,192,284176,1,8,0:0:0:0:
256,192,284388,1,0,0:0:0:0:
256,192,284493,1,0,0:0:0:0:
256,192,284599,1,8,0:0:0:0:
256,192,284810,1,0,0:0:0:0:
256,192,285021,1,8,0:0:0:0:
256,192,285127,1,0,0:0:0:0:
256,192,285233,1,8,0:0:0:0:
256,192,285338,1,8,0:0:0:0:
256,192,285444,1,4,0:0:0:0:
256,192,285655,1,8,0:0:0:0:
256,192,285761,1,0,0:0:0:0:
256,192,285866,1,8,0:0:0:0:
256,192,285972,1,8,0:0:0:0:
256,192,286078,1,0,0:0:0:0:
256,192,286183,1,0,0:0:0:0:
256,192,286289,1,8,0:0:0:0:
256,192,286500,1,0,0:0:0:0:
256,192,286712,1,8,0:0:0:0:
256,192,286817,1,0,0:0:0:0:
256,192,286923,1,8,0:0:0:0:
256,192,287028,1,8,0:0:0:0:
256,192,287134,1,4,0:0:0:0:
256,192,287345,1,0,0:0:0:0:
256,192,287451,1,8,0:0:0:0:
256,192,287557,1,8,0:0:0:0:
256,192,287662,1,0,0:0:0:0:
256,192,287768,1,8,0:0:0:0:
256,192,287873,1,8,0:0:0:0:
256,192,287979,1,4,0:0:0:0:
256,192,288190,1,8,0:0:0:0:
256,192,288296,1,8,0:0:0:0:
256,192,288402,1,8,0:0:0:0:
256,192,288507,1,0,0:0:0:0:
256,192,288613,1,8,0:0:0:0:
256,192,288719,1,8,0:0:0:0:
256,192,288824,1,4,0:0:0:0:
256,192,289035,1,8,0:0:0:0:
256,192,289141,1,8,0:0:0:0:
256,192,289247,1,4,0:0:0:0:
256,192,289458,1,8,0:0:0:0:
256,192,289564,1,0,0:0:0:0:
256,192,289669,1,8,0:0:0:0:
256,192,289775,1,8,0:0:0:0:
256,192,289881,1,0,0:0:0:0:
256,192,290092,1,8,0:0:0:0:
256,192,290197,1,0,0:0:0:0:
256,192,290303,1,8,0:0:0:0:
256,192,290409,1,8,0:0:0:0:
256,192,290514,1,4,0:0:0:0:
256,192,290726,1,8,0:0:0:0:
256,192,290831,1,0,0:0:0:0:
256,192,290937,1,8,0:0:0:0:
256,192,291043,1,8,0:0:0:0:
256,192,291148,1,8,0:0:0:0:
256,192,291254,1,0,0:0:0:0:
256,192,291359,1,8,0:0:0:0:
256,192,291465,1,8,0:0:0:0:
256,192,291571,1,0,0:0:0:0:
256,192,291676,1,0,0:0:0:0:
256,192,291782,1,8,0:0:0:0:
256,192,291888,1,0,0:0:0:0:
256,192,291993,1,8,0:0:0:0:
256,192,292099,1,8,0:0:0:0:
256,192,292204,1,4,0:0:0:0:
256,192,292416,1,8,0:0:0:0:
256,192,292521,1,0,0:0:0:0:
256,192,292627,1,8,0:0:0:0:
256,192,292733,1,8,0:0:0:0:
256,192,292838,1,0,0:0:0:0:
256,192,292944,1,0,0:0:0:0:
256,192,293050,1,8,0:0:0:0:
256,192,293155,1,8,0:0:0:0:
256,192,293261,1,8,0:0:0:0:
256,192,293366,1,0,0:0:0:0:
256,192,293472,1,8,0:0:0:0:
256,192,293578,1,0,0:0:0:0:
256,192,293683,1,8,0:0:0:0:
256,192,293789,1,8,0:0:0:0:
256,192,293895,1,4,0:0:0:0:
256,192,294106,1,0,0:0:0:0:
256,192,294212,1,8,0:0:0:0:
256,192,294317,1,8,0:0:0:0:
256,192,294423,1,0,0:0:0:0:
256,192,294528,1,8,0:0:0:0:
256,192,294634,1,8,0:0:0:0:
256,192,294740,1,4,0:0:0:0:
256,192,294951,1,8,0:0:0:0:
256,192,295057,1,0,0:0:0:0:
256,192,295162,1,8,0:0:0:0:
256,192,295268,1,0,0:0:0:0:
256,192,295373,1,8,0:0:0:0:
256,192,295479,1,8,0:0:0:0:
256,192,295585,1,4,0:0:0:0:
256,192,295796,1,8,0:0:0:0:
256,192,295902,1,8,0:0:0:0:
256,192,296007,1,0,0:0:0:0:
256,192,296113,1,0,0:0:0:0:
256,192,296219,1,8,0:0:0:0:
256,192,296324,1,8,0:0:0:0:
256,192,296430,1,4,0:0:0:0:
256,192,296641,1,8,0:0:0:0:
256,192,296747,1,8,0:0:0:0:
256,192,296852,1,8,0:0:0:0:
256,192,296958,1,0,0:0:0:0:
256,192,297064,1,8,0:0:0:0:
256,192,297169,1,8,0:0:0:0:
256,192,297275,1,4,0:0:0:0:
256,192,297486,1,8,0:0:0:0:
256,192,297592,1,0,0:0:0:0:
256,192,297697,1,8,0:0:0:0:
256,192,297803,1,8,0:0:0:0:
256,192,297909,1,0,0:0:0:0:
256,192,298014,1,0,0:0:0:0:
256,192,298120,1,8,0:0:0:0:
256,192,298226,1,8,0:0:0:0:
256,192,298331,1,0,0:0:0:0:
256,192,298437,1,0,0:0:0:0:
256,192,298543,1,8,0:0:0:0:
256,192,298754,1,8,0:0:0:0:
256,192,298859,1,8,0:0:0:0:
256,192,298965,1,4,0:0:0:0:
256,192,299176,1,0,0:0:0:0:
256,192,299282,1,8,0:0:0:0:
256,192,299388,1,8,0:0:0:0:
256,192,299493,1,0,0:0:0:0:
256,192,299599,1,8,0:0:0:0:
256,192,299704,1,0,0:0:0:0:
256,192,299810,1,8,0:0:0:0:
256,192,299916,1,8,0:0:0:0:
256,192,300021,1,0,0:0:0:0:
256,192,300127,1,0,0:0:0:0:
256,192,300233,1,8,0:0:0:0:
256,192,300444,1,8,0:0:0:0:
256,192,300550,1,8,0:0:0:0:
256,192,300655,1,4,0:0:0:0:
256,192,300866,1,8,0:0:0:0:
256,192,300972,1,0,0:0:0:0:
256,192,301078,1,8,0:0:0:0:
256,192,301183,1,0,0:0:0:0:
256,192,301289,1,8,0:0:0:0:
256,192,301395,1,8,0:0:0:0:
256,192,301500,1,4,0:0:0:0:
256,192,301712,1,8,0:0:0:0:
256,192,301817,1,8,0:0:0:0:
256,192,301923,1,8,0:0:0:0:
256,192,302028,1,0,0:0:0:0:
256,192,302134,1,8,0:0:0:0:
256,192,302240,1,8,0:0:0:0:
256,192,302345,1,4,0:0:0:0:
256,192,302557,1,0,0:0:0:0:
256,192,302662,1,0,0:0:0:0:
256,192,302768,1,8,0:0:0:0:
256,192,302979,1,0,0:0:0:0:
256,192,303085,1,0,0:0:0:0:
256,192,303190,1,8,0:0:0:0:
256,192,303402,1,0,0:0:0:0:
256,192,303613,1,8,0:0:0:0:
256,192,303719,1,0,0:0:0:0:
256,192,303824,1,8,0:0:0:0:
256,192,303930,1,8,0:0:0:0:
256,192,304035,1,4,0:0:0:0:
256,192,304247,1,8,0:0:0:0:
256,192,304352,1,0,0:0:0:0:
256,192,304458,1,8,0:0:0:0:
256,192,304564,1,8,0:0:0:0:
256,192,304669,1,8,0:0:0:0:
256,192,304775,1,0,0:0:0:0:
256,192,304881,1,8,0:0:0:0:
256,192,304986,1,8,0:0:0:0:
256,192,305092,1,0,0:0:0:0:
256,192,305197,1,0,0:0:0:0:
256,192,305303,1,8,0:0:0:0:
256,192,305409,1,0,0:0:0:0:
256,192,305514,1,8,0:0:0:0:
256,192,305620,1,8,0:0:0:0:
256,192,305726,1,4,0:0:0:0:
256,192,305937,1,0,0:0:0:0:
256,192,306043,1,8,0:0:0:0:
256,192,306148,1,8,0:0:0:0:
256,192,306254,1,0,0:0:0:0:
256,192,306359,1,8,0:0:0:0:
256,192,306465,1,0,0:0:0:0:
256,192,306571,1,8,0:0:0:0:
256,192,306676,1,8,0:0:0:0:
256,192,306782,1,8,0:0:0:0:
256,192,306888,1,0,0:0:0:0:
256,192,306993,1,8,0:0:0:0:
256,192,307099,1,0,0:0:0:0:
256,192,307204,1,8,0:0:0:0:
256,192,307310,1,8,0:0:0:0:
256,192,307416,1,4,0:0:0:0:
256,192,307627,1,8,0:0:0:0:
256,192,307733,1,0,0:0:0:0:
256,192,307838,1,8,0:0:0:0:
256,192,307944,1,0,0:0:0:0:
256,192,308050,1,8,0:0:0:0:
256,192,308155,1,8,0:0:0:0:
256,192,308261,1,4,0:0:0:0:
256,192,308472,1,0,0:0:0:0:
256,192,308578,1,8,0:0:0:0:
256,192,308683,1,8,0:0:0:0:
256,192,308789,1,0,0:0:0:0:
256,192,308895,1,8,0:0:0:0:
256,192,309000,1,0,0:0:0:0:
256,192,309106,1,8,0:0:0:0:
256,192,309212,1,8,0:0:0:0:
256,192,309317,1,0,0:0:0:0:
256,192,309528,1,8,0:0:0:0:
256,192,309740,1,0,0:0:0:0:
256,192,309845,1,0,0:0:0:0:
256,192,309951,1,8,0:0:0:0:
