osu file format v14

[General]
AudioFilename: audio.mp3
AudioLeadIn: 0
PreviewTime: 143911
Countdown: 0
SampleSet: Soft
StackLeniency: 0.4
Mode: 0
LetterboxInBreaks: 0
WidescreenStoryboard: 1

[Editor]
Bookmarks: 252182
DistanceSpacing: 1.3
BeatDivisor: 4
GridSize: 4
TimelineZoom: 1.7

[Metadata]
Title:Nobore! Susume! Takai Tou
TitleUnicode:のぼれ!すすめ!高い塔
Artist:KikuoHana
ArtistUnicode:きくおはな
Creator:Kuron-kun
Version:The Tragic Story of the Great Tower
Source:
Tags:きくお 花たん Hanatan YURiCa 第一幕 Daiichimaku SCGA-00045 Eraser ghm12 marathon
BeatmapID:1228631
BeatmapSetID:580273

[Difficulty]
HPDrainRate:5
CircleSize:4
OverallDifficulty:8
ApproachRate:9.5
SliderMultiplier:1.8
SliderTickRate:1

[Events]
//Background and Video events
0,0,"alice.jpg",0,0
//Break Periods
//Storyboard Layer 0 (Background)
//Storyboard Layer 1 (Fail)
//Storyboard Layer 2 (Pass)
//Storyboard Layer 3 (Foreground)
//Storyboard Sound Samples

[TimingPoints]
408,545.454545454546,4,2,1,60,1,0
9123,422.535211267606,4,2,1,60,1,0
9439,-100,4,2,1,5,0,0
9545,-100,4,2,1,60,0,0
9862,-100,4,2,1,5,0,0
9968,-100,4,2,1,60,0,0
10284,-100,4,2,1,5,0,0
10390,-100,4,2,1,60,0,0
10707,-100,4,2,1,5,0,0
10813,-100,4,2,1,60,0,0
11130,-100,4,2,1,5,0,0
11235,-100,4,2,1,60,0,0
12186,-100,4,2,1,5,0,0
12292,-100,4,2,1,60,0,0
12397,-100,4,2,1,5,0,0
12503,-100,4,2,1,60,0,0
12820,-100,4,2,1,5,0,0
12925,-100,4,2,1,60,0,0
13242,-100,4,2,1,5,0,0
13348,-100,4,2,1,60,0,0
13665,-100,4,2,1,5,0,0
13770,-100,4,2,1,60,0,0
14087,-100,4,2,1,5,0,0
14193,-100,4,2,1,60,0,0
14510,-100,4,2,1,5,0,0
14615,-100,4,2,1,60,0,0
14932,-100,4,2,1,5,0,0
15038,-100,4,2,1,60,0,0
15249,-100,4,2,1,5,0,0
15355,-100,4,2,1,60,0,0
18418,-133.333333333333,4,2,1,60,0,0
18735,-66.6666666666667,4,2,1,60,0,0
18946,-66.6666666666667,4,2,1,5,0,0
19052,-66.6666666666667,4,2,1,60,0,0
19263,-133.333333333333,4,2,1,60,0,0
19475,-133.333333333333,4,2,1,5,0,0
19580,-66.6666666666667,4,2,1,60,0,0
19792,-66.6666666666667,4,2,1,5,0,0
19897,-66.6666666666667,4,2,1,60,0,0
20108,-133.333333333333,4,2,1,60,0,0
20425,-66.6666666666667,4,2,1,60,0,0
20637,-66.6666666666667,4,2,1,5,0,0
20742,-66.6666666666667,4,2,1,60,0,0
22644,-133.333333333333,4,2,1,60,0,1
27714,-100,4,2,1,60,0,1
29404,-100,4,2,2,60,0,0
31094,-100,4,2,2,60,0,0
32256,-100,4,2,1,60,0,0
32573,-100,4,2,1,60,0,0
32679,-100,4,2,1,5,0,0
32784,-76.9230769230769,4,2,1,60,0,0
33207,-100,4,2,2,60,0,0
34475,-133.333333333333,4,2,1,60,0,0
39968,-76.9230769230769,4,2,1,60,0,0
40073,-76.9230769230769,4,2,1,5,0,0
40179,-76.9230769230769,4,2,1,60,0,0
40284,-76.9230769230769,4,2,1,5,0,0
40390,-133.333333333333,4,2,1,60,0,0
40813,-76.9230769230769,4,2,1,60,0,0
40918,-76.9230769230769,4,2,1,5,0,0
41024,-76.9230769230769,4,2,1,60,0,0
41130,-76.9230769230769,4,2,1,5,0,0
41235,-100,4,2,1,60,0,0
42080,-66.6666666666667,4,2,1,60,0,0
42397,-66.6666666666667,4,2,1,5,0,0
42503,-133.333333333333,4,2,2,60,0,0
42608,-133.333333333333,4,2,1,5,0,0
42714,-133.333333333333,4,2,2,60,0,0
42820,-133.333333333333,4,2,1,5,0,0
42925,-133.333333333333,4,2,1,60,0,1
47996,-100,4,2,1,60,0,1
49052,-111.111111111111,4,2,1,60,0,1
49263,-125,4,2,1,60,0,1
49475,-142.857142857143,4,2,1,60,0,1
49686,-100,4,2,2,60,0,0
50003,-100,4,2,2,5,0,0
50108,-100,4,2,2,60,0,0
50425,-100,4,2,2,5,0,0
50531,-100,4,2,2,60,0,0
50848,-100,4,2,2,5,0,0
50953,-100,4,2,2,60,0,0
51270,-100,4,2,2,5,0,0
51376,-100,4,2,2,60,0,0
51693,-100,4,2,2,5,0,0
51799,-100,4,2,2,60,0,0
52115,-100,4,2,2,5,0,0
52221,-100,4,2,2,60,0,0
52855,-83.3333333333333,4,2,2,60,0,0
53066,-76.9230769230769,4,2,2,60,0,0
53383,-76.9230769230769,4,2,1,5,0,0
53489,-76.9230769230769,4,2,2,60,0,0
53806,-76.9230769230769,4,2,2,5,0,0
53911,-76.9230769230769,4,2,2,60,0,0
54228,-76.9230769230769,4,2,2,5,0,0
54334,-76.9230769230769,4,2,2,60,0,0
54756,-76.9230769230769,4,2,1,60,0,0
56975,-76.9230769230769,4,2,1,5,0,0
57080,-76.9230769230769,4,2,1,60,0,0
57820,-76.9230769230769,4,2,1,5,0,0
57925,-76.9230769230769,4,2,1,60,0,0
58665,-76.9230769230769,4,2,1,5,0,0
58770,-76.9230769230769,4,2,1,60,0,0
59510,-76.9230769230769,4,2,1,5,0,0
59615,-76.9230769230769,4,2,1,60,0,0
59721,-76.9230769230769,4,2,1,5,0,0
59827,-76.9230769230769,4,2,1,60,0,0
62573,-100,4,2,1,60,0,0
62679,-100,4,2,1,5,0,0
62784,-166.666666666667,4,2,1,60,0,0
63101,-166.666666666667,4,2,1,5,0,0
63207,-133.333333333333,4,2,1,60,0,1
69123,-133.333333333333,4,2,1,60,0,0
69228,-133.333333333333,4,2,1,5,0,0
69334,-133.333333333333,4,2,1,60,0,0
69439,-133.333333333333,4,2,1,5,0,0
69545,-133.333333333333,4,2,1,60,0,0
69651,-133.333333333333,4,2,1,5,0,0
69756,-133.333333333333,4,2,1,60,0,0
69862,-133.333333333333,4,2,1,5,0,0
69968,-100,4,2,1,60,0,1
80531,-86.9565217391304,4,2,1,60,0,1
80742,-76.9230769230769,4,2,1,60,0,1
80953,-100,4,2,1,60,0,1
81376,-86.9565217391304,4,2,1,60,0,1
81587,-76.9230769230769,4,2,1,60,0,1
81799,-83.3333333333333,4,2,1,60,0,1
82644,-133.333333333333,4,2,1,60,0,0
83489,-111.111111111111,4,2,1,60,0,0
93207,-83.3333333333333,4,2,1,60,0,0
95742,-90.9090909090909,4,2,1,60,0,0
96165,-100,4,2,1,60,0,0
97010,-133.333333333333,4,2,1,60,0,0
107151,-117.647058823529,4,2,1,60,0,0
107996,-105.263157894737,4,2,1,60,0,0
108841,-95.2380952380951,4,2,1,60,0,0
109263,-86.9565217391304,4,2,1,60,0,0
109686,-80,4,2,1,60,0,0
110108,-100,4,2,1,60,0,0
110531,-90.9090909090909,4,2,1,60,0,1
116446,-66.6666666666667,4,2,2,60,0,1
116658,-90.9090909090909,4,2,1,60,0,1
117292,-90.9090909090909,4,2,1,60,0,0
122362,-111.111111111111,4,2,1,60,0,0
123207,-90.9090909090909,4,2,1,60,0,0
126799,-90.9090909090909,4,2,2,60,0,0
127010,-90.9090909090909,4,2,1,60,0,0
143489,-200,4,2,1,60,0,0
144334,-83.3333333333333,4,2,1,60,0,1
150672,-100,4,2,1,60,0,1
151094,-83.3333333333333,4,2,1,60,0,1
157010,-66.6666666666667,4,2,2,60,0,0
157221,-66.6666666666667,4,2,1,60,0,0
157855,-83.3333333333333,4,2,1,60,0,1
181517,-76.9230769230769,4,2,1,60,0,1
184052,-62.5,4,2,1,60,0,0
184897,-83.3333333333333,4,2,1,60,0,1
191235,-100,4,2,1,60,0,1
191658,-83.3333333333333,4,2,1,60,0,1
198418,-83.3333333333333,4,2,1,60,0,0
205179,-133.333333333333,4,2,1,60,0,0
218277,-105.263157894737,4,2,1,60,0,0
218489,-86.9565217391303,4,2,1,60,0,0
218700,-133.333333333333,4,2,1,60,0,0
232221,-66.6666666666667,4,2,1,60,0,0
233066,-66.6666666666667,4,2,1,5,0,0
233700,-66.6666666666667,4,2,1,25,0,0
233911,-66.6666666666667,4,2,1,60,0,0
235601,-133.333333333333,4,2,1,60,0,0
242362,545.454545454546,4,2,1,60,1,8
242364,545.454545454546,4,2,2,30,1,0
252182,-90.9090909090909,4,2,2,30,0,0
252727,-83.3333333333333,4,2,2,30,0,0
253273,-100,4,2,2,30,0,0
259818,-151.515151515152,4,2,2,30,0,0
260364,410.958904109589,4,2,2,30,1,8
260569,476.190476190476,4,2,2,30,1,8
260569,-133.333333333333,4,2,2,30,0,0
260807,340.909090909091,4,2,2,30,1,8
260977,410.958904109589,4,2,2,30,1,8
260977,-133.333333333333,4,2,2,30,0,0
261182,340.909090909091,4,2,2,30,1,8
261352,410.958904109589,4,2,2,30,1,8
261352,-133.333333333333,4,2,2,30,0,0
261557,340.909090909091,4,2,2,30,1,8
261727,410.958904109589,4,2,2,30,1,8
261727,-133.333333333333,4,2,2,30,0,0
261932,451.127819548872,4,2,2,30,1,0
262157,422.535211267606,4,2,2,30,1,8
262157,-133.333333333333,4,2,2,30,0,0
262368,405.405405405405,4,2,2,30,1,8
262570,483.870967741935,4,2,2,30,1,8
262570,-133.333333333333,4,2,2,30,0,0
262811,545.454545454546,4,2,2,30,1,8
263083,576.923076923077,4,2,2,30,1,8
263083,-133.333333333333,4,2,2,30,0,0
265390,576.923076923077,4,2,1,60,1,8
266364,545.454545454546,4,2,1,60,1,0
268543,422.535211267606,4,2,1,60,1,0
269388,-133.333333333333,4,2,1,60,0,0
269599,-133.333333333333,4,2,1,5,0,0
269704,-133.333333333333,4,2,1,60,0,0
269810,-100,4,2,1,60,0,0
269916,-100,4,2,1,5,0,0
270021,-100,4,2,1,60,0,0
270127,-100,4,2,1,5,0,0
270233,-76.9230769230769,4,2,1,70,0,1
282909,-76.9230769230769,4,2,1,70,0,0
283754,-76.9230769230769,4,2,1,70,0,1
289881,-76.9230769230769,4,2,2,70,0,1
290514,-76.9230769230769,4,2,1,70,0,1
297275,-66.6666666666667,4,2,1,70,0,1
309951,-100,4,2,1,70,0,0

[Colours]
Combo1 : 154,250,90
Combo2 : 241,69,113
Combo3 : 188,109,218
Combo4 : 84,181,233
Combo5 : 248,233,186

[HitObjects]
96,288,9123,5,0,0:0:0:0:
248,272,9334,2,0,L|240:328,1,45,2|0,0:0|0:0,0:0:0:0:
92,280,9545,1,0,0:0:0:0:
244,264,9756,2,0,L|236:320,1,45,2|0,0:0|0:0,0:0:0:0:
88,272,9968,1,0,0:0:0:0:
240,256,10179,2,0,L|232:312,1,45,2|0,0:0|0:0,0:0:0:0:
84,264,10390,1,0,0:0:0:0:
236,248,10601,2,0,L|228:304,1,45,2|0,0:0|0:0,0:0:0:0:
80,256,10813,1,0,0:0:0:0:
232,240,11024,2,0,L|224:296,1,45,2|0,0:0|0:0,0:0:0:0:
76,248,11235,5,0,0:0:0:0:
72,240,11341,1,0,0:0:0:0:
68,232,11446,1,2,0:0:0:0:
244,164,11658,1,0,0:0:0:0:
144,336,11869,5,2,0:0:0:0:
54,343,11975,2,0,L|154:335,1,90
216,360,12292,2,0,L|288:368,1,45,2|0,0:0|0:0,0:0:0:0:
364,324,12503,5,0,0:0:0:0:
504,352,12714,2,0,L|452:360,1,45,2|0,0:0|0:0,0:0:0:0:
360,316,12925,1,0,0:0:0:0:
500,344,13137,2,0,L|448:352,1,45,2|0,0:0|0:0,0:0:0:0:
356,308,13348,1,0,0:0:0:0:
496,336,13559,2,0,L|444:344,1,45,2|0,0:0|0:0,0:0:0:0:
296,232,13770,1,0,0:0:0:0:
492,328,13982,2,0,L|440:336,1,45,2|0,0:0|0:0,0:0:0:0:
209,280,14193,6,0,L|353:292,1,135,2|0,0:0|0:0,0:0:0:0:
408,200,14615,2,0,B|395:181|392:156|392:156|381:197|411:241,1,135
472,152,15038,2,0,B|504:120|504:120|500:180,1,90,2|0,0:0|0:0,0:0:0:0:
429,80,15355,2,0,P|357:80|309:144,1,135
392,156,15883,5,0,0:0:0:0:
244,56,16094,1,2,0:0:0:0:
235,68,16165,1,0,0:0:0:0:
229,82,16235,1,0,0:0:0:0:
226,96,16306,1,0,0:0:0:0:
392,156,16517,5,2,0:0:0:0:
328,16,16728,1,0,0:0:0:0:
144,100,16939,1,2,0:0:0:0:
146,114,17010,1,0,0:0:0:0:
152,128,17080,1,0,0:0:0:0:
160,141,17151,1,0,0:0:0:0:
315,122,17362,5,2,0:0:0:0:
160,20,17573,1,0,0:0:0:0:
224,232,17784,1,2,0:0:0:0:
232,219,17855,1,0,0:0:0:0:
238,205,17925,1,0,0:0:0:0:
240,191,17996,1,0,0:0:0:0:
160,20,18207,1,2,0:0:0:0:
92,135,18418,2,0,L|182:142,1,67.5000025749208
16,168,18735,6,0,L|180:152,1,135.000005149842,2|0,0:0|0:0,0:0:0:0:
240,108,19052,1,0,0:0:0:0:
176,300,19263,6,0,P|224:320|264:316,1,67.5000025749208
108,356,19580,6,0,P|188:316|240:340,1,135.000005149842,2|0,0:0|0:0,0:0:0:0:
316,376,19897,1,0,0:0:0:0:
444,240,20108,6,0,L|440:312,1,67.5000025749208
316,272,20425,6,0,P|368:268|432:332,1,135.000005149842,2|0,0:0|0:0,0:0:0:0:
484,384,20742,1,0,0:0:0:0:
316,272,20953,5,2,0:0:0:0:
484,384,21165,1,0,0:0:0:0:
400,168,21376,1,2,0:0:0:0:
348,347,21587,1,0,0:0:0:0:
160,260,21799,2,0,L|116:280,7,33.7500012874604,2|0|0|0|0|0|0|0,0:0|0:0|0:0|0:0|0:0|0:0|0:0|0:0,0:0:0:0:
160,244,22221,6,0,L|112:251,1,33.7500012874604,2|0,0:0|0:0,0:0:0:0:
162,230,22327,2,0,L|113:225,1,33.7500012874604
168,218,22432,2,0,L|122:201,1,33.7500012874604,2|0,0:0|0:0,0:0:0:0:
176,207,22538,2,0,L|136:178,1,33.7500012874604
184,196,22644,6,0,P|232:190|292:236,1,101.250003862381,4|0,1:0|0:0,0:0:0:0:
294,300,23066,2,0,L|277:209,1,67.5000025749208,2|0,0:0|0:0,0:0:0:0:
332,72,23489,1,8,0:3:0:0:
324,104,23594,1,0,0:0:0:0:
316,136,23700,1,0,0:0:0:0:
216,56,23911,1,4,0:3:0:0:
184,196,24123,1,2,0:0:0:0:
417,129,24334,6,0,L|289:137,1,101.250003862381,4|0,1:1|0:0,0:0:0:0:
228,128,24756,2,0,P|272:128|304:152,1,67.5000025749208,2|0,0:0|0:0,0:0:0:0:
47,143,25179,1,8,0:3:0:0:
79,135,25284,1,0,0:0:0:0:
111,127,25390,1,0,0:0:0:0:
104,228,25601,1,4,0:3:0:0:
124,24,25813,1,2,0:0:0:0:
180,244,26024,6,0,P|168:272|96:304,1,101.250003862381,4|0,1:0|0:0,0:0:0:0:
0,272,26446,2,0,L|48:280,1,33.7500012874604,2|0,0:0|0:0,0:0:0:0:
8,168,26658,2,0,L|36:207,1,33.7500012874604
92,128,26869,2,0,P|136:132|165:158,1,67.5000025749208,4|0,1:0|0:0,0:0:0:0:
236,156,27186,1,2,0:0:0:0:
236,156,27292,2,0,P|280:152|309:126,1,67.5000025749208,2|2,0:0|0:0,0:0:0:0:
356,92,27608,1,0,0:0:0:0:
424,128,27714,6,0,L|416:184,1,45,4|0,1:0|0:0,0:0:0:0:
340,64,27925,1,2,0:0:0:0:
440,144,28137,2,0,L|432:200,1,45,4|0,1:0|0:0,0:0:0:0:
320,32,28348,1,2,0:0:0:0:
507,215,28559,5,2,0:0:0:0:
494,238,28665,1,0,0:0:0:0:
474,256,28770,1,0,0:0:0:0:
449,266,28876,1,0,0:0:0:0:
422,266,28982,2,0,L|436:316,2,30,2|0|0,0:0|0:0|0:0,0:0:0:0:
356,200,29193,2,0,L|370:150,2,30,2|0|0,0:0|0:0|0:0,0:0:0:0:
272,248,29404,5,4,0:3:0:0:
120,224,29615,1,0,0:0:0:0:
261,253,29827,1,4,0:3:0:0:
115,203,30038,1,0,0:0:0:0:
249,256,30249,1,4,0:3:0:0:
114,182,30461,1,0,0:0:0:0:
237,257,30672,1,4,0:3:0:0:
117,161,30883,1,0,0:0:0:0:
172,340,31094,6,0,L|176:304,6,22.5,2|0|0|0|0|0|0,0:0|0:0|0:0|0:0|0:0|0:0|0:0,0:0:0:0:
123,141,31517,5,4,0:3:0:0:
225,257,31728,1,0,0:0:0:0:
133,122,31939,1,4,0:3:0:0:
213,254,32151,5,0,0:0:0:0:
213,254,32256,2,0,L|221:198,1,45,2|4,0:0|0:3,0:0:0:0:
162,90,32468,1,0,0:0:0:0:
162,90,32573,2,0,L|168:134,1,45,2|0,0:0|0:0,0:0:0:0:
213,254,32784,2,0,P|160:232|103:241,1,116.999994644165,2|0,0:0|0:0,0:0:0:0:
292,156,33207,5,4,0:3:0:0:
404,260,33418,1,0,0:0:0:0:
285,150,33630,1,4,0:3:0:0:
413,233,33841,1,0,0:0:0:0:
277,145,34052,1,4,0:3:0:0:
418,205,34263,1,0,0:0:0:0:
267,143,34475,6,0,L|193:152,1,67.5000025749208,2|0,0:0|0:0,0:0:0:0:
418,176,34897,1,0,0:0:0:0:
316,56,35108,1,0,0:0:0:0:
272,288,35320,5,4,0:3:0:0:
192,272,35425,1,4,0:3:0:0:
357,263,35637,5,4,0:3:0:0:
341,344,35742,1,4,0:3:0:0:
148,348,35953,1,8,0:3:0:0:
60,192,36165,6,0,L|76:288,1,67.5000025749208,8|2,0:3|0:0,0:0:0:0:
74,274,36446,1,0,0:0:0:0:
77,285,36517,1,0,0:0:0:0:
80,298,36587,1,4,0:3:0:0:
88,100,36799,1,0,0:0:0:0:
4,344,37010,1,8,0:3:0:0:
240,240,37221,1,2,0:0:0:0:
220,224,37327,1,0,0:0:0:0:
200,208,37432,2,0,L|296:216,1,67.5000025749208,4|0,0:3|0:0,0:0:0:0:
124,236,37855,5,8,0:3:0:0:
252,91,38066,1,2,0:0:0:0:
312,275,38277,1,4,0:3:0:0:
125,160,38489,1,0,0:0:0:0:
317,131,38700,1,8,0:3:0:0:
244,310,38911,1,2,0:0:0:0:
176,103,39123,1,4,0:3:0:0:
341,203,39334,1,4,0:3:0:0:
170,294,39545,6,0,L|76:288,1,67.5000025749208,8|2,0:3|0:0,0:0:0:0:
24,220,39862,1,0,0:0:0:0:
24,220,39968,6,0,L|104:208,1,58.4999973220826,2|0,0:0|0:0,0:0:0:0:
208,120,40179,2,0,B|216:144|216:144|208:200,1,58.4999973220826,2|0,0:0|0:0,0:0:0:0:
40,108,40390,6,0,P|103:115|128:135,1,67.5000025749208,4|2,0:3|0:0,0:0:0:0:
211,176,40707,1,0,0:0:0:0:
211,176,40813,6,0,P|239:172|283:144,1,58.4999973220826,2|0,0:0|0:0,0:0:0:0:
264,40,41024,2,0,P|237:27|208:23,1,58.4999973220826,2|0,0:0|0:0,0:0:0:0:
360,112,41235,5,4,0:3:0:0:
105,116,41446,1,2,0:0:0:0:
125,108,41552,1,4,0:3:0:0:
144,102,41658,1,6,0:0:0:0:
372,28,41869,2,0,L|364:92,1,45,2|4,0:0|0:3,0:0:0:0:
296,280,42080,6,0,P|360:216|384:300,1,202.500007724762,6|0,0:0|0:0,0:0:0:0:
328,356,42503,6,0,L|280:364,1,33.7500012874604
184,312,42714,2,0,L|232:320,1,33.7500012874604
124,362,42925,6,0,P|107:301|131:253,1,101.250003862381,4|0,1:0|0:0,0:0:0:0:
200,228,43348,2,0,P|152:236|123:265,1,67.5000025749208,2|0,0:0|0:0,0:0:0:0:
264,164,43770,1,8,0:3:0:0:
272,132,43876,1,0,0:0:0:0:
280,100,43982,1,0,0:0:0:0:
352,216,44193,1,4,0:3:0:0:
216,28,44404,1,2,0:0:0:0:
452,84,44615,6,0,B|400:88|400:88|360:124,1,101.250003862381,4|0,1:0|0:0,0:0:0:0:
352,216,45038,2,0,L|360:128,1,67.5000025749208
176,172,45461,1,8,0:3:0:0:
208,164,45566,1,0,0:0:0:0:
240,156,45672,1,0,0:0:0:0:
124,96,45883,1,4,0:3:0:0:
358,148,46094,1,2,0:0:0:0:
168,272,46306,6,0,L|176:160,1,101.250003862381,4|0,1:0|0:0,0:0:0:0:
184,56,46728,2,0,L|179:106,1,33.7500012874604,2|0,0:0|0:0,0:0:0:0:
92,200,46939,2,0,L|88:166,1,33.7500012874604
36,64,47151,2,0,P|100:72|116:92,1,67.5000025749208,4|0,1:0|0:0,0:0:0:0:
180,89,47468,1,0,0:0:0:0:
180,89,47573,2,0,L|256:76,1,67.5000025749208,2|0,0:0|0:0,0:0:0:0:
320,56,47890,1,0,0:0:0:0:
396,80,47996,6,0,L|384:148,1,45,4|0,1:0|0:0,0:0:0:0:
376,0,48207,1,2,0:0:0:0:
300,136,48418,2,0,L|312:204,1,45,4|0,1:0|0:0,0:0:0:0:
320,56,48630,1,2,0:0:0:0:
384,216,48841,6,0,L|372:284,1,45,4|0,1:0|0:0,0:0:0:0:
308,336,49052,2,0,L|300:296,1,40.4999987640381,2|0,0:0|0:0,0:0:0:0:
400,232,49263,2,0,L|388:296,1,36,2|0,0:0|0:0,0:0:0:0:
288,324,49475,2,0,L|281:293,1,31.4999990386963,2|0,0:0|0:0,0:0:0:0:
260,180,49686,5,4,0:3:0:0:
393,267,49897,2,0,L|429:259,2,22.5,2|0|0,0:0|0:0|0:0,0:0:0:0:
208,256,50108,1,4,0:3:0:0:
388,172,50320,2,0,L|409:176,2,22.5,2|0|0,0:0|0:0|0:0,0:0:0:0:
248,168,50531,1,4,0:3:0:0:
393,267,50742,2,0,L|429:259,2,22.5,2|0|0,0:0|0:0|0:0,0:0:0:0:
192,264,50953,1,4,0:3:0:0:
388,172,51165,2,0,L|409:176,2,22.5,2|0|0,0:0|0:0|0:0,0:0:0:0:
236,156,51376,5,4,0:3:0:0:
393,267,51587,2,0,L|429:259,2,22.5,2|0|0,0:0|0:0|0:0,0:0:0:0:
176,272,51799,1,4,0:3:0:0:
388,172,52010,2,0,L|409:176,2,22.5,2|0|0,0:0|0:0|0:0,0:0:0:0:
224,144,52221,1,4,0:3:0:0:
304,364,52432,5,2,0:0:0:0:
214,354,52538,2,0,L|326:366,1,90
424,304,52855,2,0,P|388:308|352:340,1,53.9999983520508,2|0,0:0|0:0,0:0:0:0:
496,352,53066,5,4,0:3:0:0:
292,264,53277,2,0,L|256:256,2,29.2499986610413,2|0|0,0:0|0:0|0:0,0:0:0:0:
492,244,53489,1,4,0:3:0:0:
303,363,53700,2,0,L|274:369,2,29.2499986610413,2|0|0,0:0|0:0|0:0,0:0:0:0:
504,232,53911,1,4,0:3:0:0:
292,264,54123,2,0,L|256:256,2,29.2499986610413,2|0|0,0:0|0:0|0:0,0:0:0:0:
512,352,54334,1,4,0:3:0:0:
372,316,54545,1,2,0:0:0:0:
456,116,54756,5,4,0:0:0:0:
436,368,54968,1,0,0:0:0:0:
320,92,55179,1,2,0:0:0:0:
256,336,55390,1,0,0:0:0:0:
416,216,55601,5,4,0:3:0:0:
346,249,55742,5,4,0:3:0:0:
269,247,55883,5,4,0:3:0:0:
202,209,56024,5,4,0:3:0:0:
160,143,56165,5,4,0:3:0:0:
154,66,56306,5,4,0:3:0:0:
280,28,56446,6,0,P|319:76|297:160,1,116.999994644165,4|0,0:0|0:0,0:0:0:0:
300,152,56763,1,2,0:0:0:0:
300,152,56869,2,0,L|296:216,1,58.4999973220826,4|0,0:3|0:0,0:0:0:0:
202,209,57080,1,2,0:3:0:0:
400,176,57292,6,0,P|468:168|504:136,1,116.999994644165,8|0,0:3|0:0,0:0:0:0:
508,116,57608,1,2,0:0:0:0:
508,116,57714,2,0,L|512:36,1,58.4999973220826,4|0,0:3|0:0,0:0:0:0:
328,76,57925,1,2,0:3:0:0:
296,210,58137,6,0,P|360:206|360:258,1,116.999994644165,8|0,0:3|0:0,0:0:0:0:
356,268,58453,1,2,0:0:0:0:
356,268,58559,2,0,P|356:304|376:352,1,58.4999973220826,4|0,0:3|0:0,0:0:0:0:
245,272,58770,1,2,0:3:0:0:
478,333,58982,6,0,L|354:325,1,116.999994644165,8|0,0:3|0:0,0:0:0:0:
344,340,59299,1,2,0:0:0:0:
344,340,59404,2,0,L|260:352,1,58.4999973220826,4|0,0:3|0:0,0:0:0:0:
188,264,59615,2,0,L|272:276,1,58.4999973220826,2|0,0:3|0:0,0:0:0:0:
137,325,59827,6,0,P|109:261|129:213,1,116.999994644165,8|0,0:3|0:0,0:0:0:0:
180,168,60144,1,2,0:0:0:0:
180,168,60249,1,4,0:3:0:0:
8,272,60461,1,2,0:3:0:0:
124,72,60672,1,8,0:3:0:0:
188,264,60883,1,0,0:0:0:0:
188,264,60989,1,2,0:0:0:0:
188,264,61094,1,4,0:3:0:0:
68,140,61306,1,2,0:3:0:0:
376,192,61517,6,0,P|392:156|396:76,1,116.999994644165,8|2,0:3|0:3,0:0:0:0:
360,196,61834,1,4,0:3:0:0:
360,196,61939,2,0,B|364:244|364:244|372:264|372:264|380:332,1,116.999994644165,4|2,0:3|0:0,0:0:0:0:
460,276,62256,1,4,0:3:0:0:
460,276,62362,2,0,L|452:212,1,58.4999973220826,4|0,0:0|0:0,0:0:0:0:
332,120,62573,6,0,P|296:108|260:108,1,45,2|0,0:0|0:0,0:0:0:0:
252,176,62784,2,0,P|208:180|156:204,1,80.9999975280763,2|0,0:0|0:0,0:0:0:0:
112,252,63207,6,0,P|176:248|224:288,1,101.250003862381,4|0,1:0|0:0,0:0:0:0:
216,356,63630,2,0,P|216:312|232:280,1,67.5000025749208,2|0,0:0|0:0,0:0:0:0:
290,334,63946,1,0,0:0:0:0:
290,334,64052,2,0,L|336:340,1,33.7500012874604
428,288,64263,2,0,L|382:294,1,33.7500012874604
480,200,64475,1,4,0:3:0:0:
444,376,64686,1,2,0:0:0:0:
288,204,64897,6,0,L|412:220,1,101.250003862381,4|0,1:0|0:0,0:0:0:0:
480,200,65320,2,0,P|432:200|400:224,1,67.5000025749208,2|0,0:0|0:0,0:0:0:0:
457,272,65637,1,0,0:0:0:0:
457,272,65742,2,0,L|461:320,1,33.7500012874604,8|0,0:3|0:0,0:0:0:0:
368,136,65953,2,0,L|370:102,1,33.7500012874604
480,200,66165,1,4,0:3:0:0:
276,92,66376,1,2,0:0:0:0:
508,16,66587,6,0,P|440:16|399:54,1,101.250003862381,4|0,1:0|0:0,0:0:0:0:
472,83,67010,1,2,0:0:0:0:
256,176,67221,1,0,0:0:0:0:
4,16,67432,2,0,P|72:16|113:54,1,101.250003862381,4|0,1:0|0:0,0:0:0:0:
40,83,67855,1,2,0:0:0:0:
256,176,68066,1,2,0:0:0:0:
188,88,68277,6,0,L|172:144,1,33.7500012874604,4|0,1:0|0:0,0:0:0:0:
333,120,68489,2,0,L|324:88,1,33.7500012874604,2|0,0:0|0:0,0:0:0:0:
164,96,68700,2,0,L|154:128,1,33.7500012874604,4|0,1:0|0:0,0:0:0:0:
358,128,68911,2,0,L|348:96,1,33.7500012874604,2|0,0:0|0:0,0:0:0:0:
180,204,69123,6,0,L|192:260,1,33.7500012874604,4|0,1:0|0:0,0:0:0:0:
332,204,69334,2,0,L|320:260,1,33.7500012874604,2|0,0:3|0:0,0:0:0:0:
196,220,69545,2,0,L|208:276,1,33.7500012874604,2|0,0:3|0:0,0:0:0:0:
316,220,69756,2,0,L|304:276,1,33.7500012874604,2|0,0:3|0:0,0:0:0:0:
145,300,69968,6,0,P|190:327|236:321,1,90,4|0,1:0|0:0,0:0:0:0:
61,264,70284,1,0,0:0:0:0:
61,264,70390,2,0,P|58:242|60:220,1,45,2|0,0:0|0:0,0:0:0:0:
136,140,70601,2,0,P|136:176|124:208,1,45,2|0,0:0|0:0,0:0:0:0:
62,118,70813,2,0,P|94:74|182:78,1,135,4|0,1:0|0:0,0:0:0:0:
236,120,71235,2,0,L|348:104,1,90,2|2,0:3|0:0,0:0:0:0:
508,192,71658,6,0,B|400:172|400:172|348:188,1,135,4|0,1:0|0:0,0:0:0:0:
360,260,72080,2,0,L|368:328,1,45
500,316,72292,2,0,L|505:271,1,45
292,348,72503,5,4,1:0:0:0:
292,348,72608,1,0,0:0:0:0:
292,348,72714,1,2,0:1:0:0:
128,264,72925,1,4,1:0:0:0:
128,264,73031,1,0,0:0:0:0:
128,264,73137,1,2,0:1:0:0:
252,148,73348,6,0,L|268:244,1,90,4|0,1:0|0:0,0:0:0:0:
299,82,73665,1,0,0:0:0:0:
299,82,73770,2,0,P|263:70|243:70,1,45,2|0,0:0|0:0,0:0:0:0:
396,140,73982,2,0,P|373:143|353:152,1,45,2|0,0:0|0:0,0:0:0:0:
487,102,74193,2,0,B|495:169|463:236,1,135,4|0,1:0|0:0,0:0:0:0:
493,301,74615,2,0,P|445:305|397:269,1,90,2|2,0:3|0:0,0:0:0:0:
196,284,75038,6,0,L|352:268,1,135,4|0,1:0|0:0,0:0:0:0:
356,344,75461,2,0,L|306:350,1,45,2|0,0:0|0:0,0:0:0:0:
248,200,75672,2,0,L|292:194,1,45,2|0,0:0|0:0,0:0:0:0:
124,316,75883,5,4,1:0:0:0:
124,316,75989,1,0,0:0:0:0:
124,316,76094,1,2,0:1:0:0:
48,192,76306,1,4,1:0:0:0:
48,192,76411,1,2,0:1:0:0:
48,192,76517,1,2,0:1:0:0:
223,107,76728,6,0,P|191:59|131:47,1,90,4|0,1:0|0:0,0:0:0:0:
144,168,77045,1,0,0:0:0:0:
144,168,77151,2,0,P|148:124|136:96,1,45,2|0,0:0|0:0,0:0:0:0:
40,32,77362,2,0,P|38:54|43:76,1,45,2|0,0:0|0:0,0:0:0:0:
224,108,77573,2,0,L|364:92,1,135,4|0,1:0|0:0,0:0:0:0:
424,40,77996,2,0,P|379:12|315:20,1,90,2|2,0:3|0:0,0:0:0:0:
340,218,78418,6,0,B|366:192|368:162|368:162|356:82,1,135,4|0,1:0|0:0,0:0:0:0:
280,168,78841,2,0,P|252:176|220:176,1,45,2|0,0:0|0:0,0:0:0:0:
432,232,79052,2,0,P|454:234|475:241,1,45,2|0,0:0|0:0,0:0:0:0:
296,332,79263,5,4,1:0:0:0:
296,332,79369,1,0,0:0:0:0:
296,332,79475,1,2,0:1:0:0:
120,352,79686,1,4,1:0:0:0:
120,352,79792,1,0,0:0:0:0:
120,352,79897,1,2,0:1:0:0:
160,188,80108,6,0,L|156:252,1,45,4|0,1:0|0:0,0:0:0:0:
72,168,80320,2,0,L|69:123,1,45,2|0,0:0|0:0,0:0:0:0:
240,80,80531,2,0,P|206:67|168:74,1,51.7500009870529,2|0,0:0|0:0,0:0:0:0:
260,224,80742,2,0,P|290:221|317:202,1,58.4999973220826,2|0,0:0|0:0,0:0:0:0:
484,64,80953,6,0,L|477:115,1,45,4|0,0:0|0:0,0:0:0:0:
456,272,81165,2,0,L|462:227,1,45,2|0,0:0|0:0,0:0:0:0:
384,76,81376,2,0,L|392:128,1,51.7500009870529,2|0,0:0|0:0,0:0:0:0:
344,340,81587,2,0,L|336:272,1,58.4999973220826,2|0,0:0|0:0,0:0:0:0:
308,32,81799,5,4,0:0:0:0:
204,352,82010,1,8,0:3:0:0:
420,157,82221,1,4,0:0:0:0:
91,226,82432,1,8,0:3:0:0:
368,316,82644,1,4,1:0:0:0:
143,66,83066,2,0,P|136:40|124:20,1,33.7500012874604,2|0,0:0|0:0,0:0:0:0:
72,84,83277,2,0,P|48:70|26:64,1,33.7500012874604,2|0,0:0|0:0,0:0:0:0:
163,137,83489,6,0,P|212:132|272:76,1,121.499996292114,4|0,0:1|0:0,0:0:0:0:
328,40,83911,2,0,L|336:-20,1,40.4999987640381,2|0,0:0|0:0,0:0:0:0:
432,64,84123,2,0,L|399:88,1,40.4999987640381,4|0,0:3|0:0,0:0:0:0:
316,172,84334,2,0,P|375:181|419:221,1,121.499996292114,4|0,0:0|0:0,0:0:0:0:
344,300,84756,2,0,L|340:248,1,40.4999987640381,2|0,0:0|0:0,0:0:0:0:
481,272,84968,2,0,P|454:292|430:296,1,40.4999987640381,2|0,0:0|0:0,0:0:0:0:
222,289,85179,6,0,L|362:301,1,121.499996292114,4|0,0:1|0:0,0:0:0:0:
280,208,85601,2,0,L|212:216,1,40.4999987640381,2|0,0:0|0:0,0:0:0:0:
120,232,85813,2,0,L|188:240,1,40.4999987640381,4|0,0:3|0:0,0:0:0:0:
276,124,86024,1,4,0:0:0:0:
72,160,86235,1,0,0:0:0:0:
72,160,86341,1,0,0:0:0:0:
72,160,86446,1,4,0:1:0:0:
312,36,86658,1,0,0:0:0:0:
0,131,86869,6,0,P|0:191|63:237,1,121.499996292114,4|0,0:1|0:0,0:0:0:0:
112,272,87292,2,0,L|96:328,1,40.4999987640381,2|0,0:0|0:0,0:0:0:0:
4,352,87503,2,0,L|15:313,1,40.4999987640381,4|0,0:3|0:0,0:0:0:0:
72,160,87714,2,0,P|132:164|184:200,1,121.499996292114,4|0,0:0|0:0,0:0:0:0:
252,248,88137,2,0,L|272:140,1,80.9999975280763,2|0,0:0|0:0,0:0:0:0:
287,48,88559,6,0,L|265:174,1,121.499996292114,4|0,0:1|0:0,0:0:0:0:
208,64,88982,2,0,P|184:56|164:56,1,40.4999987640381,2|0,0:0|0:0,0:0:0:0:
356,92,89193,2,0,P|381:90|400:95,1,40.4999987640381,4|0,0:3|0:0,0:0:0:0:
469,237,89404,2,0,P|405:235|360:173,1,121.499996292114,4|0,0:0|0:0,0:0:0:0:
512,144,89827,2,0,P|456:148|436:164,1,80.9999975280763,4|0,0:0|0:0,0:0:0:0:
300,328,90249,5,4,1:1:0:0:
44,280,90461,1,2,0:0:0:0:
83,270,90566,1,0,0:0:0:0:
122,260,90672,1,2,0:0:0:0:
161,250,90777,1,0,0:0:0:0:
201,241,90883,1,2,0:0:0:0:
32,136,91094,5,4,1:0:0:0:
224,76,91306,1,2,0:0:0:0:
269,81,91411,1,0,0:0:0:0:
314,86,91517,1,2,0:0:0:0:
359,91,91623,1,0,0:0:0:0:
404,96,91728,1,2,0:0:0:0:
300,328,91939,5,4,1:0:0:0:
480,112,92151,2,0,L|458:164,1,40.4999987640381,2|0,0:0|0:0,0:0:0:0:
472,260,92362,2,0,L|437:215,1,40.4999987640381,2|0,0:0|0:0,0:0:0:0:
348,176,92573,2,0,L|404:167,1,40.4999987640381,2|0,0:0|0:0,0:0:0:0:
386,289,92784,1,4,1:0:0:0:
333,299,92889,1,0,0:0:0:0:
285,278,92995,1,2,0:0:0:0:
255,235,93101,1,0,0:0:0:0:
191,160,93207,6,0,P|163:152|119:160,1,53.9999983520508,4|0,0:1|0:0,0:0:0:0:
52,272,93418,2,0,P|78:273|104:265,1,53.9999983520508,2|0,0:0|0:0,0:0:0:0:
155,73,93630,6,0,P|103:81|63:125,1,107.999996704102,4|0,1:0|0:0,0:0:0:0:
139,154,93946,1,0,0:0:0:0:
139,154,94052,1,2,0:0:0:0:
68,0,94263,1,2,0:0:0:0:
357,73,94475,2,0,P|409:81|449:125,1,107.999996704102,4|0,1:0|0:0,0:0:0:0:
373,154,94791,1,0,0:0:0:0:
373,154,94897,1,2,0:0:0:0:
444,0,95108,1,2,0:0:0:0:
284,136,95320,6,0,P|288:192|304:220,1,53.9999983520508,4|0,0:0|0:0,0:0:0:0:
373,154,95531,1,2,0:3:0:0:
207,235,95742,2,0,P|249:271|276:280,1,49.5000015106202,4|0,0:0|0:0,0:0:0:0:
287,189,95953,1,2,0:3:0:0:
218,358,96165,2,0,P|274:354|292:344,1,45,4|0,0:0|0:0,0:0:0:0:
262,357,97010,5,0,0:0:0:0:
192,316,97221,1,2,0:0:0:0:
112,316,97432,1,0,0:0:0:0:
36,344,97644,1,2,0:0:0:0:
4,268,97855,1,0,0:0:0:0:
80,240,98066,1,2,0:0:0:0:
80,240,98172,1,0,0:0:0:0:
80,240,98277,1,0,0:0:0:0:
20,184,98489,1,2,0:0:0:0:
80,240,98700,5,0,0:0:0:0:
156,220,98911,1,2,0:0:0:0:
177,139,99123,1,0,0:0:0:0:
177,139,99228,1,0,0:0:0:0:
177,139,99334,1,2,0:0:0:0:
40,104,99545,1,0,0:0:0:0:
100,160,99756,1,2,0:0:0:0:
100,160,99862,2,0,P|136:144|192:80,1,101.250003862381,0|2,0:0|0:0,0:0:0:0:
292,8,100390,5,0,0:0:0:0:
336,76,100601,1,2,0:0:0:0:
414,51,100813,1,0,0:0:0:0:
461,117,101024,1,2,0:0:0:0:
414,183,101235,1,0,0:0:0:0:
336,157,101446,1,2,0:0:0:0:
414,51,101658,1,0,0:0:0:0:
414,183,101869,1,2,0:0:0:0:
92,232,102714,5,0,0:0:0:0:
88,248,102784,1,0,0:0:0:0:
84,264,102855,1,0,0:0:0:0:
80,280,102925,6,0,L|88:332,1,33.7500012874604,2|0,0:0|0:0,0:0:0:0:
208,276,103137,2,0,L|216:236,1,33.7500012874604
224,268,103348,2,0,L|232:228,1,33.7500012874604
148,132,103559,2,0,L|154:165,1,33.7500012874604,2|0,0:0|0:0,0:0:0:0:
316,148,103770,6,0,L|232:164,1,67.5000025749208
371,205,104087,1,0,0:0:0:0:
371,205,104193,2,0,P|391:173|391:125,1,67.5000025749208,8|2,0:2|0:0,0:0:0:0:
324,8,104615,2,0,L|348:92,1,67.5000025749208
488,88,104932,1,0,0:0:0:0:
488,88,105038,2,0,P|440:68|400:72,1,67.5000025749208,8|2,0:2|0:0,0:0:0:0:
188,72,105461,6,0,L|260:80,1,67.5000025749208
112,36,105777,1,0,0:0:0:0:
112,36,105883,2,0,B|84:48|84:48|48:100,1,67.5000025749208,8|2,0:2|0:0,0:0:0:0:
168,204,106306,2,0,B|198:182|198:182|210:154,1,67.5000025749208
87,182,106623,1,0,0:0:0:0:
87,182,106728,2,0,P|87:230|111:270,1,67.5000025749208,8|2,0:2|0:0,0:0:0:0:
264,312,107151,6,0,P|216:292|164:296,1,76.5000014591217
336,276,107468,1,0,0:0:0:0:
336,276,107573,2,0,P|344:324|322:368,1,76.5000014591217,8|2,0:2|0:0,0:0:0:0:
248,144,107996,2,0,L|264:232,1,85.4999977169037
303,80,108313,1,0,0:0:0:0:
303,80,108418,2,0,P|247:60|205:71,1,85.4999977169037,8|2,0:2|0:0,0:0:0:0:
0,128,108841,6,0,L|108:144,1,94.499997116089,0|2,1:0|0:0,0:0:0:0:
88,64,109158,1,0,0:0:0:0:
104,168,109263,6,0,L|212:156,1,103.500001974106,0|2,1:0|0:0,0:0:0:0:
222,63,109580,1,0,0:0:0:0:
224,176,109686,6,0,L|336:192,1,112.5,0|2,1:0|0:0,0:0:0:0:
416,104,110003,1,0,0:0:0:0:
420,248,110108,6,0,L|476:244,1,45,0|0,1:0|0:0,0:0:0:0:
460,107,110320,2,0,L|415:103,1,45,0|0,1:0|0:0,0:0:0:0:
297,297,110531,6,0,P|373:297|425:229,1,148.50000453186,4|0,1:0|0:0,0:0:0:0:
313,201,110953,2,0,P|309:265|277:325,1,99.0000030212403,2|0,0:0|0:0,0:0:0:0:
224,236,111270,1,0,0:0:0:0:
224,236,111376,2,0,P|208:184|212:160,1,49.5000015106202,8|0,0:3|0:0,0:0:0:0:
296,64,111587,2,0,P|258:103|236:112,1,49.5000015106202
96,136,111799,1,4,0:3:0:0:
236,0,112010,1,2,0:0:0:0:
25,100,112221,6,0,P|20:156|85:214,1,148.50000453186,4|0,1:0|0:0,0:0:0:0:
174,182,112644,2,0,P|118:190|66:234,1,99.0000030212403
192,104,112961,1,0,0:0:0:0:
192,104,113066,2,0,L|264:120,1,49.5000015106202,8|0,0:3|0:0,0:0:0:0:
220,272,113277,2,0,L|171:261,1,49.5000015106202
108,80,113489,1,4,0:3:0:0:
284,208,113700,1,2,0:0:0:0:
424,40,113911,6,0,B|394:26|371:32|371:32|375:80|375:80|397:102|412:137,1,148.50000453186,4|0,1:0|0:0,0:0:0:0:
412,200,114334,2,0,P|448:184|472:160,1,49.5000015106202,2|0,0:0|0:0,0:0:0:0:
320,140,114545,2,0,P|284:124|260:100,1,49.5000015106202,2|0,0:0|0:0,0:0:0:0:
88,40,114756,6,0,B|117:26|140:32|140:32|136:80|136:80|114:102|99:137,1,148.50000453186,4|0,1:0|0:0,0:0:0:0:
100,200,115179,2,0,P|64:184|40:160,1,49.5000015106202,2|0,0:0|0:0,0:0:0:0:
192,140,115390,2,0,P|228:124|252:100,1,49.5000015106202,2|0,0:0|0:0,0:0:0:0:
419,252,115601,6,0,P|379:213|316:215,1,99.0000030212403,4|2,1:0|0:0,0:0:0:0:
349,285,115918,1,0,0:0:0:0:
248,216,116024,6,0,P|200:226|167:261,1,99.0000030212403,4|2,1:0|0:0,0:0:0:0:
184,344,116341,1,0,0:0:0:0:
96,348,116446,6,0,L|52:336,3,33.7500012874604
60,260,116658,2,0,P|32:268|0:292,1,49.5000015106202,0|4,0:0|0:3,0:0:0:0:
96,152,116869,2,0,P|70:137|30:132,1,49.5000015106202,0|0,1:0|0:0,0:0:0:0:
196,92,117080,2,0,P|188:64|164:32,1,49.5000015106202,2|0,0:0|0:0,0:0:0:0:
320,104,117292,6,0,L|456:116,1,99.0000030212403,4|2,0:0|0:0,0:0:0:0:
436,96,117608,1,0,0:0:0:0:
488,176,117714,2,0,P|484:196|460:236,1,49.5000015106202,0|0,1:0|0:0,0:0:0:0:
376,280,117925,2,0,L|368:216,1,49.5000015106202,2|0,0:0|0:0,0:0:0:0:
437,332,118137,2,0,P|407:354|371:354,1,49.5000015106202,4|0,0:3|0:0,0:0:0:0:
296,324,118348,2,0,P|260:313|226:325,1,49.5000015106202,2|0,0:0|0:0,0:0:0:0:
152,356,118559,2,0,L|136:252,1,99.0000030212403,0|2,1:0|0:0,0:0:0:0:
132,232,118876,1,0,0:0:0:0:
60,284,118982,6,0,P|44:244|44:228,1,49.5000015106202,4|0,0:3|0:0,0:0:0:0:
216,248,119193,2,0,P|221:205|216:189,1,49.5000015106202,2|0,0:0|0:0,0:0:0:0:
26,164,119404,2,0,P|65:164|89:176,1,49.5000015106202,0|0,1:0|0:0,0:0:0:0:
201,124,119615,2,0,P|181:132|155:158,1,49.5000015106202,2|0,0:0|0:0,0:0:0:0:
183,47,119827,2,0,P|240:55|276:99,1,99.0000030212403,4|2,0:3|0:0,0:0:0:0:
276,104,120144,1,0,0:0:0:0:
386,60,120249,2,0,P|414:48|454:52,1,49.5000015106202,0|0,1:0|0:0,0:0:0:0:
440,172,120461,2,0,L|428:112,1,49.5000015106202,2|0,0:0|0:0,0:0:0:0:
472,304,120672,6,0,P|446:251|399:259,1,99.0000030212403,4|2,0:0|0:0,0:0:0:0:
392,264,120989,1,0,0:0:0:0:
324,324,121094,2,0,P|300:280|300:244,1,49.5000015106202,0|0,1:0|0:0,0:0:0:0:
284,148,121306,2,0,L|280:224,1,49.5000015106202,2|0,0:0|0:0,0:0:0:0:
208,312,121517,2,0,P|222:263|247:238,1,49.5000015106202,4|0,0:3|0:0,0:0:0:0:
318,164,121728,2,0,L|261:214,1,49.5000015106202,2|0,0:0|0:0,0:0:0:0:
96,172,121939,2,0,L|196:188,1,99.0000030212403,0|2,1:0|0:0,0:0:0:0:
99,96,122256,1,0,0:0:0:0:
99,96,122362,6,0,P|47:112|22:186,1,121.499996292114,4|0,0:3|0:0,0:0:0:0:
84,284,122784,2,0,B|108:244|108:244|96:210|96:210|96:144,1,121.499996292114,2|2,0:0|0:0,0:0:0:0:
17,318,123207,6,0,P|61:358|129:342,1,99.0000030212403,4|0,0:3|0:0,0:0:0:0:
120,352,123524,1,0,0:0:0:0:
200,296,123630,2,0,L|216:368,1,49.5000015106202,0|0,1:0|0:0,0:0:0:0:
301,344,123841,2,0,L|312:296,1,49.5000015106202,2|0,0:0|0:0,0:0:0:0:
495,318,124052,6,0,P|451:358|383:342,1,99.0000030212403,4|2,0:0|0:0,0:0:0:0:
300,220,124475,2,0,P|348:225|381:260,1,99.0000030212403,0|2,1:0|0:0,0:0:0:0:
200,296,124897,1,4,0:3:0:0:
312,88,125108,1,2,0:0:0:0:
142,225,125320,1,0,1:0:0:0:
369,158,125531,1,2,0:0:0:0:
152,136,125742,5,4,0:3:0:0:
360,248,125953,1,2,0:0:0:0:
48,232,126165,1,0,1:0:0:0:
274,164,126376,1,2,0:0:0:0:
140,340,126587,1,4,0:3:0:0:
288,72,126799,1,0,0:0:0:0:
288,72,126904,1,0,0:0:0:0:
288,72,127010,2,0,L|376:88,1,49.5000015106202,0|0,1:0|0:0,0:0:0:0:
500,152,127221,2,0,L|412:168,1,49.5000015106202,2|0,0:0|0:0,0:0:0:0:
248,180,127432,5,4,0:3:0:0:
440,56,127644,1,2,0:0:0:0:
467,282,127855,1,0,1:0:0:0:
288,72,128066,1,2,0:0:0:0:
372,283,128277,1,4,0:3:0:0:
148,136,128489,1,2,0:0:0:0:
283,318,128700,1,0,1:0:0:0:
40,244,128911,1,2,0:0:0:0:
217,384,129123,5,4,0:3:0:0:
178,353,129228,1,0,0:0:0:0:
130,343,129334,1,2,0:0:0:0:
83,357,129439,1,0,0:0:0:0:
0,324,129545,1,0,1:0:0:0:
38,293,129651,1,0,0:0:0:0:
86,283,129756,1,2,0:0:0:0:
133,297,129862,1,0,0:0:0:0:
240,258,129968,6,0,P|226:214|180:216,1,99.0000030212403,4|2,0:3|0:0,0:0:0:0:
133,297,130284,2,0,P|180:316|204:312,1,49.5000015106202,8|0,0:3|0:0,0:0:0:0:
304,300,130496,1,0,0:0:0:0:
278,228,130601,2,0,P|238:259|229:281,1,49.5000015106202,4|0,0:3|0:0,0:0:0:0:
270,369,130813,6,0,P|330:373|374:329,1,99.0000030212403,4|2,0:0|0:0,0:0:0:0:
376,332,131130,1,0,0:0:0:0:
448,284,131235,2,0,P|460:320|456:348,1,49.5000015106202,0|0,1:0|0:0,0:0:0:0:
396,172,131446,2,0,P|384:208|388:236,1,49.5000015106202,2|0,0:0|0:0,0:0:0:0:
452,64,131658,2,0,P|464:100|460:128,1,49.5000015106202,4|0,0:3|0:0,0:0:0:0:
316,88,131869,2,0,B|344:80|344:80|394:82,1,49.5000015106202,2|0,0:0|0:0,0:0:0:0:
252,144,132080,2,0,L|132:132,1,99.0000030212403,0|2,1:0|0:0,0:0:0:0:
132,120,132397,1,0,0:0:0:0:
68,172,132503,6,0,P|52:136|52:100,1,49.5000015106202,4|0,0:3|0:0,0:0:0:0:
16,236,132714,2,0,P|36:249|60:255,1,49.5000015106202,2|0,0:0|0:0,0:0:0:0:
164,228,132925,2,0,L|160:288,1,49.5000015106202,0|0,1:0|0:0,0:0:0:0:
100,384,133137,2,0,L|96:334,1,49.5000015106202,2|0,0:0|0:0,0:0:0:0:
228,312,133348,2,0,P|272:312|328:352,1,99.0000030212403,4|2,0:3|0:0,0:0:0:0:
428,268,133665,1,0,0:0:0:0:
428,268,133770,2,0,L|420:328,1,49.5000015106202,0|0,1:0|0:0,0:0:0:0:
340,240,133982,1,2,0:0:0:0:
340,240,134087,1,0,0:0:0:0:
340,240,134193,6,0,P|383:186|444:176,1,99.0000030212403,4|2,0:3|0:0,0:0:0:0:
432,180,134510,1,0,0:0:0:0:
495,116,134615,2,0,P|454:95|434:91,1,49.5000015106202,0|0,1:0|0:0,0:0:0:0:
360,36,134827,2,0,P|336:44|315:57,1,49.5000015106202,2|0,0:0|0:0,0:0:0:0:
196,57,135038,2,0,P|175:44|152:36,1,49.5000015106202,4|0,0:3|0:0,0:0:0:0:
61,94,135249,2,0,P|37:102|17:116,1,49.5000015106202,2|0,0:0|0:0,0:0:0:0:
48,264,135461,2,0,P|72:224|68:160,1,99.0000030212403,0|2,1:0|0:0,0:0:0:0:
152,224,135777,1,0,0:0:0:0:
152,224,135883,6,0,L|256:208,1,99.0000030212403,0|2,0:0|0:0,0:0:0:0:
61,94,136306,1,0,1:0:0:0:
228,328,136517,1,2,0:3:0:0:
244,332,136587,1,2,0:3:0:0:
260,336,136658,1,2,0:3:0:0:
276,340,136728,6,0,P|334:325|344:286,2,99.0000030212403,2|2|4,0:3|0:3|0:3,0:0:0:0:
344,216,137256,1,0,0:0:0:0:
344,216,137362,2,0,P|392:228|404:240,1,49.5000015106202,4|0,0:3|0:0,0:0:0:0:
480,364,137573,6,0,P|464:300|472:264,1,99.0000030212403,4|2,0:0|0:0,0:0:0:0:
480,20,137996,2,0,P|464:84|472:120,1,99.0000030212403,0|2,1:0|0:0,0:0:0:0:
173,269,138418,2,0,L|297:257,1,99.0000030212403,4|2,0:3|0:0,0:0:0:0:
271,124,138841,2,0,L|173:115,1,99.0000030212403,0|2,1:0|0:0,0:0:0:0:
368,80,139263,5,4,0:3:0:0:
328,316,139475,1,2,0:0:0:0:
296,39,139686,1,0,1:0:0:0:
380,263,139897,1,2,0:0:0:0:
215,39,140108,1,4,0:3:0:0:
399,191,140320,1,2,0:0:0:0:
144,80,140531,1,0,1:0:0:0:
380,119,140742,1,2,0:0:0:0:
56,173,140953,5,4,0:3:0:0:
215,39,141165,1,2,0:0:0:0:
251,244,141376,1,0,1:0:0:0:
70,92,141587,1,2,0:0:0:0:
278,91,141799,1,4,0:3:0:0:
173,271,142010,1,2,0:0:0:0:
173,271,142115,1,0,0:0:0:0:
173,271,142221,1,0,1:0:0:0:
132,39,142432,1,2,0:0:0:0:
93,220,142644,5,4,0:3:0:0:
126,255,142749,1,0,0:0:0:0:
173,271,142855,1,2,0:0:0:0:
221,264,142961,1,0,0:0:0:0:
268,340,143066,1,0,1:0:0:0:
301,304,143172,1,0,0:0:0:0:
348,288,143277,1,2,0:0:0:0:
396,295,143383,1,0,0:0:0:0:
492,276,143489,6,0,P|496:232|400:228,1,135,4|2,0:0|0:0,0:0:0:0:
319,177,144334,6,0,P|379:185|431:209,1,107.999996704102,4|0,1:0|0:0,0:0:0:0:
248,140,144651,1,0,0:0:0:0:
248,140,144756,2,0,P|240:180|256:224,1,53.9999983520508,2|0,0:0|0:0,0:0:0:0:
320,96,144968,2,0,L|308:16,1,53.9999983520508
172,104,145179,2,0,P|120:80|44:88,1,107.999996704102,8|0,0:3|0:0,0:0:0:0:
8,200,145496,1,0,0:0:0:0:
8,200,145601,2,0,L|88:184,1,53.9999983520508,4|0,0:3|0:0,0:0:0:0:
83,277,145813,2,0,L|136:288,1,53.9999983520508,2|0,0:0|0:0,0:0:0:0:
312,312,146024,6,0,P|252:316|204:364,1,107.999996704102,4|0,1:0|0:0,0:0:0:0:
384,356,146341,1,0,0:0:0:0:
384,356,146446,2,0,P|434:339|466:307,1,53.9999983520508,2|0,0:0|0:0,0:0:0:0:
396,216,146658,2,0,P|385:268|396:311,1,53.9999983520508
512,360,146869,2,0,P|512:316|464:264,1,107.999996704102,8|0,0:3|0:0,0:0:0:0:
296,232,147186,1,0,0:0:0:0:
296,232,147292,2,0,P|288:196|296:156,1,53.9999983520508,4|0,0:3|0:0,0:0:0:0:
336,64,147503,2,0,P|308:88|270:102,1,53.9999983520508
108,112,147714,6,0,P|172:116|236:152,1,107.999996704102,4|2,0:1|0:0,0:0:0:0:
20,140,148031,1,0,0:0:0:0:
20,140,148137,2,0,P|68:97|138:77,1,107.999996704102,0|2,0:0|0:0,0:0:0:0:
180,212,148453,1,0,0:0:0:0:
180,212,148559,2,0,B|184:248|184:248|168:272|168:272|168:296|160:328,1,107.999996704102,4|2,0:1|0:0,0:0:0:0:
332,212,148876,1,0,0:0:0:0:
332,212,148982,2,0,B|328:248|328:248|344:272|344:272|344:296|352:328,1,107.999996704102,0|2,0:0|0:0,0:0:0:0:
400,156,149299,1,0,0:0:0:0:
400,156,149404,6,0,P|424:140|464:136,1,53.9999983520508,4|0,1:0|0:0,1:0:0:0:
456,216,149615,1,2,0:0:0:0:
456,216,149721,1,0,0:0:0:0:
320,128,149827,2,0,P|325:99|351:68,1,53.9999983520508,4|0,1:0|0:0,1:0:0:0:
404,32,150038,1,2,0:0:0:0:
404,32,150144,1,0,0:0:0:0:
256,24,150249,2,0,P|196:30|140:56,1,107.999996704102,0|2,1:0|0:0,0:0:0:0:
104,179,150566,1,4,0:3:0:0:
104,179,150672,6,0,P|148:203|200:191,1,90,0|2,1:0|0:0,0:0:0:0:
66,275,151094,6,0,P|82:203|122:167,1,107.999996704102,4|0,1:0|0:0,0:0:0:0:
6,332,151411,1,0,0:0:0:0:
6,332,151517,2,0,P|38:352|94:356,1,53.9999983520508,2|0,0:0|0:0,0:0:0:0:
188,312,151728,2,0,P|153:326|97:320,1,53.9999983520508
272,348,151939,2,0,L|416:360,1,107.999996704102,8|0,0:3|0:0,0:0:0:0:
476,272,152256,1,0,0:0:0:0:
476,272,152362,2,0,L|404:280,1,53.9999983520508,4|0,0:3|0:0,0:0:0:0:
424,136,152573,2,2,L|496:144,1,53.9999983520508,2|0,0:0|0:0,0:0:0:0:
252,216,152784,6,0,P|316:196|392:216,1,107.999996704102,4|0,0:1|0:0,0:0:0:0:
200,152,153101,1,0,0:0:0:0:
200,152,153207,2,0,P|235:133|272:136,1,53.9999983520508,2|0,0:0|0:0,0:0:0:0:
248,296,153418,2,0,P|221:290|196:271,1,53.9999983520508
32,200,153630,2,0,L|140:208,1,107.999996704102,8|0,0:3|0:0,0:0:0:0:
92,104,153946,1,0,0:0:0:0:
92,104,154052,2,0,P|52:104|20:128,1,53.9999983520508,4|0,0:3|0:0,0:0:0:0:
40,300,154263,2,0,P|65:308|92:305,1,53.9999983520508
202,146,154475,6,0,P|254:134|310:158,1,107.999996704102,4|2,1:0|0:0,0:0:0:0:
488,136,154792,1,0,0:0:0:0:
488,136,154897,2,0,P|438:154|386:142,1,107.999996704102,0|2,1:0|0:0,0:0:0:0:
344,332,155214,1,0,0:0:0:0:
344,332,155320,2,0,L|360:204,1,107.999996704102,4|2,1:0|0:0,0:0:0:0:
168,332,155636,1,0,0:0:0:0:
168,332,155742,2,0,L|152:204,1,107.999996704102,2|2,0:0|0:0,0:0:0:0:
200,56,156059,1,0,0:0:0:0:
200,56,156165,6,0,L|208:140,1,53.9999983520508,4|0,1:0|0:0,0:0:0:0:
256,192,156376,1,2,0:0:0:0:
256,192,156482,1,0,0:0:0:0:
312,56,156587,2,0,L|304:140,1,53.9999983520508,4|0,1:0|0:0,0:0:0:0:
256,192,156798,1,2,0:0:0:0:
256,192,156904,1,0,0:0:0:0:
112,140,157010,6,0,L|88:104,2,33.7500012874604
96,220,157221,1,0,3:0:0:0:
164,264,157327,1,0,3:0:0:0:
240,236,157432,2,0,P|292:220|340:232,1,67.5000025749208,0|0,3:0|3:0,3:0:0:0:
300,352,157644,2,0,P|266:349|235:336,1,67.5000025749208,0|0,3:0|3:0,3:0:0:0:
425,346,157855,6,0,L|437:222,1,107.999996704102,4|2,0:0|0:0,0:0:0:0:
448,216,158172,1,0,0:0:0:0:
456,72,158277,2,0,L|447:149,1,53.9999983520508,0|0,1:0|0:0,0:0:0:0:
315,104,158489,2,0,P|339:93|383:93,1,53.9999983520508,2|0,0:0|0:0,0:0:0:0:
272,196,158700,5,4,0:0:0:0:
229,163,158805,1,0,0:0:0:0:
177,155,158911,1,2,0:0:0:0:
127,174,159016,1,0,0:0:0:0:
174,250,159123,1,0,1:0:0:0:
212,213,159228,1,0,0:0:0:0:
229,163,159334,1,2,0:0:0:0:
219,110,159439,1,0,0:0:0:0:
128,28,159545,6,0,P|134:65|173:119,1,53.9999983520508,4|0,0:0|0:0,0:0:0:0:
0,104,159756,2,0,P|30:125|96:136,1,53.9999983520508,2|0,0:0|0:0,0:0:0:0:
0,280,159968,2,0,P|20:263|45:251,1,53.9999983520508,0|0,1:0|0:0,0:0:0:0:
127,356,160179,2,0,P|131:329|140:303,1,53.9999983520508,2|0,0:0|0:0,0:0:0:0:
216,212,160390,5,4,0:0:0:0:
269,204,160495,1,0,0:0:0:0:
320,218,160601,1,2,0:0:0:0:
363,251,160706,1,0,0:0:0:0:
275,307,160813,1,0,1:0:0:0:
313,270,160918,1,0,0:0:0:0:
363,251,161024,1,2,0:0:0:0:
418,254,161129,1,0,0:0:0:0:
492,336,161235,6,0,L|504:204,1,107.999996704102,4|2,0:0|0:0,0:0:0:0:
500,200,161552,1,0,0:0:0:0:
432,128,161658,2,0,P|408:116|360:108,1,53.9999983520508,0|0,1:0|0:0,0:0:0:0:
335,22,161869,2,0,P|309:30|270:59,1,53.9999983520508,2|0,0:0|0:0,0:0:0:0:
182,60,162080,2,0,P|242:40|298:48,1,107.999996704102,4|2,0:0|0:0,0:0:0:0:
105,56,162397,1,0,0:0:0:0:
105,56,162503,2,0,P|117:104|185:136,1,107.999996704102,0|2,1:0|0:0,0:0:0:0:
248,124,162820,1,0,0:0:0:0:
208,200,162925,6,0,P|200:236|204:272,1,53.9999983520508,4|0,0:0|0:0,0:0:0:0:
311,252,163137,2,0,P|311:226|304:200,1,53.9999983520508,2|0,0:0|0:0,0:0:0:0:
148,238,163348,2,0,L|220:258,1,53.9999983520508,0|0,1:0|0:0,0:0:0:0:
364,238,163559,2,0,L|292:258,1,53.9999983520508,2|0,0:0|0:0,0:0:0:0:
104,312,163770,5,4,0:0:0:0:
69,271,163875,1,0,0:0:0:0:
63,218,163981,1,2,0:0:0:0:
88,171,164086,1,0,0:0:0:0:
28,104,164193,1,0,1:0:0:0:
68,69,164298,1,0,0:0:0:0:
121,64,164404,1,2,0:0:0:0:
168,88,164509,1,0,0:0:0:0:
208,196,164615,6,0,L|336:176,1,107.999996704102,4|2,0:0|0:0,0:0:0:0:
336,164,164932,1,0,0:0:0:0:
296,52,165038,2,0,P|280:96|288:128,1,53.9999983520508,0|0,1:0|0:0,0:0:0:0:
414,192,165249,2,0,P|418:166|412:140,1,53.9999983520508,2|0,0:0|0:0,0:0:0:0:
432,44,165461,2,0,P|488:76|516:140,1,107.999996704102,4|2,0:0|0:0,0:0:0:0:
496,192,165777,1,0,0:0:0:0:
509,271,165883,2,0,P|479:316|432:340,1,107.999996704102,0|2,1:0|0:0,0:0:0:0:
336,292,166200,1,0,0:0:0:0:
336,292,166306,6,0,L|268:296,1,53.9999983520508,4|0,0:0|0:0,0:0:0:0:
144,256,166517,2,0,L|197:252,1,53.9999983520508,2|0,0:0|0:0,0:0:0:0:
360,200,166728,2,0,L|292:204,1,53.9999983520508,0|0,1:0|0:0,0:0:0:0:
168,164,166939,2,0,L|221:160,1,53.9999983520508,2|0,0:0|0:0,0:0:0:0:
376,80,167151,5,4,0:0:0:0:
345,36,167256,1,0,0:0:0:0:
295,17,167362,1,2,0:0:0:0:
243,28,167467,1,0,0:0:0:0:
164,76,167573,1,0,1:0:0:0:
112,65,167678,1,0,0:0:0:0:
62,84,167784,1,2,0:0:0:0:
32,128,167889,1,0,0:0:0:0:
32,232,167996,6,0,L|60:356,1,107.999996704102,4|2,0:0|0:0,0:0:0:0:
112,236,168313,1,0,0:0:0:0:
112,236,168418,2,0,L|128:304,1,53.9999983520508,0|0,1:0|0:0,0:0:0:0:
192,216,168630,2,0,L|208:284,1,53.9999983520508,2|0,0:0|0:0,0:0:0:0:
312,244,168841,6,0,L|340:368,1,107.999996704102,4|2,0:0|0:0,0:0:0:0:
392,248,169158,1,0,0:0:0:0:
392,248,169263,2,0,L|408:316,1,53.9999983520508,0|0,1:0|0:0,0:0:0:0:
472,228,169475,2,0,L|488:296,1,53.9999983520508,2|0,0:0|0:0,0:0:0:0:
400,108,169686,6,0,L|416:176,1,53.9999983520508,4|0,0:0|0:0,0:0:0:0:
328,72,169897,2,0,P|356:40|392:32,1,53.9999983520508,2|0,0:0|0:0,0:0:0:0:
332,152,170108,2,0,P|280:136|248:80,1,107.999996704102,0|2,1:0|0:0,0:0:0:0:
200,32,170425,1,0,0:0:0:0:
120,64,170531,2,0,L|66:67,1,53.9999983520508,4|0,1:0|0:0,0:0:0:0:
0,164,170742,1,2,0:0:0:0:
0,164,170848,1,0,0:0:0:0:
104,176,170953,2,0,L|158:179,1,53.9999983520508,0|0,1:0|0:0,0:0:0:0:
53,285,171165,2,0,L|0:288,1,53.9999983520508,0|0,1:0|0:0,0:0:0:0:
220,264,171376,6,0,L|360:280,1,107.999996704102,4|2,1:2|1:2,1:2:0:0:
400,244,171693,1,0,0:0:0:0:
388,328,171799,2,0,P|449:316|484:256,1,107.999996704102,4|2,1:2|0:0,0:0:0:0:
400,244,172115,1,0,0:0:0:0:
475,205,172221,2,0,P|438:166|385:159,1,107.999996704102,4|2,1:2|0:0,0:0:0:0:
400,244,172538,1,0,0:0:0:0:
320,212,172644,2,0,P|304:160|316:92,1,107.999996704102,4|2,1:2|0:0,0:0:0:0:
384,76,172961,1,0,0:0:0:0:
428,8,173066,6,0,L|300:28,1,107.999996704102,4|2,1:2|0:0,0:0:0:0:
244,56,173383,1,0,0:0:0:0:
184,112,173489,2,0,P|164:76|164:44,1,53.9999983520508,4|0,1:2|0:0,0:0:0:0:
44,84,173700,2,0,P|64:48|64:16,1,53.9999983520508,6|0,1:2|0:0,0:0:0:0:
5,155,173911,2,0,P|72:160|108:132,1,107.999996704102,4|2,1:2|0:0,0:0:0:0:
184,112,174228,1,0,0:0:0:0:
168,192,174334,2,0,L|280:208,1,107.999996704102,4|2,1:2|0:0,0:0:0:0:
348,168,174651,1,0,0:0:0:0:
404,228,174756,6,0,P|428:180|400:104,1,107.999996704102,4|2,1:2|0:0,0:0:0:0:
348,168,175073,1,0,0:0:0:0:
352,88,175179,2,0,B|328:68|301:70|301:70|284:92|284:136,1,107.999996704102,4|2,1:2|0:0,0:0:0:0:
348,168,175496,1,0,0:0:0:0:
274,207,175601,2,0,P|220:192|168:192,1,107.999996704102,4|2,1:2|0:0,0:0:0:0:
104,140,175918,1,0,0:0:0:0:
180,112,176024,2,0,P|141:67|76:64,1,107.999996704102,4|2,1:2|0:0,0:0:0:0:
104,140,176341,1,0,0:0:0:0:
32,100,176446,6,0,P|22:158|62:210,1,107.999996704102,4|2,1:2|0:0,0:0:0:0:
104,256,176763,1,0,0:0:0:0:
184,276,176869,2,0,L|176:340,1,53.9999983520508,4|0,1:2|0:0,0:0:0:0:
334,329,177080,2,0,L|328:276,1,53.9999983520508,6|0,1:2|0:0,0:0:0:0:
204,192,177292,2,0,B|256:180|256:180|312:192,1,107.999996704102,4|2,1:2|0:0,0:0:0:0:
204,112,177608,1,0,0:0:0:0:
204,112,177714,2,0,B|256:100|256:100|312:112,1,107.999996704102,4|2,1:2|1:2,0:0:0:0:
256,16,178031,1,0,1:0:0:0:
112,88,178137,5,4,1:0:0:0:
400,88,178348,1,0,1:0:0:0:
152,12,178559,1,4,0:3:0:0:
204,192,178770,1,0,1:0:0:0:
360,12,178982,1,4,1:0:0:0:
308,192,179193,1,0,1:0:0:0:
308,192,179299,1,0,1:0:0:0:
308,192,179404,1,4,0:3:0:0:
84,172,179615,5,0,1:0:0:0:
200,308,179827,1,4,1:0:0:0:
428,172,180038,1,0,1:0:0:0:
312,308,180250,1,4,0:3:0:0:
256,104,180461,1,0,1:0:0:0:
59,259,180672,5,4,1:0:0:0:
111,251,180777,1,0,1:0:0:0:
162,269,180883,1,0,1:0:0:0:
199,307,180988,1,0,1:0:0:0:
260,376,181095,1,4,1:3:0:0:
312,383,181199,1,0,1:0:0:0:
363,365,181305,1,0,1:0:0:0:
400,327,181410,1,0,1:0:0:0:
400,236,181517,6,0,L|340:228,1,58.4999973220826,4|0,1:0|0:0,0:0:0:0:
112,236,181728,2,0,L|172:228,1,58.4999973220826,2|0,0:0|0:0,0:0:0:0:
335,64,181939,2,0,L|312:124,1,58.4999973220826,2|0,0:0|0:0,0:0:0:0:
256,324,182151,2,0,L|256:244,1,58.4999973220826,2|0,0:0|0:0,0:0:0:0:
176,64,182362,2,0,L|200:124,1,58.4999973220826,4|0,1:0|0:0,0:0:0:0:
448,148,182573,6,0,L|388:140,1,58.4999973220826,2|0,0:0|0:0,0:0:0:0:
64,148,182784,2,0,L|124:140,1,58.4999973220826,2|0,0:0|0:0,0:0:0:0:
448,236,182996,2,0,L|388:244,1,58.4999973220826,4|0,1:0|0:0,0:0:0:0:
64,236,183207,2,0,L|124:244,1,58.4999973220826,4|0,1:0|0:0,0:0:0:0:
390,40,183418,6,0,L|346:108,1,58.4999973220826,2|0,0:0|0:0,0:0:0:0:
320,384,183630,2,0,L|283:311,1,58.4999973220826,4|0,1:0|0:0,0:0:0:0:
57,151,183841,2,0,L|138:155,1,58.4999973220826,2|0,0:0|0:0,0:0:0:0:
432,192,184052,6,0,L|472:194,2,36,0|0|0,1:0|1:0|1:0,0:0:0:0:
216,228,184263,1,2,0:0:0:0:
292,152,184369,1,2,0:0:0:0:
80,192,184475,6,0,L|40:194,2,36,0|0|0,1:0|1:0|1:0,0:0:0:0:
311,253,184686,1,2,0:0:0:0:
200,130,184792,1,0,0:0:0:0:
297,336,184897,6,0,P|358:325|392:255,1,107.999996704102,4|0,1:0|0:0,0:0:0:0:
212,316,185214,1,0,0:0:0:0:
212,316,185320,2,0,P|172:324|132:360,1,53.9999983520508,2|0,0:0|0:0,0:0:0:0:
311,253,185531,2,0,L|316:176,1,53.9999983520508
200,130,185742,2,0,L|224:282,1,107.999996704102,8|0,0:3|0:0,0:0:0:0:
320,108,186059,1,0,0:0:0:0:
320,108,186165,2,0,L|323:54,1,53.9999983520508,4|0,0:3|0:0,0:0:0:0:
176,0,186376,2,0,L|186:55,1,53.9999983520508,2|0,0:0|0:0,0:0:0:0:
320,108,186587,6,0,P|384:96|424:40,1,107.999996704102,4|0,1:0|0:0,0:0:0:0:
508,32,186904,1,0,0:0:0:0:
508,32,187010,2,0,L|500:108,1,53.9999983520508,2|0,0:0|0:0,0:0:0:0:
461,221,187221,2,0,L|456:168,1,53.9999983520508
264,184,187432,2,0,P|328:196|368:252,1,107.999996704102,8|0,0:3|0:0,0:0:0:0:
220,304,187749,1,0,0:0:0:0:
220,304,187855,2,0,P|212:260|216:236,1,53.9999983520508,4|0,0:3|0:0,0:0:0:0:
352,320,188066,2,0,P|317:348|295:357,1,53.9999983520508,2|0,0:0|0:0,0:0:0:0:
112,296,188277,6,0,L|232:304,1,107.999996704102,4|2,1:0|0:0,0:0:0:0:
92,192,188594,1,0,0:0:0:0:
92,192,188700,2,0,L|199:184,1,107.999996704102,2|2,0:0|0:0,0:0:0:0:
404,228,189017,1,0,0:0:0:0:
404,228,189123,2,0,L|284:236,1,107.999996704102,4|2,1:0|0:0,0:0:0:0:
424,124,189440,1,0,0:0:0:0:
424,124,189546,2,0,L|316:116,1,107.999996704102,2|2,0:0|0:0,0:0:0:0:
124,80,189862,1,0,0:0:0:0:
124,80,189968,6,0,L|204:87,1,53.9999983520508,4|0,1:0|0:0,0:0:0:0:
256,28,190179,1,2,0:0:0:0:
256,28,190284,1,0,0:0:0:0:
104,108,190390,2,0,L|184:115,1,53.9999983520508,4|0,1:0|0:0,0:0:0:0:
180,0,190601,1,2,0:0:0:0:
180,0,190707,1,0,0:0:0:0:
32,56,190813,2,0,L|-4:52,2,26.9999991760254,0|0|0,1:0|1:0|1:0,1:0:0:0:
144,164,191024,2,0,P|156:132|156:100,1,53.9999983520508,2|4,0:0|0:3,0:0:0:0:
76,200,191235,6,0,P|104:232|176:240,1,90,8|2,0:3|0:3,0:0:0:0:
51,285,191658,6,0,P|111:249|179:249,1,107.999996704102,4|0,1:0|0:0,0:0:0:0:
232,304,191975,1,0,0:0:0:0:
232,304,192080,2,0,P|256:288|296:272,1,53.9999983520508,2|0,0:0|0:0,0:0:0:0:
376,332,192292,2,0,P|404:337|443:354,1,53.9999983520508
389,224,192503,2,0,L|373:348,1,107.999996704102,8|0,0:3|0:0,0:0:0:0:
316,180,192820,1,0,0:0:0:0:
316,180,192925,2,0,P|352:148|380:144,1,53.9999983520508,4|0,0:3|0:0,0:0:0:0:
472,200,193137,2,0,P|445:159|419:148,1,53.9999983520508,2|0,0:0|0:0,0:0:0:0:
257,115,193348,6,0,P|325:123|373:171,1,107.999996704102,4|0,1:0|0:0,0:0:0:0:
176,144,193665,1,0,0:0:0:0:
176,144,193770,2,0,L|164:72,1,53.9999983520508,2|0,0:0|0:0,0:0:0:0:
76,144,193982,2,0,L|16:101,1,53.9999983520508
20,236,194193,2,0,L|140:224,1,107.999996704102,8|0,0:3|0:0,0:0:0:0:
148,316,194510,1,0,0:0:0:0:
148,316,194615,2,0,L|205:310,1,53.9999983520508,4|0,0:3|0:0,0:0:0:0:
364,316,194827,2,0,L|307:310,1,53.9999983520508,2|0,0:0|0:0,0:0:0:0:
128,224,195038,5,4,1:0:0:0:
392,168,195249,1,2,0:0:0:0:
388,200,195355,1,0,0:0:0:0:
384,232,195461,1,0,1:0:0:0:
188,136,195672,1,2,0:0:0:0:
480,216,195883,1,4,1:0:0:0:
276,100,196094,1,0,1:0:0:0:
280,132,196200,1,0,0:0:0:0:
284,164,196306,1,2,0:0:0:0:
420,40,196517,1,2,0:0:0:0:
146,192,196728,5,4,1:0:0:0:
132,162,196833,1,0,1:0:0:0:
162,149,196939,1,0,1:0:0:0:
175,178,197045,1,0,1:0:0:0:
139,211,197151,5,4,1:0:0:0:
112,154,197256,1,0,1:0:0:0:
169,129,197362,1,0,1:0:0:0:
194,184,197468,1,0,1:0:0:0:
128,232,197573,6,0,L|84:240,2,26.9999991760254,0|0|0,1:0|1:0|1:0,1:0:0:0:
176,304,197784,1,0,3:0:0:0:
228,308,197889,1,0,3:0:0:0:
274,281,197995,1,0,3:0:0:0:
295,232,198100,1,0,3:0:0:0:
288,180,198207,1,0,3:0:0:0:
416,332,198418,5,4,0:0:0:0:
256,192,198524,12,0,201587,0:0:0:0:
256,192,201693,12,2,204651,0:0:0:0:
64,336,205179,6,0,P|92:352|144:348,1,67.5000025749208,8|2,0:3|0:0,0:0:0:0:
148,348,205496,1,4,0:3:0:0:
168,336,205601,1,2,0:0:0:0:
44,256,205813,1,4,0:3:0:0:
212,232,206024,1,8,0:3:0:0:
212,232,206130,2,0,L|204:284,1,33.7500012874604,2|0,0:0|0:0,0:0:0:0:
162,173,206341,1,4,0:3:0:0:
162,173,206446,2,0,P|191:156|224:155,1,67.5000025749208,2|4,0:0|0:3,0:0:0:0:
404,196,206869,6,0,L|316:212,1,67.5000025749208,8|2,0:3|0:0,0:0:0:0:
316,220,207186,1,4,0:3:0:0:
296,232,207292,1,2,0:0:0:0:
424,104,207503,1,4,0:3:0:0:
472,268,207714,1,8,0:3:0:0:
472,268,207820,2,0,L|468:320,1,33.7500012874604,2|0,0:0|0:0,0:0:0:0:
392,320,208031,1,4,0:3:0:0:
392,320,208137,2,0,P|352:320|312:340,1,67.5000025749208,2|4,0:0|0:3,0:0:0:0:
120,320,208559,6,0,P|160:320|200:340,1,67.5000025749208,8|2,0:3|0:0,0:0:0:0:
204,344,208876,1,4,0:3:0:0:
220,364,208982,1,2,0:0:0:0:
32,352,209193,1,4,0:3:0:0:
216,224,209404,1,8,0:3:0:0:
216,224,209510,2,0,L|208:272,1,33.7500012874604,2|0,0:0|0:0,0:0:0:0:
136,200,209721,1,4,0:3:0:0:
136,200,209827,2,0,L|128:108,1,67.5000025749208,2|4,0:0|0:3,0:0:0:0:
328,72,210249,6,0,P|284:56|236:60,1,67.5000025749208,8|2,0:3|0:0,0:0:0:0:
240,60,210566,1,4,0:3:0:0:
220,72,210672,1,2,0:0:0:0:
372,152,210883,1,4,0:3:0:0:
436,32,211094,1,8,0:3:0:0:
436,32,211200,2,0,L|444:88,1,33.7500012874604,2|0,0:0|0:0,0:0:0:0:
464,180,211411,1,4,0:3:0:0:
464,180,211517,2,0,P|440:228|404:248,1,67.5000025749208,2|4,0:0|0:3,0:0:0:0:
273,167,211939,6,0,P|325:151|389:155,1,101.250003862381,8|4,0:3|0:3,0:0:0:0:
288,192,212362,2,0,P|232:176|208:148,1,67.5000025749208,0|4,0:0|0:3,0:0:0:0:
240,84,212679,1,0,0:0:0:0:
240,84,212784,2,0,L|248:4,1,67.5000025749208,8|0,0:3|0:0,0:0:0:0:
160,120,213101,1,4,0:3:0:0:
160,120,213207,2,0,P|104:136|80:164,1,67.5000025749208,0|4,0:0|0:3,0:0:0:0:
32,288,213630,6,0,L|40:200,1,67.5000025749208,8|0,0:3|0:0,0:0:0:0:
116,264,213946,1,4,0:3:0:0:
116,264,214052,2,0,P|144:280|178:285,1,67.5000025749208,0|4,0:0|0:3,0:0:0:0:
328,232,214475,1,8,0:3:0:0:
328,232,214580,2,0,L|320:288,1,33.7500012874604,0|2,0:0|0:0,0:0:0:0:
268,178,214792,1,4,0:3:0:0:
268,178,214897,2,0,P|308:154|348:154,1,67.5000025749208,2|4,0:0|0:3,0:0:0:0:
512,176,215320,6,0,L|424:192,1,67.5000025749208,8|2,0:3|0:0,0:0:0:0:
424,196,215637,1,4,0:3:0:0:
404,204,215742,1,2,0:0:0:0:
496,88,215953,1,4,0:3:0:0:
440,296,216165,1,8,0:3:0:0:
440,296,216270,2,0,L|488:288,1,33.7500012874604,2|0,0:0|0:0,0:0:0:0:
352,276,216482,1,4,0:3:0:0:
352,276,216587,2,0,P|320:288|296:328,1,67.5000025749208,2|4,0:0|0:3,0:0:0:0:
112,304,217010,6,0,L|192:316,1,67.5000025749208,8|2,0:3|0:0,0:0:0:0:
200,324,217327,1,4,0:3:0:0:
220,336,217432,1,2,0:0:0:0:
28,340,217644,1,4,0:3:0:0:
188,204,217855,1,8,0:3:0:0:
188,204,217961,2,0,P|164:208|144:224,1,33.7500012874604,2|0,0:0|0:0,0:0:0:0:
224,124,218172,1,4,0:3:0:0:
224,124,218277,2,0,P|204:109|172:104,1,42.7499988584519,2|0,0:0|0:0,0:0:0:0:
312,104,218489,2,0,P|308:80|288:48,1,51.7500009870529,4|0,0:3|0:0,0:0:0:0:
408,132,218700,6,0,L|396:244,1,101.250003862381,8|4,0:3|0:3,0:0:0:0:
461,293,219123,2,0,P|481:257|481:215,1,67.5000025749208,2|4,0:0|0:3,0:0:0:0:
330,239,219545,1,8,0:3:0:0:
330,239,219651,2,0,L|406:231,1,67.5000025749208,2|4,0:0|0:3,0:0:0:0:
287,312,219968,2,0,P|255:276|251:244,1,67.5000025749208,2|4,0:0|0:3,0:0:0:0:
356,136,220390,6,0,P|300:144|260:192,1,101.250003862381,8|4,0:3|0:3,0:0:0:0:
356,112,220813,2,0,P|392:120|428:152,1,67.5000025749208,2|4,0:0|0:3,0:0:0:0:
324,28,221235,1,8,0:3:0:0:
324,28,221341,2,0,P|296:46|263:53,1,67.5000025749208,2|4,0:0|0:3,0:0:0:0:
164,28,221658,2,0,L|180:104,1,67.5000025749208,2|4,0:0|0:3,0:0:0:0:
4,160,222080,6,0,P|40:120|108:112,1,101.250003862381,8|4,0:3|0:3,0:0:0:0:
112,192,222503,2,0,L|98:125,1,67.5000025749208,2|4,0:0|0:3,0:0:0:0:
70,263,222925,1,8,0:3:0:0:
70,263,223031,2,0,P|110:275|154:263,1,67.5000025749208,2|4,0:0|0:3,0:0:0:0:
160,352,223348,2,0,P|196:332|219:292,1,67.5000025749208,2|4,0:0|0:3,0:0:0:0:
416,252,223770,6,0,B|384:232|384:232|308:252,1,101.250003862381,8|4,0:3|0:3,0:0:0:0:
386,322,224193,2,0,P|426:330|458:318,1,67.5000025749208,2|0,0:0|0:3,0:0:0:0:
452,180,224615,1,8,0:3:0:0:
452,180,224721,2,0,P|419:172|387:180,1,67.5000025749208,2|4,0:0|0:3,0:0:0:0:
322,248,225038,2,0,P|291:234|258:236,1,67.5000025749208,2|4,0:0|0:3,0:0:0:0:
352,80,225461,5,8,0:3:0:0:
272,312,225672,1,2,0:0:0:0:
272,312,225777,1,4,0:3:0:0:
272,312,225883,1,2,0:0:0:0:
387,180,226094,1,4,0:3:0:0:
176,184,226306,5,8,0:3:0:0:
144,172,226411,1,2,0:0:0:0:
119,150,226517,1,0,0:0:0:0:
105,119,226622,1,4,0:3:0:0:
104,86,226728,1,2,0:0:0:0:
260,137,226939,1,4,0:3:0:0:
48,192,227151,5,8,0:3:0:0:
208,32,227362,1,2,0:0:0:0:
208,32,227468,1,4,0:3:0:0:
208,32,227573,1,2,0:0:0:0:
176,184,227784,1,4,0:3:0:0:
328,144,227996,1,8,0:3:0:0:
328,144,228101,2,0,L|248:136,1,67.5000025749208,2|4,0:0|0:3,0:0:0:0:
316,60,228418,2,0,L|396:52,1,67.5000025749208,2|4,0:0|0:3,0:0:0:0:
496,188,228841,6,0,P|448:176|412:120,1,101.250003862381,8|4,0:3|0:3,0:0:0:0:
376,216,229263,2,0,P|340:220|308:244,1,67.5000025749208,2|4,0:0|0:3,0:0:0:0:
440,332,229686,1,8,0:3:0:0:
440,332,229792,2,0,L|444:260,1,67.5000025749208,2|4,0:0|0:3,0:0:0:0:
352,336,230108,2,0,P|316:332|284:308,1,67.5000025749208,2|4,0:0|0:3,0:0:0:0:
104,280,230531,6,0,L|216:264,1,101.250003862381,8|4,0:3|0:3,0:0:0:0:
181,186,230953,2,0,P|229:186|269:214,1,67.5000025749208,2|4,0:0|0:3,0:0:0:0:
84,200,231376,1,8,0:3:0:0:
84,200,231482,2,0,L|72:128,1,67.5000025749208,2|4,0:0|0:3,0:0:0:0:
164,40,231799,2,0,L|152:106,1,67.5000025749208,2|4,0:0|0:3,0:0:0:0:
284,80,232221,6,0,B|324:64|324:64|356:84|356:84|412:88|412:88|400:156|400:156|444:200|444:200|388:240|388:240|352:300|352:300|302:276|302:276|260:284|260:284|220:260,1,540.000020599366,2|0,0:0|0:0,0:0:0:0:
176,120,233700,6,0,B|173:101|173:101|176:84,18,33.7500012874604
104,40,234756,6,0,P|87:94|103:136,1,67.5000025749208,2|0,0:0|0:0,0:0:0:0:
160,6,234968,2,0,P|109:32|91:73,1,67.5000025749208,2|0,0:0|0:0,0:0:0:0:
223,20,235179,2,0,P|168:3|126:19,1,67.5000025749208,2|0,0:0|0:0,0:0:0:0:
256,76,235390,2,0,P|229:25|188:7,1,67.5000025749208,2|0,0:0|0:0,0:0:0:0:
278,133,235601,6,0,P|289:77|270:37,1,67.5000025749208,2|0,0:0|0:0,0:0:0:0:
93,165,236024,2,0,P|62:116|67:72,1,67.5000025749208,2|0,0:0|0:0,0:0:0:0:
293,158,236446,6,0,B|313:140|313:140|325:136|325:136|348:96,1,67.5000025749208,2|0,0:0|0:0,0:0:0:0:
88,195,236869,2,0,B|63:184|63:184|50:185|50:185|14:155,1,67.5000025749208,2|0,0:0|0:0,0:0:0:0:
304,173,237292,6,0,B|336:165|336:165|344:217,1,67.5000025749208,2|0,0:0|0:0,0:0:0:0:
83,212,237714,2,0,B|50:215|50:215|60:267,1,67.5000025749208,2|0,0:0|0:0,0:0:0:0:
290,217,238137,6,0,B|321:225|321:225|329:244|329:244|357:257,1,67.5000025749208,2|0,0:0|0:0,0:0:0:0:
111,248,238559,2,0,B|83:266|83:266|82:287|82:287|60:308,1,67.5000025749208,2|0,0:0|0:0,0:0:0:0:
330,273,238982,6,0,B|356:293|356:293|401:293,1,67.5000025749208,2|0,0:0|0:0,0:0:0:0:
92,315,239404,2,0,B|73:343|73:343|31:359,1,67.5000025749208,2|0,0:0|0:0,0:0:0:0:
331,306,239827,6,0,L|410:316,1,67.5000025749208,2|0,0:0|0:0,0:0:0:0:
103,346,240249,2,0,L|32:382,1,67.5000025749208,2|0,0:0|0:0,0:0:0:0:
16,272,242364,5,0,0:0:0:0:
168,304,242636,1,2,0:0:0:0:
232,260,242773,1,0,0:0:0:0:
244,340,242909,2,0,L|232:408,1,45,2|0,0:0|0:0,0:0:0:0:
160,224,243182,2,0,P|180:196|208:184,1,45
319,240,243454,2,0,L|227:260,2,90,0|2|2,0:0|0:0|0:0,0:0:0:0:
472,292,244273,1,0,0:0:0:0:
472,292,244409,1,0,0:0:0:0:
460,212,244545,6,0,L|452:160,1,45
440,84,244818,1,2,0:0:0:0:
380,140,244954,1,0,0:0:0:0:
295,124,245091,2,0,P|363:128|395:156,1,90,0|2,0:0|0:0,0:0:0:0:
204,128,245636,2,0,P|240:102|284:98,1,90,0|2,0:0|0:0,0:0:0:0:
120,72,246182,1,2,0:0:0:0:
40,212,246454,1,0,0:0:0:0:
108,256,246591,1,0,0:0:0:0:
36,292,246727,6,0,L|48:356,1,45
168,312,247000,2,0,P|184:280|184:248,1,45,2|0,0:0|0:0,0:0:0:0:
117,166,247273,2,0,L|105:274,1,90,2|0,0:0|0:0,0:0:0:0:
194,146,247682,1,0,0:0:0:0:
194,146,247818,2,0,P|166:102|100:87,2,90,0|2|2,0:0|0:0|0:0,0:0:0:0:
344,96,248636,1,0,0:0:0:0:
416,124,248773,1,0,0:0:0:0:
404,48,248909,5,0,0:0:0:0:
320,256,249182,1,2,0:0:0:0:
256,48,249454,1,0,0:0:0:0:
192,256,249727,1,2,0:0:0:0:
56,188,250000,6,0,B|8:184|-16:204|-16:204|8:216|24:240|24:240|68:240|68:240|44:268|40:304|56:336|56:336|88:344|132:320|120:276,1,360
121,299,251636,6,0,B|177:279|177:339|247:310,1,120,2|0,0:0|0:0,0:0:0:0:
120,320,252182,2,0,P|192:320|252:276,1,132.00000402832
104,296,252727,2,0,P|180:300|240:348,1,143.999995605469
396,344,253273,6,0,L|351:349,1,45
364,268,253545,1,2,0:0:0:0:
364,268,253682,1,0,0:0:0:0:
308,204,253818,2,0,L|244:196,1,45,2|0,0:0|0:0,0:0:0:0:
368,144,254091,1,0,0:0:0:0:
368,144,254227,1,0,0:0:0:0:
444,168,254364,2,0,P|447:133|415:79,2,90,0|2|2,0:0|0:0|0:0,0:0:0:0:
344,48,255182,1,0,0:0:0:0:
312,40,255273,1,0,0:0:0:0:
280,40,255364,1,0,0:0:0:0:
248,52,255454,6,0,L|192:44,1,45
84,88,255727,2,0,L|140:80,1,45,2|0,0:0|0:0,0:0:0:0:
240,132,256000,2,0,L|184:124,1,45
76,172,256273,2,0,L|132:164,1,45,2|0,0:0|0:0,0:0:0:0:
240,132,256545,1,0,0:0:0:0:
308,176,256682,1,0,0:0:0:0:
263,244,256818,1,2,0:0:0:0:
196,200,256954,1,0,0:0:0:0:
308,96,257091,2,0,P|352:108|384:156,1,90,2|0,0:0|0:0,0:0:0:0:
380,224,257500,1,0,0:0:0:0:
460,220,257636,6,0,L|440:332,1,90,0|2,0:0|0:0,0:0:0:0:
364,320,258045,1,0,0:0:0:0:
284,320,258182,2,0,P|296:364|312:380,1,45,2|0,0:0|0:0,0:0:0:0:
216,272,258454,2,0,P|206:292|204:314,1,45
124,360,258727,2,0,P|112:308|116:252,1,90,0|2,0:0|0:0,0:0:0:0:
30,237,259273,2,0,P|81:252|127:284,1,90,2|0,0:0|0:0,0:0:0:0:
172,220,259818,6,0,P|132:258|91:280,1,79.1999997583008
217,146,260364,5,0,0:0:0:0:
217,146,260569,6,0,P|248:176|256:228,1,67.5000025749208
232,296,260977,6,0,P|257:311|312:312,1,67.5000025749208
412,172,261352,6,0,P|368:180|344:212,1,67.5000025749208
509,284,261727,6,0,P|524:241|508:205,1,67.5000025749208
364,312,262157,6,0,P|392:346|432:350,1,67.5000025749208
412,172,262570,6,0,P|368:180|344:212,1,67.5000025749208
428,256,263083,5,0,0:0:0:0:
256,192,263227,12,0,265390,0:0:0:0:
88,284,268543,5,2,0:0:0:0:
88,284,268965,1,2,0:0:0:0:
88,284,269388,6,0,P|132:328|161:331,1,67.5000025749208,4|0,0:3|0:0,0:0:0:0:
200,220,269704,1,4,0:3:0:0:
200,220,269810,2,0,P|168:248|156:280,1,45,4|0,0:3|0:0,0:0:0:0:
256,340,270021,2,0,P|247:298|226:271,1,45,4|0,0:3|0:0,0:0:0:0:
136,167,270233,6,0,P|187:137|271:174,1,116.999994644165,4|0,1:0|0:0,0:0:0:0:
320,172,270550,1,0,0:0:0:0:
380,120,270655,2,0,P|336:96|304:96,1,58.4999973220826,2|0,0:0|0:0,0:0:0:0:
400,200,270866,2,0,P|442:173|458:146,1,58.4999973220826
320,172,271078,2,0,L|332:276,1,58.4999973220826,8|0,0:3|0:0,0:0:0:0:
464,88,271289,2,0,L|472:24,1,58.4999973220826
428,292,271500,1,4,0:3:0:0:
428,292,271606,1,0,0:0:0:0:
428,292,271712,1,2,0:0:0:0:
428,292,271817,1,0,0:0:0:0:
356,332,271923,6,0,B|297:353|294:321|240:342,1,116.999994644165,4|0,1:0|0:0,0:0:0:0:
224,260,272240,1,0,0:0:0:0:
160,312,272345,2,0,P|144:284|143:248,1,58.4999973220826,2|0,0:0|0:0,0:0:0:0:
288,208,272557,2,0,P|304:236|305:272,1,58.4999973220826
64,229,272768,2,0,P|96:189|167:180,1,116.999994644165,8|0,0:3|0:0,0:0:0:0:
158,177,273085,1,0,0:0:0:0:
252,72,273190,2,0,L|240:144,1,58.4999973220826,4|0,0:3|0:0,0:0:0:0:
214,317,273402,2,0,L|223:259,1,58.4999973220826,2|0,0:0|0:0,0:0:0:0:
395,182,273613,6,0,B|344:214|344:214|271:206,1,116.999994644165,4|2,1:0|0:0,0:0:0:0:
328,132,273930,1,0,0:0:0:0:
416,264,274035,2,0,B|365:296|365:296|292:288,1,116.999994644165,2|2,0:0|0:0,0:0:0:0:
288,208,274352,1,0,0:0:0:0:
119,288,274458,2,0,P|173:253|239:268,1,116.999994644165,4|2,1:0|0:0,0:0:0:0:
188,332,274775,1,0,0:0:0:0:
15,317,274881,2,0,P|61:283|119:288,1,116.999994644165,4|2,1:0|0:0,0:0:0:0:
188,332,275197,1,0,0:0:0:0:
162,178,275303,6,0,P|114:194|82:230,1,58.4999973220826,4|0,1:0|0:0,0:0:0:0:
220,120,275514,1,2,0:0:0:0:
220,120,275620,1,0,0:0:0:0:
128,44,275726,2,0,L|144:112,1,58.4999973220826,4|0,1:0|0:0,0:0:0:0:
244,200,275937,1,2,0:0:0:0:
328,188,276043,1,0,0:0:0:0:
376,120,276148,1,4,1:0:0:0:
368,32,276359,6,0,L|388:0,1,29.2499986610413,2|0,0:3|0:0,0:0:0:0:
376,120,276571,2,0,L|412:111,1,29.2499986610413,2|0,0:3|0:0,0:0:0:0:
328,188,276782,2,0,L|360:208,1,29.2499986610413,2|0,0:3|0:0,0:0:0:0:
244,200,276993,6,0,B|256:240|256:240|252:264|252:264|272:328,1,116.999994644165,4|0,1:0|0:0,0:0:0:0:
267,312,277310,1,0,0:0:0:0:
200,360,277416,2,0,L|180:296,1,58.4999973220826,2|0,0:0|0:0,0:0:0:0:
350,304,277627,2,0,L|368:360,1,58.4999973220826
200,229,277838,2,0,P|143:236|107:316,1,116.999994644165,8|0,0:3|0:0,0:0:0:0:
182,304,278155,1,0,0:0:0:0:
108,356,278261,2,0,P|79:351|55:336,1,58.4999973220826,4|0,0:3|0:0,0:0:0:0:
182,304,278472,2,0,L|200:360,1,58.4999973220826,2|0,0:0|0:0,0:0:0:0:
1,279,278683,6,0,P|66:260|130:316,1,116.999994644165,4|0,1:0|0:0,0:0:0:0:
55,336,279000,1,0,0:0:0:0:
72,180,279106,2,0,L|80:112,1,58.4999973220826,2|0,0:0|0:0,0:0:0:0:
160,208,279317,2,0,P|188:224|232:224,1,58.4999973220826
326,133,279528,2,0,L|198:153,1,116.999994644165,8|0,0:3|0:0,0:0:0:0:
401,162,279845,1,0,0:0:0:0:
401,162,279951,2,0,P|405:122|393:90,1,58.4999973220826,4|0,0:3|0:0,0:0:0:0:
256,8,280162,2,0,P|250:36|255:65,1,58.4999973220826,2|0,0:0|0:0,0:0:0:0:
336,206,280373,6,0,P|386:241|458:217,1,116.999994644165,4|2,1:0|0:0,0:0:0:0:
401,162,280690,1,0,0:0:0:0:
294,139,280796,2,0,P|259:184|265:241,1,116.999994644165,2|2,0:0|0:0,0:0:0:0:
320,296,281113,1,0,0:0:0:0:
172,328,281219,2,0,P|229:334|279:364,1,116.999994644165,4|2,1:0|0:0,0:0:0:0:
160,248,281535,1,0,0:0:0:0:
94,296,281641,2,0,P|78:252|123:174,1,116.999994644165,2|2,0:0|0:0,0:0:0:0:
180,164,281958,1,0,0:0:0:0:
252,80,282064,6,0,L|264:156,1,58.4999973220826,4|0,1:0|0:0,0:0:0:0:
168,56,282275,1,2,0:0:0:0:
168,56,282381,1,0,0:0:0:0:
332,56,282486,2,0,L|344:132,1,58.4999973220826,4|0,1:0|0:0,0:0:0:0:
272,0,282697,1,2,0:0:0:0:
272,0,282803,1,0,0:0:0:0:
444,136,282909,6,0,L|452:100,2,29.2499986610413,0|0|0,1:0|1:0|1:0,0:0:0:0:
464,216,283120,1,0,3:0:0:0:
400,264,283226,1,0,3:0:0:0:
380,184,283331,1,0,3:0:0:0:
448,224,283437,1,0,3:0:0:0:
384,272,283543,1,0,3:0:0:0:
364,192,283648,1,0,3:0:0:0:
456,322,283754,6,0,P|400:359|326:338,1,116.999994644165,4|2,1:0|0:0,0:0:0:0:
304,288,284071,1,0,0:0:0:0:
270,362,284176,2,0,P|230:322|234:250,1,116.999994644165,4|2,1:2|0:0,0:0:0:0:
276,196,284493,1,0,0:0:0:0:
276,112,284599,2,0,B|245:93|218:100|218:100|204:126|208:156,1,116.999994644165,4|2,1:2|0:0,0:0:0:0:
276,196,284916,1,0,0:0:0:0:
348,156,285021,2,0,P|377:155|405:145,1,58.4999973220826,4|0,1:2|0:0,0:0:0:0:
504,76,285233,2,0,P|471:66|441:69,1,58.4999973220826,4|0,1:2|0:0,0:0:0:0:
356,188,285444,6,0,L|487:162,1,116.999994644165,4|2,1:2|0:0,0:0:0:0:
496,244,285761,1,0,0:0:0:0:
506,324,285866,2,0,P|441:302|419:242,1,116.999994644165,4|2,1:2|0:0,0:0:0:0:
360,320,286183,1,0,0:0:0:0:
292,276,286289,2,0,P|232:264|160:276,1,116.999994644165,4|2,1:2|0:0,0:0:0:0:
100,296,286606,1,0,0:0:0:0:
96,212,286712,2,0,P|52:228|32:260,1,58.4999973220826,4|0,1:2|0:0,0:0:0:0:
104,380,286923,2,0,P|148:364|168:332,1,58.4999973220826,4|0,1:2|0:0,0:0:0:0:
280,180,287134,5,4,1:0:0:0:
269,123,287239,1,0,0:0:0:0:
228,82,287345,1,2,0:0:0:0:
172,70,287450,1,0,0:0:0:0:
172,175,287557,5,4,1:0:0:0:
228,164,287662,1,0,0:0:0:0:
269,123,287768,1,2,0:0:0:0:
281,67,287873,1,0,0:0:0:0:
376,104,287979,5,4,1:0:0:0:
428,119,288084,1,0,0:0:0:0:
462,75,288190,1,2,0:0:0:0:
434,28,288295,1,0,0:0:0:0:
376,104,288402,5,4,1:0:0:0:
380,162,288507,1,0,0:0:0:0:
394,219,288613,1,2,0:0:0:0:
416,273,288718,1,0,0:0:0:0:
492,320,288824,6,0,L|484:384,1,58.4999973220826,4|0,1:0|0:0,0:0:0:0:
416,273,289035,1,2,0:0:0:0:
416,273,289141,1,0,0:0:0:0:
332,324,289247,2,0,L|324:388,1,58.4999973220826,4|0,1:0|0:0,0:0:0:0:
264,252,289458,1,2,0:0:0:0:
264,252,289564,1,0,0:0:0:0:
112,344,289669,6,0,P|176:352|172:276,1,116.999994644165,4|0,1:0|0:0,0:0:0:0:
128,264,289986,1,0,0:0:0:0:
48,288,290092,2,0,B|40:260|40:260|44:216,1,58.4999973220826
204,232,290303,2,0,B|199:203|199:203|177:165,1,58.4999973220826,0|0,1:0|0:0,0:0:0:0:
8,132,290514,6,0,P|68:116|120:160,1,116.999994644165,4|0,1:0|0:0,0:0:0:0:
174,73,290831,1,0,0:0:0:0:
256,132,290937,2,0,P|263:98|247:52,1,58.4999973220826,2|0,0:0|0:0,0:0:0:0:
164,16,291148,2,0,L|180:108,1,58.4999973220826
296,208,291359,2,0,P|340:188|392:108,1,116.999994644165,8|0,0:3|0:0,0:0:0:0:
384,52,291676,1,0,0:0:0:0:
452,176,291782,2,0,P|488:192|536:184,1,58.4999973220826,4|0,0:3|0:0,0:0:0:0:
512,68,291993,2,0,P|483:71|457:84,1,58.4999973220826,2|0,0:0|0:0,0:0:0:0:
376,212,292204,6,0,P|376:260|412:340,1,116.999994644165,4|0,1:0|0:0,0:0:0:0:
460,264,292521,1,0,0:0:0:0:
316,344,292627,2,0,L|256:340,1,58.4999973220826,2|0,0:0|0:0,0:0:0:0:
232,264,292838,2,0,L|173:267,1,58.4999973220826
61,336,293050,2,0,L|120:340,1,58.4999973220826,8|0,0:3|0:0,0:0:0:0:
192,184,293261,1,0,0:0:0:0:
192,184,293366,1,0,0:0:0:0:
192,184,293472,2,0,L|133:187,1,58.4999973220826,4|0,0:3|0:0,0:0:0:0:
16,240,293683,2,0,L|74:243,1,58.4999973220826,2|0,0:0|0:0,0:0:0:0:
280,188,293895,5,4,1:0:0:0:
269,131,294000,1,0,0:0:0:0:
232,86,294106,1,2,0:0:0:0:
178,66,294211,1,0,0:0:0:0:
121,75,294317,1,0,0:0:0:0:
165,112,294422,1,0,0:0:0:0:
222,123,294528,1,2,0:0:0:0:
277,104,294633,1,0,0:0:0:0:
316,61,294739,5,4,1:0:0:0:
369,40,294845,1,0,0:0:0:0:
425,51,294951,1,2,0:0:0:0:
466,91,295056,1,0,0:0:0:0:
478,148,295162,1,0,0:0:0:0:
457,201,295268,1,0,0:0:0:0:
410,234,295373,1,2,0:0:0:0:
352,236,295479,1,0,0:0:0:0:
284,192,295585,5,4,1:0:0:0:
212,175,295690,1,0,0:0:0:0:
151,216,295796,1,2,0:0:0:0:
140,290,295901,1,0,0:0:0:0:
196,352,296007,6,0,L|192:404,2,29.2499986610413,0|0|0,1:0|1:0|1:0,1:0:0:0:
248,288,296219,1,2,0:0:0:0:
276,364,296324,1,0,0:0:0:0:
356,300,296430,6,0,L|304:304,2,29.2499986610413,0|0|0,1:0|1:0|1:0,1:0:0:0:
424,360,296641,1,2,0:0:0:0:
456,236,296747,1,0,0:0:0:0:
504,320,296852,6,0,L|516:360,2,29.2499986610413,0|0|0,1:0|1:0|1:0,1:0:0:0:
364,216,297064,2,0,L|324:204,2,29.2499986610413
507,166,297275,6,0,P|466:149|400:169,1,67.5000025749208,4|0,1:0|0:0,0:0:0:0:
288,120,297486,2,0,P|321:118|351:103,1,67.5000025749208,2|0,0:0|0:0,0:0:0:0:
432,0,297697,2,0,L|424:88,1,67.5000025749208,0|0,1:0|0:0,0:0:0:0:
342,274,297909,2,0,L|335:206,1,67.5000025749208,2|0,0:0|0:0,0:0:0:0:
164,208,298120,2,0,P|194:193|227:191,1,67.5000025749208,0|0,1:0|0:0,0:0:0:0:
356,356,298331,2,0,P|322:354|292:339,1,67.5000025749208,2|0,0:0|0:0,0:0:0:0:
96,253,298543,2,0,B|84:220|84:220|88:173,1,67.5000025749208,0|0,1:0|0:0,0:0:0:0:
204,316,298754,2,0,B|206:348|206:348|194:381,1,67.5000025749208,2|0,0:0|0:0,0:0:0:0:
8,198,298965,6,0,P|16:150|104:110,1,135.000005149842,4|2,1:0|0:0,0:0:0:0:
176,124,299282,1,0,0:0:0:0:
221,58,299388,2,0,P|191:42|157:40,1,67.5000025749208,0|0,1:0|0:0,0:0:0:0:
163,207,299599,2,0,P|197:205|227:191,1,67.5000025749208,2|0,0:0|0:0,0:0:0:0:
368,32,299810,2,0,L|284:44,1,67.5000025749208,0|0,1:0|0:0,0:0:0:0:
304,216,300021,2,0,L|370:225,1,67.5000025749208,2|0,0:0|0:0,0:0:0:0:
448,0,300233,2,0,P|460:28|456:76,1,67.5000025749208,0|0,1:0|0:0,0:0:0:0:
452,264,300444,2,0,P|464:232|463:199,1,67.5000025749208,2|0,0:0|0:0,0:0:0:0:
257,170,300655,6,0,P|337:186|381:262,1,135.000005149842,0|2,1:0|0:0,0:0:0:0:
363,311,300972,1,0,0:0:0:0:
299,371,301078,2,0,P|279:327|287:283,1,67.5000025749208,0|0,1:0|0:0,0:0:0:0:
430,302,301289,2,0,L|326:316,1,67.5000025749208,2|0,0:0|0:0,0:0:0:0:
128,300,301500,2,0,P|144:252|224:256,1,135.000005149842,4|2,1:0|0:0,0:0:0:0:
204,336,301817,1,0,0:0:0:0:
128,380,301923,2,0,P|72:355|60:313,1,67.5000025749208,0|0,1:0|0:0,0:0:0:0:
28,268,302134,2,0,P|52:212|94:200,1,67.5000025749208,2|0,0:0|0:0,0:0:0:0:
205,144,302345,6,0,P|153:136|93:42,1,135.000005149842,4|2,1:0|0:0,0:0:0:0:
216,60,302662,1,0,0:0:0:0:
322,171,302768,2,0,B|368:176|400:149|400:149|370:129|336:136,1,135.000005149842,4|2,1:0|0:0,0:0:0:0:
205,144,303085,1,0,0:0:0:0:
240,260,303190,2,0,P|245:312|171:393,1,135.000005149842,4|2,1:0|0:0,0:0:0:0:
159,299,303507,1,0,0:0:0:0:
364,328,303613,2,0,P|420:308|444:260,1,67.5000025749208,4|0,1:0|0:0,0:0:0:0:
512,200,303824,2,0,P|456:180|432:132,1,67.5000025749208,0|0,1:0|0:0,0:0:0:0:
255,94,304035,6,0,P|254:127|264:160,3,67.5000025749208,4|0|2|0,1:0|0:0|0:0|0:0,0:0:0:0:
204,12,304458,2,0,P|187:30|124:58,3,67.5000025749208,0|0|2|0,0:0|0:0|0:0|0:0,0:0:0:0:
116,136,304881,2,0,P|140:141|195:182,3,67.5000025749208,0|0|2|0,0:0|0:0|0:0|0:0,0:0:0:0:
32,228,305303,2,0,L|24:160,3,67.5000025749208
124,272,305726,5,4,1:0:0:0:
179,294,305831,1,0,0:0:0:0:
236,279,305937,1,2,0:0:0:0:
273,231,306042,1,0,0:0:0:0:
328,209,306148,1,0,1:0:0:0:
385,219,306254,1,0,0:0:0:0:
417,269,306360,1,2,0:0:0:0:
402,326,306465,1,0,0:0:0:0:
360,360,306571,1,0,1:0:0:0:
302,378,306676,1,0,0:0:0:0:
243,366,306782,1,2,0:0:0:0:
198,327,306887,1,0,0:0:0:0:
168,252,306993,1,0,1:0:0:0:
177,179,307098,1,0,0:0:0:0:
227,125,307204,1,2,0:0:0:0:
298,110,307309,1,0,0:0:0:0:
380,128,307416,6,0,P|448:114|470:19,1,135.000005149842,4|2,1:0|0:0,0:0:0:0:
396,48,307733,1,0,0:0:0:0:
396,48,307838,1,4,0:3:0:0:
256,16,308050,1,2,0:0:0:0:
132,128,308261,2,0,P|64:114|42:19,1,135.000005149842,4|2,1:0|0:0,0:0:0:0:
116,48,308578,1,0,0:0:0:0:
116,48,308683,2,0,L|184:40,1,67.5000025749208,4|0,1:3|1:0,1:0:0:0:
284,196,308895,2,0,L|216:188,1,67.5000025749208,2|0,0:0|0:0,0:0:0:0:
376,152,309106,5,0,1:0:0:0:
384,192,309212,1,0,1:0:0:0:
392,232,309317,1,0,1:0:0:0:
216,188,309528,1,0,1:0:0:0:
496,120,309740,5,0,1:0:0:0:
488,200,309845,5,0,1:0:0:0:
480,280,309951,5,4,1:1:0:0:
