osu file format v14

[General]
AudioFilename: audio.mp3
AudioLeadIn: 0
PreviewTime: 143911
Countdown: 0
SampleSet: Soft
StackLeniency: 0.7
Mode: 3
LetterboxInBreaks: 0
SpecialStyle: 0
WidescreenStoryboard: 0

[Editor]
Bookmarks: 423,9150,15910,22671,29431,36192,42952,49713,56473,63234,69995,76755,83516,97037,103797,110558,117319,124079,137600,144361,151121,157882,164642,171403,184924,191685,198445,205206,211966,218727,232248,233780,234519,234783,234995,235206,235417,242389,253299,259844,268580,270270,283791,297312,304072,309143,309988
DistanceSpacing: 1.3
BeatDivisor: 4
GridSize: 8
TimelineZoom: 2.4

[Metadata]
Title:Nobore! Susume! Takai Tou
TitleUnicode:のぼれ!すすめ!高い塔
Artist:KikuoHana
ArtistUnicode:きくおはな
Creator:Kuron-kun
Version:Eraser's Minaret
Source:
Tags:きくお 花たん Hanatan YURiCa 第一幕 Daiichimaku SCGA-00045 Eraser ghm12 marathon
BeatmapID:1231298
BeatmapSetID:580273

[Difficulty]
HPDrainRate:8.5
CircleSize:4
OverallDifficulty:8
ApproachRate:5
SliderMultiplier:1.4
SliderTickRate:1

[Events]
//Background and Video events
0,0,"alice.jpg",0,0
//Break Periods
//Storyboard Layer 0 (Background)
//Storyboard Layer 1 (Fail)
//Storyboard Layer 2 (Pass)
//Storyboard Layer 3 (Foreground)
//Storyboard Sound Samples
Sample,284599,0,"kickku.wav",30
Sample,286289,0,"kickku.wav",40

[TimingPoints]
408,545.454545454546,4,2,1,30,1,0
408,-86.9565217391304,4,2,1,30,0,0
9123,422.535211267606,4,2,1,30,1,0
22644,-100,4,2,1,30,0,1
28559,-100,4,2,1,30,0,0
34475,-1000,4,2,1,30,0,0
34897,-500,4,2,1,30,0,0
34923,-333.333333333333,4,2,1,30,0,0
34950,-250,4,2,1,30,0,0
34976,-200,4,2,1,30,0,0
35003,-166.666666666667,4,2,1,30,0,0
35029,-142.857142857143,4,2,1,30,0,0
35055,-125,4,2,1,30,0,0
35082,-111.111111111111,4,2,1,30,0,0
35108,-100,4,2,1,30,0,0
42925,-100,4,2,1,30,0,1
48841,-100,4,2,1,30,0,0
62837,-102.040816326531,4,2,1,30,0,0
62890,-105.263157894737,4,2,1,30,0,0
62943,-107.52688172043,4,2,1,30,0,0
62996,-111.111111111111,4,2,1,30,0,0
63049,-113.636363636364,4,2,1,30,0,0
63101,-117.647058823529,4,2,1,30,0,0
63154,-120.481927710843,4,2,1,30,0,0
63207,-100,4,2,1,30,0,1
69123,-100,4,2,1,30,0,0
69968,-100,4,2,1,30,0,1
82644,-100,4,2,1,30,0,0
96799,-111.111111111111,4,2,1,30,0,0
101869,-1000,4,2,1,30,0,0
102292,-500,4,2,1,30,0,0
102318,-333.333333333333,4,2,1,30,0,0
102344,-250,4,2,1,30,0,0
102371,-200,4,2,1,30,0,0
102397,-166.666666666667,4,2,1,30,0,0
102424,-142.857142857143,4,2,1,30,0,0
102450,-125,4,2,1,30,0,0
102476,-111.111111111111,4,2,1,30,0,0
102714,-100,4,2,1,30,0,0
102925,-90.9090909090909,4,2,1,30,0,0
102978,-111.111111111111,4,2,1,30,0,0
103031,-90.9090909090909,4,2,1,30,0,0
103084,-111.111111111111,4,2,1,30,0,0
103137,-90.9090909090909,4,2,1,30,0,0
103189,-111.111111111111,4,2,1,30,0,0
103242,-90.9090909090909,4,2,1,30,0,0
103295,-111.111111111111,4,2,1,30,0,0
103348,-90.9090909090909,4,2,1,30,0,0
103401,-111.111111111111,4,2,1,30,0,0
103453,-90.9090909090909,4,2,1,30,0,0
103506,-111.111111111111,4,2,1,30,0,0
103559,-90.9090909090909,4,2,1,30,0,0
103612,-111.111111111111,4,2,1,30,0,0
103665,-90.9090909090909,4,2,1,30,0,0
103718,-111.111111111111,4,2,1,30,0,0
103770,-100,4,2,1,30,0,0
110531,-100,4,2,1,30,0,1
117292,-100,4,2,1,30,0,0
143489,-95.2380952380952,4,2,1,30,0,0
143594,-90.9090909090909,4,2,1,30,0,0
143700,-86.9565217391304,4,2,1,30,0,0
143806,-90.9090909090909,4,2,1,30,0,0
143911,-100,4,2,1,30,0,0
144017,-111.111111111111,4,2,1,30,0,0
144123,-125,4,2,1,30,0,0
144228,-142.857142857143,4,2,1,30,0,0
144334,-100,4,2,1,30,0,1
150249,-100,4,2,1,30,0,0
151094,-100,4,2,1,30,0,1
157115,-100,4,2,1,30,0,0
157855,-100,4,2,1,30,0,1
171270,-100,4,2,1,30,0,0
171376,-100,4,2,1,30,0,1
184052,-86.9565217391304,4,2,1,30,0,1
184078,-117.647058823529,4,2,1,30,0,1
184105,-86.9565217391304,4,2,1,30,0,1
184131,-117.647058823529,4,2,1,30,0,1
184158,-86.9565217391304,4,2,1,30,0,1
184184,-117.647058823529,4,2,1,30,0,1
184211,-86.9565217391304,4,2,1,30,0,1
184237,-117.647058823529,4,2,1,30,0,1
184263,-100,4,2,1,30,0,1
184475,-86.9565217391304,4,2,1,30,0,1
184501,-117.647058823529,4,2,1,30,0,1
184527,-86.9565217391304,4,2,1,30,0,1
184554,-117.647058823529,4,2,1,30,0,1
184580,-86.9565217391304,4,2,1,30,0,1
184607,-117.647058823529,4,2,1,30,0,1
184633,-86.9565217391304,4,2,1,30,0,1
184659,-117.647058823529,4,2,1,30,0,1
184686,-100,4,2,1,30,0,0
184897,-100,4,2,1,30,0,1
190813,-100,4,2,1,30,0,0
191658,-100,4,2,1,30,0,1
198418,-100,4,2,1,30,0,0
234756,-66.6666666666667,4,2,1,30,0,0
234809,-120.481927710843,4,2,1,30,0,0
234968,-66.6666666666667,4,2,1,30,0,0
235020,-120.481927710843,4,2,1,30,0,0
235179,-66.6666666666667,4,2,1,30,0,0
235232,-120.481927710843,4,2,1,30,0,0
235390,-66.6666666666667,4,2,1,30,0,0
235443,-120.481927710843,4,2,1,30,0,0
235601,-100,4,2,1,30,0,0
242362,545.454545454546,4,2,1,30,1,8
242364,545.454545454546,4,2,1,30,1,0
242364,-86.9565217391304,4,2,1,30,0,0
260364,410.958904109589,4,2,1,30,1,8
260364,-103.092783505155,4,2,1,30,0,0
260569,476.190476190476,4,2,1,30,1,8
260569,-88.4955752212389,4,2,1,30,0,0
260807,340.909090909091,4,2,1,30,1,8
260807,-123.456790123457,4,2,1,30,0,0
260977,410.958904109589,4,2,1,30,1,8
260977,-103.092783505155,4,2,1,30,0,0
261182,340.909090909091,4,2,1,30,1,8
261182,-123.456790123457,4,2,1,30,0,0
261352,410.958904109589,4,2,1,30,1,8
261352,-103.092783505155,4,2,1,30,0,0
261557,340.909090909091,4,2,1,30,1,8
261557,-123.456790123457,4,2,1,30,0,0
261727,410.958904109589,4,2,1,30,1,8
261727,-103.092783505155,4,2,1,30,0,0
261932,451.127819548872,4,2,1,30,1,0
261932,-93.4579439252336,4,2,1,30,0,0
262157,422.535211267606,4,2,1,30,1,8
262368,405.405405405405,4,2,1,30,1,8
262368,-104.166666666667,4,2,1,30,0,0
262570,483.870967741935,4,2,1,30,1,8
262811,545.454545454546,4,2,1,30,1,8
263083,576.923076923077,4,2,1,30,1,8
263659,-111.111111111111,4,2,1,30,0,0
263948,-125,4,2,1,30,0,0
264236,-142.857142857143,4,2,1,30,0,0
264525,-166.666666666667,4,2,1,30,0,0
264813,-200,4,2,1,30,0,0
265390,576.923076923077,4,2,1,30,1,8
265390,-125,4,2,1,30,0,8
266364,545.454545454546,4,2,1,30,1,0
266364,-131.578947368421,4,2,1,30,0,0
268543,422.535211267606,4,2,1,30,1,0
268543,-133.333333333333,4,2,1,30,0,0
268965,-117.647058823529,4,2,1,30,0,0
269388,-105.263157894737,4,2,1,30,0,0
269810,-100,4,2,1,30,0,0
270233,-100,4,2,1,30,0,1
276148,-100,4,2,1,30,0,0
276993,-100,4,2,1,30,0,1
282909,-100,4,2,1,30,0,0
283754,-100,4,2,1,30,0,1
289669,-100,4,2,1,30,0,0
290514,-100,4,2,1,30,0,1
293895,-99.009900990099,4,2,1,30,0,1
294317,-98.0392156862745,4,2,1,30,0,1
294740,-97.0873786407767,4,2,1,30,0,1
295162,-96.1538461538461,4,2,1,30,0,1
295585,-95.2380952380952,4,2,1,30,0,1
295796,-93.4579439252336,4,2,1,30,0,1
296007,-91.743119266055,4,2,1,30,0,1
296219,-90.0900900900901,4,2,1,30,0,1
296430,-88.4955752212389,4,2,1,30,0,1
296641,-86.9565217391304,4,2,1,30,0,1
296852,-85.4700854700855,4,2,1,30,0,0
297275,-100,4,2,1,30,0,1
309317,-90.9090909090909,4,2,1,30,0,0
309528,-83.3333333333333,4,2,1,30,0,0
309740,-76.9230769230769,4,2,1,30,0,0

[HitObjects]
192,192,408,128,0,680:0:0:0:0:
448,192,680,128,0,771:0:0:0:0:
320,192,680,128,0,771:0:0:0:0:
320,192,953,128,0,1044:0:0:0:0:
448,192,953,128,0,1044:0:0:0:0:
192,192,1226,128,0,1408:0:0:0:0:
64,192,1498,128,0,1771:0:0:0:0:
192,192,1771,128,0,1862:0:0:0:0:
320,192,1771,128,0,1862:0:0:0:0:
320,192,2044,128,0,2135:0:0:0:0:
192,192,2044,128,0,2135:0:0:0:0:
448,192,2317,1,0,0:0:0:0:
64,192,2385,1,0,0:0:0:0:
320,192,2498,1,0,0:0:0:0:
192,192,2589,128,0,2862:0:0:0:0:
320,192,2862,128,0,2953:0:0:0:0:
448,192,2862,128,0,2953:0:0:0:0:
64,192,3135,128,0,3408:0:0:0:0:
192,192,3408,128,0,3498:0:0:0:0:
320,192,3408,128,0,3498:0:0:0:0:
192,192,3680,128,0,3953:0:0:0:0:
320,192,3953,128,0,4044:0:0:0:0:
448,192,3953,128,0,4044:0:0:0:0:
320,192,4226,128,0,4317:0:0:0:0:
448,192,4226,128,0,4317:0:0:0:0:
192,192,4498,1,0,0:0:0:0:
64,192,4635,1,0,0:0:0:0:
320,192,4771,128,0,5044:0:0:0:0:
192,192,5044,128,0,5135:0:0:0:0:
448,192,5044,128,0,5135:0:0:0:0:
192,192,5317,128,0,5408:0:0:0:0:
448,192,5317,128,0,5408:0:0:0:0:
320,192,5589,128,0,5726:0:0:0:0:
192,192,5726,1,0,0:0:0:0:
64,192,5794,1,0,0:0:0:0:
192,192,5862,128,0,6135:0:0:0:0:
64,192,6135,128,0,6226:0:0:0:0:
320,192,6135,128,0,6226:0:0:0:0:
64,192,6408,128,0,6498:0:0:0:0:
320,192,6408,128,0,6498:0:0:0:0:
192,192,6680,1,0,0:0:0:0:
320,192,6771,1,0,0:0:0:0:
448,192,6862,1,0,0:0:0:0:
320,192,6953,128,0,7226:0:0:0:0:
192,192,7226,128,0,7317:0:0:0:0:
448,192,7226,128,0,7317:0:0:0:0:
192,192,7498,128,0,7771:0:0:0:0:
64,192,7771,128,0,7862:0:0:0:0:
320,192,7771,128,0,7862:0:0:0:0:
320,192,8044,128,0,8317:0:0:0:0:
192,192,8317,128,0,8408:0:0:0:0:
448,192,8317,128,0,8408:0:0:0:0:
448,192,8544,128,0,8998:0:0:0:0:
192,192,8589,128,0,8998:0:0:0:0:
192,192,9123,128,0,9193:0:0:0:0:
448,192,9334,128,0,9439:0:0:0:0:
64,192,9545,128,0,9615:0:0:0:0:
320,192,9756,128,0,9862:0:0:0:0:
192,192,9968,128,0,10038:0:0:0:0:
448,192,10179,128,0,10284:0:0:0:0:
64,192,10390,128,0,10461:0:0:0:0:
320,192,10601,128,0,10707:0:0:0:0:
192,192,10813,128,0,10883:0:0:0:0:
448,192,11024,128,0,11130:0:0:0:0:
64,192,11341,128,0,11411:0:0:0:0:
320,192,11446,128,0,11552:0:0:0:0:
192,192,11658,128,0,11728:0:0:0:0:
448,192,11869,128,0,11939:0:0:0:0:
320,192,11975,128,0,12186:0:0:0:0:
64,192,11975,128,0,12186:0:0:0:0:
320,192,12292,128,0,12397:0:0:0:0:
192,192,12503,128,0,12573:0:0:0:0:
448,192,12714,128,0,12820:0:0:0:0:
64,192,12925,128,0,12996:0:0:0:0:
320,192,13137,128,0,13242:0:0:0:0:
192,192,13348,128,0,13418:0:0:0:0:
320,192,13559,128,0,13665:0:0:0:0:
448,192,13559,128,0,13665:0:0:0:0:
64,192,13770,128,0,13841:0:0:0:0:
320,192,13982,128,0,14087:0:0:0:0:
448,192,13982,128,0,14087:0:0:0:0:
192,192,14193,128,0,14475:0:0:0:0:
448,192,14193,128,0,14475:0:0:0:0:
320,192,14615,128,0,14897:0:0:0:0:
192,192,14615,128,0,14897:0:0:0:0:
64,192,15038,128,0,15249:0:0:0:0:
320,192,15038,128,0,15249:0:0:0:0:
64,192,15355,128,0,15672:0:0:0:0:
192,192,15355,128,0,15672:0:0:0:0:
192,192,15883,128,0,16094:0:0:0:0:
448,192,16094,1,0,0:0:0:0:
320,192,16165,1,0,0:0:0:0:
64,192,16200,128,0,16411:0:0:0:0:
192,192,16235,1,0,0:0:0:0:
448,192,16306,128,0,16411:0:0:0:0:
320,192,16517,128,0,16658:0:0:0:0:
448,192,16517,128,0,16658:0:0:0:0:
64,192,16728,128,0,16939:0:0:0:0:
448,192,16939,1,0,0:0:0:0:
320,192,17010,1,0,0:0:0:0:
64,192,17045,128,0,17256:0:0:0:0:
192,192,17080,1,0,0:0:0:0:
448,192,17151,128,0,17256:0:0:0:0:
448,192,17362,128,0,17503:0:0:0:0:
320,192,17362,128,0,17503:0:0:0:0:
192,192,17573,128,0,17784:0:0:0:0:
448,192,17784,1,0,0:0:0:0:
320,192,17855,1,0,0:0:0:0:
64,192,17890,128,0,18101:0:0:0:0:
192,192,17925,1,0,0:0:0:0:
448,192,17996,128,0,18101:0:0:0:0:
320,192,18207,128,0,18348:0:0:0:0:
448,192,18207,128,0,18348:0:0:0:0:
64,192,18418,128,0,18630:0:0:0:0:
448,192,18735,128,0,19052:0:0:0:0:
320,192,18735,128,0,19052:0:0:0:0:
64,192,19052,128,0,19193:0:0:0:0:
192,192,19263,128,0,19897:0:0:0:0:
448,192,19580,128,0,19897:0:0:0:0:
320,192,19897,128,0,20038:0:0:0:0:
192,192,20108,128,0,20742:0:0:0:0:
320,192,20425,128,0,20742:0:0:0:0:
64,192,20742,128,0,20848:0:0:0:0:
192,192,20953,128,0,21024:0:0:0:0:
320,192,20953,128,0,21024:0:0:0:0:
64,192,21376,128,0,21446:0:0:0:0:
320,192,21376,128,0,21446:0:0:0:0:
320,192,21799,128,0,21904:0:0:0:0:
448,192,21799,128,0,21904:0:0:0:0:
64,192,21904,1,0,0:0:0:0:
192,192,21957,1,0,0:0:0:0:
448,192,22010,1,0,0:0:0:0:
320,192,22063,1,0,0:0:0:0:
64,192,22115,1,0,0:0:0:0:
192,192,22168,1,0,0:0:0:0:
320,192,22221,1,0,0:0:0:0:
448,192,22274,1,0,0:0:0:0:
64,192,22327,1,0,0:0:0:0:
192,192,22380,1,0,0:0:0:0:
448,192,22432,1,0,0:0:0:0:
320,192,22485,1,0,0:0:0:0:
192,192,22538,1,0,0:0:0:0:
64,192,22591,1,0,0:0:0:0:
192,192,22644,1,0,0:0:0:40:bong low.wav
320,192,22644,1,0,0:0:0:50:finish.wav
448,192,22644,1,0,0:0:0:0:
448,192,22855,128,0,22925:0:0:0:0:
320,192,22855,128,0,22925:0:0:0:0:
320,192,23066,128,0,23172:0:0:0:0:
448,192,23066,128,0,23172:0:0:0:0:
64,192,23066,128,0,23489:0:0:0:0:
192,192,23277,1,0,0:0:0:0:
448,192,23383,1,0,0:0:0:0:
448,192,23489,1,0,0:0:0:40:bong hi.wav
320,192,23489,1,0,0:0:0:0:
192,192,23489,128,0,23911:0:0:0:0:
64,192,23594,1,0,0:0:0:0:
320,192,23700,128,0,23806:0:0:0:0:
448,192,23700,128,0,23806:0:0:0:0:
320,192,23911,1,0,0:0:0:40:bong hi.wav
448,192,23911,1,0,0:0:0:0:
320,192,24123,128,0,24228:0:0:0:0:
448,192,24123,128,0,24228:0:0:0:0:
192,192,24334,1,0,0:0:0:40:bong low.wav
64,192,24334,1,0,0:0:0:0:
320,192,24334,1,0,0:0:0:50:finish.wav
448,192,24334,1,0,0:0:0:0:
320,192,24545,128,0,24615:0:0:0:0:
192,192,24545,128,0,24615:0:0:0:0:
192,192,24756,128,0,24862:0:0:0:0:
320,192,24756,128,0,24862:0:0:0:0:
448,192,24756,128,0,25179:0:0:0:0:
64,192,24968,1,0,0:0:0:0:
192,192,25073,1,0,0:0:0:0:
64,192,25179,128,0,25601:0:0:0:0:
192,192,25179,1,0,0:0:0:40:bong hi.wav
320,192,25179,1,0,0:0:0:0:
448,192,25284,1,0,0:0:0:0:
192,192,25390,128,0,25496:0:0:0:0:
320,192,25390,128,0,25496:0:0:0:0:
192,192,25601,1,0,0:0:0:40:bong hi.wav
320,192,25601,1,0,0:0:0:0:
320,192,25813,128,0,25918:0:0:0:0:
192,192,25813,128,0,25918:0:0:0:0:
448,192,26024,1,0,0:0:0:0:
64,192,26024,1,0,0:0:0:40:bong low.wav
192,192,26024,1,0,0:0:0:50:finish.wav
320,192,26024,128,0,26235:0:0:0:0:
192,192,26235,128,0,26306:0:0:0:0:
448,192,26235,128,0,26306:0:0:0:0:
192,192,26446,128,0,26658:0:0:0:0:
64,192,26658,128,0,26728:0:0:0:0:
320,192,26658,128,0,26728:0:0:0:0:
192,192,26869,1,0,0:0:0:50:finish.wav
448,192,26869,1,0,0:0:0:40:bong low.wav
64,192,26869,128,0,27080:0:0:0:0:
320,192,26869,1,0,0:0:0:0:
448,192,27080,128,0,27151:0:0:0:0:
320,192,27080,128,0,27151:0:0:0:0:
64,192,27186,1,0,0:0:0:0:
192,192,27239,1,0,0:0:0:0:
320,192,27292,1,0,0:0:0:0:
448,192,27292,1,0,0:0:0:0:
448,192,27503,128,0,27608:0:0:0:0:
320,192,27503,128,0,27608:0:0:0:0:
64,192,27714,1,0,0:0:0:0:
192,192,27714,1,0,0:0:0:40:bong low.wav
320,192,27714,1,0,0:0:0:50:finish.wav
448,192,27714,1,0,0:0:0:0:
192,192,27925,128,0,27996:0:0:0:0:
320,192,27925,128,0,27996:0:0:0:0:
64,192,28137,128,0,28207:0:0:0:0:
320,192,28137,128,0,28207:0:0:0:40:finish low.wav
448,192,28137,1,0,0:0:0:40:bong low.wav
192,192,28348,128,0,28418:0:0:0:0:
448,192,28348,128,0,28418:0:0:0:0:
448,192,28559,128,0,28665:0:0:0:40:bong low.wav
64,192,28559,128,0,28665:0:0:0:0:
320,192,28559,1,0,0:0:0:40:finish low.wav
192,192,28665,1,0,0:0:0:0:
64,192,28770,1,0,0:0:0:0:
192,192,28929,1,0,0:0:0:0:
448,192,29017,1,0,0:0:0:0:
320,192,29087,1,0,0:0:0:0:
192,192,29158,1,0,0:0:0:0:
64,192,29228,1,0,0:0:0:0:
192,192,29334,1,0,0:0:0:0:
64,192,29404,1,0,0:0:0:40:bong hi.wav
320,192,29404,1,0,0:0:0:0:
448,192,29615,128,0,29721:0:0:0:0:
192,192,29827,1,0,0:0:0:40:bong low.wav
64,192,29827,1,0,0:0:0:0:
448,192,30038,128,0,30144:0:0:0:0:
64,192,30249,1,0,0:0:0:0:
320,192,30249,1,0,0:0:0:40:bong hi.wav
448,192,30461,128,0,30566:0:0:0:0:
192,192,30672,1,0,0:0:0:40:bong low.wav
64,192,30672,1,0,0:0:0:0:
448,192,30883,128,0,30989:0:0:0:0:
448,192,31094,1,0,0:0:0:0:
64,192,31094,1,0,0:0:0:40:bong hi.wav
320,192,31147,1,0,0:0:0:0:
192,192,31200,1,0,0:0:0:0:
64,192,31253,1,0,0:0:0:0:
320,192,31306,1,0,0:0:0:0:
448,192,31358,1,0,0:0:0:0:
192,192,31411,1,0,0:0:0:0:
64,192,31464,1,0,0:0:0:0:
320,192,31517,1,0,0:0:0:0:
448,192,31517,1,0,0:0:0:40:bong low.wav
192,192,31570,1,0,0:0:0:0:
64,192,31623,1,0,0:0:0:0:
320,192,31675,1,0,0:0:0:0:
448,192,31728,1,0,0:0:0:0:
64,192,31781,1,0,0:0:0:0:
192,192,31834,1,0,0:0:0:0:
448,192,31939,1,0,0:0:0:40:bong hi.wav
320,192,31939,1,0,0:0:0:0:
192,192,32151,128,0,32256:0:0:0:0:
64,192,32151,128,0,32256:0:0:0:0:
320,192,32256,128,0,32362:0:0:0:0:
448,192,32256,128,0,32362:0:0:0:0:
192,192,32362,1,0,0:0:0:40:bong hi.wav
64,192,32362,1,0,0:0:0:0:
448,192,32468,128,0,32573:0:0:0:0:
320,192,32468,128,0,32573:0:0:0:0:
192,192,32573,128,0,32679:0:0:0:40:bong low.wav
64,192,32573,128,0,32679:0:0:0:0:
448,192,32784,128,0,32996:0:0:0:40:bong hi.wav
320,192,32784,128,0,32996:0:0:0:0:
64,192,32996,128,0,33101:0:0:0:0:
448,192,33207,1,0,0:0:0:0:
192,192,33207,1,0,0:0:0:40:bong low.wav
64,192,33418,128,0,33524:0:0:0:0:
320,192,33630,1,0,0:0:0:40:bong hi.wav
448,192,33630,1,0,0:0:0:0:
64,192,33841,128,0,33946:0:0:0:0:
192,192,33841,128,0,33946:0:0:0:0:
448,192,34052,1,0,0:0:0:0:
192,192,34052,1,0,0:0:0:40:bong low.wav
192,192,34263,128,0,34369:0:0:0:0:
64,192,34263,128,0,34369:0:0:0:0:
320,192,34475,1,0,0:0:0:40:bong hi.wav
448,192,34475,1,0,0:0:0:0:
448,192,35214,128,0,35320:0:0:0:0:
64,192,35320,128,0,35425:0:0:0:0:
192,192,35320,1,0,0:0:0:40:bong low.wav
448,192,35425,128,0,35531:0:0:0:0:
320,192,35425,1,0,0:0:0:40:bong low.wav
64,192,35531,128,0,35637:0:0:0:0:
192,192,35531,1,0,0:0:0:40:bong low.wav
448,192,35637,128,0,35742:0:0:0:0:
320,192,35637,1,0,0:0:0:40:bong low.wav
64,192,35742,128,0,35848:0:0:0:0:
192,192,35742,1,0,0:0:0:40:bong low.wav
448,192,35848,128,0,35953:0:0:0:0:
64,192,35953,128,0,36059:0:0:0:0:
192,192,35953,1,0,0:0:0:40:bong low.wav
448,192,36059,128,0,36165:0:0:0:0:
320,192,36165,1,0,0:0:0:40:bong hi.wav
64,192,36165,1,0,0:0:0:0:
64,192,36376,1,0,0:0:0:0:
192,192,36446,1,0,0:0:0:0:
320,192,36517,1,0,0:0:0:0:
192,192,36587,128,0,36693:0:0:0:40:bong low.wav
64,192,36587,128,0,36693:0:0:0:0:
320,192,36799,128,0,37010:0:0:0:0:
448,192,36799,128,0,37010:0:0:0:0:
192,192,37010,1,0,0:0:0:40:bong hi.wav
64,192,37010,1,0,0:0:0:0:
448,192,37221,1,0,0:0:0:0:
320,192,37292,1,0,0:0:0:0:
192,192,37362,1,0,0:0:0:0:
320,192,37432,128,0,37538:0:0:0:40:bong low.wav
448,192,37432,128,0,37538:0:0:0:0:
192,192,37644,128,0,37855:0:0:0:0:
64,192,37644,128,0,37855:0:0:0:0:
448,192,37855,1,0,0:0:0:0:
320,192,37855,1,0,0:0:0:40:bong hi.wav
64,192,38066,1,0,0:0:0:0:
192,192,38137,1,0,0:0:0:0:
320,192,38207,1,0,0:0:0:0:
64,192,38277,128,0,38383:0:0:0:0:
192,192,38277,128,0,38383:0:0:0:40:bong low.wav
448,192,38489,128,0,38700:0:0:0:0:
320,192,38489,128,0,38700:0:0:0:0:
192,192,38700,1,0,0:0:0:40:bong hi.wav
64,192,38753,1,0,0:0:0:0:
448,192,38806,1,0,0:0:0:0:
320,192,38858,1,0,0:0:0:0:
192,192,38911,1,0,0:0:0:0:
64,192,38964,1,0,0:0:0:0:
448,192,39017,1,0,0:0:0:0:
320,192,39070,1,0,0:0:0:0:
64,192,39123,1,0,0:0:0:0:
192,192,39123,1,0,0:0:0:0:
320,192,39175,1,0,0:0:0:40:bong hi.wav
448,192,39228,1,0,0:0:0:0:
64,192,39281,1,0,0:0:0:0:
320,192,39334,1,0,0:0:0:0:
192,192,39334,1,0,0:0:0:40:bong low.wav
448,192,39387,1,0,0:0:0:0:
64,192,39439,1,0,0:0:0:0:
192,192,39492,1,0,0:0:0:0:
320,192,39545,1,0,0:0:0:40:bong hi.wav
448,192,39545,1,0,0:0:0:0:
448,192,39756,128,0,39862:0:0:0:0:
192,192,39756,128,0,39862:0:0:0:0:
320,192,39862,128,0,39968:0:0:0:0:
64,192,39862,128,0,39968:0:0:0:0:
192,192,39968,128,0,40073:0:0:0:40:bong low.wav
448,192,39968,128,0,40073:0:0:0:0:
192,192,40179,128,0,40284:0:0:0:0:
448,192,40179,128,0,40284:0:0:0:0:
64,192,40390,1,0,0:0:0:0:
192,192,40390,1,0,0:0:0:40:bong hi.wav
320,192,40601,128,0,40707:0:0:0:0:
64,192,40601,128,0,40707:0:0:0:0:
192,192,40707,128,0,40813:0:0:0:0:
448,192,40707,128,0,40813:0:0:0:0:
320,192,40813,128,0,40918:0:0:0:0:
64,192,40813,128,0,40918:0:0:0:40:bong low.wav
320,192,41024,128,0,41130:0:0:0:0:
64,192,41024,128,0,41130:0:0:0:0:
448,192,41235,128,0,41341:0:0:0:0:
320,192,41235,128,0,41341:0:0:0:40:bong hi.wav
192,192,41446,128,0,41552:0:0:0:0:
64,192,41446,128,0,41552:0:0:0:0:
320,192,41552,1,0,0:0:0:40:bong low.wav
448,192,41552,1,0,0:0:0:0:
320,192,41658,128,0,41763:0:0:0:40:bong hi.wav
448,192,41658,128,0,41763:0:0:0:0:
192,192,41869,128,0,41975:0:0:0:0:
64,192,41869,128,0,41975:0:0:0:0:
320,192,41975,1,0,0:0:0:40:bong low.wav
448,192,41975,1,0,0:0:0:0:
320,192,42080,128,0,42292:0:0:0:40:bong hi.wav
448,192,42080,128,0,42292:0:0:0:0:
64,192,42925,1,0,0:0:0:0:
192,192,42925,1,0,0:0:0:50:finish.wav
320,192,42925,1,0,0:0:0:40:bong low.wav
448,192,42925,1,0,0:0:0:0:
192,192,43137,128,0,43242:0:0:0:0:
448,192,43242,128,0,43348:0:0:0:0:
64,192,43348,128,0,43770:0:0:0:0:
192,192,43348,128,0,43453:0:0:0:0:
448,192,43453,128,0,43559:0:0:0:0:
320,192,43559,128,0,43665:0:0:0:0:
192,192,43770,128,0,44193:0:0:0:0:
448,192,43770,1,0,0:0:0:0:
320,192,43770,1,0,0:0:0:40:bong hi.wav
64,192,43876,1,0,0:0:0:0:
320,192,43982,128,0,44087:0:0:0:0:
448,192,43982,128,0,44087:0:0:0:0:
320,192,44193,1,0,0:0:0:40:bong hi.wav
448,192,44193,1,0,0:0:0:0:
320,192,44404,128,0,44510:0:0:0:0:
448,192,44404,128,0,44510:0:0:0:0:
64,192,44615,1,0,0:0:0:0:
192,192,44615,1,0,0:0:0:40:bong low.wav
320,192,44615,1,0,0:0:0:50:finish.wav
448,192,44615,1,0,0:0:0:0:
64,192,44827,128,0,44932:0:0:0:0:
320,192,44932,128,0,45038:0:0:0:0:
448,192,45038,128,0,45461:0:0:0:0:
64,192,45038,128,0,45144:0:0:0:0:
320,192,45144,128,0,45249:0:0:0:0:
192,192,45249,128,0,45355:0:0:0:0:
64,192,45461,128,0,45883:0:0:0:0:
320,192,45461,1,0,0:0:0:0:
192,192,45461,1,0,0:0:0:40:bong hi.wav
448,192,45566,1,0,0:0:0:0:
192,192,45672,128,0,45777:0:0:0:0:
320,192,45672,128,0,45777:0:0:0:0:
192,192,45883,1,0,0:0:0:40:bong hi.wav
320,192,45883,1,0,0:0:0:0:
192,192,46094,128,0,46200:0:0:0:0:
320,192,46094,128,0,46200:0:0:0:0:
64,192,46306,1,0,0:0:0:0:
448,192,46306,1,0,0:0:0:50:finish.wav
320,192,46306,1,0,0:0:0:40:bong low.wav
192,192,46306,128,0,46728:0:0:0:0:
448,192,46517,128,0,46587:0:0:0:0:
320,192,46517,128,0,46587:0:0:0:0:
64,192,46728,128,0,47151:0:0:0:0:
448,192,46939,128,0,47010:0:0:0:0:
320,192,46939,128,0,47010:0:0:0:0:
448,192,47151,128,0,47362:0:0:0:0:
192,192,47151,1,0,0:0:0:40:bong low.wav
320,192,47151,1,0,0:0:0:50:finish.wav
64,192,47362,128,0,47432:0:0:0:0:
192,192,47362,128,0,47432:0:0:0:0:
448,192,47468,1,0,0:0:0:0:
320,192,47520,1,0,0:0:0:0:
64,192,47573,1,0,0:0:0:0:
192,192,47573,1,0,0:0:0:0:
64,192,47784,128,0,47890:0:0:0:0:
192,192,47784,128,0,47890:0:0:0:0:
64,192,47996,1,0,0:0:0:0:
192,192,47996,1,0,0:0:0:50:finish.wav
320,192,47996,1,0,0:0:0:40:bong low.wav
448,192,47996,1,0,0:0:0:0:
64,192,48207,128,0,48277:0:0:0:0:
448,192,48207,128,0,48277:0:0:0:0:
64,192,48418,128,0,48489:0:0:0:40:finish low.wav
448,192,48418,128,0,48489:0:0:0:0:
320,192,48418,1,0,0:0:0:40:bong low.wav
64,192,48630,128,0,48700:0:0:0:0:
448,192,48630,128,0,48700:0:0:0:0:
448,192,48841,128,0,48946:0:0:0:40:bong low.wav
64,192,48841,128,0,48946:0:0:0:0:
192,192,48841,1,0,0:0:0:40:finish low.wav
320,192,48946,1,0,0:0:0:0:
448,192,49052,1,0,0:0:0:0:
320,192,49211,1,0,0:0:0:0:
192,192,49299,1,0,0:0:0:0:
64,192,49369,1,0,0:0:0:0:
192,192,49439,1,0,0:0:0:0:
320,192,49510,1,0,0:0:0:0:
192,192,49615,1,0,0:0:0:0:
64,192,49686,1,0,0:0:0:0:
320,192,49686,1,0,0:0:0:40:bong hi.wav
448,192,49897,1,0,0:0:0:0:
64,192,49897,1,0,0:0:0:0:
320,192,49897,1,0,0:0:0:40:true clap.wav
448,192,50108,1,0,0:0:0:0:
192,192,50108,1,0,0:0:0:40:bong low.wav
64,192,50320,1,0,0:0:0:0:
192,192,50320,1,0,0:0:0:40:true clap.wav
448,192,50320,1,0,0:0:0:0:
64,192,50531,1,0,0:0:0:0:
320,192,50531,1,0,0:0:0:40:bong hi.wav
64,192,50742,1,0,0:0:0:0:
320,192,50742,1,0,0:0:0:40:true clap.wav
448,192,50742,1,0,0:0:0:0:
448,192,50953,1,0,0:0:0:0:
192,192,50953,1,0,0:0:0:40:bong low.wav
64,192,51165,1,0,0:0:0:0:
192,192,51165,1,0,0:0:0:40:true clap.wav
448,192,51165,1,0,0:0:0:0:
64,192,51376,1,0,0:0:0:0:
320,192,51376,1,0,0:0:0:40:bong hi.wav
64,192,51587,1,0,0:0:0:0:
320,192,51587,1,0,0:0:0:40:true clap.wav
448,192,51587,1,0,0:0:0:0:
192,192,51799,1,0,0:0:0:40:bong low.wav
448,192,51799,1,0,0:0:0:0:
320,192,51904,1,0,0:0:0:0:
64,192,51904,1,0,0:0:0:0:
192,192,52010,1,0,0:0:0:40:true clap.wav
64,192,52010,1,0,0:0:0:0:
448,192,52010,1,0,0:0:0:0:
320,192,52221,1,0,0:0:0:40:bong hi.wav
64,192,52221,1,0,0:0:0:0:
192,192,52432,1,0,0:0:0:40:true clap.wav
320,192,52432,1,0,0:0:0:0:
64,192,52432,1,0,0:0:0:0:
448,192,52538,1,0,0:0:0:0:
320,192,52538,1,0,0:0:0:0:
64,192,52644,1,0,0:0:0:40:bong hi.wav
192,192,52644,1,0,0:0:0:0:
320,192,52855,1,0,0:0:0:40:bong low.wav
448,192,52855,1,0,0:0:0:40:true clap.wav
192,192,52855,1,0,0:0:0:0:
192,192,53066,128,0,53277:0:0:0:40:bong hi.wav
64,192,53066,128,0,53489:0:0:0:0:
448,192,53277,128,0,53489:0:0:0:40:true clap.wav
320,192,53383,128,0,53489:0:0:0:0:
192,192,53489,128,0,53911:0:0:0:40:bong low.wav
320,192,53700,128,0,53911:0:0:0:40:true clap.wav
448,192,53700,1,0,0:0:0:0:
64,192,53911,128,0,54334:0:0:0:0:
448,192,53911,128,0,54123:0:0:0:40:bong hi.wav
192,192,54123,128,0,54334:0:0:0:40:true clap.wav
320,192,54228,128,0,54334:0:0:0:0:
448,192,54334,128,0,54756:0:0:0:40:bong low.wav
192,192,54545,128,0,54756:0:0:0:40:true clap.wav
64,192,54545,1,0,0:0:0:0:
64,192,54756,128,0,55496:0:0:0:40:bong hi.wav
320,192,54756,1,0,0:0:0:0:
192,192,54968,128,0,55496:0:0:0:0:
320,192,55179,128,0,55496:0:0:0:0:
448,192,55390,128,0,55496:0:0:0:0:
320,192,55601,1,0,0:0:0:40:bong hi.wav
64,192,55601,1,0,0:0:0:0:
192,192,55742,1,0,0:0:0:40:bong hi.wav
320,192,55742,1,0,0:0:0:0:
192,192,55883,1,0,0:0:0:40:bong hi.wav
448,192,55883,1,0,0:0:0:0:
320,192,56024,1,0,0:0:0:40:bong hi.wav
448,192,56024,1,0,0:0:0:0:
320,192,56165,1,0,0:0:0:40:bong hi.wav
64,192,56165,1,0,0:0:0:0:
64,192,56306,1,0,0:0:0:0:
192,192,56306,1,0,0:0:0:40:bong hi.wav
192,192,56446,1,0,0:0:0:0:
320,192,56446,1,0,0:0:0:40:bong hi.wav
448,192,56446,1,0,0:0:0:0:
448,192,56658,1,0,0:0:0:40:true clap.wav
192,192,56658,1,0,0:0:0:0:
192,192,56763,1,0,0:0:0:0:
64,192,56763,1,0,0:0:0:0:
448,192,56869,1,0,0:0:0:0:
320,192,56869,1,0,0:0:0:40:bong low.wav
448,192,57080,1,0,0:0:0:0:
192,192,57080,1,0,0:0:0:40:true clap.wav
192,192,57292,1,0,0:0:0:40:bong hi.wav
64,192,57292,1,0,0:0:0:0:
64,192,57503,1,0,0:0:0:0:
320,192,57503,1,0,0:0:0:40:true clap.wav
320,192,57608,1,0,0:0:0:0:
448,192,57608,1,0,0:0:0:0:
192,192,57714,1,0,0:0:0:40:bong low.wav
64,192,57714,1,0,0:0:0:0:
64,192,57925,1,0,0:0:0:0:
320,192,57925,1,0,0:0:0:40:true clap.wav
320,192,58137,1,0,0:0:0:40:bong hi.wav
192,192,58137,1,0,0:0:0:0:
64,192,58348,1,0,0:0:0:0:
192,192,58348,1,0,0:0:0:40:true clap.wav
64,192,58453,1,0,0:0:0:0:
320,192,58453,1,0,0:0:0:0:
192,192,58559,1,0,0:0:0:0:
448,192,58559,1,0,0:0:0:40:bong low.wav
64,192,58770,1,0,0:0:0:0:
192,192,58770,1,0,0:0:0:40:true clap.wav
64,192,58982,1,0,0:0:0:40:bong hi.wav
448,192,58982,1,0,0:0:0:0:
320,192,59193,1,0,0:0:0:40:true clap.wav
64,192,59193,1,0,0:0:0:0:
448,192,59299,1,0,0:0:0:0:
320,192,59299,1,0,0:0:0:0:
64,192,59404,1,0,0:0:0:0:
192,192,59404,1,0,0:0:0:40:bong hi.wav
320,192,59615,1,0,0:0:0:40:true clap.wav
448,192,59615,1,0,0:0:0:40:bong low.wav
64,192,59827,1,0,0:0:0:0:
320,192,59827,1,0,0:0:0:40:bong hi.wav
448,192,60038,1,0,0:0:0:40:true clap.wav
320,192,60038,1,0,0:0:0:0:
448,192,60144,1,0,0:0:0:0:
192,192,60144,1,0,0:0:0:0:
64,192,60249,1,0,0:0:0:0:
320,192,60249,1,0,0:0:0:40:bong low.wav
448,192,60461,1,0,0:0:0:0:
320,192,60461,1,0,0:0:0:40:true clap.wav
192,192,60672,1,0,0:0:0:40:bong hi.wav
448,192,60672,1,0,0:0:0:0:
64,192,60883,1,0,0:0:0:0:
192,192,60883,1,0,0:0:0:40:true clap.wav
64,192,60989,1,0,0:0:0:0:
320,192,60989,1,0,0:0:0:0:
192,192,61094,1,0,0:0:0:40:bong low.wav
448,192,61094,1,0,0:0:0:0:
192,192,61306,1,0,0:0:0:40:true clap.wav
64,192,61306,1,0,0:0:0:0:
64,192,61517,128,0,61728:0:0:0:0:
192,192,61517,128,0,61728:0:0:0:40:bong hi.wav
448,192,61728,1,0,0:0:0:40:true clap.wav
320,192,61728,1,0,0:0:0:0:
64,192,61834,1,0,0:0:0:0:
192,192,61834,1,0,0:0:0:40:bong low.wav
320,192,61939,128,0,62151:0:0:0:0:
448,192,61939,128,0,62151:0:0:0:40:bong hi.wav
64,192,62151,1,0,0:0:0:40:true clap.wav
192,192,62151,1,0,0:0:0:0:
320,192,62256,1,0,0:0:0:40:bong low.wav
448,192,62256,1,0,0:0:0:0:
192,192,62362,128,0,62573:0:0:0:40:bong hi.wav
64,192,62362,128,0,62573:0:0:0:0:
320,192,62573,128,0,62679:0:0:0:0:
320,192,62784,128,0,63207:0:0:0:0:
192,192,63207,1,0,0:0:0:50:finish.wav
64,192,63207,1,0,0:0:0:40:bong low.wav
448,192,63207,1,0,0:0:0:0:
64,192,63418,128,0,63489:0:0:0:0:
192,192,63418,128,0,63489:0:0:0:0:
64,192,63630,128,0,63735:0:0:0:0:
192,192,63630,128,0,63735:0:0:0:0:
64,192,63841,128,0,64052:0:0:0:0:
320,192,63841,1,0,0:0:0:0:
448,192,63946,1,0,0:0:0:0:
320,192,64052,128,0,64475:0:0:0:0:
192,192,64052,1,0,0:0:0:40:bong hi.wav
448,192,64158,1,0,0:0:0:0:
64,192,64263,128,0,64369:0:0:0:0:
192,192,64263,128,0,64369:0:0:0:0:
448,192,64475,128,0,64897:0:0:0:0:
64,192,64475,1,0,0:0:0:0:
192,192,64475,1,0,0:0:0:40:bong hi.wav
64,192,64686,128,0,64792:0:0:0:0:
192,192,64686,128,0,64792:0:0:0:0:
64,192,64897,1,0,0:0:0:0:
192,192,64897,1,0,0:0:0:50:finish.wav
320,192,64897,1,0,0:0:0:40:bong low.wav
448,192,65108,128,0,65179:0:0:0:0:
320,192,65108,128,0,65179:0:0:0:0:
320,192,65320,128,0,65425:0:0:0:0:
448,192,65320,128,0,65425:0:0:0:0:
320,192,65531,128,0,65742:0:0:0:0:
64,192,65531,1,0,0:0:0:0:
192,192,65637,1,0,0:0:0:0:
64,192,65742,128,0,66165:0:0:0:0:
448,192,65742,1,0,0:0:0:40:bong hi.wav
192,192,65848,1,0,0:0:0:0:
320,192,65953,128,0,66059:0:0:0:0:
448,192,65953,128,0,66059:0:0:0:0:
320,192,66165,1,0,0:0:0:0:
448,192,66165,1,0,0:0:0:40:bong hi.wav
192,192,66165,128,0,66376:0:0:0:0:
320,192,66376,128,0,66482:0:0:0:0:
448,192,66376,128,0,66482:0:0:0:0:
64,192,66376,128,0,66587:0:0:0:0:
448,192,66587,1,0,0:0:0:40:bong low.wav
320,192,66587,1,0,0:0:0:50:finish.wav
192,192,66587,128,0,66799:0:0:0:0:
320,192,66799,128,0,66869:0:0:0:0:
448,192,66799,128,0,66869:0:0:0:0:
320,192,67010,128,0,67221:0:0:0:0:
64,192,67221,128,0,67292:0:0:0:0:
192,192,67221,128,0,67292:0:0:0:0:
64,192,67432,128,0,67644:0:0:0:0:
320,192,67432,1,0,0:0:0:50:finish.wav
448,192,67432,1,0,0:0:0:40:bong low.wav
192,192,67432,1,0,0:0:0:0:
448,192,67644,128,0,67714:0:0:0:0:
320,192,67644,128,0,67714:0:0:0:0:
64,192,67749,1,0,0:0:0:0:
192,192,67802,1,0,0:0:0:0:
448,192,67855,128,0,68066:0:0:0:0:
192,192,68066,128,0,68172:0:0:0:0:
64,192,68066,128,0,68172:0:0:0:0:
64,192,68277,1,0,0:0:0:0:
192,192,68277,1,0,0:0:0:50:finish.wav
320,192,68277,1,0,0:0:0:40:bong low.wav
448,192,68277,1,0,0:0:0:0:
448,192,68489,128,0,68559:0:0:0:0:
64,192,68489,128,0,68559:0:0:0:0:
192,192,68489,1,0,0:0:0:0:
320,192,68700,1,0,0:0:0:40:bong low.wav
64,192,68700,128,0,68770:0:0:0:0:
448,192,68700,128,0,68770:0:0:0:0:
192,192,68911,1,0,0:0:0:0:
64,192,68911,128,0,68982:0:0:0:0:
448,192,68911,128,0,68982:0:0:0:0:
320,192,69123,1,0,0:0:0:40:finish low.wav
64,192,69123,128,0,69228:0:0:0:0:
448,192,69123,128,0,69228:0:0:0:40:bong low.wav
192,192,69334,1,0,0:0:0:40:true clap.wav
320,192,69334,1,0,0:0:0:0:
192,192,69545,1,0,0:0:0:40:true clap.wav
320,192,69545,1,0,0:0:0:0:
192,192,69756,1,0,0:0:0:0:
320,192,69756,1,0,0:0:0:40:true clap.wav
192,192,69968,1,0,0:0:0:40:bong low.wav
64,192,69968,1,0,0:0:0:0:
320,192,69968,1,0,0:0:0:50:finish.wav
448,192,69968,128,0,70179:0:0:0:0:
320,192,70284,128,0,70390:0:0:0:0:
448,192,70390,128,0,70601:0:0:0:0:
192,192,70390,1,0,0:0:0:0:
320,192,70496,1,0,0:0:0:0:
192,192,70601,128,0,70813:0:0:0:0:
64,192,70601,1,0,0:0:0:0:
320,192,70813,128,0,71024:0:0:0:0:
64,192,70813,1,0,0:0:0:40:bong low.wav
448,192,70813,1,0,0:0:0:50:finish.wav
448,192,71130,128,0,71235:0:0:0:0:
320,192,71235,128,0,71446:0:0:0:0:
192,192,71235,1,0,0:0:0:0:
192,192,71446,128,0,71658:0:0:0:0:
448,192,71446,1,0,0:0:0:0:
64,192,71658,128,0,71869:0:0:0:0:
320,192,71658,1,0,0:0:0:50:finish.wav
448,192,71658,1,0,0:0:0:40:bong low.wav
320,192,71975,128,0,72080:0:0:0:0:
64,192,72080,128,0,72292:0:0:0:0:
192,192,72080,1,0,0:0:0:0:
320,192,72186,1,0,0:0:0:0:
192,192,72292,128,0,72503:0:0:0:0:
448,192,72292,1,0,0:0:0:0:
320,192,72503,128,0,72714:0:0:0:0:
64,192,72503,1,0,0:0:0:40:bong low.wav
448,192,72503,1,0,0:0:0:40:finish low.wav
192,192,72714,128,0,72820:0:0:0:0:
64,192,72925,128,0,73137:0:0:0:0:
448,192,72925,1,0,0:0:0:40:bong low.wav
320,192,72925,1,0,0:0:0:40:finish low.wav
192,192,73137,128,0,73348:0:0:0:0:
448,192,73137,128,0,73242:0:0:0:0:
320,192,73348,128,0,73559:0:0:0:0:
64,192,73348,1,0,0:0:0:40:bong low.wav
448,192,73348,1,0,0:0:0:50:finish.wav
448,192,73665,128,0,73770:0:0:0:0:
320,192,73770,128,0,73982:0:0:0:0:
64,192,73770,1,0,0:0:0:0:
192,192,73876,1,0,0:0:0:0:
64,192,73982,128,0,74193:0:0:0:0:
448,192,73982,1,0,0:0:0:0:
192,192,74193,128,0,74404:0:0:0:0:
320,192,74193,1,0,0:0:0:50:finish.wav
448,192,74193,1,0,0:0:0:40:bong low.wav
64,192,74510,128,0,74615:0:0:0:0:
192,192,74615,128,0,74827:0:0:0:0:
320,192,74615,1,0,0:0:0:0:
320,192,74827,128,0,75038:0:0:0:0:
64,192,74827,1,0,0:0:0:0:
448,192,75038,128,0,75249:0:0:0:0:
192,192,75038,1,0,0:0:0:40:bong low.wav
64,192,75038,1,0,0:0:0:50:finish.wav
320,192,75355,128,0,75461:0:0:0:0:
448,192,75461,128,0,75672:0:0:0:0:
192,192,75461,1,0,0:0:0:0:
64,192,75566,1,0,0:0:0:0:
192,192,75672,128,0,75883:0:0:0:0:
320,192,75672,1,0,0:0:0:0:
448,192,75883,128,0,76094:0:0:0:0:
64,192,75883,128,0,75989:0:0:0:40:bong low.wav
320,192,75883,1,0,0:0:0:40:finish low.wav
192,192,75989,128,0,76094:0:0:0:0:
320,192,76094,128,0,76200:0:0:0:0:
64,192,76306,128,0,76411:0:0:0:40:bong low.wav
320,192,76306,1,0,0:0:0:0:
448,192,76306,1,0,0:0:0:40:finish low.wav
192,192,76411,128,0,76517:0:0:0:0:
448,192,76517,128,0,76623:0:0:0:0:
64,192,76728,1,0,0:0:0:0:
192,192,76728,1,0,0:0:0:40:bong low.wav
320,192,76728,1,0,0:0:0:50:finish.wav
448,192,76728,128,0,76939:0:0:0:0:
320,192,77045,128,0,77151:0:0:0:0:
448,192,77151,128,0,77362:0:0:0:0:
192,192,77151,1,0,0:0:0:0:
192,192,77362,128,0,77573:0:0:0:0:
64,192,77362,1,0,0:0:0:0:
320,192,77573,128,0,77784:0:0:0:0:
64,192,77573,1,0,0:0:0:40:bong low.wav
448,192,77573,1,0,0:0:0:50:finish.wav
448,192,77890,128,0,77996:0:0:0:0:
320,192,77996,128,0,78207:0:0:0:0:
192,192,77996,1,0,0:0:0:0:
448,192,78101,1,0,0:0:0:0:
64,192,78207,128,0,78418:0:0:0:0:
192,192,78207,1,0,0:0:0:0:
448,192,78313,1,0,0:0:0:0:
192,192,78418,128,0,78630:0:0:0:40:bong low.wav
448,192,78418,1,0,0:0:0:50:finish.wav
320,192,78418,1,0,0:0:0:0:
64,192,78524,1,0,0:0:0:0:
448,192,78630,1,0,0:0:0:0:
320,192,78735,128,0,78841:0:0:0:0:
192,192,78841,128,0,79052:0:0:0:0:
448,192,78841,1,0,0:0:0:0:
64,192,78946,1,0,0:0:0:0:
448,192,79052,128,0,79263:0:0:0:0:
320,192,79052,1,0,0:0:0:0:
64,192,79158,1,0,0:0:0:0:
192,192,79263,128,0,79475:0:0:0:40:bong low.wav
64,192,79263,1,0,0:0:0:40:finish low.wav
320,192,79263,1,0,0:0:0:0:
320,192,79475,128,0,79580:0:0:0:0:
64,192,79686,128,0,79897:0:0:0:0:
192,192,79686,1,0,0:0:0:40:bong low.wav
448,192,79686,1,0,0:0:0:40:finish low.wav
320,192,79897,128,0,80003:0:0:0:0:
64,192,80108,128,0,80320:0:0:0:0:
448,192,80108,1,0,0:0:0:40:bong low.wav
192,192,80108,1,0,0:0:0:0:
320,192,80108,1,0,0:0:0:50:finish.wav
192,192,80320,128,0,80531:0:0:0:0:
448,192,80320,1,0,0:0:0:0:
448,192,80531,128,0,80742:0:0:0:0:
64,192,80531,1,0,0:0:0:0:
320,192,80531,1,0,0:0:0:40:bong low.wav
320,192,80742,128,0,80953:0:0:0:0:
64,192,80742,1,0,0:0:0:0:
64,192,80953,128,0,81165:0:0:0:0:
192,192,80953,1,0,0:0:0:50:finish.wav
448,192,80953,1,0,0:0:0:40:bong low.wav
192,192,81165,128,0,81376:0:0:0:0:
448,192,81165,1,0,0:0:0:0:
448,192,81376,128,0,81587:0:0:0:0:
320,192,81376,1,0,0:0:0:0:
64,192,81376,1,0,0:0:0:40:bong low.wav
320,192,81587,128,0,81799:0:0:0:0:
64,192,81587,1,0,0:0:0:0:
192,192,81799,128,0,82010:0:0:0:40:bong low.wav
64,192,81799,128,0,82010:0:0:0:0:
448,192,81799,1,0,0:0:0:0:
320,192,82010,1,0,0:0:0:40:bong hi.wav
448,192,82010,1,0,0:0:0:0:
320,192,82221,128,0,82432:0:0:0:40:bong low.wav
448,192,82221,128,0,82432:0:0:0:0:
64,192,82221,1,0,0:0:0:0:
192,192,82432,1,0,0:0:0:40:bong hi.wav
64,192,82432,1,0,0:0:0:0:
192,192,82644,128,0,82855:0:0:0:40:bong low.wav
64,192,82644,128,0,82855:0:0:0:0:
448,192,82644,1,0,0:0:0:0:
64,192,83066,128,0,83172:0:0:0:0:
192,192,83172,128,0,83277:0:0:0:0:
320,192,83277,128,0,83383:0:0:0:0:
448,192,83383,128,0,83489:0:0:0:0:
64,192,83489,128,0,84756:0:0:0:0:
192,192,83489,1,0,0:0:0:40:bong low.wav
320,192,83489,1,0,0:0:0:50:finish.wav
320,192,83806,1,0,0:0:0:0:
192,192,83911,1,0,0:0:0:0:
448,192,83911,1,0,0:0:0:0:
320,192,84017,1,0,0:0:0:0:
192,192,84123,1,0,0:0:0:0:
448,192,84123,1,0,0:0:0:0:
192,192,84334,1,0,0:0:0:0:
320,192,84334,1,0,0:0:0:50:finish.wav
448,192,84334,1,0,0:0:0:40:bong low.wav
320,192,84651,1,0,0:0:0:0:
448,192,84756,128,0,84862:0:0:0:0:
192,192,84756,1,0,0:0:0:0:
320,192,84862,128,0,84968:0:0:0:0:
192,192,84968,128,0,85073:0:0:0:0:
448,192,84968,1,0,0:0:0:0:
64,192,85073,128,0,85179:0:0:0:0:
448,192,85179,128,0,86024:0:0:0:0:
192,192,85179,1,0,0:0:0:40:bong low.wav
320,192,85179,1,0,0:0:0:50:finish.wav
192,192,85496,1,0,0:0:0:0:
64,192,85601,1,0,0:0:0:0:
320,192,85601,1,0,0:0:0:0:
192,192,85707,1,0,0:0:0:0:
320,192,85813,1,0,0:0:0:0:
64,192,85813,1,0,0:0:0:0:
64,192,86024,1,0,0:0:0:40:finish low.wav
192,192,86024,1,0,0:0:0:0:
320,192,86024,1,0,0:0:0:40:bong low.wav
64,192,86446,1,0,0:0:0:0:
320,192,86446,1,0,0:0:0:0:
448,192,86446,1,0,0:0:0:40:bong low.wav
192,192,86446,128,0,86658:0:0:0:0:
320,192,86658,128,0,86869:0:0:0:0:
64,192,86869,1,0,0:0:0:40:bong low.wav
192,192,86869,1,0,0:0:0:50:finish.wav
448,192,86869,128,0,87714:0:0:0:0:
64,192,87186,1,0,0:0:0:0:
192,192,87292,1,0,0:0:0:0:
320,192,87292,1,0,0:0:0:0:
64,192,87397,1,0,0:0:0:0:
192,192,87503,1,0,0:0:0:0:
320,192,87503,1,0,0:0:0:0:
64,192,87714,128,0,88137:0:0:0:0:
192,192,87714,1,0,0:0:0:50:finish.wav
320,192,87714,1,0,0:0:0:40:bong low.wav
448,192,88031,1,0,0:0:0:0:
320,192,88137,128,0,88559:0:0:0:0:
192,192,88137,1,0,0:0:0:0:
448,192,88242,1,0,0:0:0:0:
192,192,88348,1,0,0:0:0:0:
64,192,88348,1,0,0:0:0:0:
192,192,88559,128,0,90249:0:0:0:0:
64,192,88559,1,0,0:0:0:40:bong low.wav
448,192,88559,1,0,0:0:0:50:finish.wav
64,192,88876,1,0,0:0:0:0:
320,192,88982,1,0,0:0:0:0:
448,192,88982,1,0,0:0:0:0:
64,192,89087,1,0,0:0:0:0:
320,192,89193,1,0,0:0:0:0:
448,192,89193,1,0,0:0:0:0:
448,192,89404,128,0,90249:0:0:0:0:
320,192,89404,1,0,0:0:0:40:finish low.wav
64,192,89404,1,0,0:0:0:40:bong low.wav
64,192,89827,1,0,0:0:0:40:bong low.wav
320,192,89827,1,0,0:0:0:0:
64,192,90249,1,0,0:0:0:40:bong low.wav
320,192,90249,1,0,0:0:0:50:finish.wav
64,192,90461,128,0,90566:0:0:0:0:
192,192,90566,128,0,90672:0:0:0:0:
320,192,90672,128,0,90777:0:0:0:0:
448,192,90777,128,0,90883:0:0:0:0:
192,192,90883,128,0,90989:0:0:0:0:
64,192,90883,1,0,0:0:0:0:
64,192,91094,1,0,0:0:0:0:
192,192,91094,1,0,0:0:0:50:finish.wav
320,192,91094,1,0,0:0:0:40:bong low.wav
448,192,91094,1,0,0:0:0:0:
448,192,91306,128,0,91411:0:0:0:0:
320,192,91411,128,0,91517:0:0:0:0:
192,192,91517,128,0,91623:0:0:0:0:
64,192,91623,128,0,91728:0:0:0:0:
320,192,91728,128,0,91834:0:0:0:0:
448,192,91728,1,0,0:0:0:0:
64,192,91939,1,0,0:0:0:0:
192,192,91939,1,0,0:0:0:40:bong low.wav
448,192,91939,1,0,0:0:0:0:
320,192,91939,1,0,0:0:0:50:finish.wav
64,192,92151,128,0,92256:0:0:0:0:
192,192,92256,128,0,92362:0:0:0:0:
320,192,92362,128,0,92468:0:0:0:0:
448,192,92468,128,0,92573:0:0:0:0:
192,192,92573,128,0,92679:0:0:0:0:
64,192,92573,1,0,0:0:0:0:
320,192,92679,128,0,92784:0:0:0:0:
64,192,92784,128,0,92890:0:0:0:0:
192,192,92784,1,0,0:0:0:40:bong low.wav
448,192,92784,1,0,0:0:0:40:finish low.wav
320,192,92890,128,0,92996:0:0:0:0:
64,192,92996,128,0,93101:0:0:0:0:
320,192,93101,128,0,93207:0:0:0:0:
192,192,93207,128,0,93313:0:0:0:40:finish low.wav
64,192,93207,1,0,0:0:0:40:bong low.wav
448,192,93313,128,0,93418:0:0:0:0:
192,192,93418,128,0,93524:0:0:0:0:
64,192,93418,1,0,0:0:0:0:
448,192,93524,128,0,93630:0:0:0:0:
64,192,93630,128,0,95108:0:0:0:0:
192,192,93630,1,0,0:0:0:50:finish.wav
320,192,93630,1,0,0:0:0:40:bong low.wav
448,192,93841,1,0,0:0:0:0:
320,192,93946,1,0,0:0:0:0:
192,192,94052,1,0,0:0:0:0:
448,192,94052,1,0,0:0:0:40:bong low.wav
192,192,94263,1,0,0:0:0:0:
320,192,94475,1,0,0:0:0:50:finish.wav
448,192,94475,1,0,0:0:0:40:bong low.wav
192,192,94475,1,0,0:0:0:0:
320,192,94686,1,0,0:0:0:0:
320,192,94897,1,0,0:0:0:0:
448,192,94897,1,0,0:0:0:40:bong low.wav
448,192,95108,1,0,0:0:0:0:
192,192,95320,128,0,96587:0:0:0:0:
320,192,95320,128,0,96482:0:0:0:0:
64,192,95320,128,0,95425:0:0:0:40:bong low.wav
448,192,95320,128,0,95425:0:0:0:50:finish.wav
448,192,95531,1,0,0:0:0:0:
64,192,95531,1,0,0:0:0:40:bong hi.wav
64,192,95742,128,0,95848:0:0:0:40:bong low.wav
448,192,95742,128,0,95848:0:0:0:40:finish low.wav
448,192,95953,1,0,0:0:0:0:
64,192,95953,1,0,0:0:0:40:bong hi.wav
64,192,96165,128,0,96693:0:0:0:40:bong low.wav
448,192,96165,128,0,96376:0:0:0:40:finish low.wav
192,192,97010,1,0,0:0:0:0:
448,192,97221,1,0,0:0:0:0:
64,192,97432,1,0,0:0:0:0:
320,192,97644,1,0,0:0:0:0:
192,192,97855,1,0,0:0:0:0:
448,192,98066,1,0,0:0:0:0:
64,192,98277,1,0,0:0:0:0:
320,192,98489,1,0,0:0:0:0:
192,192,98700,1,0,0:0:0:0:
448,192,98911,1,0,0:0:0:0:
64,192,99228,1,0,0:0:0:0:
320,192,99334,1,0,0:0:0:0:
192,192,99545,1,0,0:0:0:0:
448,192,99756,1,0,0:0:0:0:
64,192,99862,1,0,0:0:0:0:
64,192,100179,1,0,0:0:0:0:
192,192,100390,1,0,0:0:0:0:
448,192,100601,1,0,0:0:0:0:
64,192,100813,1,0,0:0:0:0:
320,192,101024,1,0,0:0:0:0:
192,192,101235,1,0,0:0:0:0:
320,192,101446,1,0,0:0:0:0:
448,192,101446,1,0,0:0:0:0:
64,192,101658,1,0,0:0:0:0:
320,192,101869,1,0,0:0:0:0:
448,192,101869,1,0,0:0:0:0:
320,192,102714,1,0,0:0:0:0:
64,192,102784,1,0,0:0:0:0:
192,192,102855,1,0,0:0:0:0:
448,192,102925,1,0,0:0:0:0:
448,192,103031,1,0,0:0:0:0:
192,192,103137,1,0,0:0:0:0:
320,192,103242,1,0,0:0:0:0:
192,192,103348,1,0,0:0:0:0:
320,192,103453,1,0,0:0:0:0:
64,192,103559,1,0,0:0:0:0:
64,192,103665,1,0,0:0:0:0:
448,192,103770,1,0,0:0:0:0:
192,192,103876,1,0,0:0:0:0:
320,192,103982,1,0,0:0:0:0:
448,192,104087,1,0,0:0:0:0:
192,192,104193,1,0,0:0:0:40:true clap.wav
64,192,104193,1,0,0:0:0:0:
448,192,104299,1,0,0:0:0:0:
320,192,104404,1,0,0:0:0:0:
192,192,104510,1,0,0:0:0:0:
448,192,104615,1,0,0:0:0:0:
192,192,104721,1,0,0:0:0:0:
320,192,104827,1,0,0:0:0:0:
192,192,104932,1,0,0:0:0:0:
64,192,105038,1,0,0:0:0:0:
448,192,105038,1,0,0:0:0:40:true clap.wav
192,192,105144,1,0,0:0:0:0:
320,192,105249,1,0,0:0:0:0:
448,192,105355,1,0,0:0:0:0:
64,192,105461,1,0,0:0:0:0:
192,192,105566,1,0,0:0:0:0:
320,192,105672,1,0,0:0:0:0:
64,192,105777,1,0,0:0:0:0:
192,192,105883,1,0,0:0:0:40:true clap.wav
448,192,105883,1,0,0:0:0:0:
64,192,105989,1,0,0:0:0:0:
448,192,106094,1,0,0:0:0:0:
320,192,106200,1,0,0:0:0:0:
64,192,106306,1,0,0:0:0:0:
192,192,106411,1,0,0:0:0:0:
64,192,106517,128,0,106728:0:0:0:0:
192,192,106623,1,0,0:0:0:0:
448,192,106728,1,0,0:0:0:0:
320,192,106728,1,0,0:0:0:40:true clap.wav
192,192,106834,1,0,0:0:0:0:
320,192,106939,1,0,0:0:0:0:
448,192,107045,1,0,0:0:0:0:
320,192,107151,128,0,107573:0:0:0:0:
64,192,107151,1,0,0:0:0:0:
448,192,107256,1,0,0:0:0:0:
192,192,107362,1,0,0:0:0:0:
64,192,107468,1,0,0:0:0:0:
192,192,107573,1,0,0:0:0:0:
448,192,107573,1,0,0:0:0:40:true clap.wav
320,192,107679,1,0,0:0:0:0:
448,192,107784,1,0,0:0:0:0:
192,192,107784,128,0,107890:0:0:0:0:
64,192,107890,1,0,0:0:0:0:
192,192,107996,128,0,108418:0:0:0:0:
448,192,107996,1,0,0:0:0:0:
64,192,108101,1,0,0:0:0:0:
320,192,108207,1,0,0:0:0:0:
448,192,108313,1,0,0:0:0:0:
320,192,108418,1,0,0:0:0:40:true clap.wav
64,192,108418,1,0,0:0:0:0:
192,192,108524,1,0,0:0:0:0:
64,192,108630,128,0,108735:0:0:0:0:
192,192,108735,1,0,0:0:0:0:
64,192,108841,1,0,0:0:0:0:
192,192,108841,1,0,0:0:0:40:kickku.wav
64,192,109052,1,0,0:0:0:0:
64,192,109158,1,0,0:0:0:0:
448,192,109263,1,0,0:0:0:0:
320,192,109263,1,0,0:0:0:40:kickku.wav
448,192,109475,1,0,0:0:0:0:
448,192,109580,1,0,0:0:0:0:
64,192,109686,1,0,0:0:0:0:
192,192,109686,1,0,0:0:0:40:kickku.wav
448,192,109897,1,0,0:0:0:0:
320,192,109897,1,0,0:0:0:50:snareelectro.wav
448,192,110003,1,0,0:0:0:0:
320,192,110003,1,0,0:0:0:50:snareelectro.wav
192,192,110108,1,0,0:0:0:50:snareelectro.wav
448,192,110108,1,0,0:0:0:0:
64,192,110108,128,0,110320:0:0:0:0:
320,192,110320,1,0,0:0:0:50:snareelectro.wav
448,192,110320,1,0,0:0:0:0:
192,192,110320,128,0,110531:0:0:0:0:
320,192,110531,128,0,111376:0:0:0:0:
64,192,110531,1,0,0:0:0:40:kickku.wav
448,192,110531,1,0,0:0:0:50:finish.wav
192,192,110742,1,0,0:0:0:0:
192,192,110848,1,0,0:0:0:0:
448,192,110953,1,0,0:0:0:0:
64,192,110953,1,0,0:0:0:40:snare.wav
192,192,111165,1,0,0:0:0:0:
192,192,111270,1,0,0:0:0:0:
64,192,111376,1,0,0:0:0:40:kickku.wav
448,192,111376,1,0,0:0:0:0:
192,192,111482,1,0,0:0:0:0:
320,192,111587,1,0,0:0:0:0:
64,192,111693,1,0,0:0:0:0:
448,192,111799,128,0,112010:0:0:0:0:
192,192,111799,1,0,0:0:0:40:kickku.wav
320,192,111799,1,0,0:0:0:0:
64,192,111904,1,0,0:0:0:0:
192,192,112010,1,0,0:0:0:0:
320,192,112010,128,0,112221:0:0:0:0:
64,192,112115,1,0,0:0:0:0:
192,192,112221,128,0,113066:0:0:0:0:
64,192,112221,1,0,0:0:0:40:kickku.wav
448,192,112221,1,0,0:0:0:50:finish.wav
320,192,112432,1,0,0:0:0:0:
320,192,112538,1,0,0:0:0:0:
64,192,112644,1,0,0:0:0:0:
448,192,112644,1,0,0:0:0:40:snare.wav
320,192,112855,1,0,0:0:0:0:
320,192,112961,1,0,0:0:0:0:
448,192,113066,1,0,0:0:0:40:kickku.wav
64,192,113066,1,0,0:0:0:0:
320,192,113172,1,0,0:0:0:0:
192,192,113277,1,0,0:0:0:0:
448,192,113383,1,0,0:0:0:0:
320,192,113489,1,0,0:0:0:40:kickku.wav
192,192,113489,1,0,0:0:0:0:
64,192,113489,128,0,113700:0:0:0:0:
448,192,113594,1,0,0:0:0:0:
192,192,113700,128,0,113911:0:0:0:0:
320,192,113700,1,0,0:0:0:0:
448,192,113806,1,0,0:0:0:0:
64,192,113911,1,0,0:0:0:0:
320,192,113911,1,0,0:0:0:50:finish.wav
448,192,113911,1,0,0:0:0:40:kickku.wav
320,192,114123,1,0,0:0:0:0:
320,192,114228,1,0,0:0:0:0:
448,192,114334,1,0,0:0:0:40:snare.wav
64,192,114334,1,0,0:0:0:0:
192,192,114545,1,0,0:0:0:0:
192,192,114651,1,0,0:0:0:0:
320,192,114756,1,0,0:0:0:40:kickku.wav
448,192,114756,1,0,0:0:0:0:
64,192,114756,1,0,0:0:0:50:finish.wav
192,192,114756,1,0,0:0:0:0:
320,192,114968,1,0,0:0:0:0:
320,192,115073,1,0,0:0:0:0:
448,192,115179,1,0,0:0:0:40:snare.wav
192,192,115179,1,0,0:0:0:0:
64,192,115390,1,0,0:0:0:0:
64,192,115496,1,0,0:0:0:0:
64,192,115601,1,0,0:0:0:0:
192,192,115601,1,0,0:0:0:40:kickku.wav
320,192,115601,1,0,0:0:0:50:finish.wav
448,192,115601,1,0,0:0:0:0:
320,192,115813,1,0,0:0:0:0:
320,192,115918,1,0,0:0:0:0:
448,192,116024,1,0,0:0:0:40:finish low.wav
64,192,116024,1,0,0:0:0:0:
192,192,116024,1,0,0:0:0:40:kickku.wav
192,192,116235,1,0,0:0:0:0:
192,192,116341,1,0,0:0:0:0:
448,192,116446,1,0,0:0:0:0:
64,192,116446,1,0,0:0:0:40:finish low.wav
320,192,116446,1,0,0:0:0:40:kickku.wav
192,192,116552,1,0,0:0:0:0:
64,192,116658,1,0,0:0:0:0:
448,192,116763,1,0,0:0:0:0:
192,192,116763,1,0,0:0:0:40:kickku.wav
320,192,116869,1,0,0:0:0:40:snare.wav
64,192,116869,1,0,0:0:0:0:
448,192,116975,1,0,0:0:0:0:
64,192,117080,1,0,0:0:0:40:kickku.wav
192,192,117080,1,0,0:0:0:40:snare.wav
192,192,117186,1,0,0:0:0:0:
320,192,117292,1,0,0:0:0:40:kickku.wav
448,192,117292,1,0,0:0:0:25:finish.wav
64,192,117292,1,0,0:0:0:0:
320,192,117503,1,0,0:0:0:0:
320,192,117608,1,0,0:0:0:0:
64,192,117714,1,0,0:0:0:40:snare.wav
448,192,117714,1,0,0:0:0:40:kickku.wav
64,192,117925,1,0,0:0:0:0:
64,192,118031,1,0,0:0:0:0:
320,192,118137,1,0,0:0:0:40:kickku.wav
448,192,118137,1,0,0:0:0:0:
320,192,118348,1,0,0:0:0:0:
320,192,118453,1,0,0:0:0:0:
64,192,118559,1,0,0:0:0:40:kickku.wav
192,192,118559,1,0,0:0:0:40:snare.wav
64,192,118770,1,0,0:0:0:0:
64,192,118876,1,0,0:0:0:0:
320,192,118982,1,0,0:0:0:40:kickku.wav
192,192,118982,1,0,0:0:0:0:
320,192,119193,1,0,0:0:0:0:
320,192,119299,1,0,0:0:0:0:
64,192,119404,1,0,0:0:0:40:snare.wav
448,192,119404,1,0,0:0:0:40:kickku.wav
64,192,119615,1,0,0:0:0:0:
64,192,119721,1,0,0:0:0:0:
192,192,119827,1,0,0:0:0:40:kickku.wav
448,192,119827,1,0,0:0:0:0:
192,192,120038,1,0,0:0:0:0:
192,192,120144,1,0,0:0:0:0:
64,192,120249,1,0,0:0:0:40:snare.wav
320,192,120249,1,0,0:0:0:40:kickku.wav
448,192,120355,1,0,0:0:0:0:
320,192,120461,1,0,0:0:0:0:
320,192,120566,1,0,0:0:0:0:
448,192,120672,1,0,0:0:0:40:kickku.wav
192,192,120672,1,0,0:0:0:0:
192,192,120883,1,0,0:0:0:0:
192,192,120989,1,0,0:0:0:0:
64,192,121094,1,0,0:0:0:40:kickku.wav
448,192,121094,1,0,0:0:0:40:snare.wav
448,192,121306,1,0,0:0:0:0:
448,192,121411,1,0,0:0:0:0:
192,192,121517,1,0,0:0:0:40:kickku.wav
64,192,121517,1,0,0:0:0:0:
192,192,121728,1,0,0:0:0:0:
192,192,121834,1,0,0:0:0:0:
320,192,121939,1,0,0:0:0:40:snare.wav
448,192,121939,1,0,0:0:0:40:kickku.wav
448,192,122151,1,0,0:0:0:0:
448,192,122256,1,0,0:0:0:0:
192,192,122362,1,0,0:0:0:40:kickku.wav
64,192,122362,1,0,0:0:0:0:
320,192,122362,128,0,123207:0:0:0:0:
192,192,122784,1,0,0:0:0:40:kickku.wav
64,192,122784,1,0,0:0:0:0:
64,192,123207,1,0,0:0:0:40:kickku.wav
192,192,123207,128,0,123313:0:0:0:0:
448,192,123313,128,0,123418:0:0:0:0:
192,192,123418,128,0,123524:0:0:0:0:
448,192,123524,128,0,123630:0:0:0:0:
192,192,123630,1,0,0:0:0:40:snare.wav
64,192,123630,128,0,123735:0:0:0:0:
320,192,123735,128,0,123841:0:0:0:0:
192,192,123841,128,0,123946:0:0:0:0:
64,192,123946,128,0,124052:0:0:0:0:
192,192,124052,1,0,0:0:0:40:finish.wav
320,192,124052,1,0,0:0:0:40:kickku.wav
448,192,124052,1,0,0:0:0:0:
64,192,124158,1,0,0:0:0:0:
448,192,124263,1,0,0:0:0:0:
192,192,124263,1,0,0:0:0:0:
64,192,124475,1,0,0:0:0:40:kickku.wav
320,192,124475,1,0,0:0:0:40:snare.wav
320,192,124686,1,0,0:0:0:0:
448,192,124686,1,0,0:0:0:0:
64,192,124897,1,0,0:0:0:0:
192,192,124897,1,0,0:0:0:40:kickku.wav
448,192,125003,1,0,0:0:0:0:
192,192,125108,1,0,0:0:0:0:
320,192,125108,1,0,0:0:0:0:
64,192,125214,1,0,0:0:0:0:
448,192,125320,1,0,0:0:0:40:snare.wav
320,192,125320,1,0,0:0:0:40:kickku.wav
64,192,125425,1,0,0:0:0:0:
192,192,125531,1,0,0:0:0:0:
448,192,125531,1,0,0:0:0:0:
64,192,125742,1,0,0:0:0:0:
320,192,125742,1,0,0:0:0:40:kickku.wav
192,192,125848,1,0,0:0:0:0:
320,192,125953,1,0,0:0:0:0:
448,192,125953,1,0,0:0:0:0:
64,192,126059,1,0,0:0:0:0:
192,192,126165,1,0,0:0:0:40:snare.wav
448,192,126165,1,0,0:0:0:40:kickku.wav
320,192,126270,1,0,0:0:0:0:
192,192,126376,1,0,0:0:0:0:
64,192,126376,1,0,0:0:0:0:
448,192,126587,1,0,0:0:0:0:
320,192,126587,1,0,0:0:0:40:kickku.wav
192,192,126693,1,0,0:0:0:0:
64,192,126799,1,0,0:0:0:0:
448,192,126799,1,0,0:0:0:0:
320,192,126904,1,0,0:0:0:0:
192,192,127010,1,0,0:0:0:40:kickku.wav
64,192,127010,1,0,0:0:0:40:snare.wav
448,192,127115,1,0,0:0:0:0:
320,192,127221,1,0,0:0:0:0:
192,192,127221,1,0,0:0:0:0:
64,192,127432,1,0,0:0:0:0:
448,192,127432,1,0,0:0:0:40:kickku.wav
192,192,127538,1,0,0:0:0:0:
320,192,127644,1,0,0:0:0:0:
448,192,127644,1,0,0:0:0:0:
64,192,127749,1,0,0:0:0:0:
192,192,127855,1,0,0:0:0:40:kickku.wav
320,192,127855,1,0,0:0:0:40:snare.wav
64,192,127961,1,0,0:0:0:0:
448,192,128066,1,0,0:0:0:0:
192,192,128066,1,0,0:0:0:0:
64,192,128277,1,0,0:0:0:40:kickku.wav
448,192,128277,1,0,0:0:0:0:
320,192,128383,1,0,0:0:0:0:
192,192,128489,1,0,0:0:0:0:
64,192,128489,1,0,0:0:0:0:
448,192,128594,1,0,0:0:0:0:
192,192,128700,1,0,0:0:0:40:kickku.wav
320,192,128700,1,0,0:0:0:40:snare.wav
448,192,128806,1,0,0:0:0:0:
320,192,128911,1,0,0:0:0:0:
64,192,128911,1,0,0:0:0:0:
64,192,129123,1,0,0:0:0:0:
192,192,129123,1,0,0:0:0:40:kickku.wav
192,192,129334,1,0,0:0:0:0:
448,192,129334,1,0,0:0:0:0:
192,192,129439,1,0,0:0:0:0:
448,192,129439,1,0,0:0:0:0:
320,192,129545,1,0,0:0:0:40:kickku.wav
64,192,129545,1,0,0:0:0:40:snare.wav
320,192,129756,1,0,0:0:0:0:
64,192,129756,1,0,0:0:0:0:
320,192,129862,1,0,0:0:0:0:
64,192,129862,1,0,0:0:0:0:
448,192,129968,1,0,0:0:0:40:kickku.wav
192,192,129968,128,0,130284:0:0:0:0:
64,192,130179,1,0,0:0:0:0:
320,192,130284,1,0,0:0:0:40:kickku.wav
448,192,130284,128,0,130390:0:0:0:0:
64,192,130390,1,0,0:0:0:0:
192,192,130390,1,0,0:0:0:40:snare.wav
448,192,130496,128,0,130601:0:0:0:0:
320,192,130601,128,0,130813:0:0:0:0:
192,192,130601,1,0,0:0:0:40:kickku.wav
192,192,130813,1,0,0:0:0:0:
64,192,130813,1,0,0:0:0:40:finish.wav
448,192,130813,1,0,0:0:0:40:kickku.wav
64,192,131024,1,0,0:0:0:0:
64,192,131130,1,0,0:0:0:0:
320,192,131235,1,0,0:0:0:40:kickku.wav
448,192,131235,1,0,0:0:0:40:snare.wav
448,192,131446,1,0,0:0:0:0:
448,192,131552,1,0,0:0:0:0:
192,192,131658,1,0,0:0:0:40:kickku.wav
64,192,131658,1,0,0:0:0:0:
64,192,131869,1,0,0:0:0:0:
64,192,131975,1,0,0:0:0:0:
320,192,132080,1,0,0:0:0:40:snare.wav
448,192,132080,1,0,0:0:0:40:kickku.wav
448,192,132292,1,0,0:0:0:0:
448,192,132397,1,0,0:0:0:0:
192,192,132503,1,0,0:0:0:40:kickku.wav
64,192,132503,1,0,0:0:0:0:
320,192,132608,1,0,0:0:0:0:
64,192,132714,1,0,0:0:0:0:
192,192,132820,1,0,0:0:0:0:
320,192,132925,1,0,0:0:0:40:kickku.wav
448,192,132925,1,0,0:0:0:40:snare.wav
192,192,133031,1,0,0:0:0:0:
448,192,133137,1,0,0:0:0:0:
320,192,133242,1,0,0:0:0:0:
192,192,133348,1,0,0:0:0:40:kickku.wav
64,192,133348,1,0,0:0:0:0:
320,192,133453,1,0,0:0:0:0:
64,192,133559,1,0,0:0:0:0:
192,192,133665,1,0,0:0:0:0:
320,192,133770,1,0,0:0:0:40:kickku.wav
448,192,133770,1,0,0:0:0:40:snare.wav
192,192,133876,1,0,0:0:0:0:
448,192,133982,1,0,0:0:0:0:
320,192,134087,1,0,0:0:0:0:
192,192,134193,1,0,0:0:0:40:kickku.wav
64,192,134193,1,0,0:0:0:0:
448,192,134299,1,0,0:0:0:0:
192,192,134404,1,0,0:0:0:0:
192,192,134510,1,0,0:0:0:0:
320,192,134615,1,0,0:0:0:40:kickku.wav
64,192,134615,1,0,0:0:0:40:snare.wav
448,192,134721,1,0,0:0:0:0:
320,192,134827,1,0,0:0:0:0:
320,192,134932,1,0,0:0:0:0:
192,192,135038,1,0,0:0:0:0:
448,192,135038,1,0,0:0:0:40:kickku.wav
64,192,135144,1,0,0:0:0:0:
192,192,135249,1,0,0:0:0:0:
192,192,135355,1,0,0:0:0:0:
64,192,135461,1,0,0:0:0:40:snare.wav
320,192,135461,1,0,0:0:0:40:kickku.wav
448,192,135566,1,0,0:0:0:0:
320,192,135672,1,0,0:0:0:0:
320,192,135777,1,0,0:0:0:0:
192,192,135883,1,0,0:0:0:40:kickku.wav
64,192,135883,1,0,0:0:0:0:
64,192,136306,1,0,0:0:0:40:snare.wav
448,192,136517,1,0,0:0:0:40:snare.wav
320,192,136587,1,0,0:0:0:40:snare.wav
192,192,136649,1,0,0:0:0:40:snare.wav
64,192,136728,1,0,0:0:0:40:snare.wav
448,192,136939,1,0,0:0:0:40:snare.wav
64,192,137151,1,0,0:0:0:40:snare.wav
192,192,137151,1,0,0:0:0:40:kickku.wav
320,192,137362,1,0,0:0:0:0:
448,192,137362,1,0,0:0:0:40:kickku.wav
64,192,137573,1,0,0:0:0:40:finish low.wav
192,192,137573,1,0,0:0:0:0:
448,192,137573,1,0,0:0:0:40:kickku.wav
192,192,137784,128,0,137890:0:0:0:0:
320,192,137784,1,0,0:0:0:0:
64,192,137890,128,0,138207:0:0:0:0:
192,192,137996,1,0,0:0:0:40:snare.wav
448,192,137996,1,0,0:0:0:40:kickku.wav
192,192,138207,1,0,0:0:0:0:
320,192,138418,1,0,0:0:0:40:kickku.wav
448,192,138418,1,0,0:0:0:0:
320,192,138630,128,0,138735:0:0:0:0:
192,192,138630,1,0,0:0:0:0:
448,192,138735,128,0,139052:0:0:0:0:
64,192,138841,1,0,0:0:0:40:snare.wav
320,192,138841,1,0,0:0:0:40:kickku.wav
320,192,139052,1,0,0:0:0:0:
64,192,139263,1,0,0:0:0:40:kickku.wav
192,192,139263,1,0,0:0:0:0:
320,192,139475,128,0,139580:0:0:0:0:
448,192,139475,1,0,0:0:0:0:
192,192,139580,128,0,139897:0:0:0:0:
320,192,139686,1,0,0:0:0:40:kickku.wav
64,192,139686,1,0,0:0:0:40:snare.wav
320,192,139897,1,0,0:0:0:0:
448,192,140108,1,0,0:0:0:40:kickku.wav
192,192,140108,1,0,0:0:0:0:
192,192,140320,128,0,140425:0:0:0:0:
64,192,140320,1,0,0:0:0:0:
320,192,140425,128,0,140742:0:0:0:0:
192,192,140531,1,0,0:0:0:40:kickku.wav
448,192,140531,1,0,0:0:0:40:snare.wav
192,192,140742,1,0,0:0:0:0:
448,192,140953,1,0,0:0:0:40:kickku.wav
64,192,140953,1,0,0:0:0:0:
192,192,141165,128,0,141270:0:0:0:0:
320,192,141165,1,0,0:0:0:0:
64,192,141270,128,0,141587:0:0:0:0:
320,192,141376,1,0,0:0:0:40:snare.wav
192,192,141376,1,0,0:0:0:40:kickku.wav
192,192,141587,1,0,0:0:0:0:
448,192,141799,1,0,0:0:0:40:kickku.wav
64,192,141799,1,0,0:0:0:0:
320,192,142010,128,0,142115:0:0:0:0:
192,192,142010,1,0,0:0:0:0:
448,192,142115,128,0,142432:0:0:0:0:
192,192,142221,1,0,0:0:0:40:snare.wav
320,192,142221,1,0,0:0:0:40:kickku.wav
320,192,142432,1,0,0:0:0:0:
64,192,142644,1,0,0:0:0:40:kickku.wav
192,192,142644,1,0,0:0:0:0:
192,192,142855,1,0,0:0:0:0:
192,192,142961,1,0,0:0:0:0:
448,192,143066,1,0,0:0:0:40:snare.wav
320,192,143066,1,0,0:0:0:40:kickku.wav
448,192,143277,1,0,0:0:0:0:
448,192,143383,1,0,0:0:0:0:
192,192,143489,1,0,0:0:0:40:kickku.wav
64,192,143489,128,0,144334:0:0:0:0:
192,192,144334,1,0,0:0:0:40:kickku.wav
320,192,144334,1,0,0:0:0:50:finish.wav
448,192,144334,1,0,0:0:0:0:
64,192,144439,1,0,0:0:0:0:
448,192,144545,1,0,0:0:0:0:
320,192,144651,1,0,0:0:0:0:
192,192,144756,1,0,0:0:0:40:kickku.wav
64,192,144756,1,0,0:0:0:40:snare.wav
448,192,144862,1,0,0:0:0:0:
64,192,144968,1,0,0:0:0:0:
192,192,145073,1,0,0:0:0:0:
448,192,145179,1,0,0:0:0:0:
320,192,145179,1,0,0:0:0:40:kickku.wav
64,192,145284,1,0,0:0:0:0:
448,192,145390,1,0,0:0:0:0:
320,192,145496,1,0,0:0:0:0:
192,192,145601,1,0,0:0:0:40:kickku.wav
64,192,145601,1,0,0:0:0:40:snare.wav
448,192,145707,1,0,0:0:0:0:
64,192,145813,1,0,0:0:0:0:
192,192,145918,1,0,0:0:0:0:
320,192,146024,1,0,0:0:0:40:kickku.wav
448,192,146024,1,0,0:0:0:0:
64,192,146024,1,0,0:0:0:0:
192,192,146024,1,0,0:0:0:50:finish.wav
320,192,146130,1,0,0:0:0:0:
192,192,146235,1,0,0:0:0:0:
448,192,146341,1,0,0:0:0:0:
320,192,146446,1,0,0:0:0:40:kickku.wav
64,192,146446,1,0,0:0:0:40:snare.wav
192,192,146552,1,0,0:0:0:0:
320,192,146658,1,0,0:0:0:0:
448,192,146763,1,0,0:0:0:0:
192,192,146869,1,0,0:0:0:40:kickku.wav
64,192,146869,1,0,0:0:0:0:
320,192,146975,1,0,0:0:0:0:
192,192,147080,1,0,0:0:0:0:
64,192,147186,1,0,0:0:0:0:
448,192,147292,1,0,0:0:0:40:snare.wav
320,192,147292,1,0,0:0:0:40:kickku.wav
64,192,147397,1,0,0:0:0:0:
320,192,147503,1,0,0:0:0:0:
192,192,147608,1,0,0:0:0:0:
320,192,147714,1,0,0:0:0:0:
448,192,147714,1,0,0:0:0:40:kickku.wav
64,192,147714,1,0,0:0:0:0:
192,192,147714,1,0,0:0:0:50:finish.wav
64,192,147925,128,0,148031:0:0:0:0:
192,192,147925,1,0,0:0:0:0:
320,192,148031,1,0,0:0:0:0:
192,192,148137,1,0,0:0:0:40:kickku.wav
448,192,148137,1,0,0:0:0:40:snare.wav
64,192,148348,128,0,148453:0:0:0:0:
448,192,148348,1,0,0:0:0:0:
320,192,148453,1,0,0:0:0:0:
192,192,148559,1,0,0:0:0:40:kickku.wav
448,192,148559,1,0,0:0:0:0:
64,192,148559,1,0,0:0:0:0:
320,192,148559,1,0,0:0:0:50:finish.wav
64,192,148770,128,0,148876:0:0:0:0:
192,192,148770,1,0,0:0:0:0:
448,192,148876,1,0,0:0:0:0:
320,192,148982,1,0,0:0:0:40:kickku.wav
192,192,148982,1,0,0:0:0:40:snare.wav
64,192,149193,128,0,149299:0:0:0:0:
448,192,149193,1,0,0:0:0:0:
192,192,149299,1,0,0:0:0:0:
64,192,149404,1,0,0:0:0:0:
448,192,149404,1,0,0:0:0:40:kickku.wav
320,192,149404,1,0,0:0:0:50:finish.wav
192,192,149404,1,0,0:0:0:0:
320,192,149615,128,0,149721:0:0:0:0:
448,192,149615,128,0,149721:0:0:0:0:
64,192,149721,1,0,0:0:0:0:
448,192,149827,128,0,149932:0:0:0:40:finish low.wav
320,192,149827,128,0,149932:0:0:0:40:snare.wav
192,192,149827,1,0,0:0:0:40:kickku.wav
320,192,150038,128,0,150144:0:0:0:0:
448,192,150038,128,0,150144:0:0:0:0:
192,192,150144,1,0,0:0:0:0:
320,192,150249,128,0,150355:0:0:0:0:
448,192,150249,128,0,150355:0:0:0:40:finish low.wav
64,192,150249,1,0,0:0:0:40:kickku.wav
192,192,150461,1,0,0:0:0:0:
320,192,150566,1,0,0:0:0:40:kickku.wav
448,192,150566,1,0,0:0:0:0:snare.wav
192,192,150672,1,0,0:0:0:40:kickku.wav
64,192,150672,1,0,0:0:0:40:snare.wav
192,192,150883,1,0,0:0:0:40:snare.wav
448,192,150883,1,0,0:0:0:0:
64,192,151094,1,0,0:0:0:0:
192,192,151094,1,0,0:0:0:40:kickku.wav
448,192,151094,1,0,0:0:0:0:
320,192,151094,1,0,0:0:0:50:finish.wav
192,192,151200,1,0,0:0:0:0:
320,192,151306,1,0,0:0:0:0:
448,192,151411,1,0,0:0:0:0:
64,192,151517,128,0,151939:0:0:0:40:snare.wav
192,192,151517,1,0,0:0:0:40:kickku.wav
448,192,151623,1,0,0:0:0:0:
192,192,151728,1,0,0:0:0:0:
320,192,151834,1,0,0:0:0:0:
192,192,151939,128,0,152362:0:0:0:0:
448,192,151939,1,0,0:0:0:40:kickku.wav
320,192,152045,1,0,0:0:0:0:
64,192,152151,1,0,0:0:0:0:
448,192,152256,1,0,0:0:0:0:
320,192,152362,1,0,0:0:0:40:kickku.wav
64,192,152362,1,0,0:0:0:40:snare.wav
192,192,152468,1,0,0:0:0:0:
320,192,152573,1,0,0:0:0:0:
192,192,152679,1,0,0:0:0:0:
64,192,152784,1,0,0:0:0:0:
320,192,152784,1,0,0:0:0:40:kickku.wav
192,192,152784,1,0,0:0:0:50:finish.wav
448,192,152784,1,0,0:0:0:0:
448,192,152890,1,0,0:0:0:0:
64,192,152996,1,0,0:0:0:0:
192,192,153101,1,0,0:0:0:0:
448,192,153207,128,0,153630:0:0:0:40:snare.wav
320,192,153207,1,0,0:0:0:40:kickku.wav
64,192,153313,1,0,0:0:0:0:
320,192,153418,1,0,0:0:0:0:
192,192,153524,1,0,0:0:0:0:
64,192,153630,128,0,154052:0:0:0:0:
320,192,153630,1,0,0:0:0:40:kickku.wav
448,192,153735,1,0,0:0:0:0:
192,192,153841,1,0,0:0:0:0:
320,192,153946,1,0,0:0:0:0:
192,192,154052,1,0,0:0:0:40:kickku.wav
448,192,154052,1,0,0:0:0:40:snare.wav
64,192,154158,1,0,0:0:0:0:
320,192,154263,1,0,0:0:0:0:
192,192,154369,1,0,0:0:0:0:
192,192,154475,1,0,0:0:0:40:kickku.wav
320,192,154475,1,0,0:0:0:50:finish.wav
448,192,154475,1,0,0:0:0:0:
64,192,154475,1,0,0:0:0:0:
448,192,154580,1,0,0:0:0:0:
320,192,154686,1,0,0:0:0:0:
192,192,154792,1,0,0:0:0:0:
320,192,154897,1,0,0:0:0:40:kickku.wav
448,192,154897,1,0,0:0:0:40:snare.wav
64,192,155003,1,0,0:0:0:0:
192,192,155108,1,0,0:0:0:0:
320,192,155214,1,0,0:0:0:0:
64,192,155320,1,0,0:0:0:0:
192,192,155320,1,0,0:0:0:50:finish.wav
320,192,155320,1,0,0:0:0:40:kickku.wav
448,192,155320,1,0,0:0:0:0:
64,192,155425,1,0,0:0:0:0:
192,192,155531,1,0,0:0:0:0:
320,192,155637,1,0,0:0:0:0:
192,192,155742,1,0,0:0:0:40:snare.wav
64,192,155742,1,0,0:0:0:40:kickku.wav
448,192,155848,1,0,0:0:0:0:
320,192,155953,1,0,0:0:0:0:
192,192,156059,1,0,0:0:0:0:
448,192,156165,1,0,0:0:0:0:
192,192,156165,1,0,0:0:0:40:kickku.wav
320,192,156165,1,0,0:0:0:50:finish.wav
64,192,156165,1,0,0:0:0:0:
64,192,156376,128,0,156482:0:0:0:0:
192,192,156376,128,0,156482:0:0:0:0:
448,192,156482,1,0,0:0:0:0:
64,192,156587,128,0,156693:0:0:0:40:finish low.wav
192,192,156587,128,0,156693:0:0:0:40:snare.wav
320,192,156587,1,0,0:0:0:40:kickku.wav
64,192,156799,128,0,156904:0:0:0:0:
192,192,156799,128,0,156904:0:0:0:0:
448,192,156904,1,0,0:0:0:0:
192,192,157010,128,0,157115:0:0:0:0:
64,192,157010,128,0,157115:0:0:0:40:finish low.wav
320,192,157010,1,0,0:0:0:40:kickku.wav
320,192,157115,1,0,0:0:0:0:
448,192,157115,1,0,0:0:0:40:snareelectro.wav
192,192,157221,1,0,0:0:0:0:
64,192,157221,1,0,0:0:0:40:snareelectro.wav
448,192,157327,1,0,0:0:0:40:snareelectro.wav
320,192,157327,1,0,0:0:0:0:
192,192,157432,1,0,0:0:0:0:
64,192,157432,1,0,0:0:0:40:snareelectro.wav
320,192,157538,1,0,0:0:0:0:
448,192,157538,1,0,0:0:0:40:snareelectro.wav
192,192,157644,1,0,0:0:0:0:
64,192,157644,1,0,0:0:0:40:snareelectro.wav
320,192,157749,1,0,0:0:0:0:
448,192,157749,1,0,0:0:0:40:snareelectro.wav
64,192,157855,1,0,0:0:0:40:snareelectro.wav
448,192,157855,128,0,157961:0:0:0:25:finish.wav
192,192,157855,1,0,0:0:0:40:kickku.wav
192,192,158066,1,0,0:0:0:0:
192,192,158172,1,0,0:0:0:0:
448,192,158277,1,0,0:0:0:40:snare.wav
320,192,158277,1,0,0:0:0:40:kickku.wav
320,192,158489,1,0,0:0:0:0:
320,192,158594,1,0,0:0:0:0:
192,192,158700,1,0,0:0:0:40:kickku.wav
64,192,158700,1,0,0:0:0:0:
448,192,158700,128,0,158806:0:0:0:0:
192,192,158911,1,0,0:0:0:0:
192,192,159017,1,0,0:0:0:0:
320,192,159123,128,0,159228:0:0:0:0:
64,192,159123,1,0,0:0:0:40:snare.wav
448,192,159123,1,0,0:0:0:40:kickku.wav
64,192,159334,1,0,0:0:0:0:
64,192,159439,1,0,0:0:0:0:
192,192,159545,128,0,159651:0:0:0:0:
320,192,159545,1,0,0:0:0:40:kickku.wav
448,192,159545,1,0,0:0:0:0:
320,192,159756,1,0,0:0:0:0:
320,192,159862,1,0,0:0:0:0:
192,192,159968,1,0,0:0:0:40:snare.wav
448,192,159968,1,0,0:0:0:40:kickku.wav
448,192,160179,1,0,0:0:0:0:
448,192,160284,1,0,0:0:0:0:
64,192,160390,1,0,0:0:0:0:
192,192,160390,128,0,160496:0:0:0:0:
320,192,160390,1,0,0:0:0:40:kickku.wav
448,192,160443,1,0,0:0:0:0:
64,192,160496,1,0,0:0:0:0:
320,192,160601,1,0,0:0:0:0:
320,192,160707,1,0,0:0:0:0:
192,192,160813,1,0,0:0:0:40:kickku.wav
64,192,160813,1,0,0:0:0:40:snare.wav
448,192,160813,128,0,160918:0:0:0:0:
320,192,160918,1,0,0:0:0:0:
192,192,161024,1,0,0:0:0:0:
64,192,161024,128,0,161130:0:0:0:0:
192,192,161130,1,0,0:0:0:0:
320,192,161235,1,0,0:0:0:0:
448,192,161235,1,0,0:0:0:40:kickku.wav
64,192,161288,1,0,0:0:0:0:
448,192,161341,1,0,0:0:0:0:
192,192,161446,1,0,0:0:0:0:
192,192,161552,1,0,0:0:0:0:
320,192,161658,1,0,0:0:0:40:kickku.wav
64,192,161658,1,0,0:0:0:40:snare.wav
320,192,161763,1,0,0:0:0:0:
64,192,161869,1,0,0:0:0:0:
64,192,161975,1,0,0:0:0:0:
448,192,162080,1,0,0:0:0:0:
192,192,162080,1,0,0:0:0:40:kickku.wav
448,192,162186,1,0,0:0:0:0:
192,192,162292,1,0,0:0:0:0:
192,192,162397,1,0,0:0:0:0:
320,192,162503,1,0,0:0:0:40:kickku.wav
64,192,162503,1,0,0:0:0:40:snare.wav
320,192,162608,1,0,0:0:0:0:
64,192,162714,1,0,0:0:0:0:
64,192,162820,1,0,0:0:0:0:
192,192,162925,1,0,0:0:0:40:kickku.wav
448,192,162925,1,0,0:0:0:0:
448,192,163031,1,0,0:0:0:0:
320,192,163137,1,0,0:0:0:0:
320,192,163242,1,0,0:0:0:0:
64,192,163348,1,0,0:0:0:40:snare.wav
448,192,163348,1,0,0:0:0:40:kickku.wav
64,192,163453,1,0,0:0:0:0:
192,192,163559,1,0,0:0:0:0:
192,192,163665,1,0,0:0:0:0:
64,192,163770,1,0,0:0:0:40:kickku.wav
448,192,163770,1,0,0:0:0:0:
448,192,163876,1,0,0:0:0:0:
320,192,163982,1,0,0:0:0:0:
320,192,164087,1,0,0:0:0:0:
192,192,164193,1,0,0:0:0:40:snare.wav
64,192,164193,1,0,0:0:0:40:kickku.wav
192,192,164299,1,0,0:0:0:0:
320,192,164404,1,0,0:0:0:0:
448,192,164404,1,0,0:0:0:40:kickku.wav
320,192,164510,1,0,0:0:0:0:
64,192,164615,1,0,0:0:0:40:finish.wav
192,192,164615,1,0,0:0:0:40:kickku.wav
448,192,164615,128,0,165461:0:0:0:0:
320,192,164721,1,0,0:0:0:0:
192,192,164827,1,0,0:0:0:0:
64,192,164932,1,0,0:0:0:0:
192,192,165038,1,0,0:0:0:40:kickku.wav
320,192,165038,1,0,0:0:0:40:snare.wav
64,192,165144,1,0,0:0:0:0:
320,192,165249,1,0,0:0:0:0:
192,192,165355,1,0,0:0:0:0:
320,192,165461,128,0,166306:0:0:0:0:
64,192,165461,1,0,0:0:0:40:kickku.wav
448,192,165566,1,0,0:0:0:0:
192,192,165672,1,0,0:0:0:0:
64,192,165777,1,0,0:0:0:0:
192,192,165883,1,0,0:0:0:40:kickku.wav
448,192,165883,1,0,0:0:0:40:snare.wav
64,192,165989,1,0,0:0:0:0:
192,192,166094,1,0,0:0:0:0:
448,192,166200,1,0,0:0:0:0:
64,192,166306,128,0,167151:0:0:0:0:
192,192,166306,1,0,0:0:0:40:kickku.wav
448,192,166411,1,0,0:0:0:0:
320,192,166517,1,0,0:0:0:0:
192,192,166623,1,0,0:0:0:0:
320,192,166728,1,0,0:0:0:40:kickku.wav
448,192,166728,1,0,0:0:0:40:snare.wav
192,192,166834,1,0,0:0:0:0:
448,192,166939,1,0,0:0:0:0:
320,192,167045,1,0,0:0:0:0:
192,192,167151,128,0,167996:0:0:0:0:
448,192,167151,1,0,0:0:0:40:kickku.wav
320,192,167203,1,0,0:0:0:0:
64,192,167256,1,0,0:0:0:0:
320,192,167362,1,0,0:0:0:0:
448,192,167468,1,0,0:0:0:0:
320,192,167573,1,0,0:0:0:40:kickku.wav
64,192,167573,1,0,0:0:0:40:snare.wav
448,192,167679,1,0,0:0:0:0:
64,192,167784,1,0,0:0:0:0:
320,192,167890,1,0,0:0:0:0:
448,192,167996,1,0,0:0:0:40:kickku.wav
64,192,167996,1,0,0:0:0:0:
320,192,168049,1,0,0:0:0:0:
192,192,168101,1,0,0:0:0:0:
64,192,168207,1,0,0:0:0:0:
320,192,168207,1,0,0:0:0:0:
192,192,168313,1,0,0:0:0:0:
448,192,168313,1,0,0:0:0:0:
64,192,168418,1,0,0:0:0:40:snare.wav
320,192,168418,1,0,0:0:0:40:kickku.wav
448,192,168524,1,0,0:0:0:0:
64,192,168630,1,0,0:0:0:0:
320,192,168630,1,0,0:0:0:0:
192,192,168735,1,0,0:0:0:0:
320,192,168841,1,0,0:0:0:40:kickku.wav
448,192,168841,1,0,0:0:0:0:
64,192,168946,1,0,0:0:0:0:
192,192,169052,1,0,0:0:0:0:
320,192,169158,1,0,0:0:0:0:
192,192,169263,1,0,0:0:0:40:snare.wav
448,192,169263,1,0,0:0:0:40:kickku.wav
320,192,169369,1,0,0:0:0:0:
192,192,169475,1,0,0:0:0:0:
64,192,169580,1,0,0:0:0:0:
320,192,169686,1,0,0:0:0:0:
448,192,169686,1,0,0:0:0:40:kickku.wav
192,192,169792,1,0,0:0:0:0:
64,192,169897,1,0,0:0:0:0:
192,192,170003,1,0,0:0:0:0:
320,192,170108,1,0,0:0:0:40:kickku.wav
448,192,170108,1,0,0:0:0:40:snare.wav
64,192,170214,1,0,0:0:0:0:
192,192,170320,1,0,0:0:0:0:
64,192,170425,1,0,0:0:0:0:
320,192,170531,1,0,0:0:0:40:kickku.wav
448,192,170531,1,0,0:0:0:0:
192,192,170584,1,0,0:0:0:0:
64,192,170637,1,0,0:0:0:0:
192,192,170742,128,0,170848:0:0:0:0:
448,192,170742,1,0,0:0:0:0:
64,192,170848,128,0,170953:0:0:0:0:
320,192,170848,1,0,0:0:0:0:
192,192,170953,128,0,171059:0:0:0:40:snare.wav
448,192,170953,1,0,0:0:0:40:kickku.wav
320,192,171059,128,0,171165:0:0:0:0:
64,192,171059,1,0,0:0:0:0:
192,192,171165,1,0,0:0:0:40:kickku.wav
448,192,171165,128,0,171270:0:0:0:40:snare.wav
320,192,171270,128,0,171376:0:0:0:0:
64,192,171270,1,0,0:0:0:0:
64,192,171376,1,0,0:0:0:40:finish low.wav
192,192,171376,1,0,0:0:0:40:kickku.wav
448,192,171376,1,0,0:0:0:40:snare.wav
320,192,171482,1,0,0:0:0:0:
192,192,171587,1,0,0:0:0:0:
320,192,171693,1,0,0:0:0:0:
192,192,171799,1,0,0:0:0:40:snare.wav
64,192,171799,1,0,0:0:0:40:kickku.wav
448,192,171799,1,0,0:0:0:0:
320,192,171904,1,0,0:0:0:0:
192,192,172010,1,0,0:0:0:0:
64,192,172115,1,0,0:0:0:0:
192,192,172221,1,0,0:0:0:0:
320,192,172221,1,0,0:0:0:40:snare.wav
448,192,172221,1,0,0:0:0:40:kickku.wav
64,192,172327,1,0,0:0:0:0:
192,192,172432,1,0,0:0:0:0:
320,192,172538,1,0,0:0:0:0:
192,192,172644,1,0,0:0:0:40:snare.wav
448,192,172644,1,0,0:0:0:0:
64,192,172644,1,0,0:0:0:40:kickku.wav
320,192,172749,1,0,0:0:0:0:
64,192,172855,1,0,0:0:0:0:
192,192,172961,1,0,0:0:0:0:
320,192,173066,1,0,0:0:0:40:snare.wav
448,192,173066,1,0,0:0:0:40:kickku.wav
64,192,173066,1,0,0:0:0:0:
192,192,173172,1,0,0:0:0:0:
448,192,173277,1,0,0:0:0:0:
320,192,173383,1,0,0:0:0:0:
192,192,173489,1,0,0:0:0:40:snare.wav
64,192,173489,1,0,0:0:0:40:kickku.wav
448,192,173489,1,0,0:0:0:0:
320,192,173594,1,0,0:0:0:0:
448,192,173700,1,0,0:0:0:0:
64,192,173806,1,0,0:0:0:0:
192,192,173911,1,0,0:0:0:0:
320,192,173911,1,0,0:0:0:40:snare.wav
448,192,173911,1,0,0:0:0:40:kickku.wav
64,192,174017,1,0,0:0:0:0:
192,192,174123,1,0,0:0:0:0:
320,192,174228,1,0,0:0:0:0:
192,192,174334,1,0,0:0:0:40:snare.wav
64,192,174334,1,0,0:0:0:40:kickku.wav
448,192,174334,1,0,0:0:0:0:
320,192,174439,1,0,0:0:0:0:
64,192,174439,1,0,0:0:0:0:
192,192,174545,1,0,0:0:0:0:
448,192,174545,1,0,0:0:0:0:
320,192,174651,1,0,0:0:0:0:
192,192,174756,1,0,0:0:0:40:snare.wav
64,192,174756,1,0,0:0:0:40:kickku.wav
448,192,174756,1,0,0:0:0:0:
320,192,174862,1,0,0:0:0:0:
192,192,174968,1,0,0:0:0:0:
64,192,175073,1,0,0:0:0:0:
192,192,175179,1,0,0:0:0:0:
448,192,175179,1,0,0:0:0:40:kickku.wav
320,192,175179,1,0,0:0:0:40:snare.wav
64,192,175284,1,0,0:0:0:0:
192,192,175390,1,0,0:0:0:0:
320,192,175496,1,0,0:0:0:0:
192,192,175601,1,0,0:0:0:40:snare.wav
64,192,175601,1,0,0:0:0:40:kickku.wav
448,192,175601,1,0,0:0:0:0:
320,192,175707,1,0,0:0:0:0:
192,192,175813,1,0,0:0:0:0:
64,192,175918,1,0,0:0:0:0:
192,192,176024,1,0,0:0:0:0:
320,192,176024,1,0,0:0:0:40:snare.wav
448,192,176024,1,0,0:0:0:40:kickku.wav
64,192,176130,1,0,0:0:0:0:
320,192,176235,1,0,0:0:0:0:
448,192,176341,1,0,0:0:0:0:
320,192,176446,1,0,0:0:0:40:snare.wav
192,192,176446,1,0,0:0:0:40:kickku.wav
64,192,176446,1,0,0:0:0:0:
448,192,176552,1,0,0:0:0:0:
192,192,176658,1,0,0:0:0:0:
448,192,176763,1,0,0:0:0:0:
320,192,176869,1,0,0:0:0:0:
192,192,176869,1,0,0:0:0:40:snare.wav
64,192,176869,1,0,0:0:0:40:kickku.wav
448,192,176975,1,0,0:0:0:0:
320,192,177080,1,0,0:0:0:0:
64,192,177186,1,0,0:0:0:0:
320,192,177292,1,0,0:0:0:40:snare.wav
448,192,177292,1,0,0:0:0:40:kickku.wav
192,192,177292,1,0,0:0:0:0:
64,192,177397,1,0,0:0:0:0:
192,192,177503,1,0,0:0:0:0:
448,192,177503,1,0,0:0:0:0:
64,192,177608,1,0,0:0:0:0:
320,192,177608,1,0,0:0:0:0:
192,192,177714,1,0,0:0:0:40:snare.wav
320,192,177714,1,0,0:0:0:0:
448,192,177714,1,0,0:0:0:40:kickku.wav
64,192,177820,1,0,0:0:0:0:
320,192,177925,1,0,0:0:0:40:snareelectro.wav
448,192,177925,1,0,0:0:0:0:
320,192,178031,1,0,0:0:0:40:snareelectro.wav
448,192,178031,1,0,0:0:0:0:
448,192,178137,1,0,0:0:0:0:
64,192,178137,1,0,0:0:0:40:snareelectro.wav
192,192,178137,1,0,0:0:0:40:kickku.wav
320,192,178242,1,0,0:0:0:0:
64,192,178348,1,0,0:0:0:0:kickku.wav
192,192,178348,1,0,0:0:0:40:snareelectro.wav
320,192,178453,1,0,0:0:0:0:
448,192,178559,1,0,0:0:0:40:kickku.wav
192,192,178559,1,0,0:0:0:40:snareelectro.wav
64,192,178665,1,0,0:0:0:0:
192,192,178770,1,0,0:0:0:0:kickku.wav
320,192,178770,1,0,0:0:0:40:snareelectro.wav
448,192,178876,1,0,0:0:0:0:
64,192,178982,1,0,0:0:0:40:kickku.wav
320,192,178982,1,0,0:0:0:40:snareelectro.wav
192,192,179087,1,0,0:0:0:0:
448,192,179193,1,0,0:0:0:40:snareelectro.wav
320,192,179193,1,0,0:0:0:0:kickku.wav
320,192,179299,1,0,0:0:0:0:
448,192,179299,1,0,0:0:0:40:snareelectro.wav
192,192,179404,1,0,0:0:0:40:snareelectro.wav
64,192,179404,1,0,0:0:0:40:kickku.wav
320,192,179510,1,0,0:0:0:0:
448,192,179615,1,0,0:0:0:0:kickku.wav
192,192,179615,1,0,0:0:0:40:snareelectro.wav
64,192,179721,1,0,0:0:0:0:
320,192,179827,1,0,0:0:0:40:snareelectro.wav
448,192,179827,1,0,0:0:0:40:kickku.wav
192,192,179932,1,0,0:0:0:0:
64,192,180038,1,0,0:0:0:40:snareelectro.wav
320,192,180038,1,0,0:0:0:0:kickku.wav
448,192,180144,1,0,0:0:0:0:
320,192,180249,1,0,0:0:0:40:kickku.wav
192,192,180249,1,0,0:0:0:40:snareelectro.wav
64,192,180355,1,0,0:0:0:0:
192,192,180461,1,0,0:0:0:40:snareelectro.wav
448,192,180461,1,0,0:0:0:0:kickku.wav
320,192,180566,1,0,0:0:0:0:
64,192,180672,1,0,0:0:0:40:kickku.wav
448,192,180672,1,0,0:0:0:40:snareelectro.wav
192,192,180725,1,0,0:0:0:0:
320,192,180777,1,0,0:0:0:0:
192,192,180883,1,0,0:0:0:40:snareelectro.wav
64,192,180883,1,0,0:0:0:40:kickku.wav
64,192,180989,1,0,0:0:0:0:
192,192,180989,1,0,0:0:0:40:snareelectro.wav
320,192,181094,1,0,0:0:0:40:snareelectro.wav
448,192,181094,1,0,0:0:0:40:kickku.wav
320,192,181200,1,0,0:0:0:40:snareelectro.wav
448,192,181200,1,0,0:0:0:0:
192,192,181306,1,0,0:0:0:40:snareelectro.wav
64,192,181306,1,0,0:0:0:40:kickku.wav
64,192,181411,1,0,0:0:0:0:
192,192,181411,1,0,0:0:0:40:snareelectro.wav
320,192,181517,1,0,0:0:0:40:snareelectro.wav
448,192,181517,1,0,0:0:0:40:kickku.wav
192,192,181570,1,0,0:0:0:0:
64,192,181623,1,0,0:0:0:0:
192,192,181728,1,0,0:0:0:0:
320,192,181834,1,0,0:0:0:0:
192,192,181939,1,0,0:0:0:40:kickku.wav
448,192,181939,1,0,0:0:0:0:
320,192,182045,1,0,0:0:0:0:
64,192,182151,1,0,0:0:0:0:
192,192,182256,1,0,0:0:0:0:
320,192,182362,1,0,0:0:0:40:snareelectro.wav
448,192,182362,1,0,0:0:0:40:kickku.wav
192,192,182468,1,0,0:0:0:40:snareelectro.wav
64,192,182468,1,0,0:0:0:0:
320,192,182573,1,0,0:0:0:40:snareelectro.wav
448,192,182573,1,0,0:0:0:0:
192,192,182679,1,0,0:0:0:40:snareelectro.wav
64,192,182679,1,0,0:0:0:0:
320,192,182784,1,0,0:0:0:40:snareelectro.wav
448,192,182784,1,0,0:0:0:40:kickku.wav
192,192,182890,1,0,0:0:0:40:snareelectro.wav
64,192,182890,1,0,0:0:0:0:
320,192,182996,1,0,0:0:0:40:snareelectro.wav
448,192,182996,1,0,0:0:0:0:
192,192,183101,1,0,0:0:0:40:snareelectro.wav
64,192,183101,1,0,0:0:0:0:
320,192,183207,1,0,0:0:0:40:snareelectro.wav
448,192,183207,1,0,0:0:0:40:kickku.wav
448,192,183313,1,0,0:0:0:40:snareelectro.wav
320,192,183313,1,0,0:0:0:0:
192,192,183418,1,0,0:0:0:0:
64,192,183418,1,0,0:0:0:40:snareelectro.wav
192,192,183524,1,0,0:0:0:40:snareelectro.wav
64,192,183524,1,0,0:0:0:0:
320,192,183630,1,0,0:0:0:40:snareelectro.wav
448,192,183630,1,0,0:0:0:40:kickku.wav
448,192,183735,1,0,0:0:0:40:snareelectro.wav
320,192,183735,1,0,0:0:0:0:
192,192,183841,1,0,0:0:0:0:
64,192,183841,1,0,0:0:0:40:snareelectro.wav
192,192,183946,1,0,0:0:0:40:snareelectro.wav
64,192,183946,1,0,0:0:0:0:
448,192,184052,1,0,0:0:0:40:kickku.wav
320,192,184052,1,0,0:0:0:40:snareelectro.wav
64,192,184105,1,0,0:0:0:40:snareelectro.wav
192,192,184158,1,0,0:0:0:40:snareelectro.wav
320,192,184211,1,0,0:0:0:40:snareelectro.wav
64,192,184263,1,0,0:0:0:40:snareelectro.wav
192,192,184263,1,0,0:0:0:0:
320,192,184369,1,0,0:0:0:40:snareelectro.wav
448,192,184369,1,0,0:0:0:0:
192,192,184475,1,0,0:0:0:40:snareelectro.wav
64,192,184475,1,0,0:0:0:40:kickku.wav
448,192,184527,1,0,0:0:0:40:snareelectro.wav
320,192,184580,1,0,0:0:0:40:snareelectro.wav
192,192,184633,1,0,0:0:0:40:snareelectro.wav
320,192,184686,1,0,0:0:0:40:snareelectro.wav
448,192,184686,1,0,0:0:0:0:
192,192,184792,1,0,0:0:0:40:snareelectro.wav
64,192,184792,1,0,0:0:0:0:
64,192,184897,1,0,0:0:0:0:
448,192,184897,1,0,0:0:0:40:kickku.wav
320,192,184897,1,0,0:0:0:50:finish.wav
192,192,184897,128,0,185742:0:0:0:0:
448,192,185003,1,0,0:0:0:0:
64,192,185108,1,0,0:0:0:0:
320,192,185214,1,0,0:0:0:0:
448,192,185320,1,0,0:0:0:40:kickku.wav
64,192,185320,128,0,185742:0:0:0:40:snare.wav
320,192,185425,1,0,0:0:0:0:
448,192,185531,1,0,0:0:0:0:
320,192,185637,1,0,0:0:0:0:
448,192,185742,128,0,186165:0:0:0:40:kickku.wav
192,192,185848,1,0,0:0:0:0:
64,192,185953,1,0,0:0:0:0:
320,192,186059,1,0,0:0:0:0:
192,192,186165,1,0,0:0:0:40:kickku.wav
64,192,186165,128,0,186376:0:0:0:40:snare.wav
448,192,186270,1,0,0:0:0:0:
192,192,186376,128,0,186587:0:0:0:0:
320,192,186376,1,0,0:0:0:0:
448,192,186482,1,0,0:0:0:0:
448,192,186587,1,0,0:0:0:50:finish.wav
320,192,186587,128,0,187432:0:0:0:0:
64,192,186587,1,0,0:0:0:40:kickku.wav
64,192,186799,1,0,0:0:0:0:
64,192,186904,1,0,0:0:0:0:
448,192,187010,128,0,187432:0:0:0:40:snare.wav
192,192,187010,1,0,0:0:0:40:kickku.wav
192,192,187221,1,0,0:0:0:0:
192,192,187327,1,0,0:0:0:0:
64,192,187432,128,0,187855:0:0:0:40:kickku.wav
320,192,187644,1,0,0:0:0:0:
320,192,187749,1,0,0:0:0:0:
192,192,187855,1,0,0:0:0:40:kickku.wav
448,192,187855,1,0,0:0:0:40:snare.wav
64,192,188066,1,0,0:0:0:0:
64,192,188172,1,0,0:0:0:0:
320,192,188277,1,0,0:0:0:0:
448,192,188277,1,0,0:0:0:0:
64,192,188277,1,0,0:0:0:50:finish.wav
192,192,188277,1,0,0:0:0:40:kickku.wav
448,192,188489,1,0,0:0:0:0:
448,192,188594,1,0,0:0:0:0:
64,192,188700,1,0,0:0:0:40:snare.wav
320,192,188700,1,0,0:0:0:40:kickku.wav
448,192,188806,1,0,0:0:0:0:
192,192,188911,1,0,0:0:0:0:
192,192,189017,1,0,0:0:0:0:
192,192,189123,1,0,0:0:0:40:kickku.wav
448,192,189123,1,0,0:0:0:0:
320,192,189123,1,0,0:0:0:50:finish.wav
64,192,189123,1,0,0:0:0:0:
320,192,189334,1,0,0:0:0:0:
320,192,189439,1,0,0:0:0:0:
192,192,189545,1,0,0:0:0:40:kickku.wav
448,192,189545,1,0,0:0:0:40:snare.wav
64,192,189756,1,0,0:0:0:0:
64,192,189862,1,0,0:0:0:0:
64,192,189968,1,0,0:0:0:50:finish.wav
192,192,189968,1,0,0:0:0:40:kickku.wav
320,192,189968,1,0,0:0:0:0:
448,192,189968,1,0,0:0:0:0:
448,192,190073,1,0,0:0:0:0:
192,192,190179,1,0,0:0:0:0:
192,192,190284,1,0,0:0:0:0:
448,192,190390,1,0,0:0:0:40:kickku.wav
64,192,190390,1,0,0:0:0:0:
320,192,190390,1,0,0:0:0:40:finish low.wav
320,192,190496,1,0,0:0:0:0:
64,192,190601,1,0,0:0:0:0:
64,192,190707,1,0,0:0:0:0:
192,192,190813,1,0,0:0:0:0:
320,192,190813,1,0,0:0:0:40:finish low.wav
448,192,190813,1,0,0:0:0:40:kickku.wav
64,192,191024,1,0,0:0:0:0:
448,192,191024,1,0,0:0:0:40:kickku.wav
320,192,191130,1,0,0:0:0:40:kickku.wav
192,192,191130,1,0,0:0:0:0:
448,192,191235,128,0,191446:0:0:0:0:
192,192,191235,1,0,0:0:0:40:kickku.wav
64,192,191235,1,0,0:0:0:40:snare.wav
320,192,191446,128,0,191658:0:0:0:0:
192,192,191446,1,0,0:0:0:40:kickku.wav
64,192,191446,1,0,0:0:0:0:
64,192,191658,1,0,0:0:0:0:
448,192,191658,1,0,0:0:0:40:kickku.wav
192,192,191658,1,0,0:0:0:50:finish.wav
320,192,191763,1,0,0:0:0:0:
448,192,191869,1,0,0:0:0:0:
320,192,191975,1,0,0:0:0:0:
448,192,192080,128,0,192503:0:0:0:40:snare.wav
64,192,192080,1,0,0:0:0:40:kickku.wav
320,192,192186,1,0,0:0:0:0:
192,192,192292,1,0,0:0:0:0:
64,192,192397,1,0,0:0:0:0:
320,192,192503,128,0,192925:0:0:0:0:
192,192,192503,1,0,0:0:0:40:kickku.wav
448,192,192608,1,0,0:0:0:0:
64,192,192714,1,0,0:0:0:0:
192,192,192820,1,0,0:0:0:0:
192,192,192925,1,0,0:0:0:40:kickku.wav
448,192,192925,1,0,0:0:0:0:
64,192,192925,128,0,193137:0:0:0:40:snare.wav
320,192,193031,1,0,0:0:0:0:
192,192,193137,128,0,193348:0:0:0:0:
448,192,193137,1,0,0:0:0:0:
320,192,193242,1,0,0:0:0:0:
64,192,193348,1,0,0:0:0:0:
320,192,193348,1,0,0:0:0:50:finish.wav
448,192,193348,1,0,0:0:0:40:kickku.wav
192,192,193453,1,0,0:0:0:0:
320,192,193559,1,0,0:0:0:0:
448,192,193665,1,0,0:0:0:0:
64,192,193770,128,0,194193:0:0:0:40:snare.wav
320,192,193770,1,0,0:0:0:40:kickku.wav
192,192,193876,1,0,0:0:0:0:
320,192,193982,1,0,0:0:0:0:
448,192,194087,1,0,0:0:0:0:
192,192,194193,128,0,194615:0:0:0:0:
320,192,194193,1,0,0:0:0:40:kickku.wav
448,192,194299,1,0,0:0:0:0:
320,192,194404,1,0,0:0:0:0:
64,192,194510,1,0,0:0:0:0:
320,192,194615,1,0,0:0:0:40:kickku.wav
448,192,194615,128,0,194827:0:0:0:40:snare.wav
64,192,194721,1,0,0:0:0:0:
320,192,194827,128,0,195038:0:0:0:0:
192,192,194932,1,0,0:0:0:0:
64,192,195038,1,0,0:0:0:40:finish.wav
448,192,195038,1,0,0:0:0:0:
320,192,195249,1,0,0:0:0:0:
320,192,195355,1,0,0:0:0:0:
192,192,195461,1,0,0:0:0:40:snare.wav
64,192,195672,1,0,0:0:0:0:
64,192,195777,1,0,0:0:0:0:
192,192,195883,1,0,0:0:0:40:finish.wav
448,192,195883,1,0,0:0:0:0:
448,192,196094,1,0,0:0:0:0:
448,192,196200,1,0,0:0:0:0:
320,192,196306,1,0,0:0:0:40:snare.wav
192,192,196517,1,0,0:0:0:0:
192,192,196623,1,0,0:0:0:0:
448,192,196728,1,0,0:0:0:40:finish.wav
64,192,196728,1,0,0:0:0:40:snare.wav
192,192,196834,1,0,0:0:0:40:snare.wav
320,192,196834,1,0,0:0:0:0:
64,192,196939,1,0,0:0:0:40:snare.wav
448,192,196939,1,0,0:0:0:0:
192,192,197045,1,0,0:0:0:40:snare.wav
320,192,197151,1,0,0:0:0:40:snare.wav
448,192,197151,1,0,0:0:0:0:
192,192,197256,1,0,0:0:0:40:snare.wav
64,192,197256,1,0,0:0:0:0:
320,192,197362,1,0,0:0:0:40:snare.wav
448,192,197362,1,0,0:0:0:0:
192,192,197468,1,0,0:0:0:40:snare.wav
64,192,197468,1,0,0:0:0:0:
320,192,197573,1,0,0:0:0:40:snare.wav
448,192,197573,1,0,0:0:0:0:
192,192,197626,1,0,0:0:0:40:snare.wav
64,192,197679,1,0,0:0:0:40:snare.wav
448,192,197732,1,0,0:0:0:40:snare.wav
320,192,197784,1,0,0:0:0:40:snare.wav
192,192,197784,1,0,0:0:0:0:
64,192,197890,1,0,0:0:0:40:snare.wav
448,192,197890,1,0,0:0:0:0:
192,192,197996,1,0,0:0:0:40:snare.wav
320,192,197996,1,0,0:0:0:0:
64,192,198101,1,0,0:0:0:40:snare.wav
448,192,198101,1,0,0:0:0:0:
320,192,198207,1,0,0:0:0:0:
192,192,198207,1,0,0:0:0:40:snare.wav
64,192,198313,1,0,0:0:0:40:snare.wav
448,192,198313,1,0,0:0:0:0:
64,192,198418,1,0,0:0:0:0:
448,192,198418,1,0,0:0:0:0:
320,192,198418,1,0,0:0:0:50:finish.wav
192,192,198418,128,0,205179:0:0:0:0:
64,192,205179,5,0,0:0:0:40:bong hi.wav
320,192,205179,1,0,0:0:0:0:
192,192,205390,1,0,0:0:0:0:
320,192,205496,1,0,0:0:0:40:bong low.wav
448,192,205496,1,0,0:0:0:0:
192,192,205601,1,0,0:0:0:0:
64,192,205813,1,0,0:0:0:0:
320,192,205813,1,0,0:0:0:40:bong low.wav
64,192,206024,1,0,0:0:0:0:
192,192,206024,1,0,0:0:0:40:bong hi.wav
320,192,206165,1,0,0:0:0:0:
448,192,206235,1,0,0:0:0:0:
320,192,206341,1,0,0:0:0:40:bong low.wav
64,192,206341,1,0,0:0:0:0:
192,192,206446,1,0,0:0:0:0:
192,192,206658,1,0,0:0:0:0:
320,192,206658,1,0,0:0:0:40:bong low.wav
64,192,206869,5,0,0:0:0:0:
192,192,206869,1,0,0:0:0:40:bong hi.wav
320,192,207080,1,0,0:0:0:0:
448,192,207186,1,0,0:0:0:0:
192,192,207186,1,0,0:0:0:40:bong low.wav
320,192,207292,1,0,0:0:0:0:
64,192,207503,1,0,0:0:0:0:
192,192,207503,1,0,0:0:0:40:bong low.wav
320,192,207714,1,0,0:0:0:40:bong hi.wav
64,192,207714,1,0,0:0:0:0:
192,192,207855,1,0,0:0:0:0:
448,192,207925,1,0,0:0:0:0:
64,192,208031,1,0,0:0:0:0:
320,192,208031,1,0,0:0:0:40:bong low.wav
192,192,208137,1,0,0:0:0:0:
192,192,208348,1,0,0:0:0:0:
320,192,208348,1,0,0:0:0:40:bong low.wav
448,192,208559,5,0,0:0:0:40:bong hi.wav
320,192,208559,1,0,0:0:0:0:
64,192,208770,1,0,0:0:0:0:
192,192,208876,1,0,0:0:0:40:bong low.wav
320,192,208876,1,0,0:0:0:0:
64,192,208982,1,0,0:0:0:0:
448,192,209193,1,0,0:0:0:0:
320,192,209193,1,0,0:0:0:40:bong low.wav
320,192,209404,1,0,0:0:0:0:
192,192,209404,1,0,0:0:0:40:bong hi.wav
64,192,209545,1,0,0:0:0:0:
192,192,209615,1,0,0:0:0:0:
320,192,209721,1,0,0:0:0:40:bong low.wav
64,192,209721,1,0,0:0:0:0:
448,192,209827,1,0,0:0:0:0:
192,192,210038,1,0,0:0:0:40:bong low.wav
448,192,210038,1,0,0:0:0:0:
64,192,210249,5,0,0:0:0:0:
192,192,210249,1,0,0:0:0:40:bong hi.wav
448,192,210461,1,0,0:0:0:0:
64,192,210566,1,0,0:0:0:0:
320,192,210566,1,0,0:0:0:40:bong low.wav
448,192,210672,1,0,0:0:0:0:
192,192,210883,1,0,0:0:0:40:bong low.wav
64,192,210883,1,0,0:0:0:0:
192,192,211094,1,0,0:0:0:0:
320,192,211094,1,0,0:0:0:40:bong hi.wav
448,192,211235,1,0,0:0:0:0:
192,192,211306,1,0,0:0:0:0:
320,192,211411,1,0,0:0:0:40:bong low.wav
448,192,211411,1,0,0:0:0:0:
64,192,211517,1,0,0:0:0:0:
320,192,211728,1,0,0:0:0:0:
192,192,211728,1,0,0:0:0:40:bong low.wav
448,192,211939,5,0,0:0:0:0:
320,192,211939,1,0,0:0:0:40:bong hi.wav
192,192,212151,1,0,0:0:0:0:
64,192,212256,1,0,0:0:0:40:bong low.wav
320,192,212256,1,0,0:0:0:0:
192,192,212362,1,0,0:0:0:0:
448,192,212573,1,0,0:0:0:0:
320,192,212573,1,0,0:0:0:40:bong low.wav
192,192,212784,1,0,0:0:0:40:bong hi.wav
448,192,212784,1,0,0:0:0:0:
320,192,212925,1,0,0:0:0:0:
64,192,212996,1,0,0:0:0:0:
448,192,213101,1,0,0:0:0:0:
192,192,213101,1,0,0:0:0:40:bong low.wav
320,192,213207,1,0,0:0:0:0:
320,192,213418,1,0,0:0:0:40:bong low.wav
192,192,213418,1,0,0:0:0:0:
64,192,213630,5,0,0:0:0:40:bong hi.wav
192,192,213630,1,0,0:0:0:0:
448,192,213841,1,0,0:0:0:0:
320,192,213946,1,0,0:0:0:40:bong low.wav
192,192,213946,1,0,0:0:0:0:
448,192,214052,1,0,0:0:0:0:
64,192,214263,1,0,0:0:0:0:
192,192,214263,1,0,0:0:0:40:bong low.wav
192,192,214475,1,0,0:0:0:0:
320,192,214475,1,0,0:0:0:40:bong hi.wav
448,192,214615,1,0,0:0:0:0:
320,192,214686,1,0,0:0:0:0:
192,192,214792,1,0,0:0:0:40:bong low.wav
448,192,214792,1,0,0:0:0:0:
64,192,214897,1,0,0:0:0:0:
320,192,215108,1,0,0:0:0:40:bong low.wav
64,192,215108,1,0,0:0:0:0:
448,192,215320,5,0,0:0:0:40:bong hi.wav
320,192,215320,1,0,0:0:0:0:
192,192,215531,1,0,0:0:0:0:
320,192,215637,1,0,0:0:0:40:bong low.wav
64,192,215637,1,0,0:0:0:0:
192,192,215742,1,0,0:0:0:0:
320,192,215953,1,0,0:0:0:40:bong low.wav
448,192,215953,1,0,0:0:0:0:
448,192,216165,1,0,0:0:0:0:
192,192,216165,1,0,0:0:0:40:bong hi.wav
320,192,216306,1,0,0:0:0:0:
64,192,216376,1,0,0:0:0:0:
192,192,216482,1,0,0:0:0:40:bong low.wav
448,192,216482,1,0,0:0:0:0:
320,192,216587,1,0,0:0:0:0:
192,192,216799,1,0,0:0:0:0:
320,192,216799,1,0,0:0:0:40:bong low.wav
64,192,217010,5,0,0:0:0:0:
192,192,217010,1,0,0:0:0:40:bong hi.wav
448,192,217221,1,0,0:0:0:0:
192,192,217327,1,0,0:0:0:0:
320,192,217327,1,0,0:0:0:40:bong low.wav
448,192,217432,1,0,0:0:0:0:
192,192,217644,1,0,0:0:0:40:bong low.wav
64,192,217644,1,0,0:0:0:0:
320,192,217855,1,0,0:0:0:40:bong hi.wav
192,192,217855,1,0,0:0:0:0:
448,192,217996,1,0,0:0:0:0:
320,192,218066,1,0,0:0:0:0:
448,192,218172,1,0,0:0:0:0:
192,192,218172,1,0,0:0:0:40:bong low.wav
64,192,218277,1,0,0:0:0:0:
64,192,218489,1,0,0:0:0:0:
320,192,218489,1,0,0:0:0:40:bong low.wav
192,192,218700,1,0,0:0:0:40:bong hi.wav
320,192,218700,1,0,0:0:0:0:
448,192,218911,1,0,0:0:0:0:
192,192,219017,1,0,0:0:0:40:bong low.wav
64,192,219017,1,0,0:0:0:0:
448,192,219123,1,0,0:0:0:0:
192,192,219334,1,0,0:0:0:0:
320,192,219334,1,0,0:0:0:40:bong low.wav
64,192,219545,1,0,0:0:0:0:
320,192,219545,1,0,0:0:0:40:bong hi.wav
192,192,219686,1,0,0:0:0:0:
320,192,219756,1,0,0:0:0:0:
448,192,219862,1,0,0:0:0:0:
192,192,219862,1,0,0:0:0:40:bong low.wav
64,192,219968,1,0,0:0:0:0:
192,192,220179,1,0,0:0:0:40:bong low.wav
64,192,220179,1,0,0:0:0:0:
192,192,220390,1,0,0:0:0:40:bong hi.wav
320,192,220390,1,0,0:0:0:0:
448,192,220601,1,0,0:0:0:0:
192,192,220707,1,0,0:0:0:40:bong low.wav
64,192,220707,1,0,0:0:0:0:
448,192,220813,1,0,0:0:0:0:
320,192,221024,1,0,0:0:0:40:bong low.wav
64,192,221024,1,0,0:0:0:0:
320,192,221235,1,0,0:0:0:40:bong hi.wav
448,192,221235,1,0,0:0:0:0:
192,192,221376,1,0,0:0:0:0:
64,192,221446,1,0,0:0:0:0:
192,192,221552,1,0,0:0:0:40:bong low.wav
320,192,221552,1,0,0:0:0:0:
448,192,221658,1,0,0:0:0:0:
192,192,221869,1,0,0:0:0:40:bong low.wav
448,192,221869,1,0,0:0:0:0:
64,192,222080,128,0,225461:0:0:0:0:
192,192,222080,1,0,0:0:0:0:
320,192,222080,1,0,0:0:0:40:bong hi.wav
320,192,222292,1,0,0:0:0:0:
192,192,222397,1,0,0:0:0:0:
448,192,222397,1,0,0:0:0:40:bong low.wav
320,192,222503,1,0,0:0:0:0:
192,192,222714,1,0,0:0:0:0:
320,192,222714,1,0,0:0:0:40:bong low.wav
192,192,222925,1,0,0:0:0:0:
448,192,222925,1,0,0:0:0:40:bong hi.wav
320,192,223066,1,0,0:0:0:0:
448,192,223137,1,0,0:0:0:0:
320,192,223242,1,0,0:0:0:40:bong low.wav
192,192,223242,1,0,0:0:0:0:
448,192,223348,1,0,0:0:0:0:
192,192,223559,1,0,0:0:0:0:
448,192,223559,1,0,0:0:0:40:bong low.wav
192,192,223770,1,0,0:0:0:0:
320,192,223770,1,0,0:0:0:40:bong hi.wav
320,192,223982,1,0,0:0:0:0:
192,192,224087,1,0,0:0:0:40:bong low.wav
448,192,224087,1,0,0:0:0:0:
320,192,224193,1,0,0:0:0:0:
192,192,224404,1,0,0:0:0:0:
320,192,224404,1,0,0:0:0:40:bong low.wav
192,192,224615,1,0,0:0:0:0:
448,192,224615,1,0,0:0:0:40:bong hi.wav
320,192,224756,1,0,0:0:0:0:
448,192,224827,1,0,0:0:0:0:
320,192,224932,1,0,0:0:0:40:bong low.wav
192,192,224932,1,0,0:0:0:0:
448,192,225038,1,0,0:0:0:0:
448,192,225249,1,0,0:0:0:0:
320,192,225249,1,0,0:0:0:40:bong low.wav
192,192,225461,1,0,0:0:0:40:bong hi.wav
320,192,225461,1,0,0:0:0:0:
448,192,225672,1,0,0:0:0:0:
320,192,225777,1,0,0:0:0:40:bong low.wav
64,192,225777,1,0,0:0:0:0:
448,192,225883,1,0,0:0:0:0:
192,192,226094,1,0,0:0:0:40:bong low.wav
320,192,226094,1,0,0:0:0:0:
64,192,226306,1,0,0:0:0:0:
192,192,226306,1,0,0:0:0:40:bong hi.wav
320,192,226446,1,0,0:0:0:0:
448,192,226517,1,0,0:0:0:0:
64,192,226623,1,0,0:0:0:0:
320,192,226623,1,0,0:0:0:40:bong low.wav
192,192,226728,1,0,0:0:0:0:
192,192,226939,1,0,0:0:0:0:
320,192,226939,1,0,0:0:0:40:bong low.wav
64,192,227151,1,0,0:0:0:0:
320,192,227151,1,0,0:0:0:40:bong hi.wav
192,192,227362,1,0,0:0:0:0:
448,192,227468,1,0,0:0:0:0:
320,192,227468,1,0,0:0:0:40:bong low.wav
192,192,227573,1,0,0:0:0:0:
64,192,227784,1,0,0:0:0:0:
320,192,227784,1,0,0:0:0:40:bong low.wav
192,192,227996,1,0,0:0:0:0:
320,192,227996,1,0,0:0:0:40:bong hi.wav
64,192,228137,1,0,0:0:0:0:
192,192,228207,1,0,0:0:0:0:
320,192,228313,1,0,0:0:0:40:bong low.wav
64,192,228313,1,0,0:0:0:0:
448,192,228418,1,0,0:0:0:0:
192,192,228630,1,0,0:0:0:0:
448,192,228630,1,0,0:0:0:40:bong low.wav
64,192,228841,1,0,0:0:0:0:
320,192,228841,1,0,0:0:0:40:bong hi.wav
192,192,229052,1,0,0:0:0:0:
448,192,229158,1,0,0:0:0:40:bong low.wav
64,192,229158,1,0,0:0:0:0:
320,192,229263,1,0,0:0:0:0:
192,192,229475,1,0,0:0:0:40:bong low.wav
448,192,229475,1,0,0:0:0:0:
64,192,229686,1,0,0:0:0:0:
192,192,229686,1,0,0:0:0:40:bong hi.wav
320,192,229827,1,0,0:0:0:0:
448,192,229897,1,0,0:0:0:0:
64,192,230003,1,0,0:0:0:0:
320,192,230003,1,0,0:0:0:40:bong low.wav
192,192,230108,1,0,0:0:0:0:
192,192,230320,1,0,0:0:0:40:bong low.wav
320,192,230320,1,0,0:0:0:0:
64,192,230531,1,0,0:0:0:0:
320,192,230531,1,0,0:0:0:40:bong hi.wav
192,192,230742,1,0,0:0:0:0:
448,192,230848,1,0,0:0:0:0:
320,192,230848,1,0,0:0:0:40:bong low.wav
192,192,230953,1,0,0:0:0:0:
64,192,231165,1,0,0:0:0:0:
320,192,231165,1,0,0:0:0:40:bong low.wav
192,192,231376,1,0,0:0:0:0:
320,192,231376,1,0,0:0:0:40:bong hi.wav
64,192,231517,1,0,0:0:0:0:
192,192,231587,1,0,0:0:0:0:
320,192,231693,1,0,0:0:0:40:bong low.wav
64,192,231693,1,0,0:0:0:0:
448,192,231799,1,0,0:0:0:0:
192,192,232010,1,0,0:0:0:40:bong low.wav
448,192,232010,1,0,0:0:0:0:
448,192,232221,128,0,235601:0:0:0:0:
320,192,233779,128,0,234545:0:0:0:0:
64,192,234545,128,0,234651:0:0:0:0:
192,192,234545,128,0,234651:0:0:0:0:
192,192,234756,1,0,0:0:0:0:
64,192,234756,1,0,0:0:0:0:
192,192,234968,1,0,0:0:0:0:
64,192,234968,1,0,0:0:0:0:
192,192,235179,1,0,0:0:0:0:
64,192,235179,1,0,0:0:0:0:
192,192,235390,1,0,0:0:0:0:
64,192,235390,1,0,0:0:0:0:
64,192,235601,128,0,236024:0:0:0:0:
320,192,235813,128,0,236024:0:0:0:0:
448,192,236024,128,0,236446:0:0:0:0:
192,192,236235,128,0,236446:0:0:0:0:
64,192,236446,128,0,236869:0:0:0:0:
320,192,236658,128,0,236869:0:0:0:0:
448,192,236869,128,0,237292:0:0:0:0:
192,192,237080,128,0,237292:0:0:0:0:
64,192,237292,128,0,237714:0:0:0:0:
320,192,237503,128,0,237714:0:0:0:0:
448,192,237714,128,0,238137:0:0:0:0:
192,192,237925,128,0,238137:0:0:0:0:
64,192,238137,128,0,238559:0:0:0:0:
320,192,238348,128,0,238559:0:0:0:0:
448,192,238559,128,0,238982:0:0:0:0:
192,192,238770,128,0,238982:0:0:0:0:
64,192,238982,128,0,239404:0:0:0:0:
320,192,239193,128,0,239404:0:0:0:0:
448,192,239404,128,0,239827:0:0:0:0:
192,192,239615,128,0,239827:0:0:0:0:
64,192,239827,128,0,240249:0:0:0:0:
320,192,240038,128,0,240249:0:0:0:0:
448,192,240249,128,0,240672:0:0:0:0:
192,192,240461,128,0,240672:0:0:0:0:
192,192,242362,128,0,242636:0:0:0:0:
320,192,242636,128,0,242727:0:0:0:0:
448,192,242636,128,0,242727:0:0:0:0:
320,192,242909,128,0,243000:0:0:0:0:
448,192,242909,128,0,243000:0:0:0:0:
192,192,243182,128,0,243364:0:0:0:0:
64,192,243454,128,0,243727:0:0:0:0:
192,192,243727,128,0,243818:0:0:0:0:
320,192,243727,128,0,243818:0:0:0:0:
192,192,244000,128,0,244091:0:0:0:0:
320,192,244000,128,0,244091:0:0:0:0:
448,192,244273,1,0,0:0:0:0:
64,192,244375,1,0,0:0:0:0:
320,192,244477,1,0,0:0:0:0:
192,192,244545,128,0,244818:0:0:0:0:
320,192,244818,128,0,244909:0:0:0:0:
448,192,244818,128,0,244909:0:0:0:0:
64,192,245091,128,0,245364:0:0:0:0:
192,192,245364,128,0,245454:0:0:0:0:
320,192,245364,128,0,245454:0:0:0:0:
192,192,245636,128,0,245909:0:0:0:0:
320,192,245909,128,0,246000:0:0:0:0:
448,192,245909,128,0,246000:0:0:0:0:
320,192,246182,128,0,246273:0:0:0:0:
448,192,246182,128,0,246273:0:0:0:0:
192,192,246454,1,0,0:0:0:0:
64,192,246591,1,0,0:0:0:0:
320,192,246727,128,0,247000:0:0:0:0:
448,192,247000,128,0,247091:0:0:0:0:
192,192,247000,128,0,247091:0:0:0:0:
192,192,247273,128,0,247364:0:0:0:0:
448,192,247273,128,0,247364:0:0:0:0:
320,192,247545,128,0,247682:0:0:0:0:
192,192,247682,1,0,0:0:0:0:
64,192,247750,1,0,0:0:0:0:
192,192,247818,128,0,248091:0:0:0:0:
320,192,248091,128,0,248182:0:0:0:0:
64,192,248091,128,0,248182:0:0:0:0:
320,192,248364,128,0,248454:0:0:0:0:
64,192,248364,128,0,248454:0:0:0:0:
192,192,248636,1,0,0:0:0:0:
320,192,248727,1,0,0:0:0:0:
448,192,248818,1,0,0:0:0:0:
320,192,248909,128,0,249182:0:0:0:0:
448,192,249182,128,0,249273:0:0:0:0:
192,192,249182,128,0,249273:0:0:0:0:
192,192,249454,128,0,249727:0:0:0:0:
320,192,249727,128,0,249818:0:0:0:0:
64,192,249727,128,0,249818:0:0:0:0:
320,192,250000,128,0,251091:0:0:0:0:
448,192,251636,128,0,252045:0:0:0:0:
192,192,251636,128,0,252045:0:0:0:0:
320,192,251636,128,0,252045:0:0:0:0:
448,192,252182,128,0,252591:0:0:0:0:
192,192,252182,128,0,252591:0:0:0:0:
64,192,252182,128,0,252591:0:0:0:0:
192,192,252727,128,0,253136:0:0:0:0:
320,192,252727,128,0,253136:0:0:0:0:
64,192,252727,128,0,253136:0:0:0:0:
192,192,253273,128,0,253545:0:0:0:0:
320,192,253545,128,0,253636:0:0:0:0:
448,192,253545,128,0,253636:0:0:0:0:
448,192,253818,128,0,253909:0:0:0:0:
320,192,253818,128,0,253909:0:0:0:0:
192,192,254091,128,0,254273:0:0:0:0:
64,192,254364,128,0,254636:0:0:0:0:
192,192,254636,128,0,254727:0:0:0:0:
448,192,254636,128,0,254727:0:0:0:0:
192,192,254909,128,0,255000:0:0:0:0:
448,192,254909,128,0,255000:0:0:0:0:
448,192,255182,1,0,0:0:0:0:
64,192,255273,1,0,0:0:0:0:
320,192,255364,1,0,0:0:0:0:
192,192,255454,128,0,255727:0:0:0:0:
320,192,255727,128,0,255818:0:0:0:0:
448,192,255727,128,0,255818:0:0:0:0:
64,192,256000,128,0,256273:0:0:0:0:
192,192,256273,128,0,256364:0:0:0:0:
448,192,256273,128,0,256364:0:0:0:0:
192,192,256545,128,0,256818:0:0:0:0:
320,192,256818,128,0,256909:0:0:0:0:
448,192,256818,128,0,256909:0:0:0:0:
320,192,257091,128,0,257182:0:0:0:0:
448,192,257091,128,0,257182:0:0:0:0:
192,192,257364,1,0,0:0:0:0:
64,192,257500,1,0,0:0:0:0:
448,192,257636,128,0,257909:0:0:0:0:
192,192,257909,128,0,258000:0:0:0:0:
64,192,257909,128,0,258000:0:0:0:0:
64,192,258182,128,0,258273:0:0:0:0:
192,192,258182,128,0,258273:0:0:0:0:
320,192,258454,1,0,0:0:0:0:
192,192,258591,1,0,0:0:0:0:
448,192,258727,128,0,259000:0:0:0:0:
320,192,259000,128,0,259091:0:0:0:0:
192,192,259000,128,0,259091:0:0:0:0:
320,192,259273,128,0,259364:0:0:0:0:
192,192,259273,128,0,259364:0:0:0:0:
64,192,259545,128,0,259682:0:0:0:0:
320,192,259818,128,0,265390:0:0:0:0:
448,192,259818,128,0,263083:0:0:0:0:
192,192,263083,128,0,265390:0:0:0:0:
192,192,268543,128,0,268648:0:0:0:0:
192,192,268965,128,0,269071:0:0:0:0:
320,192,269388,1,0,0:0:0:15:kickku.wav
192,192,269388,128,0,269599:0:0:0:0:
448,192,269388,1,0,0:0:0:0:
448,192,269704,1,0,0:0:0:0:
320,192,269704,1,0,0:0:0:15:kickku.wav
448,192,269810,1,0,0:0:0:0:
320,192,269810,1,0,0:0:0:15:kickku.wav
448,192,270021,1,0,0:0:0:0:
320,192,270021,1,0,0:0:0:15:kickku.wav
320,192,270233,1,0,0:0:0:50:finish.wav
192,192,270233,1,0,0:0:0:40:kickku.wav
64,192,270233,1,0,0:0:0:0:
448,192,270233,1,0,0:0:0:0:
448,192,270338,1,0,0:0:0:0:
64,192,270444,1,0,0:0:0:0:
192,192,270550,1,0,0:0:0:0:
64,192,270655,128,0,271078:0:0:0:0:
448,192,270655,1,0,0:0:0:40:snare.wav
320,192,270655,1,0,0:0:0:40:kickku.wav
192,192,270761,1,0,0:0:0:0:
320,192,270866,1,0,0:0:0:0:
448,192,270972,1,0,0:0:0:0:
192,192,271078,128,0,271500:0:0:0:0:
320,192,271078,1,0,0:0:0:40:kickku.wav
448,192,271078,1,0,0:0:0:0:
64,192,271183,1,0,0:0:0:0:
320,192,271289,1,0,0:0:0:0:
448,192,271395,1,0,0:0:0:0:
64,192,271500,1,0,0:0:0:40:snare.wav
320,192,271500,1,0,0:0:0:40:kickku.wav
192,192,271606,1,0,0:0:0:0:
320,192,271712,1,0,0:0:0:0:
448,192,271817,1,0,0:0:0:0:
448,192,271923,1,0,0:0:0:50:finish.wav
320,192,271923,1,0,0:0:0:0:
192,192,271923,1,0,0:0:0:40:kickku.wav
64,192,271923,1,0,0:0:0:0:
64,192,272028,1,0,0:0:0:0:
448,192,272134,1,0,0:0:0:0:
192,192,272240,1,0,0:0:0:0:
64,192,272345,1,0,0:0:0:40:snare.wav
448,192,272345,128,0,272768:0:0:0:0:
320,192,272345,1,0,0:0:0:40:kickku.wav
192,192,272451,1,0,0:0:0:0:
320,192,272557,1,0,0:0:0:0:
192,192,272662,1,0,0:0:0:0:
64,192,272768,128,0,273190:0:0:0:0:
192,192,272768,1,0,0:0:0:0:
320,192,272768,1,0,0:0:0:40:kickku.wav
448,192,272873,1,0,0:0:0:0:
192,192,272979,1,0,0:0:0:0:
320,192,273085,1,0,0:0:0:0:
192,192,273190,1,0,0:0:0:40:kickku.wav
448,192,273190,1,0,0:0:0:40:snare.wav
320,192,273296,1,0,0:0:0:0:
64,192,273402,1,0,0:0:0:0:
448,192,273507,1,0,0:0:0:0:
448,192,273613,1,0,0:0:0:0:
64,192,273613,1,0,0:0:0:0:
192,192,273613,1,0,0:0:0:50:finish.wav
320,192,273613,1,0,0:0:0:40:kickku.wav
192,192,273719,1,0,0:0:0:0:
320,192,273824,1,0,0:0:0:0:
64,192,273824,1,0,0:0:0:0:
192,192,273930,1,0,0:0:0:0:
448,192,273930,1,0,0:0:0:0:
320,192,274035,1,0,0:0:0:40:kickku.wav
64,192,274035,1,0,0:0:0:40:snare.wav
192,192,274141,1,0,0:0:0:0:
448,192,274247,1,0,0:0:0:0:
320,192,274247,1,0,0:0:0:0:
192,192,274352,1,0,0:0:0:0:
64,192,274352,1,0,0:0:0:0:
320,192,274458,1,0,0:0:0:40:kickku.wav
448,192,274458,1,0,0:0:0:0:
192,192,274458,1,0,0:0:0:50:finish.wav
64,192,274458,1,0,0:0:0:0:
320,192,274564,1,0,0:0:0:0:
192,192,274669,1,0,0:0:0:0:
448,192,274669,1,0,0:0:0:0:
64,192,274775,1,0,0:0:0:0:
320,192,274775,1,0,0:0:0:0:
448,192,274881,1,0,0:0:0:40:snare.wav
192,192,274881,1,0,0:0:0:40:kickku.wav
320,192,274986,1,0,0:0:0:0:
192,192,275092,1,0,0:0:0:0:
64,192,275092,1,0,0:0:0:0:
448,192,275197,1,0,0:0:0:0:
320,192,275197,1,0,0:0:0:0:
192,192,275303,1,0,0:0:0:40:kickku.wav
64,192,275303,1,0,0:0:0:0:
320,192,275303,1,0,0:0:0:50:finish.wav
448,192,275303,1,0,0:0:0:0:
64,192,275409,1,0,0:0:0:0:
320,192,275514,1,0,0:0:0:0:
448,192,275514,128,0,275620:0:0:0:0:
192,192,275620,1,0,0:0:0:0:
64,192,275726,1,0,0:0:0:40:kickku.wav
320,192,275726,1,0,0:0:0:40:finish low.wav
448,192,275726,128,0,275831:0:0:0:0:
192,192,275831,1,0,0:0:0:0:
320,192,275937,1,0,0:0:0:0:
448,192,275937,128,0,276043:0:0:0:0:
64,192,276043,1,0,0:0:0:0:
192,192,276148,1,0,0:0:0:40:kickku.wav
320,192,276148,128,0,276359:0:0:0:40:finish low.wav
448,192,276148,128,0,276359:0:0:0:0:
64,192,276359,128,0,276430:0:0:0:0:
192,192,276359,128,0,276430:0:0:0:0:
448,192,276571,128,0,276641:0:0:0:0:
320,192,276571,128,0,276641:0:0:0:40:snare.wav
64,192,276571,1,0,0:0:0:40:kickku.wav
448,192,276782,1,0,0:0:0:40:kickku.wav
192,192,276782,128,0,276888:0:0:0:40:snare.wav
64,192,276782,128,0,276888:0:0:0:0:
448,192,276993,1,0,0:0:0:0:
192,192,276993,1,0,0:0:0:50:finish.wav
64,192,276993,1,0,0:0:0:40:kickku.wav
320,192,276993,128,0,277099:0:0:0:0:
64,192,277099,128,0,277204:0:0:0:0:
192,192,277204,128,0,277310:0:0:0:0:
320,192,277310,128,0,277416:0:0:0:0:
192,192,277416,1,0,0:0:0:40:kickku.wav
448,192,277416,128,0,277521:0:0:0:0:
64,192,277416,128,0,277838:0:0:0:40:snare.wav
320,192,277521,128,0,277627:0:0:0:0:
192,192,277627,128,0,277733:0:0:0:0:
320,192,277733,128,0,277838:0:0:0:0:
448,192,277838,128,0,278261:0:0:0:0:
192,192,277838,128,0,277944:0:0:0:40:kickku.wav
64,192,277944,128,0,278050:0:0:0:0:
192,192,278050,128,0,278155:0:0:0:0:
320,192,278155,128,0,278261:0:0:0:0:
192,192,278261,1,0,0:0:0:40:kickku.wav
64,192,278261,128,0,278366:0:0:0:40:snare.wav
192,192,278366,128,0,278472:0:0:0:0:
320,192,278472,128,0,278578:0:0:0:0:
448,192,278578,128,0,278683:0:0:0:0:
64,192,278683,128,0,278789:0:0:0:0:
320,192,278683,1,0,0:0:0:50:finish.wav
192,192,278683,1,0,0:0:0:40:kickku.wav
192,192,278789,128,0,278895:0:0:0:0:
320,192,278895,128,0,279000:0:0:0:0:
192,192,279000,128,0,279106:0:0:0:0:
448,192,279106,128,0,279528:0:0:0:40:snare.wav
320,192,279106,1,0,0:0:0:40:kickku.wav
64,192,279106,128,0,279212:0:0:0:0:
192,192,279212,128,0,279317:0:0:0:0:
320,192,279317,128,0,279423:0:0:0:0:
192,192,279423,128,0,279528:0:0:0:0:
64,192,279528,128,0,279951:0:0:0:0:
320,192,279528,128,0,279634:0:0:0:40:kickku.wav
448,192,279634,128,0,279740:0:0:0:0:
320,192,279740,128,0,279845:0:0:0:0:
192,192,279845,128,0,279951:0:0:0:0:
320,192,279951,1,0,0:0:0:40:kickku.wav
448,192,279951,128,0,280057:0:0:0:40:snare.wav
320,192,280057,128,0,280162:0:0:0:0:
192,192,280162,128,0,280268:0:0:0:0:
64,192,280268,128,0,280373:0:0:0:0:
192,192,280373,1,0,0:0:0:50:finish.wav
448,192,280373,1,0,0:0:0:0:
320,192,280373,1,0,0:0:0:40:kickku.wav
192,192,280479,1,0,0:0:0:0:
320,192,280585,1,0,0:0:0:0:
64,192,280585,1,0,0:0:0:0:
192,192,280690,1,0,0:0:0:0:
448,192,280690,1,0,0:0:0:0:
320,192,280796,1,0,0:0:0:40:kickku.wav
64,192,280796,1,0,0:0:0:40:snare.wav
192,192,280902,1,0,0:0:0:0:
320,192,281007,1,0,0:0:0:0:
64,192,281007,1,0,0:0:0:0:
448,192,281113,1,0,0:0:0:0:
192,192,281113,1,0,0:0:0:0:
64,192,281219,1,0,0:0:0:0:
448,192,281219,1,0,0:0:0:0:
192,192,281219,1,0,0:0:0:50:finish.wav
320,192,281219,1,0,0:0:0:40:kickku.wav
320,192,281324,1,0,0:0:0:0:
192,192,281430,1,0,0:0:0:0:
448,192,281430,1,0,0:0:0:0:
320,192,281535,1,0,0:0:0:0:
64,192,281535,1,0,0:0:0:0:
448,192,281641,1,0,0:0:0:40:snare.wav
192,192,281641,1,0,0:0:0:40:kickku.wav
320,192,281747,1,0,0:0:0:0:
192,192,281852,1,0,0:0:0:0:
448,192,281852,1,0,0:0:0:0:
64,192,281958,1,0,0:0:0:0:
320,192,281958,1,0,0:0:0:0:
64,192,282064,1,0,0:0:0:0:
192,192,282064,1,0,0:0:0:40:kickku.wav
320,192,282064,1,0,0:0:0:50:finish.wav
448,192,282064,1,0,0:0:0:0:
192,192,282169,1,0,0:0:0:0:
320,192,282275,1,0,0:0:0:0:
64,192,282275,128,0,282381:0:0:0:0:
448,192,282381,1,0,0:0:0:0:
192,192,282486,1,0,0:0:0:40:finish low.wav
320,192,282486,1,0,0:0:0:40:kickku.wav
64,192,282486,128,0,282592:0:0:0:0:
448,192,282592,1,0,0:0:0:0:
320,192,282697,1,0,0:0:0:0:
64,192,282697,128,0,282803:0:0:0:0:
192,192,282803,1,0,0:0:0:0:
320,192,282909,1,0,0:0:0:40:kickku.wav
448,192,282909,1,0,0:0:0:40:finish low.wav
64,192,282909,128,0,283014:0:0:0:0:
192,192,283014,1,0,0:0:0:0:
320,192,283120,1,0,0:0:0:40:snare.wav
448,192,283120,1,0,0:0:0:0:
192,192,283226,1,0,0:0:0:40:snare.wav
64,192,283226,1,0,0:0:0:0:
320,192,283331,1,0,0:0:0:40:snare.wav
448,192,283331,1,0,0:0:0:0:
192,192,283437,1,0,0:0:0:40:snare.wav
64,192,283437,1,0,0:0:0:0:
448,192,283543,1,0,0:0:0:0:
320,192,283543,1,0,0:0:0:40:snare.wav
192,192,283648,1,0,0:0:0:40:snare.wav
64,192,283648,1,0,0:0:0:0:
64,192,283754,1,0,0:0:0:0:
320,192,283754,1,0,0:0:0:40:kickku.wav
448,192,283754,128,0,284599:0:0:0:0:
192,192,283754,1,0,0:0:0:50:finish.wav
320,192,283859,1,0,0:0:0:0:
192,192,283965,1,0,0:0:0:0:
64,192,284071,1,0,0:0:0:0:
192,192,284176,1,0,0:0:0:40:snareelectro.wav
320,192,284176,128,0,284599:0:0:0:40:kickku.wav
64,192,284282,1,0,0:0:0:0:
192,192,284388,1,0,0:0:0:0:
64,192,284493,1,0,0:0:0:0:
192,192,284599,128,0,285021:0:0:0:40:snareelectro.wav
320,192,284704,1,0,0:0:0:0:
448,192,284810,1,0,0:0:0:0:
64,192,284916,1,0,0:0:0:0:
320,192,285021,1,0,0:0:0:40:snareelectro.wav
448,192,285021,128,0,285127:0:0:0:40:kickku.wav
192,192,285127,1,0,0:0:0:0:
448,192,285233,128,0,285338:0:0:0:0:
320,192,285233,1,0,0:0:0:0:
192,192,285338,1,0,0:0:0:0:
192,192,285444,1,0,0:0:0:50:finish.wav
320,192,285444,1,0,0:0:0:40:snareelectro.wav
448,192,285444,1,0,0:0:0:40:kickku.wav
64,192,285444,128,0,286289:0:0:0:0:
320,192,285550,1,0,0:0:0:0:
448,192,285655,1,0,0:0:0:0:
192,192,285761,1,0,0:0:0:0:
448,192,285866,128,0,286289:0:0:0:40:kickku.wav
320,192,285866,1,0,0:0:0:40:snareelectro.wav
192,192,285972,1,0,0:0:0:0:
320,192,286078,1,0,0:0:0:0:
192,192,286183,1,0,0:0:0:0:
320,192,286289,128,0,286712:0:0:0:40:snareelectro.wav
192,192,286395,1,0,0:0:0:0:
64,192,286500,1,0,0:0:0:0:
448,192,286606,1,0,0:0:0:0:
64,192,286712,1,0,0:0:0:40:snareelectro.wav
192,192,286712,128,0,286817:0:0:0:40:kickku.wav
320,192,286817,1,0,0:0:0:0:
192,192,286923,128,0,287028:0:0:0:0:
64,192,286923,1,0,0:0:0:0:
320,192,287028,1,0,0:0:0:0:
320,192,287134,1,0,0:0:0:50:finish.wav
448,192,287134,1,0,0:0:0:0:
192,192,287134,1,0,0:0:0:40:snareelectro.wav
64,192,287134,1,0,0:0:0:40:kickku.wav
192,192,287240,1,0,0:0:0:0:
448,192,287345,1,0,0:0:0:0:
64,192,287345,1,0,0:0:0:0:
320,192,287451,1,0,0:0:0:0:
192,192,287451,1,0,0:0:0:0:
448,192,287557,1,0,0:0:0:40:snareelectro.wav
64,192,287557,1,0,0:0:0:40:kickku.wav
320,192,287662,1,0,0:0:0:0:
64,192,287768,1,0,0:0:0:0:
192,192,287768,1,0,0:0:0:0:
320,192,287873,1,0,0:0:0:0:
448,192,287873,1,0,0:0:0:0:
192,192,287979,1,0,0:0:0:50:finish.wav
64,192,287979,1,0,0:0:0:40:kickku.wav
320,192,287979,1,0,0:0:0:40:snareelectro.wav
448,192,287979,1,0,0:0:0:0:
64,192,288085,1,0,0:0:0:0:
320,192,288190,1,0,0:0:0:0:
448,192,288190,1,0,0:0:0:0:
192,192,288296,1,0,0:0:0:0:
64,192,288296,1,0,0:0:0:0:
448,192,288402,1,0,0:0:0:40:snareelectro.wav
320,192,288402,1,0,0:0:0:40:kickku.wav
192,192,288507,1,0,0:0:0:0:
320,192,288613,1,0,0:0:0:0:
64,192,288613,1,0,0:0:0:0:
448,192,288719,1,0,0:0:0:0:
192,192,288719,1,0,0:0:0:0:
320,192,288824,1,0,0:0:0:50:finish.wav
64,192,288824,1,0,0:0:0:40:kickku.wav
192,192,288824,1,0,0:0:0:40:snareelectro.wav
448,192,288824,1,0,0:0:0:0:
64,192,288930,1,0,0:0:0:0:
448,192,289035,1,0,0:0:0:0:
320,192,289035,128,0,289141:0:0:0:0:
192,192,289141,1,0,0:0:0:0:
64,192,289247,1,0,0:0:0:40:snareelectro.wav
448,192,289247,1,0,0:0:0:40:finish low.wav
320,192,289247,128,0,289352:0:0:0:40:kickku.wav
192,192,289352,1,0,0:0:0:0:
448,192,289458,1,0,0:0:0:0:
320,192,289458,128,0,289564:0:0:0:0:
64,192,289564,1,0,0:0:0:0:
192,192,289669,1,0,0:0:0:40:snareelectro.wav
448,192,289669,128,0,289881:0:0:0:40:kickku.wav
320,192,289669,128,0,289881:0:0:0:40:finish low.wav
192,192,289881,128,0,289986:0:0:0:0:
64,192,289881,128,0,289986:0:0:0:0:
64,192,290092,1,0,0:0:0:40:snare.wav
448,192,290092,128,0,290197:0:0:0:0:
320,192,290092,128,0,290197:0:0:0:0:
192,192,290303,128,0,290409:0:0:0:0:
64,192,290303,128,0,290409:0:0:0:0:
448,192,290303,1,0,0:0:0:40:snare.wav
320,192,290514,1,0,0:0:0:40:snareelectro.wav
192,192,290514,1,0,0:0:0:50:finish.wav
64,192,290514,1,0,0:0:0:0:
448,192,290514,1,0,0:0:0:40:kickku.wav
320,192,290620,1,0,0:0:0:0:
64,192,290726,1,0,0:0:0:0:
448,192,290726,1,0,0:0:0:40:snareelectro.wav
320,192,290831,1,0,0:0:0:0:
192,192,290937,1,0,0:0:0:40:snareelectro.wav
64,192,290937,1,0,0:0:0:40:kickku.wav
320,192,291043,1,0,0:0:0:0:
448,192,291148,1,0,0:0:0:0:
192,192,291148,1,0,0:0:0:40:snareelectro.wav
64,192,291254,1,0,0:0:0:0:
448,192,291359,1,0,0:0:0:40:kickku.wav
320,192,291359,1,0,0:0:0:40:snareelectro.wav
192,192,291465,1,0,0:0:0:0:
320,192,291571,1,0,0:0:0:0:
64,192,291571,1,0,0:0:0:40:snareelectro.wav
448,192,291676,1,0,0:0:0:0:
64,192,291782,1,0,0:0:0:40:snareelectro.wav
192,192,291782,1,0,0:0:0:40:kickku.wav
320,192,291888,1,0,0:0:0:0:
448,192,291993,1,0,0:0:0:0:
192,192,291993,1,0,0:0:0:40:snareelectro.wav
320,192,292099,1,0,0:0:0:0:
192,192,292204,1,0,0:0:0:0:
64,192,292204,1,0,0:0:0:40:kickku.wav
320,192,292204,1,0,0:0:0:40:snareelectro.wav
448,192,292204,1,0,0:0:0:50:finish.wav
192,192,292310,1,0,0:0:0:0:
64,192,292416,1,0,0:0:0:0:
320,192,292416,1,0,0:0:0:40:snareelectro.wav
448,192,292521,1,0,0:0:0:0:
320,192,292627,1,0,0:0:0:40:kickku.wav
192,192,292627,1,0,0:0:0:40:snareelectro.wav
64,192,292733,1,0,0:0:0:0:
192,192,292838,1,0,0:0:0:40:snareelectro.wav
448,192,292838,1,0,0:0:0:0:
320,192,292944,1,0,0:0:0:0:
64,192,293050,1,0,0:0:0:40:snareelectro.wav
448,192,293050,1,0,0:0:0:40:kickku.wav
192,192,293155,1,0,0:0:0:0:
64,192,293261,1,0,0:0:0:40:snareelectro.wav
320,192,293261,1,0,0:0:0:0:
448,192,293366,1,0,0:0:0:0:
192,192,293472,1,0,0:0:0:40:snareelectro.wav
320,192,293472,1,0,0:0:0:40:kickku.wav
64,192,293578,1,0,0:0:0:0:
192,192,293683,1,0,0:0:0:40:snareelectro.wav
448,192,293683,1,0,0:0:0:0:
320,192,293789,1,0,0:0:0:0:
320,192,293895,1,0,0:0:0:50:finish.wav
192,192,293895,1,0,0:0:0:40:kickku.wav
448,192,293895,1,0,0:0:0:0:
64,192,293895,128,0,294000:0:0:0:0:
192,192,294000,128,0,294106:0:0:0:0:
320,192,294106,128,0,294212:0:0:0:0:
448,192,294212,128,0,294317:0:0:0:0:
192,192,294317,1,0,0:0:0:40:kickku.wav
64,192,294317,128,0,294423:0:0:0:0:
320,192,294423,128,0,294528:0:0:0:0:
192,192,294528,128,0,294634:0:0:0:0:
64,192,294634,128,0,294740:0:0:0:0:
320,192,294740,1,0,0:0:0:50:finish.wav
448,192,294740,1,0,0:0:0:40:kickku.wav
192,192,294740,1,0,0:0:0:40:snareelectro.wav
192,192,294845,1,0,0:0:0:40:snareelectro.wav
64,192,294845,1,0,0:0:0:0:
320,192,294951,1,0,0:0:0:40:snareelectro.wav
448,192,294951,1,0,0:0:0:0:
192,192,295057,1,0,0:0:0:40:snareelectro.wav
64,192,295057,1,0,0:0:0:0:
320,192,295162,1,0,0:0:0:40:snareelectro.wav
448,192,295162,1,0,0:0:0:40:kickku.wav
192,192,295268,1,0,0:0:0:40:snareelectro.wav
64,192,295268,1,0,0:0:0:0:
320,192,295373,1,0,0:0:0:40:snareelectro.wav
448,192,295373,1,0,0:0:0:0:
192,192,295479,1,0,0:0:0:40:snareelectro.wav
64,192,295479,1,0,0:0:0:0:
320,192,295585,1,0,0:0:0:40:snareelectro.wav
448,192,295585,1,0,0:0:0:0:
192,192,295585,1,0,0:0:0:50:finish.wav
64,192,295585,1,0,0:0:0:40:kickku.wav
320,192,295690,1,0,0:0:0:40:snareelectro.wav
448,192,295690,1,0,0:0:0:0:
192,192,295796,1,0,0:0:0:40:snareelectro.wav
64,192,295796,1,0,0:0:0:0:
320,192,295902,1,0,0:0:0:40:snareelectro.wav
448,192,295902,1,0,0:0:0:0:
192,192,296007,1,0,0:0:0:40:snareelectro.wav
64,192,296007,1,0,0:0:0:40:kickku.wav
320,192,296113,1,0,0:0:0:40:snareelectro.wav
448,192,296113,1,0,0:0:0:0:
192,192,296219,1,0,0:0:0:40:snareelectro.wav
64,192,296219,1,0,0:0:0:0:
320,192,296324,1,0,0:0:0:40:snareelectro.wav
448,192,296324,1,0,0:0:0:0:
448,192,296430,1,0,0:0:0:0:
192,192,296430,1,0,0:0:0:55:finish.wav
320,192,296430,1,0,0:0:0:40:snareelectro.wav
64,192,296430,1,0,0:0:0:40:kickku.wav
64,192,296535,1,0,0:0:0:0:
192,192,296535,1,0,0:0:0:40:snareelectro.wav
320,192,296641,1,0,0:0:0:40:snareelectro.wav
448,192,296641,1,0,0:0:0:0:
192,192,296747,1,0,0:0:0:40:snareelectro.wav
64,192,296747,1,0,0:0:0:0:
320,192,296852,1,0,0:0:0:40:snareelectro.wav
448,192,296852,1,0,0:0:0:40:kickku.wav
192,192,296958,1,0,0:0:0:40:snareelectro.wav
64,192,296958,1,0,0:0:0:0:
320,192,297064,1,0,0:0:0:40:snareelectro.wav
448,192,297064,1,0,0:0:0:0:
192,192,297169,1,0,0:0:0:40:snareelectro.wav
64,192,297169,1,0,0:0:0:0:
448,192,297275,1,0,0:0:0:0:
64,192,297275,1,0,0:0:0:40:kickku.wav
192,192,297275,1,0,0:0:0:60:finish.wav
320,192,297275,1,0,0:0:0:40:snareelectro.wav
320,192,297381,1,0,0:0:0:0:
448,192,297486,1,0,0:0:0:0:
320,192,297592,1,0,0:0:0:0:
64,192,297697,1,0,0:0:0:40:snare.wav
192,192,297697,1,0,0:0:0:40:kickku.wav
448,192,297803,1,0,0:0:0:0:
320,192,297909,1,0,0:0:0:0:
192,192,298014,1,0,0:0:0:0:
320,192,298120,1,0,0:0:0:40:kickku.wav
64,192,298120,1,0,0:0:0:0:
448,192,298226,1,0,0:0:0:0:
64,192,298331,1,0,0:0:0:0:
192,192,298437,1,0,0:0:0:0:
320,192,298543,1,0,0:0:0:40:kickku.wav
448,192,298543,1,0,0:0:0:40:snare.wav
64,192,298648,1,0,0:0:0:0:
192,192,298754,1,0,0:0:0:0:
448,192,298859,1,0,0:0:0:0:
192,192,298965,1,0,0:0:0:0:
320,192,298965,1,0,0:0:0:40:kickku.wav
64,192,298965,1,0,0:0:0:0:
448,192,298965,1,0,0:0:0:50:finish.wav
192,192,299071,1,0,0:0:0:0:
320,192,299176,1,0,0:0:0:0:
192,192,299282,1,0,0:0:0:0:
448,192,299388,1,0,0:0:0:40:kickku.wav
64,192,299388,1,0,0:0:0:40:snare.wav
320,192,299493,1,0,0:0:0:0:
192,192,299599,1,0,0:0:0:0:
320,192,299704,1,0,0:0:0:0:
448,192,299810,1,0,0:0:0:0:
64,192,299810,1,0,0:0:0:40:kickku.wav
192,192,299916,1,0,0:0:0:0:
320,192,300021,1,0,0:0:0:0:
192,192,300127,1,0,0:0:0:0:
448,192,300233,1,0,0:0:0:40:snare.wav
64,192,300233,1,0,0:0:0:40:kickku.wav
320,192,300338,1,0,0:0:0:0:
192,192,300444,1,0,0:0:0:0:
320,192,300550,1,0,0:0:0:0:
448,192,300655,1,0,0:0:0:0:
192,192,300655,1,0,0:0:0:40:kickku.wav
64,192,300655,1,0,0:0:0:0:
320,192,300655,1,0,0:0:0:50:finish.wav
192,192,300761,1,0,0:0:0:0:
64,192,300866,1,0,0:0:0:0:
192,192,300972,1,0,0:0:0:0:
448,192,301078,1,0,0:0:0:40:snare.wav
320,192,301078,1,0,0:0:0:40:kickku.wav
192,192,301183,1,0,0:0:0:0:
64,192,301289,1,0,0:0:0:0:
192,192,301395,1,0,0:0:0:0:
64,192,301500,1,0,0:0:0:0:
448,192,301500,1,0,0:0:0:0:
320,192,301500,1,0,0:0:0:40:kickku.wav
192,192,301500,1,0,0:0:0:50:finish.wav
320,192,301606,1,0,0:0:0:0:
448,192,301712,1,0,0:0:0:0:
320,192,301817,1,0,0:0:0:0:
192,192,301923,1,0,0:0:0:40:kickku.wav
64,192,301923,1,0,0:0:0:40:snare.wav
320,192,302028,1,0,0:0:0:0:
448,192,302134,1,0,0:0:0:0:
320,192,302240,1,0,0:0:0:0:
64,192,302345,1,0,0:0:0:0:
448,192,302345,1,0,0:0:0:40:kickku.wav
192,192,302345,1,0,0:0:0:0:
320,192,302345,1,0,0:0:0:50:finish.wav
64,192,302451,1,0,0:0:0:0:
192,192,302557,1,0,0:0:0:0:
320,192,302662,1,0,0:0:0:0:
192,192,302768,1,0,0:0:0:40:kickku.wav
448,192,302768,1,0,0:0:0:40:snare.wav
64,192,302768,1,0,0:0:0:40:finish low.wav
448,192,302873,1,0,0:0:0:0:
320,192,302979,1,0,0:0:0:0:
192,192,303085,1,0,0:0:0:0:
64,192,303190,1,0,0:0:0:40:finish low.wav
320,192,303190,1,0,0:0:0:40:kickku.wav
448,192,303190,1,0,0:0:0:0:
64,192,303296,1,0,0:0:0:0:
192,192,303402,1,0,0:0:0:0:
64,192,303507,1,0,0:0:0:0:
320,192,303613,1,0,0:0:0:40:kickku.wav
448,192,303613,1,0,0:0:0:0:
192,192,303719,1,0,0:0:0:0:
320,192,303824,1,0,0:0:0:40:kickku.wav
448,192,303824,1,0,0:0:0:0:
320,192,303930,1,0,0:0:0:40:kickku.wav
448,192,303930,1,0,0:0:0:0:
192,192,304035,1,0,0:0:0:40:snareelectro.wav
320,192,304035,1,0,0:0:0:50:finish.wav
448,192,304035,1,0,0:0:0:0:
64,192,304035,128,0,304141:0:0:0:0:
192,192,304141,128,0,304247:0:0:0:0:
448,192,304247,128,0,304352:0:0:0:0:
64,192,304247,1,0,0:0:0:40:snareelectro.wav
320,192,304352,128,0,304458:0:0:0:0:
448,192,304458,1,0,0:0:0:40:snareelectro.wav
192,192,304458,128,0,304564:0:0:0:40:kickku.wav
64,192,304564,128,0,304669:0:0:0:0:
192,192,304669,1,0,0:0:0:40:snareelectro.wav
320,192,304669,128,0,304775:0:0:0:0:
64,192,304775,128,0,304881:0:0:0:0:
320,192,304881,1,0,0:0:0:40:snareelectro.wav
448,192,304881,128,0,304986:0:0:0:40:kickku.wav
192,192,304986,128,0,305092:0:0:0:0:
64,192,305092,1,0,0:0:0:40:snareelectro.wav
320,192,305092,128,0,305197:0:0:0:0:
448,192,305197,128,0,305303:0:0:0:0:
192,192,305303,1,0,0:0:0:40:snareelectro.wav
64,192,305303,128,0,305409:0:0:0:40:kickku.wav
320,192,305409,128,0,305514:0:0:0:0:
64,192,305514,1,0,0:0:0:40:snareelectro.wav
448,192,305514,128,0,305620:0:0:0:0:
192,192,305620,128,0,305726:0:0:0:0:
448,192,305726,1,0,0:0:0:50:finish.wav
64,192,305726,128,0,305831:0:0:0:40:kickku.wav
320,192,305726,1,0,0:0:0:40:snareelectro.wav
320,192,305831,128,0,305937:0:0:0:0:
448,192,305937,128,0,306043:0:0:0:0:
64,192,305937,1,0,0:0:0:40:snareelectro.wav
192,192,306043,128,0,306148:0:0:0:0:
320,192,306148,1,0,0:0:0:40:snareelectro.wav
64,192,306148,128,0,306254:0:0:0:40:kickku.wav
448,192,306254,128,0,306359:0:0:0:0:
192,192,306359,1,0,0:0:0:40:snareelectro.wav
320,192,306359,128,0,306465:0:0:0:0:
64,192,306465,128,0,306571:0:0:0:0:
192,192,306571,128,0,306676:0:0:0:40:kickku.wav
320,192,306571,1,0,0:0:0:40:snareelectro.wav
448,192,306676,128,0,306782:0:0:0:0:
192,192,306782,1,0,0:0:0:40:snareelectro.wav
64,192,306782,128,0,306888:0:0:0:0:
320,192,306888,128,0,306993:0:0:0:0:
448,192,306993,1,0,0:0:0:40:snareelectro.wav
192,192,306993,128,0,307099:0:0:0:40:kickku.wav
64,192,307099,128,0,307204:0:0:0:0:
320,192,307204,128,0,307310:0:0:0:0:
448,192,307204,1,0,0:0:0:40:snareelectro.wav
192,192,307310,128,0,307416:0:0:0:0:
64,192,307416,1,0,0:0:0:40:kickku.wav
320,192,307416,1,0,0:0:0:50:finish.wav
448,192,307416,128,0,307521:0:0:0:40:kickku.wav
64,192,307521,128,0,307627:0:0:0:0:
192,192,307627,128,0,307733:0:0:0:0:
448,192,307733,128,0,307838:0:0:0:0:
192,192,307838,1,0,0:0:0:40:kickku.wav
64,192,307838,128,0,307944:0:0:0:40:snare.wav
320,192,307944,128,0,308050:0:0:0:0:
192,192,308050,128,0,308155:0:0:0:0:
64,192,308155,128,0,308261:0:0:0:0:
192,192,308261,1,0,0:0:0:50:finish.wav
448,192,308261,1,0,0:0:0:40:kickku.wav
320,192,308261,128,0,308366:0:0:0:0:kickku.wav
448,192,308366,128,0,308472:0:0:0:0:
192,192,308472,128,0,308578:0:0:0:0:
64,192,308578,128,0,308683:0:0:0:0:
192,192,308683,1,0,0:0:0:40:snareelectro.wav
448,192,308683,128,0,308789:0:0:0:0:
64,192,308789,1,0,0:0:0:40:snareelectro.wav
320,192,308789,128,0,308895:0:0:0:0:
448,192,308895,1,0,0:0:0:40:snareelectro.wav
192,192,308895,128,0,309000:0:0:0:0:
320,192,309000,1,0,0:0:0:40:snareelectro.wav
64,192,309000,128,0,309106:0:0:0:0:
448,192,309106,128,0,309845:0:0:0:0:
192,192,309106,1,0,0:0:0:40:kickku.wav
192,192,309212,1,0,0:0:0:0:
192,192,309317,1,0,0:0:0:0:
320,192,309528,128,0,309845:0:0:0:0:
192,192,309740,128,0,309845:0:0:0:0:
64,192,309740,128,0,309845:0:0:0:0:
64,192,309951,1,0,0:0:0:0:
192,192,309951,1,0,0:0:0:0:
320,192,309951,1,0,0:0:0:40:kickku.wav
448,192,309951,1,0,0:0:0:0:
