osu file format v14

[General]
AudioFilename: audio.mp3
AudioLeadIn: 0
PreviewTime: 158180
Countdown: 0
SampleSet: Soft
StackLeniency: 0.5
Mode: 0
LetterboxInBreaks: 0
WidescreenStoryboard: 1

[Editor]
DistanceSpacing: 0.6
BeatDivisor: 4
GridSize: 32
TimelineZoom: 0.5999998

[Metadata]
Title:Nagaiki no Kamisama
TitleUnicode:ながいきの神様
Artist:KikuoHana
ArtistUnicode:きくおはな
Creator:SMOKELIND
Version:Pepekcz's Hard
Source:
Tags:God of Longevity Hanatan 花たん YURiCa ユリカ 第一幕 1 First Act Daiichi Maku Japanese Rock Pepekcz Kujinn Reform Shikibe Mayu Kazato Asa Shizuku- Nymphe Kiyoshi Guarden
BeatmapID:3185067
BeatmapSetID:1494099

[Difficulty]
HPDrainRate:4.2
CircleSize:3.6
OverallDifficulty:7.2
ApproachRate:8.2
SliderMultiplier:1.4
SliderTickRate:1

[Events]
//Background and Video events
0,0,"81352383_p0.jpg",0,0
//Break Periods
2,10630,14440
2,81880,85940
2,158805,167930
//Storyboard Layer 0 (Background)
//Storyboard Layer 1 (Fail)
//Storyboard Layer 2 (Pass)
//Storyboard Layer 3 (Foreground)
//Storyboard Layer 4 (Overlay)
//Storyboard Sound Samples

[TimingPoints]
430,250,5,2,77,47,1,0
430,-111.111111111111,5,2,77,47,0,0
4930,-111.111111111111,5,2,77,57,0,0
7930,-100,5,2,77,67,0,0
10430,-166.666666666667,5,2,77,57,0,0
15430,-166.666666666667,5,2,77,57,0,0
25430,-125,5,2,77,57,0,0
35430,-111.111111111111,5,2,77,67,0,0
45430,-125,5,2,77,67,0,0
49180,-111.111111111111,5,2,77,67,0,0
51680,-100,5,2,77,87,0,1
76680,-100,5,2,77,77,0,0
81680,-166.666666666667,5,2,77,77,0,0
82930,-166.666666666667,5,2,77,27,0,0
86680,-166.666666666667,5,2,77,47,0,0
96680,-125,5,2,77,67,0,0
105430,-125,5,2,77,57,0,0
107930,-111.111111111111,5,2,77,77,0,0
114180,-111.111111111111,5,2,77,67,0,0
124180,-125,5,2,77,67,0,0
127930,-111.111111111111,5,2,77,67,0,0
130430,-100,5,2,77,87,0,1
152930,-111.111111111111,5,2,77,77,0,1
154180,-111.111111111111,5,2,77,67,0,0
154555,-125,5,2,77,57,0,0
155179,-100,5,2,77,27,0,0
168846,438.917337234821,3,2,77,17,1,0
168846,-200,5,2,77,17,0,0
175430,250,5,2,77,17,1,0
175430,-166.666666666667,5,2,77,17,0,0
177430,-125,5,2,77,17,0,0
177930,-111.111111111111,5,2,77,67,0,0
179180,-100,5,2,77,87,0,1
204180,-99.9999999999999,5,2,77,67,0,0
209180,-111.111111111111,5,2,77,57,0,0
214180,-200,5,2,77,47,0,0
214263,-200,5,2,77,5,0,0

[Colours]
Combo1 : 164,0,164
Combo2 : 82,0,164

[HitObjects]
0,272,430,6,0,B|62:253|50:333|108:320,1,125.999996154785,2|0,0:0|0:0,0:0:0:0:
174,285,805,1,0,0:0:0:0:
284,180,1055,1,0,0:0:0:0:
284,180,1180,2,0,L|304:256,1,62.9999980773926,0|2,0:0|0:0,0:0:0:0:
384,368,1555,6,0,P|397:310|412:244,1,125.999996154785
484,216,1930,1,0,0:0:0:0:
484,216,2055,2,0,L|500:276,2,62.9999980773926
476,64,2555,1,2,0:0:0:0:
352,148,2805,5,0,0:0:0:0:
352,148,2930,2,0,B|300:184|300:184|240:132,1,125.999996154785,2|0,0:0|0:0,0:0:0:0:
208,80,3305,1,0,0:0:0:0:
72,136,3555,1,0,0:0:0:0:
72,136,3680,2,0,L|88:204,1,62.9999980773926,0|2,0:0|0:0,0:0:0:0:
136,340,4055,6,0,B|198:359|184:276|244:288,1,125.999996154785
316,312,4430,1,0,0:0:0:0:
316,312,4555,2,0,L|300:372,2,62.9999980773926
364,252,4930,1,10,0:0:0:0:
304,112,5180,1,8,0:3:0:0:
196,216,5430,6,0,P|138:203|64:188,1,125.999996154785,14|0,0:3|0:0,0:0:0:0:
20,136,5805,2,0,B|-12:80|-12:80|36:32,1,125.999996154785
104,16,6180,1,8,0:0:0:0:
200,132,6430,1,0,0:0:0:0:
308,24,6680,6,0,B|372:4|352:84|416:72,1,125.999996154785,2|0,1:0|0:0,0:0:0:0:
484,52,7055,2,0,B|516:88|516:88|484:168,1,125.999996154785,0|0,1:0|0:0,0:0:0:0:
424,204,7430,2,0,L|440:276,1,62.9999980773926,8|0,0:0|0:0,0:0:0:0:
488,324,7680,1,6,1:3:0:0:
328,372,7930,6,0,P|259:356|192:340,1,140,4|0,1:0|0:0,0:0:0:0:
116,300,8305,2,0,P|69:254|102:197,1,140,0|0,1:0|0:0,0:0:0:0:
184,180,8680,1,8,0:0:0:0:
320,284,8930,6,0,P|388:268|456:251,1,140,8|0,0:0|1:0,0:0:0:0:
496,176,9305,1,8,0:0:0:0:
496,176,9430,2,0,L|536:188,2,35,8|8|0,0:0|0:0|1:0,0:0:0:0:
432,124,9680,2,0,L|392:136,2,35,8|8|8,0:0|0:0|0:0,0:0:0:0:
492,68,9930,1,0,1:0:0:0:
492,68,10055,2,0,P|460:12|380:32,1,140,8|8,0:0|0:3,0:0:0:0:
324,88,10430,5,12,3:2:0:0:
32,352,15180,5,2,0:0:0:0:
32,352,15430,2,0,B|96:368|76:288|148:304,1,125.999996154785,2|0,0:0|0:0,0:0:0:0:
284,356,16180,1,2,0:0:0:0:
284,356,16430,1,2,0:0:0:0:
380,328,16680,2,0,P|397:254|420:160,1,167.999994873047,2|0,0:0|0:0,0:0:0:0:
476,24,17680,1,2,0:0:0:0:
476,24,17930,6,0,P|416:38|352:56,1,125.999996154785,2|0,0:0|0:0,0:0:0:0:
252,164,18680,1,2,0:0:0:0:
252,164,18930,1,2,0:0:0:0:
156,132,19180,2,0,B|184:216|68:184|93:282,1,167.999994873047,2|0,0:0|0:0,0:0:0:0:
276,352,20180,1,2,0:0:0:0:
276,352,20430,6,0,B|336:292|336:292|268:232,1,167.999994873047,2|2,0:0|0:0,0:0:0:0:
200,176,21180,1,2,0:0:0:0:
200,176,21430,1,2,0:0:0:0:
276,108,21680,2,0,B|360:80|328:196|426:170,1,167.999994873047,2|0,0:0|0:0,0:0:0:0:
504,352,22680,1,2,0:0:0:0:
504,352,22930,6,0,P|447:337|380:320,1,125.999996154785,2|0,0:0|0:0,0:0:0:0:
284,204,23680,2,0,P|240:200|212:236,1,83.9999974365235
164,316,24180,2,0,P|105:323|77:270,1,125.999996154785
140,132,24930,1,0,0:0:0:0:
140,132,25180,1,2,0:0:0:0:
212,20,25430,6,0,P|264:36|324:56,1,112,6|0,0:3|0:0,0:0:0:0:
388,20,25805,1,0,0:0:0:0:
508,220,26180,2,0,L|492:280,1,56,2|0,0:0|0:0,0:0:0:0:
436,324,26430,2,0,L|376:304,1,56,2|0,0:0|0:0,0:0:0:0:
328,248,26680,6,0,P|272:240|244:296,1,112,2|0,0:0|0:0,0:0:0:0:
212,352,27055,1,0,0:0:0:0:
36,204,27430,1,0,0:0:0:0:
36,204,27680,2,0,P|60:188|88:188,1,56,2|0,0:0|0:0,0:0:0:0:
135,250,27930,6,0,P|189:264|242:280,1,112,2|0,0:0|0:0,0:0:0:0:
308,324,28305,1,0,0:0:0:0:
484,168,28680,2,0,P|496:136|480:108,1,56,2|0,0:0|0:0,0:0:0:0:
448,52,28930,2,0,P|416:40|388:56,1,56,2|0,0:0|0:0,0:0:0:0:
336,100,29180,6,0,B|290:84|290:84|283:65|283:65|241:52,1,112,2|0,0:0|0:0,0:0:0:0:
168,28,29555,1,0,0:0:0:0:
92,252,29930,1,0,0:0:0:0:
92,252,30180,2,0,P|126:261|160:272,1,56,2|0,0:0|0:0,0:0:0:0:
216,232,30430,6,0,B|276:224|252:288|312:280,1,112,2|0,0:0|0:0,0:0:0:0:
380,308,30805,1,0,0:0:0:0:
488,100,31180,2,0,L|432:116,1,56,2|0,0:0|0:0,0:0:0:0:
360,84,31430,2,0,L|304:100,1,56,2|0,0:0|0:0,0:0:0:0:
248,152,31680,6,0,B|188:160|212:96|152:104,1,112,2|0,0:0|0:0,0:0:0:0:
84,132,32055,1,0,0:0:0:0:
120,364,32430,2,0,L|175:355,1,56,2|0,0:0|0:0,0:0:0:0:
232,300,32680,2,0,L|286:289,1,56,2|0,0:0|0:0,0:0:0:0:
380,252,32930,5,10,0:3:0:0:
380,252,34180,6,0,P|388:200|344:168,1,112,4|0,3:0|0:0,0:0:0:0:
272,200,34555,2,0,P|216:218|152:240,1,112,4|4,3:0|3:0,0:0:0:0:
152,240,34867,1,0,3:0:0:0:
140,244,34930,1,0,3:0:0:0:
72,280,35055,1,0,3:0:0:0:
72,280,35180,2,0,P|48:256|48:224,1,56,4|0,3:0|0:0,0:0:0:0:
64,136,35430,6,0,P|125:113|192:90,1,125.999996154785,10|0,0:3|0:0,0:0:0:0:
232,28,35805,2,0,P|291:48|350:70,1,125.999996154785,10|0,0:3|0:0,0:0:0:0:
420,112,36180,2,0,L|396:184,1,62.9999980773926,10|0,0:3|0:0,0:0:0:0:
428,248,36430,1,10,0:3:0:0:
296,344,36680,6,0,B|236:368|236:368|192:324,1,125.999996154785,10|0,0:3|0:0,0:0:0:0:
224,248,37055,2,0,B|164:224|164:224|120:268,1,125.999996154785,10|0,0:3|0:0,0:0:0:0:
56,320,37430,2,0,L|36:252,1,62.9999980773926,10|0,0:3|0:0,0:0:0:0:
48,180,37680,1,10,0:3:0:0:
164,64,37930,5,10,0:0:0:0:
164,64,38055,2,0,L|228:80,1,62.9999980773926,8|0,0:3|0:0,0:0:0:0:
296,120,38305,2,0,B|360:120|328:48|400:48,1,125.999996154785,8|0,0:3|0:0,0:0:0:0:
476,100,38680,1,12,0:0:0:0:
368,220,38930,1,8,0:0:0:0:
476,356,39180,5,8,0:3:0:0:
476,356,39242,1,8,0:3:0:0:
476,356,39305,2,0,L|412:340,1,62.9999980773926,8|8,0:3|0:3,0:0:0:0:
340,312,39555,2,0,L|300:328,2,31.4999990386963,8|8|8,0:3|0:3|0:3,0:0:0:0:
472,216,39930,2,0,L|501:227,2,31.4999990386963,8|8|8,0:3|0:3|0:3,0:0:0:0:
416,152,40180,2,0,P|387:163|357:172,1,62.9999980773926,8|0,0:0|1:0,0:0:0:0:
284,212,40430,6,0,P|224:212|208:148,1,125.999996154785,10|0,0:3|0:0,0:0:0:0:
240,84,40805,2,0,P|219:28|160:29,1,125.999996154785,10|0,0:3|0:0,0:0:0:0:
104,88,41180,2,0,L|120:156,1,62.9999980773926,10|0,0:3|0:0,0:0:0:0:
140,228,41430,1,10,0:3:0:0:
20,340,41680,6,0,P|79:351|144:364,1,125.999996154785,10|0,0:3|0:0,0:0:0:0:
200,304,42055,2,0,P|259:292|324:280,1,125.999996154785,10|0,0:3|0:0,0:0:0:0:
380,340,42430,2,0,P|403:318|407:288,1,62.9999980773926,10|0,0:3|0:0,0:0:0:0:
372,216,42680,1,10,0:3:0:0:
444,72,42930,5,10,0:0:0:0:
444,72,43055,2,0,P|424:48|388:44,1,62.9999980773926,8|0,0:3|0:0,0:0:0:0:
316,68,43305,2,0,P|258:85|188:108,1,125.999996154785,8|0,0:3|0:0,0:0:0:0:
112,48,43680,1,12,0:0:0:0:
112,48,44180,5,8,0:3:0:0:
112,48,44242,1,8,0:3:0:0:
112,48,44305,2,0,L|96:120,1,62.9999980773926,8|8,0:3|0:3,0:0:0:0:
40,168,44555,2,0,L|48:208,2,31.4999990386963,8|8|8,0:3|0:3|0:3,0:0:0:0:
152,288,44930,2,0,L|145:318,2,31.4999990386963,8|8|8,0:3|0:3|0:3,0:0:0:0:
192,216,45180,2,0,P|217:196|253:200,1,62.9999980773926,14|0,0:0|0:0,0:0:0:0:
320,264,45430,6,0,P|376:268|408:216,1,112,2|0,1:0|0:0,0:0:0:0:
420,148,45805,1,0,1:0:0:0:
208,44,46180,2,0,P|215:75|224:116,1,56,2|0,1:0|0:0,0:0:0:0:
264,164,46430,2,0,P|256:195|248:236,1,56,2|0,1:0|0:0,0:0:0:0:
228,292,46680,6,0,B|176:284|188:348|136:340,1,112,2|0,1:0|0:0,0:0:0:0:
68,300,47055,1,0,1:0:0:0:
8,72,47430,2,0,P|28:48|64:44,1,56,0|0,1:0|0:0,0:0:0:0:
116,88,47680,2,0,P|136:112|172:116,1,56,2|0,1:0|0:0,0:0:0:0:
232,84,47930,6,0,L|340:52,1,112,2|0,1:0|0:0,0:0:0:0:
416,28,48305,2,0,B|448:64|448:64|424:128,1,112,2|0,1:0|0:0,0:0:0:0:
360,164,48680,1,2,1:0:0:0:
480,268,48930,1,2,1:0:0:0:
344,360,49180,6,0,P|284:371|247:323,1,125.999996154785,10|0,0:0|0:0,0:0:0:0:
240,244,49555,2,0,P|203:196|143:206,1,125.999996154785,8|0,0:0|0:0,0:0:0:0:
80,256,49930,2,0,L|60:188,1,62.9999980773926,8|0,0:0|0:0,0:0:0:0:
52,120,50180,1,8,0:0:0:0:
51,120,50305,2,0,P|74:99|105:96,1,62.9999980773926,8|0,0:0|1:0,0:0:0:0:
184,136,50555,5,8,0:0:0:0:
184,136,50680,2,0,P|206:156|237:159,1,62.9999980773926,8|0,0:0|1:0,0:0:0:0:
288,92,50930,1,8,0:0:0:0:
288,92,51055,1,8,0:0:0:0:
348,148,51180,2,0,B|384:188|384:188|348:264,1,125.999996154785,6|10,3:0|0:3,0:0:0:0:
200,356,51680,6,0,P|188:296|172:216,1,140,6|0,1:0|0:0,0:0:0:0:
152,144,52055,1,8,0:0:0:0:
152,144,52180,2,0,P|176:112|212:108,1,70,2|0,0:0|1:0,0:0:0:0:
272,152,52430,2,0,P|280:187|288:228,1,70,2|0,1:0|0:0,0:0:0:0:
276,304,52680,2,0,P|283:339|291:380,1,70,10|0,0:0|0:0,0:0:0:0:
376,376,52930,6,0,P|440:368|460:300,1,140,2|0,1:0|0:0,0:0:0:0:
420,228,53305,2,0,B|376:160|456:160|408:88,1,140,8|0,0:0|1:0,0:0:0:0:
356,32,53680,2,0,P|328:8|288:12,1,70,0|0,1:0|1:0,0:0:0:0:
240,72,53930,1,10,0:0:0:0:
84,8,54180,6,0,P|63:73|44:144,1,140,6|0,1:0|0:0,0:0:0:0:
88,220,54555,1,8,0:0:0:0:
88,220,54680,2,0,P|121:210|155:199,1,70,2|0,0:0|1:0,0:0:0:0:
236,172,54930,2,0,P|269:167|296:189,1,70,2|0,1:0|0:0,0:0:0:0:
372,152,55180,2,0,P|392:179|387:212,1,70,10|0,0:0|0:0,0:0:0:0:
356,292,55430,6,0,P|290:310|220:332,1,140,2|0,1:0|0:0,0:0:0:0:
148,372,55805,2,0,P|82:366|64:302,1,140,8|0,0:0|1:0,0:0:0:0:
120,240,56180,2,0,P|109:203|98:165,1,70,0|8,1:0|0:0,0:0:0:0:
96,160,56367,1,8,0:0:0:0:
92,149,56430,1,10,0:0:0:0:
176,4,56680,6,0,B|244:-4|216:80|288:72,1,140,6|0,1:0|0:0,0:0:0:0:
364,40,57055,1,8,0:0:0:0:
364,40,57180,2,0,P|373:75|384:116,1,70,2|0,0:0|0:0,0:0:0:0:
408,188,57430,2,0,P|372:196|332:208,1,70,2|0,1:0|0:0,0:0:0:0:
284,268,57680,2,0,P|250:258|216:250,1,70,10|0,0:0|0:0,0:0:0:0:
152,160,57930,6,0,P|104:112|36:140,1,140,6|8,1:0|0:0,0:0:0:0:
16,240,58305,2,0,B|80:240|56:312|128:312,1,140,4|8,1:0|0:3,0:0:0:0:
216,250,58680,2,0,B|268:202|268:202|336:244,1,140,4|10,1:0|0:0,0:0:0:0:
456,348,59180,6,0,P|468:286|484:208,1,140,6|0,1:0|0:0,0:0:0:0:
496,128,59555,2,0,P|460:68|380:88,1,140,8|0,0:0|1:0,0:0:0:0:
336,128,59930,2,0,P|302:120|268:112,1,70,0|0,1:0|0:0,0:0:0:0:
188,88,60180,1,8,0:0:0:0:
32,24,60430,6,0,P|76:56|64:140,1,140,6|8,1:0|0:0,0:0:0:0:
8,192,60805,2,0,P|17:228|28:268,1,70,4|8,1:0|0:0,0:0:0:0:
92,328,61055,1,8,0:0:0:0:
92,328,61117,1,8,0:0:0:0:
91,327,61180,2,0,P|117:350|152:348,1,70,2|8,1:0|0:0,0:0:0:0:
212,292,61430,2,0,P|237:269|272:271,1,70,10|8,0:0|0:0,0:0:0:0:
368,324,61680,6,0,B|324:256|404:256|356:184,1,140,6|0,1:0|0:0,0:0:0:0:
316,120,62055,1,8,0:0:0:0:
316,120,62180,2,0,P|284:92|240:96,1,70,2|0,0:0|1:0,0:0:0:0:
192,140,62430,2,0,P|202:175|212:212,1,70,2|0,1:0|0:0,0:0:0:0:
271,270,62680,2,0,P|260:305|251:342,1,70,10|0,0:0|0:0,0:0:0:0:
172,364,62930,6,0,P|108:368|76:308,1,140,2|0,1:0|0:0,0:0:0:0:
64,224,63305,2,0,P|46:157|29:89,1,140,8|8,0:0|0:0,0:0:0:0:
56,8,63680,2,0,P|91:17|132:28,1,70,2|0,1:0|3:0,0:0:0:0:
196,64,63930,1,10,0:0:0:0:
360,24,64180,6,0,P|376:93|392:160,1,140,6|0,1:0|0:0,0:0:0:0:
408,248,64555,1,8,0:0:0:0:
408,248,64680,2,0,P|373:253|339:260,1,70,2|0,0:0|1:0,0:0:0:0:
260,232,64930,2,0,P|224:232|196:264,1,70,2|0,1:0|0:0,0:0:0:0:
164,328,65180,2,0,P|128:328|104:300,1,70,10|0,0:0|0:0,0:0:0:0:
48,216,65430,6,0,B|92:148|12:148|60:76,1,140,6|0,1:0|0:0,0:0:0:0:
120,28,65805,2,0,P|185:46|268:72,1,140,8|0,0:0|3:0,0:0:0:0:
316,124,66180,2,0,P|305:157|295:191,1,70,0|8,1:0|0:0,0:0:0:0:
292,204,66367,1,8,0:0:0:0:
288,216,66430,1,10,0:0:0:0:
388,352,66680,6,0,P|444:360|468:280,1,140,6|0,1:0|0:0,0:0:0:0:
428,224,67055,1,8,0:0:0:0:
428,224,67180,2,0,L|446:157,1,70,2|0,0:0|1:0,0:0:0:0:
468,76,67430,2,0,P|448:48|408:44,1,70,2|0,1:0|0:0,0:0:0:0:
348,92,67680,2,0,P|328:120|288:124,1,70,10|0,0:0|0:0,0:0:0:0:
228,40,67930,6,0,B|160:32|188:116|116:108,1,140,6|8,1:0|0:0,0:0:0:0:
28,48,68305,2,0,B|-4:84|-4:84|32:176,1,140,4|8,1:0|0:3,0:0:0:0:
76,268,68680,2,0,P|110:277|150:288,1,70,4|8,1:0|0:0,0:0:0:0:
192,356,68930,1,10,0:0:0:0:
360,352,69180,6,0,P|404:336|400:252,1,140,14|0,0:0|0:0,0:0:0:0:
344,192,69555,2,0,P|276:209|208:228,1,140,8|0,0:0|1:0,0:0:0:0:
143,286,69930,2,0,P|109:276|75:267,1,70,8|0,0:0|0:0,0:0:0:0:
63,262,70117,1,0,0:0:0:0:
51,258,70180,1,8,0:0:0:0:
0,96,70430,6,0,P|16:48|96:40,1,140,6|8,1:0|0:0,0:0:0:0:
168,124,70805,2,0,B|236:132|208:48|280:56,1,140,4|8,1:0|0:0,0:0:0:0:
356,88,71180,2,0,L|428:64,1,70,0|8,1:0|0:0,0:0:0:0:
492,112,71430,1,8,0:0:0:0:
428,268,71680,6,0,L|361:245,1,70,6|0,1:0|0:0,0:0:0:0:
284,224,71930,1,0,0:0:0:0:
284,224,72055,2,0,P|236:220|188:296,1,140,0|0,1:0|0:0,0:0:0:0:
152,364,72430,2,0,P|112:364|92:340,1,70,10|0,0:0|0:0,0:0:0:0:
44,272,72680,1,2,0:0:0:0:
36,104,72930,6,0,P|106:84|180:64,1,140,2|0,1:0|0:0,0:0:0:0:
244,28,73305,2,0,P|311:46|378:65,1,140,0|0,1:0|0:0,0:0:0:0:
445,118,73680,1,10,0:0:0:0:
320,232,73930,2,0,P|312:268|324:300,1,70,14|0,0:0|0:0,0:0:0:0:
416,360,74180,6,0,P|452:356|476:320,1,70,6|0,1:0|0:0,0:0:0:0:
481,251,74430,1,0,0:0:0:0:
481,251,74555,2,0,L|437:107,1,140,0|0,1:0|0:0,0:0:0:0:
412,40,74930,2,0,L|344:56,1,70,10|0,0:0|0:0,0:0:0:0:
268,20,75180,1,10,0:0:0:0:
196,172,75430,5,10,0:3:0:0:
196,172,75555,2,0,P|156:176|136:156,1,70,8|8,0:0|0:0,0:0:0:0:
104,84,75805,1,10,0:3:0:0:
104,84,75930,2,0,P|64:80|44:100,1,70,8|8,0:0|0:0,0:0:0:0:
0,172,76180,2,0,L|20:248,1,70,2|8,1:0|0:3,0:0:0:0:
36,320,76430,1,8,0:3:0:0:
192,264,76680,6,0,B|260:256|232:340|304:332,1,140,6|0,1:0|0:0,0:0:0:0:
384,308,77055,2,0,B|424:276|424:276|388:188,1,140,2|0,1:0|0:0,0:0:0:0:
392,108,77430,1,10,0:0:0:0:
252,12,77680,1,2,0:0:0:0:
116,108,77930,6,0,B|160:176|80:176|116:248,1,140,2|0,1:0|0:0,0:0:0:0:
176,292,78305,2,0,P|242:312|309:334,1,140,2|0,1:0|0:0,0:0:0:0:
392,352,78680,1,10,0:0:0:0:
300,212,78930,1,14,0:0:0:0:
432,108,79180,6,0,P|416:64|328:56,1,140,6|0,1:0|0:0,0:0:0:0:
264,104,79555,2,0,P|197:124|124:148,1,140,2|0,1:0|0:0,0:0:0:0:
80,212,79930,1,10,0:0:0:0:
8,60,80180,2,0,L|76:36,1,70,10|8,0:0|0:0,0:0:0:0:
156,16,80430,1,6,1:3:0:0:
156,16,80555,2,0,P|188:12|220:48,1,70,8|8,0:3|0:0,0:0:0:0:
264,104,80805,1,4,1:3:0:0:
264,104,80930,2,0,P|296:108|328:72,1,70,8|8,0:3|0:0,0:0:0:0:
380,20,81180,6,0,L|424:36,5,46.6666666666667,8|8|8|8|8|8,0:0|0:3|0:3|0:3|0:3|0:3,0:0:0:0:
456,52,81680,1,6,1:0:0:0:
456,52,86680,6,0,P|439:110|420:180,2,125.999996154785
348,4,87680,1,2,0:0:0:0:
272,96,87930,2,0,P|228:136|168:104,1,125.999996154785,2|2,0:0|0:0,0:0:0:0:
28,8,88680,2,0,L|4:96,1,83.9999974365235,2|2,0:0|0:0,0:0:0:0:
4,208,89180,6,0,B|68:224|48:144|120:160,2,125.999996154785,2|0|0,0:0|0:0|0:0,0:0:0:0:
76,300,90180,1,0,0:0:0:0:
168,228,90430,2,0,P|182:289|196:350,1,125.999996154785
376,380,91180,1,0,0:0:0:0:
376,380,91430,1,0,0:0:0:0:
472,312,91680,6,0,B|488:248|408:268|424:196,2,125.999996154785,2|0|2,0:0|0:0|0:0,0:0:0:0:
376,380,92680,1,2,0:0:0:0:
276,320,92930,2,0,B|240:268|240:268|288:208,1,125.999996154785,2|2,0:0|0:0,0:0:0:0:
376,72,93680,2,0,P|348:36|308:32,1,83.9999974365235,2|2,0:0|0:0,0:0:0:0:
204,80,94180,6,0,B|168:112|168:112|196:200,2,125.999996154785,2|0|0,0:0|0:0|0:0,0:0:0:0:
104,20,95180,1,0,0:0:0:0:
20,100,95430,2,0,P|36:156|56:224,1,125.999996154785
196,336,96180,1,0,0:0:0:0:
196,336,96430,1,0,0:0:0:0:
344,280,96680,6,0,P|392:204|332:152,1,168,8|8,0:0|0:0,0:0:0:0:
196,336,97430,2,0,B|112:348|144:252|56:264,1,168,4|0,3:2|0:0,0:0:0:0:
24,192,97930,6,0,P|-8:116|68:72,1,168,8|8,0:0|0:3,0:0:0:0:
280,20,98680,2,0,P|354:41|444:68,1,168,12|0,0:0|0:0,0:0:0:0:
476,136,99180,6,0,B|512:184|512:184|456:284,1,168,8|8,0:3|0:3,0:0:0:0:
264,148,99930,1,8,0:3:0:0:
44,372,100430,6,0,P|4:332|48:244,1,168,8|8,0:0|0:0,0:0:0:0:
264,148,101180,2,0,B|348:136|316:232|404:220,1,168,4|0,3:2|0:0,0:0:0:0:
464,168,101680,6,0,P|500:132|440:40,1,168,8|8,0:0|0:0,0:0:0:0:
220,20,102430,2,0,P|167:42|104:72,1,112,12|0,0:0|1:0,0:0:0:0:
12,180,102930,6,0,P|64:203|128:232,2,112,8|0|0,0:0|1:0|1:0,0:0:0:0:
152,376,103805,1,0,1:0:0:0:
152,376,104180,6,0,B|193:401|244:356|200:331|244:284|302:315,1,168,8|0,0:3|0:0,0:0:0:0:
348,352,104680,2,0,P|376:352|400:336,1,56,0|0,3:0|0:0,0:0:0:0:
432,268,104930,2,0,P|450:196|476:100,1,168,0|0,0:0|3:0,0:0:0:0:
408,28,105430,5,4,0:3:0:0:
408,28,107055,5,8,0:3:0:0:
260,212,107430,2,0,L|148:184,1,112,8|8,0:3|0:3,0:0:0:0:
4,116,107930,6,0,P|17:173|32:244,1,125.999996154785,12|0,0:0|0:0,0:0:0:0:
56,316,108305,2,0,P|104:360|164:340,1,125.999996154785,8|0,0:0|0:0,0:0:0:0:
220,292,108680,1,8,0:0:0:0:
316,160,108930,2,0,L|380:180,1,62.9999980773926,8|8,0:0|0:0,0:0:0:0:
468,224,109180,6,0,B|436:164|500:164|468:96,1,125.999996154785,12|0,0:0|0:0,0:0:0:0:
408,28,109555,1,12,0:0:0:0:
244,208,109930,2,0,L|176:188,1,62.9999980773926,8|8,0:0|0:3,0:0:0:0:
140,120,110180,2,0,L|80:140,1,62.9999980773926,8|8,0:3|0:3,0:0:0:0:
20,220,110430,6,0,B|-12:256|-12:256|28:332,1,125.999996154785,12|0,0:0|0:0,0:0:0:0:
116,364,110805,1,12,0:0:0:0:
324,232,111180,2,0,L|340:304,1,62.9999980773926,8|0,0:0|0:0,0:0:0:0:
412,324,111430,2,0,L|420:293,3,31.4999990386963,0|0|0|0,3:0|3:0|3:0|3:0,0:0:0:0:
448,264,111680,5,4,1:0:0:0:
448,264,111805,2,0,L|432:192,1,62.9999980773926,8|8,0:3|0:3,0:0:0:0:
412,124,112055,1,8,0:0:0:0:
276,32,112305,1,8,0:3:0:0:
276,32,112430,2,0,L|208:48,1,62.9999980773926,8|8,0:0|0:3,0:0:0:0:
156,100,112680,1,8,0:3:0:0:
8,36,112930,6,0,L|2:5,2,31.4999990386963,8|8|8,0:3|0:3|0:3,0:0:0:0:
88,180,113305,2,0,L|93:149,2,31.4999990386963,0|0|8,3:0|3:0|0:3,0:0:0:0:
12,324,113680,2,0,L|7:293,2,31.4999990386963,8|8|8,0:3|0:3|0:0,0:0:0:0:
88,360,113930,2,0,L|160:344,1,62.9999980773926,8|8,0:3|0:3,0:0:0:0:
184,252,114180,6,0,P|219:203|279:211,1,125.999996154785,14|0,0:3|0:0,0:0:0:0:
320,284,114555,2,0,P|355:332|415:324,1,125.999996154785,10|0,0:3|0:0,0:0:0:0:
476,268,114930,2,0,P|484:236|472:208,1,62.9999980773926,10|0,0:3|0:0,0:0:0:0:
432,140,115180,1,10,0:3:0:0:
308,36,115430,6,0,P|248:50|180:68,1,125.999996154785,10|0,0:3|0:0,0:0:0:0:
116,108,115805,2,0,P|131:169|146:230,1,125.999996154785,10|0,0:3|0:0,0:0:0:0:
204,288,116180,2,0,L|272:272,1,62.9999980773926,10|0,0:3|0:0,0:0:0:0:
312,208,116430,1,10,0:3:0:0:
424,88,116680,5,10,0:0:0:0:
424,88,116805,2,0,L|444:152,1,62.9999980773926,8|0,0:3|0:0,0:0:0:0:
512,352,117430,1,12,0:0:0:0:
400,232,117680,1,8,0:0:0:0:
296,360,117930,5,8,0:3:0:0:
296,360,117992,1,8,0:3:0:0:
296,360,118055,2,0,L|232:344,1,62.9999980773926,8|8,0:3|0:3,0:0:0:0:
152,332,118305,2,0,L|144:372,2,31.4999990386963,8|8|8,0:3|0:3|0:3,0:0:0:0:
16,244,118680,2,0,L|24:284,2,31.4999990386963,8|8|8,0:3|0:3|0:3,0:0:0:0:
60,176,118930,2,0,P|84:156|124:156,1,62.9999980773926,8|0,0:0|1:0,0:0:0:0:
184,200,119180,6,0,B|244:184|224:260|292:244,1,125.999996154785,10|0,0:3|0:0,0:0:0:0:
360,212,119555,2,0,P|400:176|380:112,1,125.999996154785,10|0,0:3|0:0,0:0:0:0:
332,44,119930,2,0,L|268:68,1,62.9999980773926,10|0,0:3|0:0,0:0:0:0:
208,116,120180,1,10,0:3:0:0:
96,236,120430,6,0,P|68:296|112:344,1,125.999996154785,10|0,0:3|0:0,0:0:0:0:
180,360,120805,2,0,P|239:348|304:336,1,125.999996154785,10|0,0:3|0:0,0:0:0:0:
368,284,121180,2,0,L|428:304,1,62.9999980773926,10|0,0:3|0:0,0:0:0:0:
496,352,121430,1,10,0:3:0:0:
512,192,121680,5,10,0:0:0:0:
512,192,121805,2,0,P|516:164|504:132,1,62.9999980773926,8|0,0:3|0:0,0:0:0:0:
452,72,122055,2,0,B|400:36|400:36|352:76,1,125.999996154785,0|0,1:0|0:0,0:0:0:0:
300,140,122430,1,8,0:0:0:0:
184,24,122680,1,8,0:0:0:0:
40,92,122930,5,8,0:3:0:0:
40,92,122992,1,8,0:3:0:0:
40,92,123055,2,0,L|56:164,1,62.9999980773926,8|8,0:3|0:3,0:0:0:0:
120,200,123305,2,0,L|112:240,2,31.4999990386963,8|8|8,0:3|0:3|0:3,0:0:0:0:
16,328,123680,2,0,L|9:298,2,31.4999990386963,8|8|8,0:3|0:3|0:3,0:0:0:0:
84,372,123930,2,0,P|116:372|144:344,1,62.9999980773926,14|0,0:0|0:0,0:0:0:0:
208,280,124180,6,0,B|257:294|257:294|262:308|262:308|308:321,1,112,2|0,1:0|0:0,0:0:0:0:
380,348,124555,1,0,0:0:0:0:
504,148,124930,2,0,P|504:116|484:92,1,56,2|0,0:0|0:0,0:0:0:0:
428,48,125180,2,0,P|396:48|372:68,1,56,2|0,0:0|0:0,0:0:0:0:
316,112,125430,6,0,B|264:104|276:168|224:160,1,112,2|0,0:0|0:0,0:0:0:0:
164,108,125805,1,0,0:0:0:0:
12,288,126180,2,0,L|32:360,1,56,0|2,0:0|0:0,0:0:0:0:
100,368,126430,2,0,L|160:352,1,56,2|0,3:0|0:0,0:0:0:0:
176,280,126680,6,0,P|208:240|276:252,1,112,2|0,3:0|0:0,0:0:0:0:
312,304,127055,2,0,P|344:344|412:332,1,112,2|0,3:0|0:0,0:0:0:0:
448,280,127430,1,2,3:0:0:0:
348,156,127680,1,2,3:0:0:0:
460,20,127930,6,0,P|401:31|328:48,1,125.999996154785,10|0,0:0|0:0,0:0:0:0:
272,96,128305,2,0,P|210:82|148:69,1,125.999996154785,8|0,0:0|0:0,0:0:0:0:
80,24,128680,2,0,P|60:48|60:80,1,62.9999980773926,8|0,0:0|0:0,0:0:0:0:
104,152,128930,1,2,3:0:0:0:
104,152,129055,2,0,L|89:216,1,62.9999980773926,8|8,0:0|0:0,0:0:0:0:
24,260,129305,5,2,3:0:0:0:
24,260,129430,2,0,L|39:324,1,62.9999980773926,8|8,0:0|0:0,0:0:0:0:
116,364,129680,1,2,3:0:0:0:
116,364,129805,1,8,0:0:0:0:
168,300,129930,2,0,B|228:284|208:360|276:344,1,125.999996154785,8|2,0:0|3:0,0:0:0:0:
432,252,130430,6,0,P|452:196|392:148,1,140,6|0,1:0|0:0,0:0:0:0:
320,176,130805,1,8,0:0:0:0:
320,176,130930,2,0,L|248:156,1,70,2|0,0:0|1:0,0:0:0:0:
184,112,131180,6,0,P|148:120|132:148,1,70,2|0,1:0|0:0,0:0:0:0:
52,124,131430,2,0,P|40:159|57:187,1,70,10|0,0:0|0:0,0:0:0:0:
128,228,131680,6,0,P|194:248|264:272,1,140,2|0,1:0|0:0,0:0:0:0:
304,344,132055,2,0,B|384:360|344:284|428:300,1,140,8|0,0:0|1:0,0:0:0:0:
508,324,132430,2,0,L|492:252,1,70,0|0,1:0|1:0,0:0:0:0:
468,176,132680,1,10,0:0:0:0:
364,44,132930,6,0,B|292:20|312:112|244:88,1,140,6|0,1:0|0:0,0:0:0:0:
172,44,133305,1,8,0:0:0:0:
172,44,133430,2,0,P|140:24|104:28,1,70,2|0,0:0|1:0,0:0:0:0:
40,76,133680,2,0,L|56:148,1,70,2|0,1:0|0:0,0:0:0:0:
124,196,133930,2,0,L|108:268,1,70,10|0,0:0|0:0,0:0:0:0:
40,308,134180,6,0,P|68:344|160:324,1,140,2|0,1:0|0:0,0:0:0:0:
208,272,134555,2,0,P|236:236|328:256,1,140,8|0,0:0|1:0,0:0:0:0:
376,312,134930,2,0,P|413:301|451:290,1,70,0|8,1:0|0:0,0:0:0:0:
456,288,135117,1,8,0:0:0:0:
467,284,135180,1,10,0:0:0:0:
504,120,135430,6,0,B|460:68|460:68|400:116,1,140,6|0,1:0|0:0,0:0:0:0:
352,180,135805,1,8,0:0:0:0:
352,180,135930,2,0,L|280:160,1,70,2|0,0:0|0:0,0:0:0:0:
204,144,136180,2,0,P|192:184|208:216,1,70,2|0,1:0|0:0,0:0:0:0:
264,268,136430,2,0,P|276:308|260:340,1,70,10|0,0:0|0:0,0:0:0:0:
160,368,136680,6,0,P|92:376|52:316,1,140,6|8,1:0|0:0,0:0:0:0:
20,216,137055,2,0,B|64:148|-16:148|32:76,1,140,4|8,1:0|0:3,0:0:0:0:
124,28,137430,2,0,P|188:42|268:60,1,140,4|10,1:0|0:0,0:0:0:0:
416,124,137930,6,0,P|444:160|400:236,1,140,6|0,1:0|0:0,0:0:0:0:
328,272,138305,2,0,B|256:296|276:204|208:228,1,140,8|0,0:0|1:0,0:0:0:0:
144,280,138680,2,0,P|116:304|84:304,1,70,0|0,1:0|0:0,0:0:0:0:
24,244,138930,1,8,0:0:0:0:
96,92,139180,6,0,B|154:77|154:77|166:61|166:61|232:45,1,140,6|8,1:0|0:0,0:0:0:0:
304,24,139555,2,0,L|384:48,1,70,4|8,1:0|0:0,0:0:0:0:
424,124,139805,1,8,0:0:0:0:
424,124,139867,1,8,0:0:0:0:
424,124,139930,2,0,L|401:201,1,70,2|8,1:0|0:0,0:0:0:0:
336,240,140180,2,0,L|268:219,1,70,10|8,0:0|0:0,0:0:0:0:
180,152,140430,6,0,P|115:168|44:188,1,140,6|0,1:0|0:0,0:0:0:0:
12,268,140805,1,8,0:0:0:0:
12,268,140930,2,0,P|4:304|24:336,1,70,2|0,0:0|1:0,0:0:0:0:
100,364,141180,2,0,L|168:344,1,70,2|0,1:0|0:0,0:0:0:0:
236,292,141430,2,0,L|304:312,1,70,10|0,0:0|0:0,0:0:0:0:
388,328,141680,6,0,P|440:292|424:224,1,140,2|0,1:0|0:0,0:0:0:0:
364,164,142055,2,0,B|292:140|312:232|244:208,1,140,8|8,0:0|0:0,0:0:0:0:
172,164,142430,2,0,L|104:188,1,70,2|0,1:0|3:0,0:0:0:0:
44,244,142680,1,10,0:0:0:0:
8,80,142930,6,0,P|44:24|124:48,1,140,6|0,1:0|0:0,0:0:0:0:
180,80,143305,1,8,0:0:0:0:
180,80,143430,2,0,P|217:80|248:52,1,70,2|0,0:0|1:0,0:0:0:0:
320,24,143680,2,0,L|392:48,1,70,2|0,1:0|0:0,0:0:0:0:
444,108,143930,2,0,L|420:184,1,70,10|0,0:0|0:0,0:0:0:0:
376,276,144180,6,0,B|304:252|324:344|256:320,1,140,6|0,1:0|0:0,0:0:0:0:
208,252,144555,2,0,P|144:228|104:276,1,140,8|0,0:0|1:0,0:0:0:0:
92,360,144930,2,0,P|56:360|32:336,1,70,0|8,1:0|0:0,0:0:0:0:
28,324,145117,1,8,0:0:0:0:
24,312,145180,1,10,0:3:0:0:
36,144,145430,6,0,P|104:126|180:108,1,140,6|0,1:0|0:0,0:0:0:0:
240,60,145805,1,8,0:0:0:0:
240,60,145930,2,0,L|320:88,1,70,2|0,0:0|1:0,0:0:0:0:
380,120,146180,2,0,P|388:160|364:192,1,70,2|0,1:0|0:0,0:0:0:0:
308,236,146430,2,0,P|300:276|324:308,1,70,10|0,0:0|0:0,0:0:0:0:
404,368,146680,6,0,P|480:376|512:320,1,140,6|8,1:0|0:0,0:0:0:0:
484,224,147055,2,0,B|452:180|452:180|492:92,1,140,4|8,1:0|0:3,0:0:0:0:
424,12,147430,2,0,L|350:32,1,70,4|8,1:0|0:0,0:0:0:0:
288,80,147680,1,10,0:0:0:0:
136,8,147930,6,0,P|123:69|108:152,1,140,12|0,0:0|0:0,0:0:0:0:
40,192,148305,2,0,P|52:253|68:336,1,140,8|0,0:0|1:0,0:0:0:0:
140,372,148680,2,0,L|208:353,1,70,8|8,0:0|0:0,0:0:0:0:
220,348,148867,1,8,0:0:0:0:
232,344,148930,1,8,0:0:0:0:
396,368,149180,6,0,B|440:300|360:300|408:228,1,140,6|8,1:0|0:0,0:0:0:0:
472,152,149555,2,0,P|464:96|392:84,1,140,4|8,1:0|0:0,0:0:0:0:
324,136,149930,2,0,P|292:164|256:156,1,70,0|8,1:0|0:0,0:0:0:0:
204,108,150180,1,8,0:0:0:0:
56,32,150430,6,0,L|76:108,1,70,6|0,1:0|0:0,0:0:0:0:
136,164,150680,1,0,0:0:0:0:
136,164,150805,2,0,B|172:208|172:208|128:292,1,140,0|0,1:0|0:0,0:0:0:0:
56,320,151180,2,0,L|36:252,1,70,10|0,0:0|0:0,0:0:0:0:
12,172,151430,1,2,0:0:0:0:
148,76,151680,6,0,P|184:32|264:52,1,140,2|0,1:0|0:0,0:0:0:0:
296,120,152055,2,0,P|332:164|412:144,1,140,2|0,1:0|0:0,0:0:0:0:
472,92,152430,1,10,0:0:0:0:
508,256,152680,2,0,L|488:328,1,70,14|0,0:0|0:0,0:0:0:0:
400,372,152930,6,0,L|336:352,1,62.9999980773926,6|0,1:0|0:0,0:0:0:0:
280,296,153180,1,0,0:0:0:0:
280,296,153305,2,0,B|232:256|232:256|176:300,1,125.999996154785,0|0,1:0|0:0,0:0:0:0:
136,364,153680,2,0,L|72:348,1,62.9999980773926,8|0,0:0|0:0,0:0:0:0:
20,288,153930,1,0,1:0:0:0:
76,120,154180,6,0,P|120:80|184:108,1,125.999996154785,0|0,3:0|0:0,0:0:0:0:
232,172,154555,2,0,B|200:168|176:200|200:264|264:272|336:212|264:160|336:120|384:152,1,280,0|0,3:0|0:0,0:0:0:0:
380,149,168846,6,0,P|284:123|176:96,1,210,2|0,0:0|0:0,0:0:0:0:
176,96,171479,6,0,B|288:56|244:200|360:160,1,210,2|2,0:0|0:0,0:0:0:0:
352,162,174113,6,0,P|364:74|260:74,1,210,2|2,0:0|0:0,0:0:0:0:
265,67,177930,6,0,B|201:67|233:139|161:139,1,125.999996154785,8|0,0:0|0:0,0:0:0:0:
96,108,178305,2,0,B|60:144|60:144|92:220,1,125.999996154785,8|0,0:0|0:0,0:0:0:0:
136,280,178680,2,0,L|204:256,1,62.9999980773926,8|4,0:0|1:3,0:0:0:0:
260,204,178930,2,0,L|319:224,1,62.9999980773926,0|0,1:0|0:0,0:0:0:0:
408,292,179180,6,0,B|340:280|364:372|296:356,1,140,6|0,1:0|0:0,0:0:0:0:
220,336,179555,1,8,0:0:0:0:
220,336,179680,2,0,L|152:355,1,70,2|0,0:0|1:0,0:0:0:0:
68,368,179930,2,0,P|48:340|52:304,1,70,2|0,1:0|0:0,0:0:0:0:
112,248,180180,2,0,P|132:220|128:184,1,70,10|0,0:0|0:0,0:0:0:0:
96,108,180430,6,0,P|164:87|236:68,1,140,2|2,1:0|0:0,0:0:0:0:
308,32,180805,2,0,P|368:44|376:128,1,140,10|2,0:0|1:0,0:0:0:0:
328,172,181180,2,0,L|348:252,1,70,2|0,1:0|0:0,0:0:0:0:
372,320,181430,1,10,0:0:0:0:
208,364,181680,6,0,B|136:388|156:296|88:320,1,140,6|0,1:0|0:0,0:0:0:0:
8,332,182055,1,8,0:0:0:0:
8,332,182180,2,0,L|24:260,1,70,2|0,0:0|1:0,0:0:0:0:
48,184,182430,2,0,P|72:160|116:160,1,70,2|0,1:0|0:0,0:0:0:0:
172,212,182680,2,0,P|196:236|240:236,1,70,10|0,0:0|0:0,0:0:0:0:
300,188,182930,6,0,B|372:164|352:256|418:232,1,140,2|0,1:0|0:0,0:0:0:0:
488,184,183305,2,0,P|516:128|456:72,1,140,8|0,0:0|1:0,0:0:0:0:
392,48,183680,2,0,L|315:32,1,70,0|8,1:0|0:0,0:0:0:0:
310,31,183867,1,8,0:0:0:0:
298,28,183930,1,10,0:0:0:0:
132,12,184180,6,0,P|72:28|72:104,1,140,6|0,1:0|0:0,0:0:0:0:
120,168,184555,1,8,0:0:0:0:
120,168,184680,2,0,P|140:200|128:240,1,70,2|0,0:0|1:0,0:0:0:0:
84,296,184930,2,0,L|160:316,1,70,2|0,1:0|0:0,0:0:0:0:
208,376,185180,2,0,L|284:356,1,70,10|0,0:0|0:0,0:0:0:0:
324,260,185430,6,0,B|396:236|376:328|442:304,1,140,6|8,1:0|0:0,0:0:0:0:
492,208,185805,2,0,B|528:148|528:148|472:104,1,140,4|8,1:0|0:3,0:0:0:0:
384,40,186180,2,0,P|318:56|232:80,1,140,4|10,1:0|0:0,0:0:0:0:
132,196,186680,6,0,P|68:212|28:156,1,140,4|0,1:0|0:0,0:0:0:0:
8,76,187055,2,0,B|80:100|60:8|126:32,1,140,8|0,0:0|0:0,0:0:0:0:
181,95,187430,2,0,L|261:71,1,70,0|0,1:0|0:0,0:0:0:0:
328,48,187680,1,8,0:0:0:0:
468,144,187930,6,0,B|508:184|508:184|468:264,1,140,4|8,1:0|0:0,0:0:0:0:
420,324,188305,2,0,L|352:300,1,70,4|8,1:0|0:0,0:0:0:0:
296,244,188555,1,8,0:0:0:0:
296,244,188617,1,0,0:0:0:0:
296,244,188680,2,0,P|271:223|235:223,1,70,0|8,1:0|0:0,0:0:0:0:
180,284,188930,2,0,P|152:304|116:304,1,70,10|8,0:0|0:0,0:0:0:0:
36,228,189180,6,0,P|0:172|44:108,1,140,6|0,1:0|0:0,0:0:0:0:
104,68,189555,1,8,0:0:0:0:
104,68,189680,2,0,P|138:66|163:89,1,70,2|0,0:0|1:0,0:0:0:0:
220,152,189930,2,0,L|292:132,1,70,2|0,1:0|0:0,0:0:0:0:
356,84,190180,2,0,L|423:102,1,70,10|0,0:0|0:0,0:0:0:0:
480,164,190430,6,0,B|465:222|465:222|449:238|449:238|433:300,1,140,2|0,1:0|0:0,0:0:0:0:
388,364,190805,2,0,B|316:388|336:296|270:320,1,140,8|8,0:0|0:0,0:0:0:0:
196,360,191180,2,0,L|128:342,1,70,2|0,1:0|0:0,0:0:0:0:
48,316,191430,1,10,0:0:0:0:
32,148,191680,6,0,P|68:96|140:120,1,140,6|0,1:0|0:0,0:0:0:0:
184,180,192055,1,8,0:0:0:0:
184,180,192180,2,0,L|256:200,1,70,2|0,0:0|1:0,0:0:0:0:
332,220,192429,2,0,P|366:218|389:193,1,70,2|0,1:0|0:0,0:0:0:0:
472,212,192680,2,0,P|487:181|477:148,1,70,10|0,0:0|0:0,0:0:0:0:
392,80,192930,6,0,P|327:65|252:48,1,140,6|0,1:0|0:0,0:0:0:0:
172,28,193305,2,0,P|112:28|96:104,1,140,8|0,0:0|1:0,0:0:0:0:
144,160,193680,2,0,L|123:227,1,70,0|8,1:0|0:0,0:0:0:0:
119,241,193867,1,8,0:0:0:0:
115,254,193930,1,10,0:0:0:0:
248,356,194180,6,0,P|312:372|368:304,1,140,6|0,1:0|0:0,0:0:0:0:
360,248,194555,1,8,0:0:0:0:
360,248,194680,2,0,L|378:181,1,70,2|0,0:0|1:0,0:0:0:0:
408,100,194930,2,0,P|388:72|348:68,1,70,2|0,1:0|0:0,0:0:0:0:
288,116,195180,2,0,P|268:144|228:148,1,70,10|0,0:0|0:0,0:0:0:0:
160,68,195430,6,0,P|116:16|52:32,1,140,6|8,1:0|0:0,0:0:0:0:
12,132,195805,2,0,B|56:200|-24:200|24:272,1,140,4|8,1:0|0:3,0:0:0:0:
96,344,196180,2,0,P|128:364|164:356,1,70,4|8,1:3|0:0,0:0:0:0:
220,300,196430,1,10,0:0:0:0:
316,164,196680,6,0,B|388:140|368:232|434:208,1,140,6|0,1:0|0:0,0:0:0:0:
500,156,197055,2,0,P|520:100|448:52,1,140,8|0,0:0|1:0,0:0:0:0:
384,40,197430,2,0,L|316:59,1,70,10|0,0:0|3:0,0:0:0:0:
304,64,197617,1,0,3:0:0:0:
292,68,197680,1,10,0:0:0:0:
180,192,197930,6,0,B|128:240|128:240|68:192,1,140,6|8,1:0|0:0,0:0:0:0:
12,140,198305,2,0,P|-12:96|56:44,1,140,4|8,1:0|0:0,0:0:0:0:
116,84,198680,2,0,P|152:92|192:60,1,70,0|8,1:0|0:0,0:0:0:0:
236,16,198930,1,10,0:0:0:0:
396,68,199180,6,0,L|412:140,1,70,6|0,1:0|0:0,0:0:0:0:
464,208,199430,1,0,0:0:0:0:
464,208,199555,2,0,P|448:273|432:348,1,140,0|0,1:0|0:0,0:0:0:0:
352,372,199930,2,0,L|280:352,1,70,10|0,0:0|0:0,0:0:0:0:
208,320,200180,1,2,0:0:0:0:
72,224,200430,6,0,B|32:164|32:164|84:112,1,140,2|0,1:0|0:0,0:0:0:0:
156,80,200805,2,0,P|222:95|292:112,1,140,2|0,1:0|0:0,0:0:0:0:
372,136,201180,1,10,0:0:0:0:
456,280,201430,2,0,L|384:300,1,70,12|0,0:0|0:0,0:0:0:0:
292,352,201680,6,0,P|256:348|232:312,1,70,6|0,1:0|0:0,0:0:0:0:
196,248,201930,1,0,0:0:0:0:
196,248,202055,2,0,P|152:228|92:288,1,140,2|0,1:0|0:0,0:0:0:0:
28,336,202430,2,0,L|8:264,1,70,10|0,0:0|0:0,0:0:0:0:
16,184,202680,1,10,0:0:0:0:
128,60,202930,5,10,0:3:0:0:
128,60,203055,2,0,P|152:36|200:36,1,70,8|8,0:0|0:0,0:0:0:0:
256,88,203305,1,10,0:3:0:0:
256,88,203430,2,0,P|280:112|328:112,1,70,8|8,0:0|0:0,0:0:0:0:
392,84,203680,2,0,L|412:160,1,70,2|8,1:0|0:3,0:0:0:0:
432,232,203930,1,8,0:3:0:0:
324,360,204180,6,0,L|256:340,1,70,6|0,1:0|0:0,0:0:0:0:
204,280,204430,1,0,0:0:0:0:
204,280,204555,2,0,B|132:256|152:348|86:324,1,140,0|0,3:0|0:0,0:0:0:0:
24,268,204930,2,0,P|12:232|36:200,1,70,10|0,0:0|0:0,0:0:0:0:
100,164,205180,1,2,1:0:0:0:
256,220,205430,6,0,P|323:238|390:257,1,140,2|0,1:0|0:0,0:0:0:0:
472,228,205805,2,0,B|512:192|512:192|472:96,1,140,0|0,3:0|0:0,0:0:0:0:
432,44,206180,1,10,0:0:0:0:
276,104,206430,2,0,L|208:88,1,70,14|0,0:0|0:0,0:0:0:0:
116,28,206680,6,0,P|80:28|52:52,1,70,6|0,1:0|0:0,0:0:0:0:
12,120,206930,1,0,0:0:0:0:
12,120,207055,2,0,P|27:183|44:256,1,140,0|0,3:0|0:0,0:0:0:0:
84,332,207430,2,0,L|152:316,1,70,10|0,0:0|0:0,0:0:0:0:
232,288,207680,1,10,0:0:0:0:
384,216,207930,6,0,P|412:176|360:108,1,140,6|0,1:0|0:0,0:0:0:0:
292,76,208305,1,0,1:0:0:0:
160,180,208555,1,8,0:0:0:0:
160,180,208680,1,0,1:0:0:0:
44,60,208930,2,0,L|20:140,1,70,10|0,0:0|0:0,0:0:0:0:
0,228,209180,6,0,B|60:212|40:288|108:272,1,125.999996154785,6|0,1:0|0:0,0:0:0:0:
192,256,209555,2,0,P|240:252|288:324,1,125.999996154785
340,372,209930,2,0,L|408:352,1,62.9999980773926,8|0,0:0|0:0,0:0:0:0:
476,324,210180,1,0,0:0:0:0:
472,160,210430,2,0,P|412:144|336:128,1,125.999996154785,0|0,3:0|0:0,0:0:0:0:
280,88,210805,2,0,P|218:101|157:117,1,125.999996154785
76,112,211180,1,8,0:0:0:0:
12,264,211430,2,0,P|8:300|28:324,1,62.9999980773926,4|0,3:0|0:0,0:0:0:0:
124,364,211680,6,0,P|183:372|215:322,1,125.999996154785,4|0,3:0|0:0,0:0:0:0:
252,248,212055,2,0,B|312:232|292:308|360:292,1,125.999996154785
432,252,212430,2,0,L|412:184,1,62.9999980773926,8|0,0:0|0:0,0:0:0:0:
384,116,212680,1,8,0:0:0:0:
248,24,212930,6,0,B|193:38|193:38|185:53|185:53|131:67,1,125.999996154785,0|0,3:0|0:0,0:0:0:0:
60,100,213305,2,0,L|80:172,1,62.9999980773926,0|0,3:0|0:0,0:0:0:0:
112,240,213555,1,8,0:0:0:0:
112,240,213680,2,0,B|172:256|152:180|220:196,1,125.999996154785,0|8,3:0|0:3,0:0:0:0:
364,276,214180,5,4,0:0:0:0:
256,192,214242,12,0,223430,0:0:0:0:
