osu file format v14

[General]
AudioFilename: audio.mp3
AudioLeadIn: 0
PreviewTime: 158180
Countdown: 0
SampleSet: Soft
StackLeniency: 0.6
Mode: 0
LetterboxInBreaks: 0
WidescreenStoryboard: 1

[Editor]
DistanceSpacing: 0.8
BeatDivisor: 4
GridSize: 32
TimelineZoom: 1.8

[Metadata]
Title:Nagaiki no Kamisama
TitleUnicode:ながいきの神様
Artist:KikuoHana
ArtistUnicode:きくおはな
Creator:SMOKELIND
Version:Nymphe's Expert
Source:
Tags:God of Longevity Hanatan 花たん YURiCa ユリカ 第一幕 1 First Act Daiichi Maku Japanese Rock Pepekcz Kujinn Reform Shikibe Mayu Kazato Asa Shizuku- Nymphe Kiyoshi Guarden
BeatmapID:3136895
BeatmapSetID:1494099

[Difficulty]
HPDrainRate:5
CircleSize:4.2
OverallDifficulty:8.7
ApproachRate:9.2
SliderMultiplier:1.82
SliderTickRate:1

[Events]
//Background and Video events
0,0,"81352383_p0.jpg",0,0
//Break Periods
2,158805,167930
//Storyboard Layer 0 (Background)
//Storyboard Layer 1 (Fail)
//Storyboard Layer 2 (Pass)
//Storyboard Layer 3 (Foreground)
//Storyboard Layer 4 (Overlay)
//Storyboard Sound Samples

[TimingPoints]
430,250,5,2,77,47,1,0
430,-125,5,2,77,47,0,0
4930,-100,5,2,77,57,0,0
5430,-117.647058823529,5,2,77,57,0,0
7680,-100,5,2,77,57,0,0
7930,-100,5,2,77,67,0,0
10430,-100,5,2,77,57,0,0
15180,-133.333333333333,5,2,77,57,0,0
15367,-555.555555555556,5,2,77,5,0,0
15430,-153.846153846153,5,2,77,57,0,0
22930,-125,5,2,77,57,0,0
25430,-142.857142857143,5,2,77,57,0,0
35430,-100,5,2,77,67,0,0
36430,-125,5,2,77,67,0,0
36680,-100,5,2,77,67,0,0
38305,-83.3333333333333,5,2,77,67,0,0
38680,-100,5,2,77,67,0,0
40430,-111.111111111111,5,2,77,67,0,0
45430,-166.666666666667,5,2,77,67,0,0
49180,-142.857142857143,5,2,77,67,0,0
51680,-100,5,2,77,87,0,0
52180,-83.3333333333333,5,2,77,87,0,0
52430,-100,5,2,77,87,0,0
53930,-142.857142857143,5,2,77,87,0,0
54180,-100,5,2,77,87,0,0
54680,-83.3333333333333,5,2,77,87,0,0
54930,-100,5,2,77,87,0,0
56430,-142.857142857143,5,2,77,87,0,0
56680,-100,5,2,77,87,0,0
57430,-83.3333333333333,5,2,77,87,0,0
57930,-100,5,2,77,87,0,0
58930,-125,5,2,77,87,0,0
59180,-100,5,2,77,87,0,0
62180,-83.3333333333333,5,2,77,87,0,0
62430,-100,5,2,77,87,0,0
63930,-142.857142857143,5,2,77,87,0,0
64180,-100,5,2,77,87,0,0
71680,-111.111111111111,5,2,77,87,0,0
76680,-125,5,2,77,77,0,0
82930,-111.111111111111,5,2,77,27,0,0
85430,-142.857142857143,5,2,77,27,0,0
86680,-142.857142857143,5,2,77,47,0,0
96680,-100,5,2,77,67,0,0
99180,-125,5,2,77,67,0,0
100430,-100,5,2,77,67,0,0
104180,-125,5,2,77,67,0,0
105430,-166.666666666667,5,2,77,57,0,0
106180,-500,5,2,77,57,0,0
106680,-111.111111111111,5,2,77,57,0,0
107930,-100,5,2,77,77,0,0
114180,-100,5,2,77,67,0,0
119180,-111.111111111111,5,2,77,67,0,0
123055,-100,5,2,77,67,0,0
124180,-166.666666666667,5,2,77,67,0,0
124930,-125,5,2,77,67,0,0
127930,-166.666666666667,5,2,77,67,0,0
128680,-125,5,2,77,67,0,0
130180,-142.857142857143,5,2,77,67,0,0
130430,-100,5,2,77,87,0,0
130930,-83.3333333333333,5,2,77,87,0,0
131180,-100,5,2,77,87,0,0
132680,-142.857142857143,5,2,77,87,0,0
132930,-100,5,2,77,87,0,0
133430,-83.3333333333333,5,2,77,87,0,0
133680,-100,5,2,77,87,0,0
135930,-83.3333333333333,5,2,77,87,0,0
136180,-100,5,2,77,87,0,0
140930,-83.3333333333333,5,2,77,87,0,0
141180,-100,5,2,77,87,0,0
142680,-142.857142857143,5,2,77,87,0,0
142930,-100,5,2,77,87,0,0
143430,-83.3333333333333,5,2,77,87,0,0
143680,-100,5,2,77,87,0,0
145930,-83.3333333333333,5,2,77,87,0,0
146180,-100,5,2,77,87,0,0
147930,-111.111111111111,5,2,77,87,0,0
150430,-100,5,2,77,87,0,0
152930,-100,5,2,77,77,0,0
154180,-142.857142857143,5,2,77,67,0,0
154555,-142.857142857143,5,2,77,57,0,0
155179,-142.857142857143,5,2,77,27,0,0
168846,438.917337234821,3,2,77,17,1,0
175430,250,5,2,77,17,1,0
177430,-142.857142857143,5,2,77,17,0,0
177930,-76.9230769230769,5,2,77,67,0,0
178430,-90.9090909090909,5,2,77,67,0,0
179180,-100,5,2,77,87,0,0
179680,-83.3333333333333,5,2,77,87,0,0
179930,-100,5,2,77,87,0,0
181430,-142.857142857143,5,2,77,87,0,0
181680,-100,5,2,77,87,0,0
182180,-83.3333333333333,5,2,77,87,0,0
182430,-100,5,2,77,87,0,0
184680,-83.3333333333333,5,2,77,87,0,0
184930,-100,5,2,77,87,0,0
187180,-83.3333333333333,5,2,77,87,0,0
187430,-100,5,2,77,87,0,0
189680,-83.3333333333333,5,2,77,87,0,0
189930,-100,5,2,77,87,0,0
191430,-142.857142857143,5,2,77,87,0,0
191680,-100,5,2,77,87,0,0
192180,-83.3333333333333,5,2,77,87,0,0
192430,-100,5,2,77,87,0,0
194680,-83.3333333333333,5,2,77,87,0,0
194930,-100,5,2,77,87,0,0
197180,-83.3333333333333,5,2,77,87,0,0
197430,-100,5,2,77,87,0,0
199180,-111.111111111111,5,2,77,87,0,0
204180,-125,5,2,77,67,0,0
209180,-166.666666666667,5,2,77,57,0,0
214180,-294.117647058824,5,2,77,47,0,0
214263,-294.117647058824,5,2,77,5,0,0

[Colours]
Combo1 : 164,0,164
Combo2 : 82,0,164

[HitObjects]
462,83,430,6,0,B|472:48|472:48|448:14,2,72.8,2|0|0,2:0|2:0|2:0,2:0:0:0:
439,210,805,1,0,2:0:0:0:
499,161,930,2,0,L|427:172,1,72.8,0|0,2:0|2:0,2:0:0:0:
292,11,1180,5,0,2:0:0:0:
214,68,1305,2,0,B|241:29|281:45|281:45|300:90|360:78,1,145.6,2|0,2:0|2:0,2:0:0:0:
198,177,1680,5,2,2:0:0:0:
128,143,1805,1,0,2:0:0:0:
58,109,1930,1,0,2:0:0:0:
104,294,2055,6,0,P|130:261|113:228,2,72.8,0|0|0,2:0|2:0|2:0,2:0:0:0:
37,384,2430,1,0,2:0:0:0:
0,317,2555,1,2,2:0:0:0:
208,384,2805,5,0,2:0:0:0:
262,330,2930,2,0,L|188:348,2,72.8,2|0|0,2:0|2:0|2:0,2:0:0:0:
399,344,3305,1,0,2:0:0:0:
339,301,3430,2,0,B|317:268|317:268|334:226,1,72.8,0|0,2:0|2:0,2:0:0:0:
441,79,3680,5,0,2:0:0:0:
500,127,3805,2,0,B|449:108|449:108|411:141|411:141|366:130,1,145.6,2|0,2:0|2:0,2:0:0:0:
212,73,4180,5,2,2:0:0:0:
282,39,4305,1,0,2:0:0:0:
352,5,4430,1,0,2:0:0:0:
265,173,4555,2,0,P|226:159|190:147,1,72.8,0|0,2:0|2:0,2:0:0:0:
28,237,4805,1,0,2:0:0:0:
74,130,4930,6,0,B|98:89|98:89|106:203,1,136.5,10|0,2:0|2:0,2:0:0:0:
120,200,5180,1,8,2:3:0:0:
157,375,5430,6,0,B|173:331|219:340|219:340|242:393|301:376,1,154.700002950668,14|0,2:3|2:0,2:0:0:0:
386,276,5805,2,0,P|348:278|320:329,1,77.3500014753342,0|0,2:0|2:0,2:0:0:0:
422,384,6055,1,0,2:0:0:0:
461,229,6180,2,0,P|485:264|470:314,1,77.3500014753342,8|0,2:0|2:0,2:0:0:0:
356,189,6430,2,0,P|361:150|367:112,1,77.3500014753342,0|0,2:0|2:0,2:0:0:0:
508,71,6680,6,0,B|487:39|507:-3|507:-3|490:38|435:35,1,154.700002950668,2|0,1:0|2:0,2:0:0:0:
356,0,7055,1,0,1:0:0:0:
291,87,7180,2,0,B|250:80|250:80|245:82|245:82|202:76,1,77.3500014753342,0|0,2:0|2:0,2:0:0:0:
159,28,7367,1,0,2:0:0:0:
153,22,7430,2,0,P|129:57|148:111,1,77.3500014753342,8|0,2:0|2:0,2:0:0:0:
76,250,7680,6,0,B|101:196|101:196|95:181|95:181|58:248,1,136.5,6|0,1:3|2:0,2:0:0:0:
0,290,7930,6,0,B|42:244|91:284|91:284|130:314|171:287,1,182,4|0,1:0|2:0,2:0:0:0:
318,229,8305,1,0,1:0:0:0:
236,367,8430,1,0,2:0:0:0:
316,339,8555,1,0,2:0:0:0:
229,172,8680,2,0,P|238:224|245:273,1,91,8|0,2:0|2:0,2:0:0:0:
396,362,8930,2,0,P|404:319|367:278,1,91,8|0,2:0|2:0,2:0:0:0:
352,85,9180,5,0,1:0:0:0:
449,197,9305,2,0,L|458:148,2,45.5,8|8|8,2:0|2:0|2:0,2:0:0:0:
303,15,9555,5,0,1:0:0:0:
206,127,9680,2,0,L|197:78,2,45.5,8|8|8,0:0|0:0|0:0,2:0:0:0:
341,221,9930,6,0,L|349:165,1,45.5,0|0,1:0|3:0,2:0:0:0:
158,276,10055,2,0,L|150:220,1,45.5,8|0,2:0|2:0,2:0:0:0:
251,384,10180,6,0,L|260:330,1,45.5,8|0,3:0|2:0,2:0:0:0:
251,326,10305,2,0,L|242:380,1,45.5,8|8,2:3|2:3,2:0:0:0:
254,192,10430,5,12,3:2:0:0:
254,192,10805,1,0,2:0:0:0:
16,15,11180,5,0,2:0:0:0:
83,77,11430,1,0,2:0:0:0:
254,192,11680,5,0,2:0:0:0:
254,192,12055,5,0,2:0:0:0:
25,373,12430,5,0,2:0:0:0:
80,300,12680,1,0,2:0:0:0:
254,192,12930,5,0,2:0:0:0:
254,192,13305,5,0,2:0:0:0:
491,377,13680,5,0,2:0:0:0:
420,319,13930,1,0,2:0:0:0:
254,192,14180,5,0,2:0:0:0:
254,192,14555,1,0,2:0:0:0:
492,13,14930,5,0,2:0:0:0:
413,84,15180,2,0,B|390:63|405:27|405:27|406:56|437:74,1,102.375003905296,2|0,2:0|2:0,2:0:0:0:
421,62,15430,6,0,B|364:27|328:77|342:84|311:132|256:103,1,177.449991876984,2|0,2:0|2:0,2:0:0:0:
67,9,16180,2,0,P|74:44|79:75,1,59.149997292328,2|0,2:0|2:0,2:0:0:0:
2,171,16430,2,0,P|8:135|33:114,1,59.149997292328,2|0,2:0|2:0,2:0:0:0:
154,231,16680,6,0,B|113:229|93:176|93:176|102:229|64:255,1,177.449991876984,2|0,2:0|2:0,2:0:0:0:
275,359,17430,2,0,P|310:371|339:357,1,59.149997292328,0|0,2:0|2:0,2:0:0:0:
408,290,17680,2,0,P|379:283|353:295,1,59.149997292328,2|0,2:0|2:0,2:0:0:0:
505,321,17930,6,0,B|481:334|468:358|468:358|403:303|456:242,1,177.449991876984,2|0,2:0|2:0,2:0:0:0:
465,67,18680,2,0,B|499:48|481:13|481:13|446:30|465:66,1,118.299994584656,2|2,2:0|2:0,2:0:0:0:
473,144,19180,2,0,B|466:80|406:101|406:101|390:153|329:132,1,177.449991876984,2|0,2:0|2:0,2:0:0:0:
228,299,19930,2,0,P|259:266|257:242,1,59.149997292328,0|0,2:0|2:0,2:0:0:0:
127,313,20180,2,0,L|141:379,1,59.149997292328,2|0,2:0|2:0,2:0:0:0:
173,231,20430,6,0,B|198:202|167:131|124:133|124:133|153:150|144:192,1,177.449991876984,2|0,2:0|2:0,2:0:0:0:
15,157,20930,2,0,P|50:182|71:175,1,59.149997292328,2|0,2:0|2:0,2:0:0:0:
97,58,21180,2,0,P|57:75|53:97,1,59.149997292328,2|0,2:0|2:0,2:0:0:0:
146,172,21430,2,0,P|150:129|133:114,1,59.149997292328,2|0,2:0|2:0,2:0:0:0:
219,40,21680,6,0,B|260:29|271:-7|271:-7|273:71|337:76,1,177.449991876984,2|0,2:0|2:0,2:0:0:0:
483,13,22430,2,0,P|462:46|471:81,1,59.149997292328,0|0,2:0|2:0,2:0:0:0:
506,132,22680,1,2,2:0:0:0:
506,132,22805,1,0,2:0:0:0:
414,212,22930,6,0,B|374:218|350:185|350:185|296:202|313:251,1,145.6,2|0,2:0|2:0,2:0:0:0:
458,339,23305,2,0,B|486:365|486:365|537:309|480:261,1,145.6,0|0,2:0|2:0,2:0:0:0:
290,329,23680,2,0,P|329:333|359:308,1,72.8,0|0,2:0|2:0,2:0:0:0:
241,147,23930,2,0,P|211:127|175:132,1,72.8,0|0,2:0|2:0,2:0:0:0:
51,293,24180,6,0,B|82:259|123:286|123:286|150:328|196:302,1,145.6,0|0,2:0|2:0,2:0:0:0:
304,247,24555,2,0,B|270:225|270:225|291:335,1,145.6,0|0,2:0|2:0,2:0:0:0:
500,365,24930,2,0,P|461:365|435:335,1,72.8,0|0,2:0|2:0,2:0:0:0:
483,217,25180,2,0,P|502:250|489:288,1,72.8,2|0,2:0|2:0,2:0:0:0:
391,249,25430,6,0,L|412:109,1,127.399996112061,6|0,2:3|2:0,2:0:0:0:
512,24,25805,2,0,B|480:3|444:31|459:45|423:73|378:42,1,127.399996112061,0|0,2:0|2:0,2:0:0:0:
265,0,26180,2,0,P|312:6|332:36,1,63.6999980560303,2|0,2:0|2:0,2:0:0:0:
251,141,26430,2,0,L|271:70,1,63.6999980560303,2|0,2:0|2:0,2:0:0:0:
251,228,26680,6,0,P|237:175|161:179,1,127.399996112061,2|0,2:0|2:0,2:0:0:0:
78,115,27055,2,0,P|89:183|103:256,1,127.399996112061,0|0,2:0|2:0,2:0:0:0:
25,361,27430,2,0,P|31:322|58:300,1,63.6999980560303,0|0,2:0|2:0,2:0:0:0:
166,352,27680,2,0,P|129:366|96:353,1,63.6999980560303,2|0,2:0|2:0,2:0:0:0:
183,275,27930,6,0,B|245:288|245:288|239:291|239:291|302:304,1,127.399996112061,2|0,2:0|2:0,2:0:0:0:
408,168,28305,2,0,P|346:171|323:238,1,127.399996112061,0|0,2:0|2:0,2:0:0:0:
441,364,28680,2,0,L|426:287,1,63.6999980560303,2|0,2:0|2:0,2:0:0:0:
491,241,28930,2,0,L|506:164,1,63.6999980560303,2|0,2:0|2:0,2:0:0:0:
388,50,29180,6,0,B|426:40|426:40|469:70|469:70|508:58,1,127.399996112061,2|0,2:0|2:0,2:0:0:0:
281,49,29555,2,0,B|292:13|292:13|316:111,1,127.399996112061,0|0,2:0|2:0,2:0:0:0:
404,196,29930,2,0,P|394:153|368:141,1,63.6999980560303,0|0,2:0|2:0,2:0:0:0:
353,278,30180,2,0,P|394:290|428:300,1,63.6999980560303,2|0,2:0|2:0,2:0:0:0:
307,198,30430,6,0,B|280:168|246:187|246:187|231:223|188:215,1,127.399996112061,2|0,2:0|2:0,2:0:0:0:
70,353,30805,2,0,B|134:345|134:345|166:281,1,127.399996112061,0|0,2:0|2:0,2:0:0:0:
63,197,31180,2,0,L|88:269,1,63.6999980560303,2|0,2:0|2:0,2:0:0:0:
119,107,31430,2,0,L|139:167,1,63.6999980560303,2|0,2:0|2:0,2:0:0:0:
11,63,31680,6,0,B|50:41|78:77|65:86|84:118|134:104,1,127.399996112061,2|0,2:0|2:0,2:0:0:0:
268,20,32055,2,0,P|203:17|184:71,1,127.399996112061,0|0,2:0|2:0,2:0:0:0:
241,194,32430,2,0,P|227:158|197:149,1,63.6999980560303,2|0,2:0|2:0,2:0:0:0:
99,236,32680,2,0,L|116:302,1,63.6999980560303,2|0,2:0|2:0,2:0:0:0:
282,379,32930,5,10,2:3:0:0:
410,29,34180,6,0,B|451:50|451:50|436:139,1,127.399996112061,4|0,3:0|2:0,2:0:0:0:
313,200,34555,2,0,P|331:169|377:162,1,63.6999980560303,4|0,3:0|2:0,2:0:0:0:
390,384,34805,1,4,3:0:0:0:
390,384,34867,1,0,3:0:0:0:
390,384,34930,1,0,3:0:0:0:
280,333,35055,1,0,3:0:0:0:
386,234,35180,2,0,L|373:320,1,63.6999980560303,4|0,3:0|2:0,2:0:0:0:
292,102,35430,6,0,B|253:54|208:86|208:86|184:136|132:112,1,182,10|0,2:3|2:0,2:0:0:0:
5,259,35805,2,0,B|41:292|41:292|107:224|42:158,1,182,10|0,2:3|2:0,2:0:0:0:
0,20,36180,2,0,P|8:63|64:70,1,91,10|0,2:3|2:0,2:0:0:0:
228,228,36430,2,0,P|185:218|144:207,1,72.8,10|0,2:3|2:0,2:0:0:0:
315,24,36680,6,0,B|366:45|400:3|400:3|466:38|423:98,1,182,10|0,2:3|2:0,2:0:0:0:
365,241,37055,2,0,B|333:278|333:278|352:143,1,182,10|0,2:3|2:0,2:0:0:0:
510,96,37430,2,0,P|485:140|432:141,1,91,10|0,2:3|2:0,2:0:0:0:
231,14,37680,2,0,L|327:26,1,91,10|0,2:3|2:0,2:0:0:0:
120,98,37930,6,0,B|104:77|104:77|105:115,1,45.5,10|0,2:0|2:0,2:0:0:0:
178,137,38055,2,0,B|146:104|102:139|111:156|86:176|50:157,1,136.5,8|0,2:3|2:0,2:0:0:0:
20,85,38305,2,0,B|70:67|119:132|85:152|111:224|199:203,1,218.399993334961,8|0,2:3|2:0,2:0:0:0:
314,30,38680,2,0,L|337:129,1,91,12|0,2:0|2:0,2:0:0:0:
452,228,38930,2,0,P|443:180|395:160,1,91,8|0,2:0|2:0,2:0:0:0:
370,335,39180,5,8,2:3:0:0:
370,335,39242,1,8,2:3:0:0:
370,335,39305,2,0,P|422:328|477:322,1,91,8|8,2:3|2:3,2:0:0:0:
320,243,39555,1,8,2:3:0:0:
320,243,39617,1,8,2:3:0:0:
320,243,39680,2,0,P|271:249|251:294,1,91,8|8,2:3|2:3,2:0:0:0:
188,368,39930,2,0,L|235:375,2,45.5,8|8|8,2:3|2:3|2:3,2:0:0:0:
102,384,40180,2,0,L|112:280,1,91,8|0,2:0|1:0,2:0:0:0:
42,141,40430,6,0,B|13:158|-13:169|-13:169|9:224|30:282,1,163.799995001221,10|0,2:3|2:0,2:0:0:0:
177,30,40805,2,0,B|133:0|94:25|94:25|72:68|30:54,1,163.799995001221,10|0,2:3|2:0,2:0:0:0:
248,92,41180,2,0,P|282:58|268:10,1,81.8999975006104,10|0,2:3|2:0,2:0:0:0:
144,124,41430,2,0,L|169:223,1,81.8999975006104,10|0,2:3|2:0,2:0:0:0:
335,302,41680,6,0,B|275:286|275:286|235:327|235:327|165:317,1,163.799995001221,10|0,2:3|2:0,2:0:0:0:
332,191,42055,2,0,B|300:162|300:162|362:106|422:180,1,163.799995001221,10|0,2:3|2:0,2:0:0:0:
470,384,42430,2,0,P|430:357|430:311,1,81.8999975006104,10|0,2:3|2:0,2:0:0:0:
512,165,42680,2,0,L|493:264,1,81.8999975006104,10|0,2:3|2:0,2:0:0:0:
406,163,42930,5,10,2:0:0:0:
445,62,43055,2,0,B|485:43|485:43|541:62,1,81.8999975006104,8|0,2:3|2:0,2:0:0:0:
345,41,43305,2,0,B|327:0|276:8|276:8|266:66|202:57,1,163.799995001221,8|0,2:3|2:0,2:0:0:0:
107,112,43680,1,12,2:0:0:0:
272,221,43805,2,0,B|234:261|234:261|249:136,1,163.799995001221,8|0,2:3|2:0,2:0:0:0:
419,187,44180,5,8,2:3:0:0:
419,187,44242,1,8,2:3:0:0:
419,187,44305,2,0,L|409:273,1,81.8999975006104,8|8,2:3|2:3,2:0:0:0:
511,384,44555,1,8,2:3:0:0:
511,384,44617,1,8,2:3:0:0:
511,384,44680,2,0,P|498:339|456:322,1,81.8999975006104,8|8,2:3|2:3,2:0:0:0:
335,355,44930,2,0,P|366:353|387:335,2,40.9499987503052,8|8|8,2:3|2:3|2:3,2:0:0:0:
281,285,45180,2,0,L|184:302,1,81.8999975006104,14|0,2:0|2:0,2:0:0:0:
85,376,45430,6,0,B|115:349|115:349|96:274,1,109.199996667481,2|0,1:0|2:0,2:0:0:0:
20,173,45805,2,0,B|-10:200|-10:200|9:275,1,109.199996667481,0|0,1:0|2:0,2:0:0:0:
168,188,46180,2,0,L|106:205,1,54.5999983337403,2|0,1:0|2:0,2:0:0:0:
132,113,46430,2,0,L|194:96,1,54.5999983337403,2|0,1:0|2:0,2:0:0:0:
343,15,46680,6,0,P|298:36|301:96,1,109.199996667481,2|0,1:0|2:0,2:0:0:0:
428,164,47055,2,0,P|432:114|378:87,1,109.199996667481,0|0,1:0|2:0,2:0:0:0:
276,169,47430,2,0,P|318:173|342:159,1,54.5999983337403,0|0,1:0|2:0,2:0:0:0:
457,248,47680,2,0,P|415:252|391:238,1,54.5999983337403,2|0,1:0|2:0,2:0:0:0:
191,264,47930,6,0,B|228:257|228:257|262:278|262:278|299:268,1,109.199996667481,2|0,1:0|2:0,2:0:0:0:
432,344,48305,2,0,B|395:351|395:351|361:330|361:330|324:340,1,109.199996667481,2|0,1:0|2:0,2:0:0:0:
155,342,48680,2,0,L|216:335,1,54.5999983337403,2|0,1:0|2:0,2:0:0:0:
47,280,48930,2,0,L|101:273,1,54.5999983337403,2|0,1:0|2:0,2:0:0:0:
174,176,49180,6,0,P|228:150|213:77,1,127.399996112061,10|0,2:0|2:0,2:0:0:0:
13,72,49555,2,0,B|47:42|81:75|66:90|93:114|150:91,1,127.399996112061,8|0,2:0|2:0,2:0:0:0:
168,31,49868,1,8,2:0:0:0:
162,21,49930,2,0,L|225:32,1,63.6999980560303,8|0,2:0|2:0,2:0:0:0:
304,99,50180,1,8,2:0:0:0:
242,142,50305,1,8,2:0:0:0:
318,26,50430,6,0,P|355:36|372:65,1,63.6999980560303,0|8,1:0|2:0,2:0:0:0:
474,130,50680,2,0,P|442:134|410:138,1,63.6999980560303,8|0,2:0|1:0,2:0:0:0:
244,256,50930,1,8,2:0:0:0:
244,256,51055,1,8,2:0:0:0:
314,178,51180,2,0,L|328:248,1,63.6999980560303,6|0,3:0|2:0,2:0:0:0:
96,293,51430,6,0,B|106:248|106:248|95:255|95:255|84:297,1,95.5499970840455,10|0,2:3|2:0,2:0:0:0:
28,357,51680,6,0,B|60:300|113:333|113:333|133:387|203:361,1,182,6|0,1:0|2:0,2:0:0:0:
312,339,52055,1,8,2:0:0:0:
312,339,52118,1,0,2:0:0:0:
312,339,52180,2,0,B|263:285|212:303|212:303|250:307|257:352,1,163.799995001221,2|0,2:0|2:0,2:0:0:0:
251,330,52430,2,0,L|273:219,1,91,2|0,1:0|2:0,2:0:0:0:
460,163,52680,2,0,B|485:183|485:183|433:231|382:172,1,136.5,10|0,2:0|2:0,2:0:0:0:
318,151,52930,6,0,P|371:173|350:249,1,136.5,2|0,1:0|2:0,2:0:0:0:
354,255,53180,1,0,2:0:0:0:
169,87,53305,2,0,P|215:97|247:59,1,91,8|0,2:0|2:0,2:0:0:0:
318,21,53555,1,0,1:0:0:0:
164,78,53680,2,0,P|129:123|170:189,1,136.5,0|0,1:0|2:0,2:0:0:0:
230,232,53930,2,0,P|197:186|144:197,1,95.5499970840455,10|0,2:0|2:0,2:0:0:0:
161,300,54180,6,0,B|215:320|245:274|221:256|266:212|314:244,1,182,6|0,1:0|2:0,2:0:0:0:
374,344,54555,1,8,2:0:0:0:
374,344,54617,1,0,2:0:0:0:
374,344,54680,2,0,B|420:307|391:246|391:246|400:278|367:313,1,163.799995001221,2|0,2:0|2:0,2:0:0:0:
380,297,54930,2,0,P|422:330|463:304,1,91,2|0,1:0|2:0,2:0:0:0:
490,168,55180,2,0,B|469:206|469:206|453:102,1,136.5,10|0,2:0|2:0,2:0:0:0:
512,67,55430,6,0,B|467:81|467:81|423:61|423:61|380:77,1,136.5,2|0,1:0|2:0,2:0:0:0:
377,97,55680,1,0,2:0:0:0:
256,206,55805,2,0,B|306:212|306:212|332:172,1,91,8|0,2:0|2:0,2:0:0:0:
247,18,56055,1,0,1:0:0:0:
174,101,56180,2,0,B|123:93|123:93|125:97|125:97|81:91,1,91,0|8,1:0|2:0,2:0:0:0:
28,55,56367,1,8,2:0:0:0:
19,45,56430,2,0,P|-10:87|13:141,1,95.5499970840455,10|0,2:0|2:0,2:0:0:0:
32,220,56680,6,0,B|-3:216|-14:181|-14:181|45:127|99:182,1,182,6|0,1:0|2:0,2:0:0:0:
179,344,57055,1,8,2:0:0:0:
179,344,57117,1,0,2:0:0:0:
179,344,57180,2,0,P|131:329|123:286,1,91,2|0,2:0|2:0,2:0:0:0:
263,128,57430,2,0,B|226:98|226:98|170:154|235:211,1,163.799995001221,2|0,1:0|2:0,2:0:0:0:
197,268,57680,2,0,B|215:216|265:235|265:235|294:277|344:261,1,163.799995001221,10|0,2:0|2:0,2:0:0:0:
396,230,57930,6,0,B|348:257|348:257|379:344,1,136.5,6|0,1:0|2:0,2:0:0:0:
365,358,58180,1,8,2:0:0:0:
478,95,58305,2,0,B|526:122|526:122|495:209,1,136.5,4|0,1:0|2:0,2:0:0:0:
509,223,58555,1,8,2:3:0:0:
341,0,58680,2,0,B|321:34|321:34|348:89,1,91,4|8,1:0|2:0,2:0:0:0:
392,138,58867,1,8,2:0:0:0:
403,147,58930,2,0,L|308:166,1,72.8,10|8,2:0|2:0,2:0:0:0:
92,109,59180,6,0,B|151:89|151:89|204:130|204:130|268:109,1,182,6|0,1:0|2:0,2:0:0:0:
179,12,59555,1,8,2:0:0:0:
49,182,59680,2,0,P|10:153|14:102,1,91,0|0,2:0|1:0,2:0:0:0:
83,29,59867,1,0,2:0:0:0:
99,18,59930,2,0,L|91:116,1,91,0|0,1:0|2:0,2:0:0:0:
101,250,60180,2,0,P|140:221|136:170,1,91,8|0,2:0|2:0,2:0:0:0:
272,24,60430,6,0,B|322:18|322:18|361:55,1,91,6|8,1:0|2:0,2:0:0:0:
461,176,60680,1,8,2:0:0:0:
284,262,60805,2,0,B|278:212|278:212|315:173,1,91,4|8,1:0|2:0,2:0:0:0:
453,99,61055,1,8,2:0:0:0:
512,288,61180,5,2,1:0:0:0:
489,279,61305,1,8,2:0:0:0:
402,336,61430,5,10,2:0:0:0:
379,345,61555,1,8,2:0:0:0:
284,262,61680,6,0,B|239:224|199:261|199:261|175:321|110:290,1,182,6|0,1:0|2:0,2:0:0:0:
0,261,62055,1,8,2:0:0:0:
0,261,62117,1,0,2:0:0:0:
0,261,62180,2,0,B|92:219|92:219|53:234|56:277,1,163.799995001221,2|0,2:0|2:0,2:0:0:0:
56,265,62430,2,0,P|40:220|77:168,1,91,2|0,1:0|2:0,2:0:0:0:
160,56,62680,2,0,B|190:10|190:10|185:-6|185:-6|148:49,1,136.5,10|0,2:0|2:0,2:0:0:0:
95,101,62930,6,0,B|140:83|140:83|186:110|186:110|227:92,1,136.5,2|0,1:0|2:0,2:0:0:0:
240,85,63180,1,0,2:0:0:0:
382,194,63305,2,0,P|334:189|312:152,1,91,8|0,2:0|2:0,2:0:0:0:
347,73,63555,1,8,2:0:0:0:
491,162,63680,2,0,B|457:138|457:138|480:245,1,136.5,2|0,1:0|2:0,2:0:0:0:
426,292,63930,2,0,P|439:242|486:232,1,95.5499970840455,10|0,2:0|2:0,2:0:0:0:
498,340,64180,6,0,B|456:297|404:326|419:350|370:381|335:340,1,182,6|0,1:0|2:0,2:0:0:0:
268,211,64555,1,8,2:0:0:0:
268,211,64617,1,0,2:0:0:0:
268,211,64680,2,0,B|215:243|233:300|233:300|277:279,1,136.5,2|0,2:0|2:0,2:0:0:0:
262,286,64930,2,0,P|221:265|179:280,1,91,2|0,1:0|2:0,2:0:0:0:
31,377,65180,2,0,B|78:346|78:346|42:258,1,136.5,10|0,2:0|2:0,2:0:0:0:
9,198,65430,6,0,B|-20:233|-20:233|36:271|91:214,1,136.5,6|0,1:0|2:0,2:0:0:0:
81,216,65680,1,0,2:0:0:0:
112,47,65805,2,0,P|79:79|89:128,1,91,8|0,2:0|2:0,2:0:0:0:
182,207,66055,1,0,3:0:0:0:
182,207,66117,1,0,3:0:0:0:
182,207,66180,2,0,B|229:194|229:194|228:198|228:198|286:179,1,91,0|8,1:0|2:0,2:0:0:0:
332,208,66367,1,8,2:0:0:0:
345,209,66430,2,0,P|353:153|324:125,1,91,10|8,2:0|2:3,2:0:0:0:
216,18,66680,6,0,B|257:62|298:25|298:25|355:7|378:62,1,182,6|0,1:0|2:0,2:0:0:0:
332,129,67055,1,8,2:0:0:0:
462,28,67180,2,0,B|457:78|457:78|460:79|460:79|450:149,1,91,2|0,2:0|1:0,2:0:0:0:
503,173,67367,1,0,2:0:0:0:
501,184,67430,2,0,P|459:201|412:179,1,91,2|0,1:0|2:0,2:0:0:0:
249,130,67680,2,0,P|291:113|338:135,1,91,10|0,2:0|2:0,2:0:0:0:
120,32,67930,6,0,B|93:-6|93:-6|29:58|92:118,1,182,6|8,1:0|2:0,2:0:0:0:
197,208,68305,2,0,B|169:166|117:193|117:193|87:250|33:221,1,182,4|8,1:0|2:3,2:0:0:0:
187,86,68680,5,4,1:0:0:0:
214,74,68805,1,8,2:0:0:0:
301,152,68930,5,10,2:0:0:0:
326,161,69055,1,8,2:0:0:0:
428,21,69180,6,0,L|420:119,1,91,14|0,2:0|2:0,2:0:0:0:
431,134,69367,1,0,2:0:0:0:
437,145,69430,1,0,2:0:0:0:
266,261,69555,1,8,2:0:0:0:
236,195,69680,2,0,P|261:154|315:160,1,91,0|0,2:0|1:0,2:0:0:0:
512,327,69930,2,0,B|466:318|466:318|466:321|466:321|426:313,1,91,8|0,2:0|2:0,2:0:0:0:
367,346,70117,1,0,2:0:0:0:
354,348,70180,2,0,P|343:298|379:259,1,91,8|8,2:0|2:0,2:0:0:0:
512,136,70430,6,0,B|466:154|466:154|402:123,1,91,6|8,1:0|2:0,2:0:0:0:
201,83,70680,1,8,2:0:0:0:
356,0,70805,2,0,B|384:42|384:42|354:103,1,91,4|8,1:0|2:0,2:0:0:0:
279,222,71055,1,8,2:0:0:0:
154,17,71180,2,0,B|200:-1|200:-1|263:18,1,91,0|8,1:0|2:0,2:0:0:0:
111,177,71430,1,8,2:0:0:0:
98,177,71492,1,8,2:0:0:0:
87,177,71555,1,8,2:0:0:0:
76,177,71617,1,8,2:0:0:0:
65,177,71680,6,0,P|-13:210|19:295,1,163.799995001221,6|0,1:0|2:0,2:0:0:0:
148,342,72055,2,0,B|112:307|73:327|73:327|53:383|-13:360,1,163.799995001221,0|0,1:0|2:0,2:0:0:0:
160,245,72430,2,0,P|195:222|240:246,1,81.8999975006104,10|0,2:0|2:0,2:0:0:0:
317,321,72680,2,0,P|279:332|246:309,1,81.8999975006104,2|0,2:0|2:0,2:0:0:0:
397,79,72930,6,0,B|367:51|367:51|386:182,1,163.799995001221,2|0,1:0|2:0,2:0:0:0:
499,260,73305,2,0,B|448:238|448:238|401:276|401:276|343:256,1,163.799995001221,0|0,1:0|2:0,2:0:0:0:
278,102,73680,2,0,P|287:158|294:207,1,81.8999975006104,10|0,2:0|2:0,2:0:0:0:
195,286,73930,2,0,P|201:245|207:205,1,81.8999975006104,14|0,2:0|2:0,2:0:0:0:
99,70,74180,6,0,B|68:39|68:39|138:-7|197:65,1,163.799995001221,6|0,1:0|2:0,2:0:0:0:
0,213,74555,2,0,B|33:179|72:223|72:223|58:163|112:150,1,163.799995001221,0|0,1:0|2:0,2:0:0:0:
255,67,74930,2,0,P|236:111|197:118,1,81.8999975006104,10|0,2:0|2:0,2:0:0:0:
316,5,75180,2,0,L|431:26,1,81.8999975006104,10|0,2:0|2:0,2:0:0:0:
493,60,75430,5,10,2:3:0:0:
484,92,75555,1,8,2:0:0:0:
402,154,75680,5,8,2:0:0:0:
413,190,75805,1,10,2:3:0:0:
469,324,75930,6,0,P|499:283|480:246,1,81.8999975006104,8|8,2:0|2:0,2:0:0:0:
344,98,76180,1,2,1:0:0:0:
257,297,76305,2,0,P|298:327|335:308,1,81.8999975006104,8|8,2:3|2:3,2:0:0:0:
483,172,76555,1,8,2:3:0:0:
330,19,76680,6,0,B|283:4|283:4|241:15|216:59|261:94,1,145.6,6|0,1:0|2:0,2:0:0:0:
245,203,77055,2,0,B|280:193|280:193|218:139|164:188,1,145.6,2|0,1:0|2:0,2:0:0:0:
98,291,77430,2,0,P|136:274|141:244,1,72.8,10|0,2:0|2:0,2:0:0:0:
44,156,77680,2,0,P|39:197|63:216,1,72.8,2|0,2:0|2:0,2:0:0:0:
165,70,77930,6,0,P|142:5|59:23,1,145.6,2|0,1:0|2:0,2:0:0:0:
166,167,78305,2,0,B|218:146|218:146|269:171|269:171|301:156,1,145.6,2|0,1:0|2:0,2:0:0:0:
275,3,78680,2,0,L|267:84,1,72.8,10|0,2:0|2:0,2:0:0:0:
394,167,78930,2,0,L|371:88,1,72.8,14|0,2:0|2:0,2:0:0:0:
369,275,79180,6,0,B|402:251|436:281|436:281|445:235|494:227,1,145.6,6|0,1:0|2:0,2:0:0:0:
327,349,79555,2,0,B|287:316|247:339|260:358|224:387|176:348,1,145.6,2|0,1:0|2:0,2:0:0:0:
109,254,79930,2,0,P|148:260|165:304,1,72.8,10|0,2:0|2:0,2:0:0:0:
21,354,80180,2,0,L|97:336,1,72.8,10|8,2:0|2:0,2:0:0:0:
28,216,80430,5,6,1:3:0:0:
20,244,80555,1,8,2:3:0:0:
121,172,80680,5,8,2:0:0:0:
113,144,80805,1,4,1:3:0:0:
60,21,80930,6,0,L|47:113,1,72.8,8|8,2:3|2:0,2:0:0:0:
184,32,81180,1,8,2:0:0:0:
181,41,81263,2,0,B|239:32|239:32|234:37|234:37|296:27,1,97.0666666666667,8|8,2:3|2:3,2:0:0:0:
293,12,81513,1,8,2:3:0:0:
304,11,81596,1,8,2:3:0:0:
368,58,81680,5,6,1:0:0:0:
443,318,82930,6,0,L|488:332,2,40.9499987503052,0|0|0,2:0|2:0|2:0,2:0:0:0:
101,298,84180,6,0,L|24:343,2,81.8999975006104,0|0|0,2:0|2:0|2:0,2:0:0:0:
433,38,85305,5,0,0:0:0:0:
433,38,85430,2,0,P|459:60|448:107,1,63.6999980560303,0|0,2:0|2:0,2:0:0:0:
429,160,85680,2,0,P|466:123|528:144,2,95.5499970840455,0|0|0,2:0|2:0|2:0,2:0:0:0:
254,192,86680,5,0,2:0:0:0:
254,192,87055,1,0,2:0:0:0:
50,357,87430,5,0,2:0:0:0:
31,286,87680,1,2,2:0:0:0:
254,192,87930,5,2,2:0:0:0:
254,192,88305,5,2,2:0:0:0:
462,357,88680,5,2,2:0:0:0:
481,286,88930,1,2,2:0:0:0:
254,192,89180,5,2,2:0:0:0:
254,192,89555,5,0,2:0:0:0:
75,33,89930,5,0,2:0:0:0:
56,104,90180,1,0,2:0:0:0:
254,192,90430,5,0,2:0:0:0:
254,192,90805,5,0,2:0:0:0:
431,5,91180,5,0,2:0:0:0:
462,133,91430,1,0,2:0:0:0:
254,192,91680,5,2,2:0:0:0:
254,192,92055,5,0,2:0:0:0:
204,0,92430,5,2,2:0:0:0:
300,0,92680,1,2,2:0:0:0:
254,192,92930,5,2,2:0:0:0:
254,192,93305,5,2,2:0:0:0:
300,384,93680,5,2,2:0:0:0:
204,384,93930,1,2,2:0:0:0:
254,192,94180,5,2,2:0:0:0:
254,192,94555,1,0,2:0:0:0:
485,148,94930,5,0,2:0:0:0:
485,244,95180,1,0,2:0:0:0:
254,192,95430,5,0,2:0:0:0:
254,192,95805,1,0,2:0:0:0:
27,244,96180,5,0,2:0:0:0:
27,148,96430,1,0,2:0:0:0:
190,329,96680,6,0,B|213:278|269:295|269:295|291:346|355:329,1,182,8|0,2:0|2:0,2:0:0:0:
394,283,97055,1,8,2:0:0:0:
512,0,97430,5,4,3:2:0:0:
107,242,97930,6,0,B|49:209|49:209|70:145|96:71,1,182,8|0,2:0|2:0,2:0:0:0:
46,38,98305,1,8,2:3:0:0:
512,0,98680,5,12,2:0:0:0:
313,283,99180,6,0,P|290:340|191:332,1,145.6,8|0,2:3|2:0,2:0:0:0:
173,290,99555,1,8,2:3:0:0:
512,384,99930,5,8,2:3:0:0:
224,118,100430,6,0,B|138:103|138:103|148:111|148:111|24:89,1,182,8|0,2:0|2:0,2:0:0:0:
8,142,100805,1,8,2:0:0:0:
512,0,101180,5,4,3:2:0:0:
161,301,101680,6,0,B|124:338|124:338|62:278|111:202,1,182,8|0,2:0|2:0,2:0:0:0:
157,166,102055,1,8,2:0:0:0:
512,0,102430,5,12,2:0:0:0:
406,98,102680,5,0,1:0:0:0:
481,248,102930,6,0,P|519:200|437:197,2,182,8|0|0,2:0|1:0|1:0,2:0:0:0:
481,248,103805,1,0,1:0:0:0:
302,351,104180,6,0,B|257:335|257:335|199:355|199:355|148:338,1,145.6,8|0,2:3|2:0,2:0:0:0:
63,368,104555,2,0,L|59:315,1,36.4,0|0,2:0|2:0,2:0:0:0:
76,378,104680,2,0,L|71:291,1,72.8,0|0,3:0|2:0,2:0:0:0:
117,148,104930,1,0,2:0:0:0:
4,239,105055,2,0,B|45:209|45:209|149:244,1,145.6,0|0,2:0|3:0,2:0:0:0:
280,262,105430,6,0,B|213:233|206:159|242:102|304:104|340:125|351:197|305:204,1,272.999991668701,4|0,2:3|2:0,2:0:0:0:
372,248,106180,2,0,L|394:248,1,18.2,0|0,2:0|2:0,2:0:0:0:
414,313,106430,2,0,L|432:313,1,18.2,0|0,2:0|3:0,2:0:0:0:
503,219,106680,6,0,B|474:201|453:187|453:187|475:140|500:79,1,163.799995001221,0|0,3:0|3:0,2:0:0:0:
365,42,107055,2,0,B|406:60|426:8|426:8|461:-23|501:8,1,163.799995001221,8|0,2:3|2:0,2:0:0:0:
290,87,107430,2,0,P|267:47|289:7,1,81.8999975006104,8|0,2:3|2:0,2:0:0:0:
365,131,107680,2,0,P|351:171|336:214,1,81.8999975006104,8|0,2:3|2:0,2:0:0:0:
403,328,107930,6,0,B|352:311|329:361|329:361|285:369|257:333|274:290,1,182,12|0,2:0|2:0,2:0:0:0:
169,183,108305,2,0,B|193:177|216:155|216:155|198:221|177:296,1,182,8|0,2:0|2:0,2:0:0:0:
55,363,108680,2,0,P|64:320|113:301,1,91,8|0,2:0|2:0,2:0:0:0:
190,367,108930,1,8,2:0:0:0:
194,384,109055,1,8,2:0:0:0:
278,229,109180,6,0,B|321:220|347:271|347:271|340:211|381:189,1,182,12|0,2:0|2:0,2:0:0:0:
505,52,109555,2,0,B|465:19|465:19|410:92|475:142,1,182,12|8,2:0|2:3,2:0:0:0:
428,259,109930,5,8,2:0:0:0:
436,279,110055,1,8,2:3:0:0:
504,384,110180,5,8,2:3:0:0:
512,364,110305,1,8,2:3:0:0:
388,358,110430,6,0,B|328:343|328:343|282:377|282:377|208:358,1,182,12|0,2:0|2:0,2:0:0:0:
280,157,110805,2,0,L|301:259,1,91,12|0,2:0|2:0,2:0:0:0:
124,377,111055,1,8,2:3:0:0:
124,377,111117,1,8,2:3:0:0:
124,377,111180,2,0,L|142:287,1,91,8|0,2:0|2:0,2:0:0:0:
36,140,111430,2,0,L|46:194,3,45.5,0|0|0|0,3:0|3:0|3:0|3:0,2:0:0:0:
112,222,111680,5,4,1:0:0:0:
28,130,111805,2,0,P|80:140|113:83,1,91,8|8,2:3|2:3,2:0:0:0:
194,12,112055,1,8,2:0:0:0:
194,12,112117,1,0,2:0:0:0:
194,12,112180,1,8,2:3:0:0:
73,33,112305,1,8,2:3:0:0:
192,113,112430,2,0,B|238:104|238:104|237:108|237:108|294:97,1,91,8|8,2:0|2:3,2:0:0:0:
292,88,112617,1,8,2:3:0:0:
300,80,112680,1,8,2:3:0:0:
374,141,112805,1,8,2:3:0:0:
470,17,112930,5,8,2:3:0:0:
470,17,112992,1,8,2:3:0:0:
470,17,113055,2,0,P|461:67|449:117,1,91,8|0,2:3|2:0,2:0:0:0:
509,253,113305,1,0,3:0:0:0:
509,253,113367,1,0,3:0:0:0:
509,253,113430,2,0,P|511:199|480:178,1,91,8|8,2:3|2:3,2:0:0:0:
374,220,113680,2,0,P|409:211|422:187,2,45.5,8|8|8,2:3|2:3|2:0,2:0:0:0:
293,208,113930,2,0,L|314:308,1,91,8|8,2:3|2:3,2:0:0:0:
438,365,114180,6,0,B|382:350|382:350|322:385|322:385|255:362,1,182,14|0,2:3|2:0,2:0:0:0:
138,281,114555,2,0,B|97:245|97:245|219:286,1,182,10|0,2:3|2:0,2:0:0:0:
52,381,114930,2,0,P|13:353|29:307,1,91,10|0,2:3|2:0,2:0:0:0:
160,192,115180,2,0,L|134:295,1,91,10|0,2:3|2:0,2:0:0:0:
51,115,115430,6,0,B|29:98|4:95|4:95|58:36|128:90,1,182,10|0,2:3|2:0,2:0:0:0:
296,129,115805,2,0,B|243:163|192:124|197:76|230:49|265:51|274:73,1,182,10|0,2:3|2:0,2:0:0:0:
423,113,116180,2,0,P|413:165|401:235,1,91,10|0,2:3|2:0,2:0:0:0:
291,314,116430,2,0,P|301:266|348:242,1,91,10|0,2:3|2:0,2:0:0:0:
473,345,116680,5,10,2:0:0:0:
512,0,117430,5,12,2:0:0:0:
400,97,117680,5,8,2:0:0:0:
271,1,117930,5,8,2:3:0:0:
271,1,117992,1,8,2:3:0:0:
271,1,118055,2,0,L|169:18,1,91,8|8,2:3|2:3,2:0:0:0:
21,22,118305,1,8,2:3:0:0:
21,22,118367,1,8,2:3:0:0:
21,22,118430,2,0,P|66:12|98:50,1,91,8|8,2:3|2:3,2:0:0:0:
83,158,118680,2,0,P|86:123|101:105,2,45.5,8|8|8,2:3|2:3|2:3,2:0:0:0:
180,247,118930,2,0,P|172:192|167:149,1,91,8|0,2:0|1:0,2:0:0:0:
41,345,119180,6,0,B|64:303|111:318|111:318|143:370|199:342,1,163.799995001221,10|0,2:3|2:0,2:0:0:0:
368,265,119555,2,0,B|333:197|265:238|265:238|303:278,1,163.799995001221,10|0,2:3|2:0,2:0:0:0:
454,341,119930,2,0,P|481:306|470:268,1,81.8999975006104,10|0,2:3|2:0,2:0:0:0:
348,114,120180,2,0,P|364:154|403:164,1,81.8999975006104,10|0,2:3|2:0,2:0:0:0:
477,31,120430,6,0,B|516:3|516:3|385:23,1,163.799995001221,10|0,2:3|2:0,2:0:0:0:
202,95,120805,2,0,B|254:81|254:81|300:122|300:122|365:111,1,163.799995001221,10|0,2:3|2:0,2:0:0:0:
213,255,121180,2,0,L|232:166,1,81.8999975006104,10|0,2:3|2:0,2:0:0:0:
99,52,121430,2,0,L|116:132,1,81.8999975006104,10|0,2:3|2:0,2:0:0:0:
54,238,121680,5,10,2:0:0:0:
512,384,122430,5,8,2:0:0:0:
380,283,122680,5,8,2:0:0:0:
512,121,122930,5,8,2:3:0:0:
512,121,122992,1,8,2:3:0:0:
512,121,123055,2,0,L|500:218,1,91,8|8,2:3|2:3,2:0:0:0:
333,351,123305,1,8,2:3:0:0:
333,351,123367,1,8,2:3:0:0:
333,351,123430,2,0,P|298:313|302:275,1,91,8|8,2:3|2:3,2:0:0:0:
384,153,123680,2,0,L|371:212,2,45.5,8|8|8,2:3|2:3|2:3,2:0:0:0:
337,60,123930,2,0,L|241:38,1,91,14|0,2:0|2:0,2:0:0:0:
95,108,124180,6,0,B|65:152|27:142|27:142|71:177|126:131|95:127|156:82|205:121,1,272.999991668701,2|0,1:0|2:0,2:0:0:0:
261,225,124930,2,0,P|223:218|208:182,1,72.8,2|0,2:0|2:0,2:0:0:0:
288,144,125180,2,0,L|357:173,1,72.8,2|0,2:0|2:0,2:0:0:0:
476,99,125430,6,0,B|452:108|427:119|427:119|441:162|457:220,1,145.6,2|0,2:0|2:0,2:0:0:0:
492,319,125805,2,0,B|475:286|430:299|430:299|409:341|360:331,1,145.6,0|0,2:0|2:0,2:0:0:0:
281,247,126180,1,0,2:0:0:0:
281,247,126305,2,0,P|318:253|358:258,1,72.8,2|2,2:0|3:0,2:0:0:0:
226,174,126555,1,0,2:0:0:0:
280,332,126680,6,0,B|240:322|215:359|215:359|216:313|175:290,1,145.6,2|0,3:0|2:0,2:0:0:0:
0,267,127055,2,0,B|-28:246|-28:246|20:202|78:244,1,145.6,2|0,3:0|2:0,2:0:0:0:
99,384,127430,2,0,P|104:348|110:312,1,72.8,2|0,3:0|2:0,2:0:0:0:
226,174,127680,2,0,P|208:215|165:221,1,72.8,2|0,3:0|2:0,2:0:0:0:
9,117,127930,6,0,B|50:157|102:168|165:124|169:86|151:44|80:20|59:75,1,272.999991668701,10|0,2:0|2:0,2:0:0:0:
190,3,128680,2,0,P|235:11|277:15,1,72.8,8|0,2:0|2:0,2:0:0:0:
341,84,128930,1,2,3:0:0:0:
266,123,129055,1,8,2:0:0:0:
376,15,129180,6,0,L|366:171,1,145.6,8|8,2:0|2:0,2:0:0:0:
456,233,129555,2,0,B|421:242|409:290|409:290|378:244|328:259,1,145.6,8|8,2:0|2:0,2:0:0:0:
254,347,129930,2,0,P|295:345|310:311,1,72.8,8|2,2:0|3:0,2:0:0:0:
125,210,130180,6,0,B|101:167|101:167|112:239,1,95.5499970840455,2|0,3:0|2:0,2:0:0:0:
61,273,130430,6,0,B|98:228|144:253|144:253|175:296|225:269,1,182,6|0,1:0|2:0,2:0:0:0:
295,137,130805,1,8,2:0:0:0:
295,137,130867,1,0,2:0:0:0:
295,137,130930,2,0,B|254:112|242:67|273:31|273:31|268:68|285:96,1,163.799995001221,2|0,2:0|2:0,2:0:0:0:
275,70,131180,2,0,P|234:92|183:71,1,91,2|0,1:0|2:0,2:0:0:0:
5,8,131430,2,0,P|69:12|71:87,1,136.5,10|0,2:0|2:0,2:0:0:0:
44,145,131680,6,0,B|20:117|20:117|86:87|124:151,1,136.5,2|0,1:0|2:0,2:0:0:0:
129,139,131930,1,0,2:0:0:0:
23,317,132055,2,0,P|2:276|32:241,1,91,8|0,2:0|2:0,2:0:0:0:
115,221,132305,1,0,1:0:0:0:
163,368,132430,2,0,B|209:383|225:342|211:334|241:296|288:320,1,136.5,0|0,1:0|2:0,2:0:0:0:
338,353,132680,2,0,P|288:352|276:307,1,95.5499970840455,10|0,2:0|2:0,2:0:0:0:
304,236,132930,6,0,B|342:192|384:220|384:220|397:283|467:266,1,182,6|0,1:0|2:0,2:0:0:0:
447,23,133305,1,8,2:0:0:0:
447,23,133367,1,0,2:0:0:0:
447,23,133430,2,0,B|388:69|433:131|433:131|464:82,1,163.799995001221,2|0,2:0|2:0,2:0:0:0:
454,97,133680,2,0,L|344:79,1,91,2|0,1:0|2:0,2:0:0:0:
191,43,133930,2,0,B|215:18|215:18|270:53|228:118,1,136.5,10|0,2:0|2:0,2:0:0:0:
285,162,134180,6,0,B|236:138|236:138|190:168|190:168|145:149,1,136.5,2|0,1:0|2:0,2:0:0:0:
158,143,134430,1,0,2:0:0:0:
59,6,134555,2,0,P|66:54|74:99,1,91,8|0,2:0|2:0,2:0:0:0:
27,165,134805,1,0,1:0:0:0:
119,259,134930,5,0,1:0:0:0:
55,314,135055,2,0,L|46:269,2,45.5,8|8|10,2:0|2:0|2:0,2:0:0:0:
9,373,135305,1,8,2:3:0:0:
156,370,135430,6,0,B|203:391|242:345|214:322|263:270|322:319,1,182,6|0,1:0|2:0,2:0:0:0:
490,228,135805,1,8,2:0:0:0:
490,228,135867,1,0,2:0:0:0:
490,228,135930,2,0,B|392:266|392:266|432:247|434:209,1,163.799995001221,2|0,2:0|2:0,2:0:0:0:
431,224,136180,2,0,L|457:323,1,91,2|0,1:0|2:0,2:0:0:0:
341,185,136430,2,0,B|301:171|281:211|281:211|269:165|230:156,1,136.5,10|0,2:0|2:0,2:0:0:0:
178,219,136680,6,0,B|215:189|215:189|184:90,1,136.5,6|0,1:0|2:0,2:0:0:0:
160,93,136930,1,8,2:0:0:0:
20,25,137055,2,0,P|40:69|95:69,1,91,4|0,1:0|2:0,2:0:0:0:
151,19,137305,1,8,2:3:0:0:
296,159,137430,5,4,1:0:0:0:
368,179,137555,1,8,2:0:0:0:
429,135,137680,1,10,2:0:0:0:
424,62,137805,1,8,2:0:0:0:
375,0,137930,6,0,L|405:213,1,182,6|0,1:0|2:0,2:0:0:0:
462,326,138305,2,0,B|491:289|491:289|416:235|377:315,1,182,8|0,2:0|1:0,2:0:0:0:
226,351,138680,2,0,P|266:374|312:345,1,91,0|0,1:0|2:0,2:0:0:0:
167,266,138930,2,0,P|127:289|129:343,1,91,8|0,2:0|2:0,2:0:0:0:
272,272,139180,6,0,B|291:231|291:231|268:188,1,91,6|8,1:0|2:0,2:0:0:0:
141,46,139430,1,8,2:0:0:0:
0,219,139555,6,0,B|41:238|41:238|84:215,1,91,4|8,1:0|2:0,2:0:0:0:
226,88,139805,1,8,2:0:0:0:
5,5,139930,5,2,1:0:0:0:
17,35,140055,1,8,2:0:0:0:
89,110,140180,5,10,2:0:0:0:
77,140,140305,1,8,2:0:0:0:
92,29,140430,6,0,B|212:4|212:4|161:19|157:50,1,182,6|0,1:0|2:0,2:0:0:0:
251,179,140805,1,8,2:0:0:0:
251,179,140867,1,0,2:0:0:0:
251,179,140930,2,0,B|287:128|241:78|241:78|263:117|240:151,1,163.799995001221,2|0,2:0|2:0,2:0:0:0:
250,128,141180,2,0,L|342:106,1,91,2|0,1:0|2:0,2:0:0:0:
491,12,141430,2,0,B|445:31|445:31|466:85|480:130,1,136.5,10|0,2:0|2:0,2:0:0:0:
508,186,141680,6,0,B|527:159|527:159|478:115|420:172,1,136.5,2|0,1:0|2:0,2:0:0:0:
413,157,141930,1,0,2:0:0:0:
353,332,142055,2,0,P|406:314|404:278,1,91,8|0,2:0|2:0,2:0:0:0:
345,220,142305,1,8,2:0:0:0:
232,276,142430,2,0,B|191:287|170:253|184:244|157:197|107:226,1,136.5,2|0,1:0|2:0,2:0:0:0:
97,142,142680,2,0,B|85:191|85:191|127:224,1,95.5499970840455,10|0,2:0|2:0,2:0:0:0:
122,299,142930,6,0,L|149:81,1,182,6|0,1:0|2:0,2:0:0:0:
273,23,143305,1,8,2:0:0:0:
273,23,143367,1,0,2:0:0:0:
273,23,143430,2,0,B|319:-5|349:31|349:31|357:89|442:70,1,163.799995001221,2|0,2:0|2:0,2:0:0:0:
404,74,143680,2,0,P|438:39|420:-7,1,91,2|0,1:0|2:0,2:0:0:0:
297,122,143930,2,0,P|260:155|306:228,1,136.5,10|0,2:0|2:0,2:0:0:0:
355,280,144180,6,0,B|366:250|366:250|296:225|276:299,1,136.5,6|0,1:0|2:0,2:0:0:0:
276,309,144430,1,0,2:0:0:0:
474,367,144555,2,0,P|508:333|482:292,1,91,8|0,2:0|2:0,2:0:0:0:
488,209,144805,1,0,1:0:0:0:
342,130,144930,5,0,1:0:0:0:
426,88,145055,2,0,L|439:149,2,45.5,8|8|10,2:0|2:0|2:3,2:0:0:0:
398,16,145305,1,8,2:3:0:0:
370,196,145430,6,0,L|399:16,1,182,6|0,1:0|2:0,2:0:0:0:
208,14,145805,1,8,2:0:0:0:
208,14,145867,1,0,2:0:0:0:
208,14,145930,2,0,B|249:57|301:35|301:35|259:44|236:8,1,163.799995001221,2|0,2:0|2:0,2:0:0:0:
244,19,146180,2,0,P|239:69|269:113,1,91,2|0,1:0|2:0,2:0:0:0:
177,247,146430,2,0,B|204:206|204:206|104:236,1,136.5,10|0,2:0|2:0,2:0:0:0:
6,197,146680,6,0,B|48:184|48:184|91:210|91:210|160:192,1,136.5,6|0,1:0|2:0,2:0:0:0:
137,178,146930,1,8,2:0:0:0:
36,373,147055,2,0,L|47:267,1,91,4|0,1:0|2:0,2:0:0:0:
61,113,147305,1,8,2:3:0:0:
177,247,147430,5,4,1:0:0:0:
232,302,147555,1,8,2:0:0:0:
306,287,147680,1,10,2:0:0:0:
343,219,147805,1,8,2:0:0:0:
283,166,147930,6,0,B|337:140|369:188|350:202|390:244|455:203,1,163.799995001221,12|0,2:0|2:0,2:0:0:0:
429,27,148305,2,0,B|396:-4|396:-4|327:45|398:114,1,163.799995001221,8|0,2:0|1:0,2:0:0:0:
205,166,148680,2,0,P|214:119|263:97,1,81.8999975006104,8|8,2:0|2:0,2:0:0:0:
299,294,148930,1,8,2:0:0:0:
299,294,148992,1,0,2:0:0:0:
299,294,149055,1,8,2:0:0:0:
156,367,149180,6,0,B|109:376|109:376|64:348,1,81.8999975006104,6|8,1:0|2:0,2:0:0:0:
16,209,149430,1,8,2:0:0:0:
282,82,149555,2,0,B|291:129|291:129|263:174,1,81.8999975006104,4|8,1:0|2:0,2:0:0:0:
124,222,149805,1,8,2:0:0:0:
20,33,149930,5,0,1:0:0:0:
20,33,150055,1,8,2:0:0:0:
98,121,150180,2,0,L|84:70,2,40.9499987503052,8|8|8,2:0|2:0|2:0,2:0:0:0:
326,274,150430,6,0,B|293:220|244:257|244:257|231:314|163:306,1,182,6|0,1:0|2:0,2:0:0:0:
14,269,150805,2,0,B|64:250|95:299|95:299|86:240|138:212,1,182,0|0,1:0|2:0,2:0:0:0:
138,57,151180,2,0,P|97:82|105:132,1,91,10|0,2:0|2:0,2:0:0:0:
248,85,151430,2,0,L|213:-16,1,91,2|0,2:0|2:0,2:0:0:0:
213,181,151680,6,0,B|265:159|265:159|332:197|332:197|396:169,1,182,2|0,1:0|2:0,2:0:0:0:
289,262,152055,1,2,1:0:0:0:
483,131,152180,2,0,P|472:186|460:255,1,91,0|0,2:0|2:0,2:0:0:0:
495,286,152367,1,0,2:0:0:0:
497,298,152430,2,0,P|442:306|410:268,1,91,10|0,2:0|2:0,2:0:0:0:
213,181,152680,2,0,P|250:156|292:168,1,91,14|0,2:0|2:0,2:0:0:0:
138,355,152930,6,0,B|177:310|139:272|139:272|81:250|106:190,1,182,6|0,1:0|2:0,2:0:0:0:
17,84,153305,2,0,B|61:107|87:70|87:70|140:61|165:106|131:144,1,182,0|0,1:0|2:0,2:0:0:0:
292,15,153680,2,0,P|243:17|221:53,1,91,8|0,2:0|2:0,2:0:0:0:
292,181,153930,2,0,P|312:132|291:100,1,91,0|0,1:0|2:0,2:0:0:0:
202,194,154180,6,0,L|235:328,1,127.399996112061,0|0,3:0|2:0,2:0:0:0:
473,335,154555,2,0,B|448:376|400:386|370:388|336:357|311:338|306:295|316:267|383:218|417:279|404:303,1,318.499990280152,0|0,3:0|2:0,2:0:0:0:
0,0,168846,5,2,2:0:0:0:
0,0,171479,5,2,2:0:0:0:
0,0,172796,5,2,2:0:0:0:
0,0,174113,5,2,2:0:0:0:
0,0,175429,5,2,2:0:0:0:
36,268,177430,6,0,L|33:306,2,31.8499990280152,0|0|0,3:0|3:0|3:0,2:0:0:0:
115,259,177680,2,0,L|111:344,1,63.6999980560303,0|0,3:0|3:0,2:0:0:0:
82,73,177930,6,0,B|69:48|36:47|36:47|88:19|130:83|107:73|139:134|193:101,1,236.599989169312,8|0,2:0|2:0,2:0:0:0:
320,21,178305,1,8,2:0:0:0:
320,21,178430,2,0,P|270:6|236:51,1,100.10000305481,0|0,1:0|2:0,2:0:0:0:
426,122,178680,5,8,2:0:0:0:
431,30,178805,1,4,1:3:0:0:
313,100,178930,5,0,1:0:0:0:
347,192,179055,1,0,2:0:0:0:
489,300,179180,6,0,B|441:296|427:250|427:250|439:318|361:339,1,182,6|0,1:0|2:0,2:0:0:0:
168,298,179555,1,8,2:0:0:0:
168,298,179617,1,0,2:0:0:0:
168,298,179680,2,0,B|217:266|277:294|277:294|239:282|213:317,1,163.799995001221,2|0,2:0|2:0,2:0:0:0:
229,300,179930,2,0,P|251:248|226:214,1,91,2|0,1:0|2:0,2:0:0:0:
35,179,180180,2,0,P|94:181|98:95,1,136.5,10|0,2:0|2:0,2:0:0:0:
52,74,180430,6,0,B|95:104|130:73|110:54|142:32|188:60,1,136.5,2|0,1:0|2:0,2:0:0:0:
185,69,180680,1,2,2:0:0:0:
296,11,180805,2,0,P|287:58|279:108,1,91,10|0,2:0|2:0,2:0:0:0:
209,163,181055,1,2,1:0:0:0:
408,195,181180,2,0,B|426:168|426:168|376:126|326:182,1,136.5,2|0,1:0|2:0,2:0:0:0:
290,240,181430,6,0,P|327:224|328:165,1,95.5499970840455,10|0,2:0|2:0,2:0:0:0:
209,163,181680,6,0,P|251:241|267:335,1,182,6|0,1:0|2:0,2:0:0:0:
13,182,182055,1,8,2:0:0:0:
13,182,182117,1,0,2:0:0:0:
13,182,182180,2,0,B|66:205|87:150|71:141|91:92|159:112,1,163.799995001221,2|0,2:0|2:0,2:0:0:0:
140,229,182430,2,0,P|99:217|88:173,1,91,2|0,1:0|2:0,2:0:0:0:
194,14,182680,6,0,P|181:77|169:176,1,136.5,10|0,2:0|2:0,2:0:0:0:
261,195,182930,2,0,P|233:137|170:147,1,136.5,2|0,1:0|2:0,2:0:0:0:
160,159,183180,1,0,2:0:0:0:
223,345,183305,2,0,P|198:308|212:266,1,91,8|0,2:0|2:0,2:0:0:0:
290,266,183555,1,0,1:0:0:0:
396,367,183680,5,0,1:0:0:0:
386,231,183805,1,8,2:0:0:0:
386,231,183867,1,8,2:0:0:0:
386,231,183930,1,10,2:0:0:0:
351,307,184055,1,8,2:3:0:0:
496,249,184180,6,0,B|531:216|532:160|480:142|480:142|504:169|484:212,1,182,6|0,1:0|2:0,2:0:0:0:
282,109,184555,1,8,2:0:0:0:
282,109,184617,1,0,2:0:0:0:
282,109,184680,2,0,B|385:144|385:144|343:129|336:93,1,163.799995001221,2|0,2:0|2:0,2:0:0:0:
342,111,184930,2,0,L|354:213,1,91,2|0,1:0|2:0,2:0:0:0:
178,142,185180,2,0,P|135:116|159:36,1,136.5,10|0,2:0|2:0,2:0:0:0:
150,41,185430,6,0,B|101:29|101:29|55:43,1,91,6|0,1:0|2:0,2:0:0:0:
186,217,185680,1,8,2:0:0:0:
29,323,185805,6,0,B|17:274|17:274|28:235,1,91,4|0,1:0|2:0,2:0:0:0:
245,170,186055,1,8,2:3:0:0:
210,354,186180,5,4,1:0:0:0:
112,254,186305,1,8,2:0:0:0:
112,254,186367,1,8,2:0:0:0:
112,254,186430,1,10,2:0:0:0:
134,324,186555,1,8,2:0:0:0:
243,282,186680,6,0,B|266:229|319:246|319:246|348:298|421:267,1,182,4|0,1:0|2:0,2:0:0:0:
476,95,187055,1,8,2:0:0:0:
476,95,187117,1,0,2:0:0:0:
476,95,187180,2,0,B|502:163|429:207|429:207|459:169,1,163.799995001221,0|0,2:0|2:0,2:0:0:0:
447,183,187430,2,0,P|478:224|522:210,1,91,0|0,1:0|2:0,2:0:0:0:
347,34,187680,2,0,P|284:26|262:94,1,136.5,8|0,2:0|2:0,2:0:0:0:
258,84,187930,6,0,P|215:122|174:106,1,91,4|8,1:0|2:0,2:0:0:0:
4,52,188180,1,8,2:0:0:0:
80,265,188305,2,0,P|67:217|92:182,1,91,4|8,1:0|2:0,2:0:0:0:
165,37,188555,1,8,2:0:0:0:
266,220,188680,5,0,1:0:0:0:
304,197,188805,1,8,2:0:0:0:
407,291,188930,5,10,2:0:0:0:
445,314,189055,1,8,2:0:0:0:
280,347,189180,6,0,B|246:311|196:340|196:340|172:402|113:373,1,182,6|0,1:0|2:0,2:0:0:0:
118,149,189555,1,8,2:0:0:0:
118,149,189617,1,0,2:0:0:0:
118,149,189680,2,0,B|142:114|142:114|202:159|156:234,1,163.799995001221,2|0,2:0|2:0,2:0:0:0:
163,221,189930,2,0,P|207:246|243:211,1,91,2|0,1:0|2:0,2:0:0:0:
443,130,190180,2,0,P|406:73|336:111,1,136.5,10|0,2:0|2:0,2:0:0:0:
299,156,190430,6,0,P|314:82|325:-15,1,136.5,2|0,1:0|2:0,2:0:0:0:
315,0,190680,1,0,2:0:0:0:
375,182,190805,2,0,P|385:226|395:272,1,91,8|0,2:0|2:0,2:0:0:0:
457,313,191055,1,8,2:0:0:0:
241,367,191180,2,0,P|251:309|331:311,1,136.5,2|0,1:0|2:0,2:0:0:0:
382,349,191430,2,0,P|338:343|318:300,1,95.5499970840455,10|0,2:0|2:0,2:0:0:0:
241,367,191680,6,0,B|180:387|156:340|176:329|124:278|74:315,1,182,6|0,1:0|2:0,2:0:0:0:
17,131,192055,1,8,2:0:0:0:
17,131,192117,1,0,2:0:0:0:
17,131,192180,2,0,B|49:181|15:233|15:233|26:200|6:178,1,163.799995001221,2|0,2:0|2:0,2:0:0:0:
8,180,192430,2,0,P|48:211|102:196,1,91,2|0,1:0|2:0,2:0:0:0:
209,27,192680,2,0,B|178:3|178:3|207:113,1,136.5,10|0,2:0|2:0,2:0:0:0:
260,148,192930,6,0,B|236:113|197:128|197:128|181:169|136:166,1,136.5,6|0,1:0|2:0,2:0:0:0:
132,152,193180,1,0,2:0:0:0:
298,51,193305,2,0,P|343:46|370:105,1,91,8|0,2:0|2:0,2:0:0:0:
436,131,193555,1,0,1:0:0:0:
338,220,193680,5,0,1:0:0:0:
432,293,193805,1,8,2:0:0:0:
432,293,193867,1,8,2:0:0:0:
432,293,193930,1,10,2:0:0:0:
377,351,194055,1,8,2:3:0:0:
505,266,194180,6,0,L|295:249,1,182,6|0,1:0|2:0,2:0:0:0:
132,152,194555,1,8,2:0:0:0:
132,152,194617,1,0,2:0:0:0:
132,152,194680,2,0,B|78:104|114:39|114:39|144:88,1,163.799995001221,2|0,2:0|2:0,2:0:0:0:
133,71,194930,2,0,L|26:60,1,91,2|0,1:0|2:0,2:0:0:0:
129,238,195180,2,0,P|193:232|213:162,1,136.5,10|0,2:0|2:0,2:0:0:0:
221,101,195430,6,0,L|246:266,1,136.5,6|0,1:0|2:0,2:0:0:0:
259,253,195680,1,8,2:0:0:0:
384,368,195805,2,0,P|432:362|444:318,1,91,4|0,1:0|2:0,2:0:0:0:
498,267,196055,1,8,2:3:0:0:
366,231,196180,5,4,1:3:0:0:
439,134,196305,1,8,2:0:0:0:
439,134,196367,1,8,2:0:0:0:
439,134,196430,1,10,2:0:0:0:
378,72,196555,1,8,2:0:0:0:
440,3,196680,6,0,L|416:214,1,182,6|0,1:0|2:0,2:0:0:0:
484,354,197055,1,8,2:0:0:0:
484,354,197117,1,0,2:0:0:0:
484,354,197180,2,0,B|456:298|382:316|382:316|415:321|421:346,1,163.799995001221,0|0,2:0|2:0,2:0:0:0:
418,338,197430,2,0,P|441:295|421:253,1,91,10|0,2:0|3:0,2:0:0:0:
189,163,197680,2,0,P|246:198|300:149,1,136.5,10|0,2:0|2:0,2:0:0:0:
296,161,197930,6,0,L|282:265,1,91,6|8,1:0|2:0,2:0:0:0:
155,70,198180,1,8,2:0:0:0:
15,132,198305,2,0,L|29:235,1,91,4|8,1:0|2:0,2:0:0:0:
194,1,198555,1,8,2:0:0:0:
110,156,198680,5,0,1:0:0:0:
192,268,198805,1,8,2:0:0:0:
192,268,198867,1,0,2:0:0:0:
192,268,198930,1,10,2:0:0:0:
145,349,199055,1,8,2:0:0:0:
447,207,199180,6,0,P|525:174|493:89,1,163.799995001221,6|0,1:0|2:0,2:0:0:0:
364,42,199555,2,0,B|400:77|439:57|439:57|459:1|525:24,1,163.799995001221,0|0,1:0|2:0,2:0:0:0:
340,178,199930,2,0,B|299:156|299:156|293:116,1,81.8999975006104,10|0,2:0|2:0,2:0:0:0:
467,284,200180,2,0,B|461:318|461:318|420:340,1,81.8999975006104,2|0,2:0|2:0,2:0:0:0:
215,281,200430,6,0,B|266:303|266:303|313:265|313:265|371:285,1,163.799995001221,2|0,1:0|2:0,2:0:0:0:
94,359,200805,2,0,B|122:341|146:326|146:326|118:262|99:214,1,163.799995001221,2|0,1:0|2:0,2:0:0:0:
61,105,201180,2,0,B|23:124|23:124|8:185,1,81.8999975006104,10|0,2:0|2:0,2:0:0:0:
176,110,201430,2,0,P|169:69|163:28,1,81.8999975006104,12|0,2:0|2:0,2:0:0:0:
264,210,201680,6,0,B|226:197|226:197|269:134|341:176,1,163.799995001221,6|0,1:0|2:0,2:0:0:0:
432,313,202055,2,0,B|383:286|402:237|402:237|444:207|417:159,1,163.799995001221,2|0,1:0|2:0,2:0:0:0:
512,51,202430,2,0,P|493:88|449:96,1,81.8999975006104,10|0,2:0|2:0,2:0:0:0:
320,0,202680,2,0,L|404:27,1,81.8999975006104,10|0,2:0|2:0,2:0:0:0:
214,171,202930,6,0,B|187:134|187:134|206:81,1,81.8999975006104,10|8,2:3|2:0,2:0:0:0:
372,212,203180,1,8,2:0:0:0:
261,323,203305,6,0,B|224:350|224:350|171:331,1,81.8999975006104,10|8,2:3|2:0,2:0:0:0:
302,165,203555,1,8,2:0:0:0:
459,294,203680,5,2,1:0:0:0:
475,268,203805,1,8,2:3:0:0:
370,384,203930,5,8,2:3:0:0:
354,358,204055,1,8,2:3:0:0:
498,360,204180,6,0,L|472:202,1,145.6,6|0,1:0|2:0,2:0:0:0:
478,78,204555,2,0,B|510:102|510:102|441:122|411:85,1,145.6,0|0,3:0|2:0,2:0:0:0:
286,0,204930,2,0,P|326:5|347:42,1,72.8,10|0,2:0|2:0,2:0:0:0:
254,137,205180,2,0,P|253:98|281:73,1,72.8,2|0,1:0|2:0,2:0:0:0:
367,228,205430,6,0,B|315:207|315:207|270:216|261:263|294:292,1,145.6,2|0,1:0|2:0,2:0:0:0:
363,347,205805,2,0,B|328:337|307:384|307:384|276:341|226:379,1,145.6,0|0,3:0|2:0,2:0:0:0:
121,236,206180,2,0,P|157:244|173:292,1,72.8,10|0,2:0|2:0,2:0:0:0:
96,384,206430,2,0,L|103:309,1,72.8,14|0,2:0|2:0,2:0:0:0:
71,158,206680,6,0,P|3:162|6:242,1,145.6,6|0,1:0|2:0,2:0:0:0:
210,168,207055,2,0,B|190:204|190:204|169:86,1,145.6,0|0,3:0|2:0,2:0:0:0:
60,15,207430,2,0,P|80:59|116:60,1,72.8,10|0,2:0|2:0,2:0:0:0:
246,5,207680,2,0,B|206:-1|206:-1|155:34,1,72.8,10|0,2:0|2:0,2:0:0:0:
283,112,207930,6,0,B|334:95|334:95|376:123|376:123|423:110,1,145.6,6|0,1:0|2:0,2:0:0:0:
305,267,208305,2,0,L|321:182,1,72.8,0|0,1:0|2:0,2:0:0:0:
441,297,208555,1,8,2:0:0:0:
328,357,208680,2,0,P|288:363|259:345,1,72.8,0|0,1:0|2:0,2:0:0:0:
130,224,208930,2,0,P|179:234|181:298,1,109.2,10|0,2:0|2:0,2:0:0:0:
45,242,209180,6,0,B|71:264|70:287|70:287|113:225|83:181,1,163.799995001221,6|0,1:0|2:0,2:0:0:0:
14,67,209680,2,0,B|58:93|58:93|127:68,2,109.199996667481,0|8|0,3:0|2:0|2:0,2:0:0:0:
212,50,210430,2,0,B|168:24|168:24|99:49,2,109.199996667481,0|0|0,3:0|2:0|3:0,2:0:0:0:
301,168,211180,2,0,L|366:149,1,54.5999983337403,8|0,2:0|2:0,2:0:0:0:
396,86,211430,2,0,L|461:105,1,54.5999983337403,4|0,3:0|2:0,2:0:0:0:
512,211,211680,6,0,B|470:181|470:181|422:243|484:297,1,163.799995001221,4|0,3:0|2:0,2:0:0:0:
370,376,212180,2,0,P|405:349|465:385,2,109.199996667481,0|8|8,3:0|2:0|2:0,2:0:0:0:
247,279,212930,6,0,B|218:261|190:285|196:290|171:311|142:292,1,109.199996667481,0|0,3:0|2:0,2:0:0:0:
52,333,213305,2,0,L|65:270,1,54.5999983337403,0|0,3:0|2:0,2:0:0:0:
116,153,213555,1,8,2:0:0:0:
156,217,213680,2,0,L|143:145,1,54.5999983337403,0|0,3:0|2:0,2:0:0:0:
9,119,213930,2,0,L|22:47,1,54.5999983337403,8|0,2:3|2:0,2:0:0:0:
286,70,214180,6,0,B|250:49|210:72|232:90|200:117|164:99|164:99|196:150|277:187|346:64|346:64|343:95|343:95|420:8|497:67|497:67|538:104|555:168|507:235|448:251|369:240|360:167|360:167|391:222|434:229|470:193|470:193|454:288|454:288|417:319|336:314|297:265|289:232|289:232|298:263|293:315|277:364|188:400|124:377|51:298|91:222|136:183|136:183|94:158|89:122|89:122|-29:224|39:359|39:359|197:256|197:256,1,2289.56001397437,4|0,0:0|0:0,0:0:0:0:
