osu file format v14

[General]
AudioFilename: audio.mp3
AudioLeadIn: 0
PreviewTime: 158180
Countdown: 0
SampleSet: Soft
StackLeniency: 0.4
Mode: 0
LetterboxInBreaks: 0
WidescreenStoryboard: 0

[Editor]
DistanceSpacing: 0.6
BeatDivisor: 4
GridSize: 32
TimelineZoom: 1.1

[Metadata]
Title:Nagaiki no Kamisama
TitleUnicode:ながいきの神様
Artist:KikuoHana
ArtistUnicode:きくおはな
Creator:SMOKELIND
Version:EX
Source:
Tags:God of Longevity Hanatan 花たん YURiCa ユリカ 第一幕 1 First Act Daiichi Maku Japanese Rock Pepekcz Kujinn Reform Shikibe Mayu Kazato Asa Shizuku- Nymphe Kiyoshi Guarden
BeatmapID:3062351
BeatmapSetID:1494099

[Difficulty]
HPDrainRate:5.7
CircleSize:4
OverallDifficulty:9
ApproachRate:9.6
SliderMultiplier:2.07
SliderTickRate:1

[Events]
//Background and Video events
0,0,"81352383_p0.jpg",0,0
//Break Periods
2,158805,167930
//Storyboard Layer 0 (Background)
//Storyboard Layer 1 (Fail)
//Storyboard Layer 2 (Pass)
//Storyboard Layer 3 (Foreground)
//Storyboard Layer 4 (Overlay)
//Storyboard Sound Samples

[TimingPoints]
430,250,5,2,77,47,1,0
430,-175.438596491228,4,2,77,47,0,0
4930,-149.253731343284,4,2,77,57,0,0
7617,-588.235294117654,4,2,77,5,0,0
7680,-370.370370370373,4,2,77,57,0,0
7930,-114.942528735632,4,2,77,67,0,0
10430,-149.253731343284,4,2,77,57,0,0
18867,-588.235294117654,4,2,77,5,0,0
18930,-149.253731343284,4,2,77,57,0,0
19117,-588.235294117654,4,2,77,5,0,0
19180,-149.253731343284,4,2,77,57,0,0
32930,-175.438596491228,4,2,77,57,0,0
35180,-270.27027027027,4,2,77,57,0,0
35367,-588.235294117654,4,2,77,5,0,0
35430,-212.765957446809,4,2,77,67,0,0
35805,-175.438596491227,4,2,77,67,0,0
36180,-149.253731343284,4,2,77,67,0,0
36430,-129.87012987013,4,2,77,67,0,0
36680,-114.942528735633,4,2,77,67,0,0
37055,-103.092783505155,4,2,77,67,0,0
37430,-93.4579439252336,4,2,77,67,0,0
37680,-85.4700854700855,4,2,77,67,0,0
37930,-78.7401574803149,4,2,77,67,0,0
37992,-588.235294117654,4,2,77,5,0,0
38055,-114.942528735632,4,2,77,67,0,0
38242,-588.235294117654,4,2,77,5,0,0
38305,-149.253731343283,4,2,77,67,0,0
39117,-588.235294117654,4,2,77,5,0,0
39180,-149.253731343283,4,2,77,67,0,0
40430,-212.765957446809,4,2,77,67,0,0
40805,-175.438596491227,4,2,77,67,0,0
41180,-149.253731343284,4,2,77,67,0,0
41430,-129.87012987013,4,2,77,67,0,0
41680,-114.942528735633,4,2,77,67,0,0
42055,-103.092783505155,4,2,77,67,0,0
42430,-93.4579439252336,4,2,77,67,0,0
42680,-85.4700854700855,4,2,77,67,0,0
42930,-78.7401574803149,4,2,77,67,0,0
42992,-588.235294117654,4,2,77,5,0,0
43055,-114.942528735632,4,2,77,67,0,0
43242,-588.235294117654,4,2,77,5,0,0
43305,-149.253731343283,4,2,77,67,0,0
43805,-212.765957446807,4,2,77,67,0,0
44117,-588.235294117654,4,2,77,5,0,0
44180,-212.765957446807,4,2,77,67,0,0
45367,-588.235294117654,4,2,77,5,0,0
45430,-588.23529411765,4,2,77,67,0,0
47930,-370.370370370372,4,2,77,67,0,0
48242,-588.235294117654,4,2,77,5,0,0
48305,-270.270270270271,4,2,77,67,0,0
48680,-212.765957446809,4,2,77,67,0,0
48867,-588.235294117654,4,2,77,5,0,0
48930,-175.438596491228,4,2,77,67,0,0
49180,-149.253731343284,4,2,77,67,0,0
49492,-588.235294117654,4,2,77,5,0,0
49555,-149.253731343284,4,2,77,67,0,0
51430,-175.438596491228,4,2,77,67,0,0
51617,-588.235294117654,4,2,77,5,0,0
51680,-93.4579439252336,4,2,77,87,0,0
52367,-588.235294117654,4,2,77,5,0,0
52430,-93.4579439252336,4,2,77,87,0,0
53930,-175.438596491228,4,2,77,87,0,0
54117,-588.235294117654,4,2,77,5,0,0
54180,-93.4579439252336,4,2,77,87,0,0
54867,-588.235294117654,4,2,77,5,0,0
54930,-93.4579439252336,4,2,77,87,0,0
57617,-588.235294117654,4,2,77,5,0,0
57680,-175.438596491228,4,2,77,87,0,0
57867,-588.235294117654,4,2,77,5,0,0
57930,-85.4700854700855,4,2,77,87,0,0
58117,-588.235294117654,4,2,77,5,0,0
58180,-85.4700854700855,4,2,77,87,0,0
58492,-588.235294117654,4,2,77,5,0,0
58555,-85.4700854700855,4,2,77,87,0,0
58992,-588.235294117654,4,2,77,5,0,0
59055,-85.4700854700855,4,2,77,87,0,0
59117,-588.235294117654,4,2,77,5,0,0
59180,-93.4579439252336,4,2,77,87,0,0
60180,-175.438596491228,4,2,77,87,0,0
60367,-588.235294117654,4,2,77,5,0,0
60430,-93.4579439252336,4,2,77,87,0,0
62617,-588.235294117654,4,2,77,5,0,0
62680,-175.438596491228,4,2,77,87,0,0
62867,-588.235294117654,4,2,77,5,0,0
62930,-93.4579439252336,4,2,77,87,0,0
65180,-175.438596491228,4,2,77,87,0,0
65367,-588.235294117654,4,2,77,5,0,0
65430,-93.4579439252336,4,2,77,87,0,0
66992,-588.235294117654,4,2,77,5,0,0
67055,-93.4579439252336,4,2,77,87,0,0
67367,-588.235294117654,4,2,77,5,0,0
67430,-93.4579439252336,4,2,77,87,0,0
67617,-588.235294117654,4,2,77,5,0,0
67680,-175.438596491228,4,2,77,87,0,0
67867,-588.235294117654,4,2,77,5,0,0
67930,-85.4700854700855,4,2,77,87,0,0
68117,-588.235294117654,4,2,77,5,0,0
68180,-85.4700854700855,4,2,77,87,0,0
68492,-588.235294117654,4,2,77,5,0,0
68555,-85.4700854700855,4,2,77,87,0,0
68992,-588.235294117654,4,2,77,5,0,0
69055,-85.4700854700855,4,2,77,87,0,0
69117,-588.235294117654,4,2,77,5,0,0
69180,-93.4579439252336,4,2,77,87,0,0
70242,-588.235294117654,4,2,77,5,0,0
70305,-93.4579439252336,4,2,77,87,0,0
70367,-588.235294117654,4,2,77,5,0,0
70430,-93.4579439252336,4,2,77,87,0,0
70617,-588.235294117654,4,2,77,5,0,0
70680,-93.4579439252336,4,2,77,87,0,0
70742,-588.235294117654,4,2,77,5,0,0
70805,-93.4579439252336,4,2,77,87,0,0
70992,-588.235294117654,4,2,77,5,0,0
71055,-93.4579439252336,4,2,77,87,0,0
71117,-588.235294117654,4,2,77,5,0,0
71180,-93.4579439252336,4,2,77,87,0,0
71680,-85.4700854700855,4,2,77,87,0,0
72055,-93.4579439252336,4,2,77,87,0,0
73930,-175.438596491228,4,2,77,87,0,0
74117,-588.235294117654,4,2,77,5,0,0
74180,-93.4579439252336,4,2,77,87,0,0
76680,-85.4700854700857,4,2,77,77,0,0
77055,-103.092783505155,4,2,77,77,0,0
77680,-175.438596491228,4,2,77,77,0,0
77867,-588.235294117654,4,2,77,5,0,0
77930,-103.092783505155,4,2,77,77,0,0
78930,-175.438596491228,4,2,77,77,0,0
79117,-588.235294117654,4,2,77,5,0,0
79180,-103.092783505155,4,2,77,77,0,0
81680,-588.235294117647,4,2,77,77,0,0
82180,-588.235294117647,4,2,77,27,0,0
86680,-175.438596491228,4,2,77,47,0,0
96680,-114.942528735632,4,2,77,67,0,0
97430,-370.370370370369,4,2,77,67,0,0
97867,-588.235294117654,4,2,77,5,0,0
97930,-114.942528735632,4,2,77,67,0,0
98680,-370.370370370369,4,2,77,67,0,0
99117,-588.235294117654,4,2,77,5,0,0
99180,-114.942528735632,4,2,77,67,0,0
101180,-370.370370370369,4,2,77,67,0,0
101617,-588.235294117654,4,2,77,5,0,0
101680,-114.942528735632,4,2,77,67,0,0
102430,-370.370370370369,4,2,77,67,0,0
102930,-114.942528735632,4,2,77,67,0,0
104680,-370.370370370369,4,2,77,67,0,0
105367,-588.235294117654,4,2,77,5,0,0
105430,-175.438596491228,4,2,77,57,0,0
107930,-103.092783505155,4,2,77,77,0,0
111367,-588.235294117654,4,2,77,5,0,0
111430,-103.092783505155,4,2,77,77,0,0
114180,-114.942528735632,4,2,77,67,0,0
115430,-114.942528735633,4,2,77,67,0,0
115805,-103.092783505155,4,2,77,67,0,0
116117,-588.235294117654,4,2,77,5,0,0
116180,-93.4579439252336,4,2,77,67,0,0
116430,-85.4700854700855,4,2,77,67,0,0
116680,-78.7401574803149,4,2,77,67,0,0
116742,-588.235294117654,4,2,77,5,0,0
116805,-114.942528735632,4,2,77,67,0,0
117430,-149.253731343283,4,2,77,67,0,0
117617,-588.235294117654,4,2,77,5,0,0
117680,-149.253731343283,4,2,77,67,0,0
117867,-588.235294117654,4,2,77,5,0,0
117930,-149.253731343283,4,2,77,67,0,0
119180,-212.765957446809,4,2,77,67,0,0
119555,-175.438596491227,4,2,77,67,0,0
119930,-149.253731343284,4,2,77,67,0,0
120180,-129.87012987013,4,2,77,67,0,0
120430,-114.942528735633,4,2,77,67,0,0
120805,-103.092783505155,4,2,77,67,0,0
121180,-93.4579439252336,4,2,77,67,0,0
121367,-588.235294117654,4,2,77,5,0,0
121430,-85.4700854700855,4,2,77,67,0,0
121617,-588.235294117654,4,2,77,5,0,0
121680,-78.7401574803149,4,2,77,67,0,0
121742,-588.235294117654,4,2,77,5,0,0
121805,-114.942528735632,4,2,77,67,0,0
121992,-588.235294117654,4,2,77,5,0,0
122055,-149.253731343283,4,2,77,67,0,0
122867,-588.235294117654,4,2,77,5,0,0
122930,-149.253731343283,4,2,77,67,0,0
123930,-212.765957446807,4,2,77,67,0,0
124117,-588.235294117654,4,2,77,5,0,0
124180,-370.370370370372,4,2,77,67,0,0
126680,-370.370370370372,4,2,77,67,0,0
127055,-270.270270270271,4,2,77,67,0,0
127430,-212.765957446809,4,2,77,67,0,0
127680,-175.438596491228,4,2,77,67,0,0
127930,-149.253731343284,4,2,77,67,0,0
128242,-588.235294117654,4,2,77,5,0,0
128305,-149.253731343284,4,2,77,67,0,0
128617,-588.235294117654,4,2,77,5,0,0
128680,-149.253731343284,4,2,77,67,0,0
130430,-93.4579439252336,4,2,77,87,0,0
132680,-175.438596491228,4,2,77,87,0,0
132867,-588.235294117654,4,2,77,5,0,0
132930,-93.4579439252336,4,2,77,87,0,0
133617,-588.235294117654,4,2,77,5,0,0
133680,-93.4579439252336,4,2,77,87,0,0
134742,-588.235294117654,4,2,77,5,0,0
134805,-93.4579439252336,4,2,77,87,0,0
136367,-588.235294117654,4,2,77,5,0,0
136430,-175.438596491228,4,2,77,87,0,0
136617,-588.235294117654,4,2,77,5,0,0
136680,-85.4700854700855,4,2,77,87,0,0
137242,-588.235294117654,4,2,77,5,0,0
137305,-85.4700854700855,4,2,77,87,0,0
137742,-588.235294117654,4,2,77,5,0,0
137805,-85.4700854700855,4,2,77,87,0,0
137867,-588.235294117654,4,2,77,5,0,0
137930,-93.4579439252336,4,2,77,87,0,0
138930,-175.438596491228,4,2,77,87,0,0
139117,-588.235294117654,4,2,77,5,0,0
139180,-93.4579439252336,4,2,77,87,0,0
141117,-588.235294117654,4,2,77,5,0,0
141180,-93.4579439252336,4,2,77,87,0,0
141430,-175.438596491228,4,2,77,87,0,0
141617,-588.235294117654,4,2,77,5,0,0
141680,-93.4579439252336,4,2,77,87,0,0
143930,-175.438596491228,4,2,77,87,0,0
144117,-588.235294117654,4,2,77,5,0,0
144180,-93.4579439252336,4,2,77,87,0,0
146117,-588.235294117654,4,2,77,5,0,0
146180,-93.4579439252336,4,2,77,87,0,0
146367,-588.235294117654,4,2,77,5,0,0
146430,-175.438596491228,4,2,77,87,0,0
146617,-588.235294117654,4,2,77,5,0,0
146680,-85.4700854700855,4,2,77,87,0,0
147242,-588.235294117654,4,2,77,5,0,0
147305,-85.4700854700855,4,2,77,87,0,0
147742,-588.235294117654,4,2,77,5,0,0
147805,-85.4700854700855,4,2,77,87,0,0
147867,-588.235294117654,4,2,77,5,0,0
147930,-93.4579439252336,4,2,77,87,0,0
148992,-588.235294117654,4,2,77,5,0,0
149055,-93.4579439252336,4,2,77,87,0,0
149117,-588.235294117654,4,2,77,5,0,0
149180,-93.4579439252336,4,2,77,87,0,0
149367,-588.235294117654,4,2,77,5,0,0
149430,-93.4579439252336,4,2,77,87,0,0
149492,-588.235294117654,4,2,77,5,0,0
149555,-93.4579439252336,4,2,77,87,0,0
149742,-588.235294117654,4,2,77,5,0,0
149805,-93.4579439252336,4,2,77,87,0,0
149867,-588.235294117654,4,2,77,5,0,0
149930,-93.4579439252336,4,2,77,87,0,0
152680,-175.438596491228,4,2,77,87,0,0
152867,-588.235294117654,4,2,77,5,0,0
152930,-103.092783505155,4,2,77,77,0,0
153680,-114.942528735633,4,2,77,77,0,0
154180,-175.43859649123,4,2,77,67,0,0
154555,-175.43859649123,4,2,77,57,0,0
154992,-588.235294117654,4,2,77,5,0,0
155055,-175.43859649123,4,2,77,47,0,0
155117,-175.43859649123,4,2,77,37,0,0
155180,-370.370370370379,4,2,77,27,0,0
155430,-370.370370370379,4,2,77,17,0,0
155680,-370.370370370379,4,2,77,7,0,0
158805,-588.235294117647,4,2,77,17,0,0
168846,438.917337234821,3,2,77,17,1,0
168846,-588.235294117647,4,2,77,17,0,0
175430,250,5,2,77,17,1,0
175430,-588.235294117647,4,2,77,17,0,0
175492,-588.235294117654,4,2,77,5,0,0
177930,-114.942528735632,4,2,77,67,0,0
178242,-588.235294117654,4,2,77,5,0,0
178305,-114.942528735632,4,2,77,67,0,0
178617,-588.235294117654,4,2,77,5,0,0
178680,-103.092783505155,4,2,77,67,0,0
179180,-93.4579439252336,4,2,77,87,0,0
180180,-175.438596491228,4,2,77,87,0,0
180367,-588.235294117654,4,2,77,5,0,0
180430,-93.4579439252336,4,2,77,87,0,0
181430,-175.438596491228,4,2,77,87,0,0
181617,-588.235294117654,4,2,77,5,0,0
181680,-93.4579439252336,4,2,77,87,0,0
182680,-175.438596491228,4,2,77,87,0,0
182867,-588.235294117654,4,2,77,5,0,0
182930,-93.4579439252336,4,2,77,87,0,0
185180,-175.438596491228,4,2,77,87,0,0
185367,-588.235294117654,4,2,77,5,0,0
185430,-93.4579439252336,4,2,77,87,0,0
185617,-588.235294117654,4,2,77,5,0,0
185680,-93.4579439252336,4,2,77,87,0,0
185992,-588.235294117654,4,2,77,5,0,0
186055,-93.4579439252336,4,2,77,87,0,0
186992,-588.235294117654,4,2,77,5,0,0
187055,-93.4579439252336,4,2,77,87,0,0
187367,-588.235294117654,4,2,77,5,0,0
187430,-93.4579439252336,4,2,77,87,0,0
190992,-588.235294117654,4,2,77,5,0,0
191055,-93.4579439252336,4,2,77,87,0,0
194867,-588.235294117654,4,2,77,5,0,0
194930,-93.4579439252336,4,2,77,87,0,0
195180,-175.438596491228,4,2,77,87,0,0
195367,-588.235294117654,4,2,77,5,0,0
195430,-93.4579439252336,4,2,77,87,0,0
195617,-588.235294117654,4,2,77,5,0,0
195680,-93.4579439252336,4,2,77,87,0,0
195992,-588.235294117654,4,2,77,5,0,0
196055,-93.4579439252336,4,2,77,87,0,0
196680,-85.4700854700855,4,2,77,87,0,0
197055,-93.4579439252336,4,2,77,87,0,0
198117,-588.235294117654,4,2,77,5,0,0
198180,-93.4579439252336,4,2,77,87,0,0
198242,-588.235294117654,4,2,77,5,0,0
198305,-93.4579439252336,4,2,77,87,0,0
198492,-588.235294117654,4,2,77,5,0,0
198555,-93.4579439252336,4,2,77,87,0,0
198617,-588.235294117654,4,2,77,5,0,0
198680,-93.4579439252336,4,2,77,87,0,0
201430,-175.438596491228,4,2,77,87,0,0
201617,-588.235294117654,4,2,77,5,0,0
201680,-93.4579439252336,4,2,77,87,0,0
202680,-175.438596491228,4,2,77,87,0,0
202867,-588.235294117654,4,2,77,5,0,0
202930,-93.4579439252336,4,2,77,87,0,0
204180,-149.253731343283,4,2,77,67,0,0
204867,-588.235294117654,4,2,77,5,0,0
204930,-149.253731343283,4,2,77,67,0,0
206117,-588.235294117654,4,2,77,5,0,0
206180,-149.253731343283,4,2,77,67,0,0
207367,-588.235294117654,4,2,77,5,0,0
207430,-149.253731343283,4,2,77,67,0,0
208242,-588.235294117654,4,2,77,5,0,0
208305,-149.253731343283,4,2,77,67,0,0
208492,-588.235294117654,4,2,77,5,0,0
208555,-149.253731343283,4,2,77,67,0,0
208867,-588.235294117654,4,2,77,5,0,0
208930,-370.370370370366,4,2,77,67,0,0
209180,-212.765957446809,4,2,77,57,0,0
213867,-588.235294117654,4,2,77,5,0,0
213930,-212.765957446809,4,2,77,57,0,0
214180,-588.23529411765,4,2,77,47,0,0
214242,-588.23529411765,4,2,77,5,0,0

[Colours]
Combo1 : 164,0,164
Combo2 : 82,0,164

[HitObjects]
61,100,430,6,0,P|91:88|136:77,2,58.9949992798462,2|0|0,0:0|0:0|0:0,0:0:0:0:
28,229,805,1,0,0:0:0:0:
101,242,930,2,0,P|103:213|93:186,1,58.9949992798462
52,306,1180,5,0,0:0:0:0:
163,151,1305,2,0,P|222:164|280:174,1,117.989998559692,2|0,0:0|0:0,0:0:0:0:
355,112,1680,5,2,0:0:0:0:
278,173,1805,1,0,0:0:0:0:
378,213,1930,5,0,0:0:0:0:
276,87,2055,2,0,P|270:54|262:16,2,58.9949992798462
276,87,2430,1,0,0:0:0:0:
398,43,2555,1,2,0:0:0:0:
500,291,2805,5,0,0:0:0:0:
442,347,2930,2,0,P|411:354|380:364,2,58.9949992798462,2|0|0,0:0|0:0|0:0,0:0:0:0:
324,310,3305,1,0,0:0:0:0:
271,363,3430,2,0,P|242:354|214:347,1,58.9949992798462
214,347,3680,5,0,0:0:0:0:
81,239,3805,2,0,P|119:288|176:259,1,117.989998559692,2|0,0:0|0:0,0:0:0:0:
165,274,4180,5,2,0:0:0:0:
153,183,4305,1,0,0:0:0:0:
236,213,4430,5,0,0:0:0:0:
81,239,4555,2,0,L|-5:220,1,58.9949992798462
23,226,4805,1,0,0:0:0:0:
209,127,4930,6,0,L|195:22,1,104.017495079739,10|0,0:0|0:0,0:0:0:0:
205,19,5180,2,0,L|213:90,1,69.3449967198259,8|0,0:3|0:0,0:0:0:0:
321,191,5430,6,0,B|353:157|404:159|404:159|376:153|362:137,1,138.689993439652,14|0,0:3|0:0,0:0:0:0:
363,138,5805,1,0,0:0:0:0:
426,316,6055,5,0,0:0:0:0:
375,378,6180,2,0,P|380:299|389:223,1,138.689993439652,8|0,0:0|0:0,0:0:0:0:
387,239,6555,1,0,0:0:0:0:
239,351,6680,6,0,B|204:358|180:319|180:319|207:343|242:335,1,138.689993439652,2|0,1:0|0:0,0:0:0:0:
270,208,7055,2,0,B|269:243|226:257|226:257|255:236|255:200,1,138.689993439652,0|0,1:0|0:0,0:0:0:0:
74,210,7430,2,0,P|126:203|191:197,1,104.017495079739,8|0,0:0|0:0,0:0:0:0:
215,132,7680,6,0,L|221:81,1,41.9175010233765,6|0,1:3|0:0,0:0:0:0:
225,17,7930,6,0,P|253:54|317:54,1,90.0450007556877,4|0,1:0|0:0,0:0:0:0:
365,14,8117,1,0,0:0:0:0:
365,14,8180,2,0,P|375:55|393:110,1,90.0450007556877,0|0,0:0|1:0,0:0:0:0:
459,137,8367,2,0,P|445:179|434:223,1,90.0450007556877
448,299,8555,2,0,P|469:291|487:277,2,45.0225003778439,0|0|8,0:0|0:0|0:0,0:0:0:0:
268,357,8867,5,0,0:0:0:0:
259,355,8930,1,8,0:0:0:0:
226,286,9055,1,0,0:0:0:0:
10,356,9180,6,0,P|55:338|75:287,1,90.0450007556877,0|8,1:0|0:0,0:0:0:0:
32,247,9367,1,8,0:0:0:0:
36,229,9430,1,8,0:0:0:0:
38,211,9492,1,8,0:0:0:0:
41,193,9555,1,0,1:0:0:0:
130,36,9680,5,8,0:0:0:0:
131,53,9742,1,8,0:0:0:0:
133,71,9805,1,8,0:0:0:0:
135,89,9867,1,8,0:0:0:0:
137,107,9930,2,0,L|143:49,1,45.0225003778439,0|0,1:0|3:0,0:0:0:0:
278,139,10055,2,0,P|238:152|186:173,1,90.0450007556877,8|8,0:0|3:0,0:0:0:0:
310,35,10305,5,8,0:3:0:0:
330,43,10367,1,8,0:3:0:0:
343,59,10430,1,12,3:2:0:0:
459,255,10805,5,0,0:0:0:0:
459,255,11180,5,0,0:0:0:0:
449,178,11430,1,0,0:0:0:0:
440,102,11680,1,0,0:0:0:0:
330,302,12055,5,0,0:0:0:0:
330,302,12430,5,0,0:0:0:0:
254,293,12680,1,0,0:0:0:0:
177,283,12930,1,0,0:0:0:0:
41,115,13305,5,0,0:0:0:0:
41,115,13680,5,0,0:0:0:0:
100,162,13930,1,0,0:0:0:0:
30,193,14180,1,0,0:0:0:0:
249,97,14555,5,0,0:0:0:0:
249,97,14930,5,0,0:0:0:0:
214,165,15180,1,2,0:0:0:0:
290,163,15430,1,2,0:0:0:0:
315,25,16180,6,0,P|328:58|342:100,1,69.3449967198259,2|0,0:0|0:0,0:0:0:0:
480,48,16430,2,0,P|444:42|401:33,1,69.3449967198259,2|0,0:0|0:0,0:0:0:0:
378,180,16680,2,0,P|400:152|429:119,1,69.3449967198259,2|0,0:0|0:0,0:0:0:0:
443,341,17055,5,0,0:0:0:0:
443,341,17430,5,0,0:0:0:0:
378,299,17680,1,2,0:0:0:0:
303,315,17930,1,2,0:0:0:0:
70,340,18680,6,0,P|58:294|40:237,1,104.017495079739,2|0,0:0|0:0,0:0:0:0:
47,232,18930,2,0,P|62:281|75:332,1,104.017495079739,2|0,0:0|0:0,0:0:0:0:
75,331,19180,1,2,0:0:0:0:
153,98,19555,5,0,0:0:0:0:
153,98,19930,5,0,0:0:0:0:
79,117,20180,1,2,0:0:0:0:
153,98,20430,6,0,B|258:62|223:203|328:168,1,208.034990159478,2|0,0:0|0:0,0:0:0:0:
347,37,20930,2,0,P|321:58|307:98,1,69.3449967198259,2|0,0:0|0:0,0:0:0:0:
449,97,21180,2,0,P|415:94|377:113,1,69.3449967198259,2|0,0:0|0:0,0:0:0:0:
488,215,21430,2,0,P|466:189|425:177,1,69.3449967198259,2|0,0:0|0:0,0:0:0:0:
422,261,21680,5,2,0:0:0:0:
422,261,22055,5,0,0:0:0:0:
422,261,22430,5,0,0:0:0:0:
348,280,22680,1,2,0:0:0:0:
119,334,22930,5,2,0:0:0:0:
229,303,23305,1,0,0:0:0:0:
268,195,23680,1,0,0:0:0:0:
268,195,23930,2,0,L|260:126,1,69.3449967198259
35,46,24180,5,0,0:0:0:0:
175,139,24555,1,0,0:0:0:0:
319,43,24930,1,0,0:0:0:0:
319,43,25180,2,0,L|402:52,1,69.3449967198259,2|0,0:0|0:0,0:0:0:0:
467,12,25430,6,0,P|423:33|450:123,1,138.689993439652,6|0,0:3|0:0,0:0:0:0:
430,112,25805,1,0,0:0:0:0:
281,331,26180,6,0,P|252:315|212:306,1,69.3449967198259,2|0,0:0|0:0,0:0:0:0:
185,223,26430,2,0,P|153:231|117:252,1,69.3449967198259,2|0,0:0|0:0,0:0:0:0:
58,321,26680,6,0,P|69:254|83:182,1,138.689993439652,2|0,0:0|0:0,0:0:0:0:
82,184,27055,1,0,0:0:0:0:
337,39,27680,6,0,P|301:47|259:57,1,69.3449967198259,2|0,0:0|0:0,0:0:0:0:
332,123,27930,2,0,P|264:106|197:92,1,138.689993439652,2|0,0:0|0:0,0:0:0:0:
196,91,28305,1,0,0:0:0:0:
422,282,28680,6,0,P|441:211|382:163,2,138.689993439652,2|2|2,0:0|0:0|0:0,0:0:0:0:
286,349,29305,1,0,0:0:0:0:
282,339,29367,2,0,P|225:318|169:295,1,104.017495079739
28,186,30180,6,0,P|21:208|26:184,1,69.3449967198259,2|0,0:0|0:0,0:0:0:0:
66,112,30430,2,0,P|137:120|211:122,1,138.689993439652,2|0,0:0|0:0,0:0:0:0:
204,122,30805,1,0,0:0:0:0:
304,36,30930,2,0,P|338:81|286:131,2,138.689993439652,2|2|2,0:0|0:0|0:0,0:0:0:0:
423,132,31680,6,0,L|513:123,1,69.3449967198259,2|0,0:0|0:0,0:0:0:0:
492,125,31867,1,0,0:0:0:0:
492,125,31930,1,0,0:0:0:0:
512,308,32055,2,0,P|473:256|399:278,1,138.689993439652
407,270,32430,5,2,0:0:0:0:
269,323,32680,1,2,0:0:0:0:
96,223,32930,5,10,0:3:0:0:
46,111,34180,6,0,P|52:81|57:45,1,58.9949992798462,4|0,3:0|0:0,0:0:0:0:
56,52,34430,1,0,0:0:0:0:
128,127,34555,2,0,P|134:97|139:61,1,58.9949992798462,4|0,3:0|0:0,0:0:0:0:
278,42,34805,5,4,3:0:0:0:
289,44,34867,1,0,3:0:0:0:
300,47,34930,1,0,3:0:0:0:
369,16,35055,1,0,3:0:0:0:
449,183,35180,2,0,L|383:172,1,57.4425014024048,4|0,3:0|0:0,0:0:0:0:
317,160,35430,6,0,P|281:193|301:245,1,97.2899985154724,10|0,0:3|0:0,0:0:0:0:
463,328,35805,2,0,P|408:315|341:302,1,117.989998559692,10|0,0:3|0:0,0:0:0:0:
193,335,36180,2,0,P|228:326|270:314,1,69.3449967198259,10|0,0:3|0:0,0:0:0:0:
62,201,36430,2,0,P|52:235|41:278,1,79.6949984191361,10|0,0:3|0:0,0:0:0:0:
163,129,36680,6,0,B|261:161|228:63|327:96,1,180.090001511375,10|0,0:3|0:0,0:0:0:0:
470,247,37055,2,0,B|484:303|399:324|350:246|420:169,1,200.790004748909,10|0,0:3|0:0,0:0:0:0:
222,321,37430,6,0,B|188:332|160:297|160:297|189:321|223:305,1,110.744996620331,10|0,0:3|0:0,0:0:0:0:
81,108,37680,2,0,B|45:95|16:132|16:132|47:107|83:124,1,121.095000461941,10|0,0:3|0:0,0:0:0:0:
80,253,37930,6,0,P|60:222|66:182,1,65.7224994985771,10|0,0:0|0:0,0:0:0:0:
130,18,38055,2,0,P|189:35|262:53,1,135.067501133532,8|0,0:3|0:0,0:0:0:0:
324,10,38305,6,0,P|372:12|382:90,1,138.689993439652,8|0,0:3|0:0,0:0:0:0:
420,303,38680,1,12,0:0:0:0:
420,303,38805,1,0,0:0:0:0:
456,230,38930,6,0,P|434:183|365:178,1,104.017495079739,8|0,0:0|0:0,0:0:0:0:
386,170,39180,1,8,0:3:0:0:
386,170,39242,1,8,0:3:0:0:
386,170,39305,1,8,0:3:0:0:
283,275,39430,5,8,0:3:0:0:
232,336,39555,1,8,0:3:0:0:
218,334,39617,1,8,0:3:0:0:
204,332,39680,1,8,0:3:0:0:
109,182,39805,5,8,0:3:0:0:
156,240,39930,1,8,0:3:0:0:
170,238,39992,1,8,0:3:0:0:
184,236,40055,1,8,0:3:0:0:
297,26,40180,5,8,0:0:0:0:
205,98,40305,1,0,1:0:0:0:
363,284,40430,6,0,P|408:270|475:258,1,97.2899985154724,10|0,0:3|0:0,0:0:0:0:
264,372,40805,2,0,P|218:351|148:329,1,117.989998559692,10|0,0:3|0:0,0:0:0:0:
25,175,41180,2,0,P|45:211|29:250,1,69.3449967198259,10|0,0:3|0:0,0:0:0:0:
263,156,41430,2,0,P|225:170|189:150,1,79.6949984191361,10|0,0:3|0:0,0:0:0:0:
366,7,41680,6,0,B|339:61|339:139|339:139|333:111|318:99,1,180.090001511375,10|0,0:3|0:0,0:0:0:0:
332,323,42055,2,0,B|366:220|229:254|263:151,1,200.790004748909,10|0,0:3|0:0,0:0:0:0:
56,248,42430,2,0,P|42:211|61:245,1,110.744996620331,10|0,0:3|0:0,0:0:0:0:
222,336,42680,2,0,P|235:298|216:333,1,121.095000461941,10|0,0:3|0:0,0:0:0:0:
208,127,42930,6,0,P|198:158|189:189,1,65.7224994985771,10|0,0:0|0:0,0:0:0:0:
148,257,43055,2,0,P|142:189|123:124,1,135.067501133532,8|0,0:3|0:0,0:0:0:0:
68,67,43305,6,0,P|102:31|204:27,1,138.689993439652,8|0,0:3|0:0,0:0:0:0:
342,157,43680,1,12,0:0:0:0:
381,91,43805,2,0,P|345:70|265:110,1,121.612498144341,8|0,0:3|0:0,0:0:0:0:
274,95,44180,5,8,0:3:0:0:
274,95,44242,1,8,0:3:0:0:
274,95,44305,1,8,0:3:0:0:
325,280,44430,5,8,0:3:0:0:
396,305,44555,1,8,0:3:0:0:
400,293,44617,1,8,0:3:0:0:
400,280,44680,1,8,0:3:0:0:
203,229,44805,5,8,0:3:0:0:
268,184,44930,1,8,0:3:0:0:
274,193,44993,1,8,0:3:0:0:
277,206,45055,1,8,0:3:0:0:
137,344,45180,6,0,L|53:334,1,72.9674988866043,14|0,0:0|0:0,0:0:0:0:
28,267,45430,6,0,L|23:229,1,35.1900002147827,2|0,1:0|0:0,0:0:0:0:
249,43,45805,2,0,L|244:77,1,35.1900002147827,0|0,1:0|0:0,0:0:0:0:
399,164,46180,6,0,L|383:155,1,17.5950001073914,2|0,1:0|0:0,0:0:0:0:
251,201,46430,2,0,L|266:192,1,17.5950001073914,2|0,1:0|0:0,0:0:0:0:
376,320,46680,6,0,L|366:287,1,35.1900002147827,2|0,1:0|0:0,0:0:0:0:
203,368,47055,2,0,L|213:334,1,35.1900002147827,0|0,1:0|0:0,0:0:0:0:
213,334,47367,1,0,0:0:0:0:
213,334,47430,1,0,1:0:0:0:
161,288,47555,1,0,0:0:0:0:
99,242,47680,2,0,L|95:224,1,17.5950001073914,2|0,1:0|0:0,0:0:0:0:
19,129,47930,6,0,P|51:149|84:140,1,69.8625017056275,2|0,1:0|0:0,0:0:0:0:
160,145,48305,2,0,P|126:124|92:133,1,76.5900018698731,2|0,1:0|0:0,0:0:0:0:
317,214,48680,6,0,P|325:181|334:136,1,72.9674988866043,2|0,1:0|0:0,0:0:0:0:
312,73,48930,2,0,P|318:101|325:130,1,58.9949992798462,2|0,1:0|0:0,0:0:0:0:
496,239,49180,6,0,B|545:226|526:152|446:146|415:232,1,173.362491799565,10|0,0:0|0:0,0:0:0:0:
379,276,49555,2,0,B|351:288|339:313|339:313|355:270|337:230,1,138.689993439652,8|0,0:0|0:0,0:0:0:0:
338,233,49867,1,8,0:0:0:0:
338,233,49930,1,8,0:0:0:0:
92,341,50180,5,8,0:0:0:0:
81,241,50305,1,8,0:0:0:0:
70,142,50430,1,0,1:0:0:0:
237,49,50555,5,8,0:0:0:0:
153,215,50680,1,8,0:0:0:0:
224,247,50805,1,0,1:0:0:0:
383,69,50930,5,8,0:0:0:0:
218,163,51055,1,8,0:0:0:0:
85,44,51180,1,6,3:0:0:0:
85,44,51430,6,0,B|94:70|67:91|67:91|78:73|73:42,1,88.4924989197693,10|0,0:3|0:0,0:0:0:0:
0,57,51680,6,0,B|112:26|65:172|178:143,1,221.489993240662,6|0,1:0|0:0,0:0:0:0:
399,32,52055,1,8,0:0:0:0:
399,32,52117,1,0,0:0:0:0:
399,32,52180,2,0,B|342:36|332:100|332:100|350:56|410:51,1,166.117494930496,2|0,0:0|0:0,0:0:0:0:
407,135,52430,6,0,P|416:185|379:235,1,110.744996620331,2|0,1:0|0:0,0:0:0:0:
98,269,52680,2,0,B|83:240|112:211|112:211|98:240|112:269,1,110.744996620331,10|0,0:0|0:0,0:0:0:0:
159,331,52867,5,0,0:0:0:0:
159,331,52930,2,0,P|195:297|174:236,1,110.744996620331,2|0,1:0|0:0,0:0:0:0:
19,68,53180,5,0,0:0:0:0:
29,142,53305,2,0,P|80:151|122:112,1,110.744996620331,8|0,0:0|0:0,0:0:0:0:
121,114,53555,5,0,1:0:0:0:
288,44,53680,1,0,1:0:0:0:
290,33,53742,1,0,1:0:0:0:
291,21,53805,1,0,1:0:0:0:
465,153,53930,6,0,P|474:178|464:153,1,88.4924989197693,10|0,0:0|0:0,0:0:0:0:
399,83,54180,6,0,B|461:67|484:160|398:214|313:137,1,221.489993240662,6|0,1:0|0:0,0:0:0:0:
214,328,54555,1,8,0:0:0:0:
214,328,54617,1,0,0:0:0:0:
214,328,54680,2,0,P|264:262|345:286,1,166.117494930496,2|0,0:0|0:0,0:0:0:0:
389,340,54930,6,0,B|413:314|415:281|415:281|431:323|403:346,1,110.744996620331,2|0,1:0|0:0,0:0:0:0:
175,218,55180,2,0,B|150:192|148:159|148:159|132:201|160:224,1,110.744996620331,10|0,0:0|0:0,0:0:0:0:
230,160,55367,5,0,0:0:0:0:
230,160,55430,2,0,P|238:99|245:28,1,110.744996620331,2|0,1:0|0:0,0:0:0:0:
0,231,55680,5,0,0:0:0:0:
31,303,55805,2,0,P|92:311|127:266,1,110.744996620331,8|0,0:0|0:0,0:0:0:0:
123,278,56055,5,0,1:0:0:0:
324,248,56180,1,0,1:0:0:0:
386,297,56305,5,8,0:0:0:0:
384,307,56367,1,8,0:0:0:0:
382,318,56430,1,10,0:0:0:0:
248,223,56555,1,8,0:3:0:0:
480,33,56680,6,0,B|518:148|364:109|403:225,1,221.489993240662,6|0,1:0|0:0,0:0:0:0:
304,30,57055,1,8,0:0:0:0:
304,30,57117,1,0,0:0:0:0:
304,30,57180,2,0,P|358:15|403:63,1,110.744996620331,2|0,0:0|0:0,0:0:0:0:
197,163,57430,2,0,B|144:147|136:87|136:87|127:122|91:132,1,166.117494930496,2|0,1:0|0:0,0:0:0:0:
13,133,57680,6,0,B|7:106|36:89|36:89|21:109|24:135,1,88.4924989197693,10|0,0:0|0:0,0:0:0:0:
116,207,57930,6,0,B|139:260|130:327|130:327|137:289|166:274,1,181.642500692911,6|0,1:0|0:0,0:0:0:0:
206,337,58180,5,8,0:0:0:0:
490,208,58305,2,0,B|539:185|506:111|420:119|404:216,1,181.642500692911,4|0,1:0|0:0,0:0:0:0:
437,265,58555,5,8,0:3:0:0:
197,163,58680,2,0,L|181:29,1,121.095000461941,4|8,1:0|0:0,0:0:0:0:
241,3,58867,5,8,0:0:0:0:
241,3,58930,2,0,P|219:27|173:36,1,60.5475002309704,10|0,0:0|3:0,0:0:0:0:
26,122,59055,2,0,P|53:132|73:155,1,60.5475002309704,8|0,0:0|3:0,0:0:0:0:
168,320,59180,6,0,B|278:356|241:209|352:246,1,221.489993240662,6|0,1:0|0:0,0:0:0:0:
453,58,59555,1,8,0:0:0:0:
511,98,59680,2,0,P|469:134|409:117,1,110.744996620331,0|0,0:0|1:0,0:0:0:0:
171,214,59930,2,0,P|224:198|271:237,1,110.744996620331,0|0,1:0|0:0,0:0:0:0:
451,384,60180,6,0,L|463:288,1,88.4924989197693,8|0,0:0|0:0,0:0:0:0:
439,220,60430,5,6,1:0:0:0:
297,318,60555,1,8,0:0:0:0:
171,214,60680,1,8,0:0:0:0:
233,164,60805,5,4,1:0:0:0:
147,330,60930,1,8,0:0:0:0:
24,188,61055,5,8,0:0:0:0:
27,171,61117,1,8,0:0:0:0:
31,154,61180,1,2,1:0:0:0:
204,93,61305,1,8,0:0:0:0:
233,164,61430,5,10,0:0:0:0:
480,224,61555,1,8,0:0:0:0:
445,150,61680,6,0,B|392:179|398:244|398:244|374:182|312:182,1,221.489993240662,6|0,1:0|0:0,0:0:0:0:
235,337,62055,1,8,0:0:0:0:
235,337,62117,1,0,0:0:0:0:
235,337,62180,2,0,P|290:321|310:272,1,110.744996620331,2|0,0:0|1:0,0:0:0:0:
41,160,62430,2,0,B|25:202|70:237|70:237|45:201|61:157,1,166.117494930496,2|0,1:0|0:0,0:0:0:0:
151,172,62680,6,0,P|165:191|146:172,1,88.4924989197693,10|0,0:0|0:0,0:0:0:0:
232,127,62930,6,0,B|343:89|306:238|418:201,1,221.489993240662,2|0,1:0|0:0,0:0:0:0:
491,15,63305,2,0,P|432:28|410:85,1,110.744996620331,8|0,0:0|0:0,0:0:0:0:
409,69,63555,1,8,0:0:0:0:
503,276,63680,5,2,1:0:0:0:
335,324,63805,1,0,3:0:0:0:
283,270,63930,5,10,0:0:0:0:
115,222,64055,1,0,3:0:0:0:
54,264,64180,6,0,B|61:327|157:315|177:216|74:164,1,221.489993240662,6|0,1:0|0:0,0:0:0:0:
316,17,64555,1,8,0:0:0:0:
316,17,64617,1,0,0:0:0:0:
316,17,64680,2,0,P|365:34|439:58,1,110.744996620331,2|0,0:0|1:0,0:0:0:0:
224,198,64930,2,0,P|214:146|198:70,1,110.744996620331,2|0,1:0|0:0,0:0:0:0:
381,270,65180,6,0,P|417:257|472:239,1,88.4924989197693,10|0,0:0|0:0,0:0:0:0:
454,332,65430,6,0,P|349:306|238:282,1,221.489993240662,6|0,1:0|0:0,0:0:0:0:
36,351,65805,1,8,0:0:0:0:
103,384,65930,2,0,P|145:333|132:282,1,110.744996620331,0|0,0:0|3:0,0:0:0:0:
75,255,66117,1,0,3:0:0:0:
75,255,66180,1,0,1:0:0:0:
198,69,66305,1,8,0:0:0:0:
201,90,66367,1,8,0:0:0:0:
204,112,66430,1,10,0:0:0:0:
258,162,66555,1,8,0:3:0:0:
451,20,66680,6,0,B|346:-14|381:124|277:89|277:89|324:94|344:61,1,276.862491550827,6|0,1:0|0:0,0:0:0:0:
288,16,67055,1,8,0:0:0:0:
479,206,67180,6,0,B|507:238|478:285|478:285|490:242|460:210,1,166.117494930496,2|0,0:0|0:0,0:0:0:0:
370,172,67430,2,0,B|384:131|439:132|439:132|395:144|383:185,1,166.117494930496,2|0,1:0|0:0,0:0:0:0:
396,267,67680,6,0,P|352:272|289:278,1,88.4924989197693,10|0,0:0|0:0,0:0:0:0:
264,337,67930,6,0,B|297:237|197:270|230:170,1,181.642500692911,6|0,1:0|0:0,0:0:0:0:
292,133,68180,5,8,0:0:0:0:
57,316,68305,2,0,B|183:301|183:301|151:305|131:334,1,181.642500692911,4|0,1:0|0:0,0:0:0:0:
195,376,68555,5,8,0:3:0:0:
9,173,68680,2,0,L|31:40,1,121.095000461941,4|8,1:0|0:0,0:0:0:0:
91,9,68867,5,8,0:0:0:0:
91,9,68930,2,0,P|123:22|155:41,1,60.5475002309704,10|0,0:0|0:0,0:0:0:0:
335,107,69055,2,0,P|306:118|280:132,1,60.5475002309704,8|0,0:0|0:0,0:0:0:0:
112,235,69180,6,0,B|119:298|215:286|235:187|132:135,1,221.489993240662,14|0,0:0|0:0,0:0:0:0:
367,313,69555,1,8,0:0:0:0:
309,361,69680,2,0,P|255:354|189:344,1,110.744996620331,0|0,0:0|1:0,0:0:0:0:
459,227,69930,2,0,B|473:198|444:169|444:169|459:198|444:227,1,110.744996620331,8|0,0:0|0:0,0:0:0:0:
362,256,70117,5,0,0:0:0:0:
362,256,70180,2,0,P|363:223|382:193,1,55.3724983101654,8|0,0:0|0:0,0:0:0:0:
334,78,70305,2,0,P|361:95|377:127,1,55.3724983101654,8|0,0:0|0:0,0:0:0:0:
266,267,70430,5,6,1:0:0:0:
67,118,70555,2,0,P|92:135|127:138,1,55.3724983101654,8|0,0:0|0:0,0:0:0:0:
304,0,70680,2,0,P|276:13|256:41,1,55.3724983101654,8|0,0:0|0:0,0:0:0:0:
105,296,70805,5,4,1:0:0:0:
305,150,70930,2,0,P|280:167|245:170,1,55.3724983101654,8|0,0:0|0:0,0:0:0:0:
75,28,71055,2,0,P|102:41|122:69,1,55.3724983101654,8|0,0:0|0:0,0:0:0:0:
17,204,71180,5,0,1:0:0:0:
196,97,71305,1,8,0:0:0:0:
350,289,71430,5,8,0:0:0:0:
387,294,71492,1,8,0:0:0:0:
421,278,71555,1,8,0:0:0:0:
442,246,71617,1,8,0:0:0:0:
443,208,71680,6,0,B|321:167|362:329|240:288,1,242.190000923881,6|0,1:0|0:0,0:0:0:0:
6,109,72055,2,0,B|63:134|68:210|68:210|95:162|149:164,1,221.489993240662,0|0,1:0|0:0,0:0:0:0:
182,358,72430,6,0,P|149:315|157:253,1,110.744996620331,10|0,0:0|0:0,0:0:0:0:
332,54,72680,2,0,P|297:95|240:96,1,110.744996620331,2|0,0:0|0:0,0:0:0:0:
460,286,72930,6,0,P|476:171|494:60,1,221.489993240662,2|0,1:0|0:0,0:0:0:0:
303,224,73305,2,0,B|224:295|146:245|167:160|224:174,1,221.489993240662,0|0,1:0|0:0,0:0:0:0:
383,261,73680,2,0,L|397:378,1,110.744996620331,10|0,0:0|0:0,0:0:0:0:
62,244,73930,6,0,P|102:270|110:310,1,88.4924989197693,14|0,0:0|0:0,0:0:0:0:
33,315,74180,6,0,B|-4:202|145:240|107:128,1,221.489993240662,6|0,1:0|0:0,0:0:0:0:
347,17,74555,2,0,B|303:68|227:38|227:38|275:62|276:118,1,221.489993240662,0|0,1:0|0:0,0:0:0:0:
381,278,74930,2,0,P|328:257|268:237,1,110.744996620331,10|0,0:0|0:0,0:0:0:0:
476,80,75180,2,0,P|484:136|496:198,1,110.744996620331,10|0,0:0|0:0,0:0:0:0:
272,345,75430,5,10,0:3:0:0:
371,162,75555,1,8,0:0:0:0:
498,315,75680,1,8,0:0:0:0:
367,262,75805,5,10,0:3:0:0:
176,320,75930,1,8,0:0:0:0:
193,113,76055,1,8,0:0:0:0:
236,178,76180,5,2,1:0:0:0:
59,240,76305,5,8,0:3:0:0:
75,165,76430,1,8,0:3:0:0:
136,214,76555,1,8,0:3:0:0:
299,77,76680,6,0,B|306:45|270:26|270:26|244:123|375:81|319:220,1,242.190000923881,6|0,1:0|0:0,0:0:0:0:
488,318,77055,2,0,B|540:304|520:225|435:219|402:311,1,200.790004748909,2|0,1:0|0:0,0:0:0:0:
196,339,77430,2,0,P|241:356|295:379,1,100.395002374455,10|0,0:0|0:0,0:0:0:0:
115,164,77680,6,0,P|80:138|37:141,1,88.4924989197693,2|0,0:0|0:0,0:0:0:0:
58,212,77930,6,0,P|156:192|252:164,1,200.790004748909,2|0,1:0|0:0,0:0:0:0:
449,49,78305,2,0,B|436:-2|358:16|352:100|442:132,1,200.790004748909,2|0,1:0|0:0,0:0:0:0:
373,353,78680,2,0,P|334:324|275:305,1,100.395002374455,10|0,0:0|0:0,0:0:0:0:
104,336,78930,6,0,P|104:316|106:332,1,88.4924989197693,14|0,0:0|0:0,0:0:0:0:
72,366,79180,6,0,B|51:345|51:303|92:282|92:282|134:262|134:220|113:199,1,200.790004748909,6|0,1:0|0:0,0:0:0:0:
5,37,79555,2,0,B|55:75|37:147|37:147|60:105|109:108,1,200.790004748909,2|0,1:0|0:0,0:0:0:0:
248,223,79930,2,0,B|277:222|288:187|288:187|271:211|242:211,1,100.395002374455,10|0,0:0|0:0,0:0:0:0:
229,138,80180,5,10,0:0:0:0:
145,285,80305,1,8,0:0:0:0:
303,371,80430,2,0,P|351:360|406:346,1,100.395002374455,6|8,1:3|0:3,0:0:0:0:
477,152,80680,5,8,0:0:0:0:
505,225,80805,1,4,1:3:0:0:
457,288,80930,1,8,0:3:0:0:
365,108,81055,5,8,0:0:0:0:
291,253,81180,5,8,0:0:0:0:
224,281,81263,1,8,0:3:0:0:
158,247,81346,1,8,0:3:0:0:
156,232,81430,5,8,0:3:0:0:
90,198,81513,1,8,0:3:0:0:
23,226,81596,1,8,0:3:0:0:
22,240,81680,5,6,1:0:0:0:
460,45,82930,6,0,L|456:66,1,17.5950001073914
460,45,84180,6,0,L|456:66,2,17.5950001073914
460,45,85305,5,0,0:0:0:0:
460,45,85430,6,0,L|456:64,1,17.5950001073914
441,144,85680,6,0,L|436:169,2,26.392500161087
42,62,86680,5,0,0:0:0:0:
10,264,87055,5,0,0:0:0:0:
10,264,87430,5,0,0:0:0:0:
80,234,87680,1,2,0:0:0:0:
154,253,87930,1,2,0:0:0:0:
344,358,88305,5,2,0:0:0:0:
344,358,88680,5,2,0:0:0:0:
386,293,88930,1,2,0:0:0:0:
355,222,89180,1,2,0:0:0:0:
485,88,89555,5,0,0:0:0:0:
485,88,89930,5,0,0:0:0:0:
411,111,90180,1,0,0:0:0:0:
338,136,90430,1,0,0:0:0:0:
149,28,90805,5,0,0:0:0:0:
149,28,91180,5,0,0:0:0:0:
196,93,91430,1,0,0:0:0:0:
163,165,91680,1,2,0:0:0:0:
256,354,92055,5,0,0:0:0:0:
256,354,92430,5,2,0:0:0:0:
180,342,92680,1,2,0:0:0:0:
104,328,92930,1,2,0:0:0:0:
246,172,93305,5,2,0:0:0:0:
246,172,93680,5,2,0:0:0:0:
273,100,93930,1,2,0:0:0:0:
246,172,94180,1,2,0:0:0:0:
420,260,94555,5,0,0:0:0:0:
420,260,94930,5,0,0:0:0:0:
389,169,95180,1,0,0:0:0:0:
420,260,95430,1,0,0:0:0:0:
471,62,95805,5,0,0:0:0:0:
471,62,96180,5,0,0:0:0:0:
306,128,96430,1,0,0:0:0:0:
94,37,96680,6,0,B|139:40|165:86|165:86|167:33|206:9,1,180.090001511375,8|0,0:0|0:0,0:0:0:0:
6,186,97055,2,0,B|51:182|77:136|77:136|79:189|118:213,1,180.090001511375,8|0,0:0|0:0,0:0:0:0:
291,319,97430,6,0,P|278:288|286:320,1,97.8075023878785,4|0,3:2|0:0,0:0:0:0:
379,333,97930,6,0,B|396:209|396:209|381:244|347:254,1,180.090001511375,8|0,0:0|0:0,0:0:0:0:
341,85,98305,2,0,B|316:77|303:45|303:45|320:168,1,180.090001511375,8|0,0:3|0:0,0:0:0:0:
158,247,98680,6,0,B|206:253|206:253|156:241,1,97.8075023878785,12|0,0:0|0:0,0:0:0:0:
86,293,99180,5,8,0:3:0:0:
285,19,99555,5,8,0:3:0:0:
480,366,99930,5,8,0:3:0:0:
29,136,100430,6,0,B|30:89|86:71|86:71|48:98|47:145,1,180.090001511375,8|0,0:0|0:0,0:0:0:0:
230,166,100805,2,0,B|188:188|145:147|145:147|188:167|229:145,1,180.090001511375,8|0,0:0|0:0,0:0:0:0:
186,41,101180,6,4,P|187:74|179:41,1,97.8075023878785,4|0,3:2|0:0,0:0:0:0:
292,79,101680,6,0,B|385:55|385:55|404:67|408:82|396:102|396:102|350:113,1,180.090001511375,8|0,0:0|0:0,0:0:0:0:
245,245,102055,2,0,B|216:252|216:252|205:271|209:286|228:298|228:298|321:275,1,180.090001511375,8|0,0:0|0:0,0:0:0:0:
406,380,102430,6,0,L|376:372,1,27.945000682251,12|0,0:0|0:0,0:0:0:0:
456,302,102680,2,0,L|426:294,1,27.945000682251,0|0,1:0|0:0,0:0:0:0:
118,362,102930,6,0,P|187:316|159:224,2,180.090001511375,8|0|0,0:0|1:0|1:0,0:0:0:0:
15,114,103805,5,0,1:0:0:0:
15,114,104180,1,8,0:3:0:0:
262,40,104617,5,0,0:0:0:0:
268,46,104680,2,0,L|329:52,1,55.890001364502,0|0,3:0|0:0,0:0:0:0:
479,62,105305,6,0,L|477:77,1,13.9725003411255,0|0,3:0|0:0,0:0:0:0:
413,119,105430,6,0,B|388:168|437:218|437:218|366:203|363:254|328:262|313:218|313:218|341:208|350:237,1,294.974996399231,4|0,0:3|0:0,0:0:0:0:
245,307,106180,2,0,P|199:273|125:249,1,117.989998559692
142,251,106555,1,0,3:0:0:0:
8,54,106680,6,0,P|26:103|96:80,1,117.989998559692,0|0,3:0|3:0,0:0:0:0:
83,98,107055,1,8,0:3:0:0:
364,67,107430,5,8,0:3:0:0:
245,185,107680,5,8,0:3:0:0:
367,323,107930,6,0,B|382:385|475:361|483:260|374:222,1,200.790004748909,12|0,0:0|0:0,0:0:0:0:
196,105,108305,2,0,B|134:86|109:179|192:236|279:161,1,200.790004748909,8|0,0:0|0:0,0:0:0:0:
458,66,108680,2,0,B|504:22|436:-46|345:-2|367:110,1,200.790004748909,8|8,0:0|0:0,0:0:0:0:
364,67,109055,1,8,0:0:0:0:
295,287,109180,6,0,B|193:253|227:388|125:354,1,200.790004748909,12|0,0:0|0:0,0:0:0:0:
0,206,109555,2,0,B|50:230|51:317|51:317|75:273|125:270,1,200.790004748909,12|8,0:0|0:3,0:0:0:0:
180,225,109867,1,8,0:3:0:0:
180,225,109930,2,0,P|139:189|85:217,1,100.395002374455,8|8,0:0|0:3,0:0:0:0:
99,200,110180,1,8,0:3:0:0:
164,111,110305,1,8,0:3:0:0:
467,314,110430,6,0,B|498:260|446:200|446:200|470:258|421:302,1,200.790004748909,12|0,0:0|0:0,0:0:0:0:
250,235,110805,2,0,B|197:222|217:143|301:137|334:228,1,200.790004748909,12|8,0:0|0:3,0:0:0:0:
46,355,111180,2,0,P|37:280|32:192,1,150.592503561682,8|0,0:0|0:0,0:0:0:0:
80,149,111430,5,0,3:0:0:0:
71,144,111492,1,0,3:0:0:0:
62,139,111555,1,0,3:0:0:0:
53,134,111617,1,0,3:0:0:0:
44,129,111680,1,4,1:0:0:0:
23,49,111805,1,8,0:3:0:0:
93,17,111930,1,8,0:3:0:0:
218,138,112055,1,8,0:0:0:0:
273,80,112180,1,8,0:3:0:0:
273,70,112242,1,8,0:3:0:0:
273,59,112305,1,8,0:3:0:0:
403,177,112430,1,8,0:0:0:0:
433,107,112555,1,8,0:3:0:0:
423,104,112617,1,8,0:3:0:0:
412,103,112680,1,8,0:3:0:0:
308,207,112805,1,8,0:3:0:0:
348,277,112930,1,8,0:3:0:0:
367,280,112992,1,8,0:3:0:0:
387,285,113055,1,8,0:3:0:0:
406,290,113117,1,8,0:3:0:0:
87,353,113305,2,0,P|96:329|102:301,1,50.1975011872273,0|0,3:0|3:0,0:0:0:0:
97,296,113430,1,8,0:3:0:0:
233,173,113555,1,8,0:3:0:0:
219,184,113617,1,8,0:3:0:0:
202,184,113680,1,8,0:3:0:0:
185,182,113742,1,8,0:3:0:0:
169,176,113805,1,8,0:0:0:0:
123,116,113930,1,8,0:3:0:0:
26,149,114055,1,8,0:3:0:0:
42,39,114180,1,14,0:3:0:0:
499,204,114555,5,10,0:3:0:0:
72,311,114930,5,10,0:3:0:0:
254,118,115180,1,10,0:3:0:0:
480,326,115430,6,0,B|446:318|430:271|430:271|429:330|378:354,1,180.090001511375,10|0,0:3|0:0,0:0:0:0:
230,264,115805,2,0,B|166:242|199:145|306:147|337:264,1,250.987505936136,10|0,0:3|0:0,0:0:0:0:
239,349,116180,6,0,B|270:350|284:313|284:313|264:337|233:336,1,110.744996620331,10|0,0:3|0:0,0:0:0:0:
86,377,116430,2,0,B|52:369|48:328|48:328|62:358|94:364,1,121.095000461941,10|0,0:3|0:0,0:0:0:0:
115,289,116680,6,0,L|108:202,1,65.7224994985771,10|0,0:0|0:0,0:0:0:0:
29,27,116805,1,8,0:3:0:0:
29,27,117430,6,0,L|42:142,1,104.017495079739,12|0,0:0|0:0,0:0:0:0:
43,203,117680,2,0,B|18:204|-2:190|-2:190|15:221|42:215,1,104.017495079739,8|0,0:0|0:0,0:0:0:0:
42,215,117930,1,8,0:3:0:0:
42,215,117992,1,8,0:3:0:0:
42,215,118055,1,8,0:3:0:0:
189,98,118180,5,8,0:3:0:0:
141,159,118305,1,8,0:3:0:0:
127,161,118367,1,8,0:3:0:0:
113,163,118430,1,8,0:3:0:0:
249,298,118555,5,8,0:3:0:0:
307,247,118680,1,8,0:3:0:0:
309,234,118742,1,8,0:3:0:0:
310,219,118805,1,8,0:3:0:0:
435,33,118930,5,8,0:0:0:0:
479,150,119055,1,0,1:0:0:0:
243,61,119180,6,0,P|288:76|303:136,1,97.2899985154724,10|0,0:3|0:0,0:0:0:0:
443,334,119555,2,0,P|413:285|456:232,1,117.989998559692,10|0,0:3|0:0,0:0:0:0:
223,335,119930,2,0,P|190:341|155:350,1,69.3449967198259,10|0,0:3|0:0,0:0:0:0:
238,152,120180,2,0,P|265:183|299:217,1,79.6949984191361,10|0,0:3|0:0,0:0:0:0:
46,252,120430,6,0,P|89:176|133:89,1,180.090001511375,10|0,0:3|0:0,0:0:0:0:
378,74,120805,2,0,B|431:39|379:-41|281:-15|280:99,1,200.790004748909,10|0,0:3|0:0,0:0:0:0:
403,272,121180,2,0,B|453:250|453:190|453:190|468:218|503:229,1,166.117494930496,10|0,0:3|0:0,0:0:0:0:
325,384,121430,2,0,B|270:359|270:294|270:294|253:324|215:336,1,181.642500692911,10|0,0:3|0:0,0:0:0:0:
181,169,121680,6,0,P|186:205|194:241,1,65.7224994985771,10|0,0:0|0:0,0:0:0:0:
364,191,121805,2,0,P|371:121|378:38,1,135.067501133532,8|0,0:3|0:0,0:0:0:0:
319,6,122055,5,0,1:0:0:0:
192,233,122430,5,8,0:0:0:0:
9,37,122680,6,0,P|41:76|12:128,1,104.017495079739,8|0,0:0|0:0,0:0:0:0:
22,121,122930,5,8,0:3:0:0:
22,121,122992,1,8,0:3:0:0:
22,121,123055,1,8,0:3:0:0:
177,33,123180,5,8,0:3:0:0:
239,81,123305,1,8,0:3:0:0:
249,80,123367,1,8,0:3:0:0:
259,79,123430,1,8,0:3:0:0:
436,200,123555,5,8,0:3:0:0:
374,152,123680,1,8,0:3:0:0:
364,153,123742,1,8,0:3:0:0:
354,154,123805,1,8,0:3:0:0:
274,369,123930,6,0,L|351:357,1,72.9674988866043,14|0,0:0|0:0,0:0:0:0:
427,327,124180,6,0,L|313:344,1,111.780002729004,2|0,1:0|0:0,0:0:0:0:
215,164,124930,6,0,P|199:163|177:158,1,27.945000682251,2|0,0:0|0:0,0:0:0:0:
135,224,125180,2,0,P|124:212|111:193,1,27.945000682251,2|0,0:0|0:0,0:0:0:0:
42,218,125430,2,0,B|22:129|117:152|101:69,1,167.670004093506,2|0,0:0|0:0,0:0:0:0:
456,34,126305,5,2,0:0:0:0:
456,34,126430,2,0,L|451:74,1,27.945000682251,2|0,3:0|0:0,0:0:0:0:
366,159,126680,6,0,P|340:148|309:136,1,55.890001364502,2|0,3:0|0:0,0:0:0:0:
343,319,127055,2,0,P|372:296|408:267,1,76.5900018698731,2|0,3:0|0:0,0:0:0:0:
190,232,127430,6,0,P|204:250|222:273,1,48.6449992577362,2|0,3:0|0:0,0:0:0:0:
38,365,127680,2,0,P|52:330|69:288,1,58.9949992798462,2|0,3:0|0:0,0:0:0:0:
2,111,127930,6,0,P|42:86|86:176,1,173.362491799565,10|0,0:0|0:0,0:0:0:0:
97,172,128305,2,0,P|79:87|0:101,1,173.362491799565,8|0,0:0|0:0,0:0:0:0:
2,111,128680,1,8,0:0:0:0:
282,255,128930,5,2,3:0:0:0:
364,243,129055,1,8,0:0:0:0:
446,229,129180,1,8,0:0:0:0:
368,17,129305,5,2,3:0:0:0:
303,89,129430,1,8,0:0:0:0:
379,149,129555,1,8,0:0:0:0:
282,255,129680,5,2,3:0:0:0:
202,310,129805,1,8,0:0:0:0:
152,227,129930,1,8,0:0:0:0:
28,358,130055,5,2,3:0:0:0:
26,344,130180,1,2,3:0:0:0:
24,330,130305,1,0,3:0:0:0:
243,149,130430,6,0,B|301:156|290:244|232:236|232:236|144:226,1,221.489993240662,6|0,1:0|0:0,0:0:0:0:
13,57,130805,1,8,0:0:0:0:
13,57,130867,1,0,0:0:0:0:
13,57,130930,2,0,P|44:95|10:149,1,110.744996620331,2|0,0:0|1:0,0:0:0:0:
231,17,131180,6,0,L|342:30,1,110.744996620331,2|0,1:0|0:0,0:0:0:0:
481,208,131430,2,0,B|450:197|440:157|440:157|430:177|409:187,1,110.744996620331,10|0,0:0|0:0,0:0:0:0:
339,209,131617,5,0,0:0:0:0:
339,209,131680,2,0,P|331:158|378:122,1,110.744996620331,2|0,1:0|0:0,0:0:0:0:
475,331,131930,5,0,0:0:0:0:
418,376,132055,2,0,P|363:366|293:351,1,110.744996620331,8|0,0:0|0:0,0:0:0:0:
309,354,132305,5,0,1:0:0:0:
99,315,132430,1,0,1:0:0:0:
96,304,132492,1,0,1:0:0:0:
94,292,132555,1,0,1:0:0:0:
184,124,132680,6,0,P|149:155|108:157,1,88.4924989197693,10|0,0:0|0:0,0:0:0:0:
122,84,132930,6,0,B|233:46|196:195|307:158,1,221.489993240662,6|0,1:0|0:0,0:0:0:0:
378,21,133305,1,8,0:0:0:0:
378,21,133367,1,0,0:0:0:0:
378,21,133430,2,0,B|345:64|371:108|371:108|348:74|303:77,1,166.117494930496,2|0,0:0|0:0,0:0:0:0:
306,158,133680,6,0,L|321:279,1,110.744996620331,2|0,1:0|0:0,0:0:0:0:
455,336,133930,2,0,P|470:298|421:313,1,110.744996620331,10|0,0:0|0:0,0:0:0:0:
385,372,134117,5,0,0:0:0:0:
385,372,134180,2,0,P|335:361|270:351,1,110.744996620331,2|0,1:0|0:0,0:0:0:0:
59,208,134430,5,0,0:0:0:0:
130,268,134555,2,0,B|161:231|129:178|129:178|145:227|108:262,1,166.117494930496,8|0,0:0|0:0,0:0:0:0:
53,288,134805,5,0,1:0:0:0:
222,211,134930,1,0,1:0:0:0:
35,67,135055,5,8,0:0:0:0:
32,56,135118,1,8,0:0:0:0:
29,46,135180,1,10,0:0:0:0:
130,179,135305,1,8,0:3:0:0:
407,89,135430,6,0,B|292:127|331:-27|215:12,1,221.489993240662,6|0,1:0|0:0,0:0:0:0:
444,169,135805,1,8,0:0:0:0:
444,169,135867,1,0,0:0:0:0:
444,169,135930,2,0,P|486:136|492:75,1,110.744996620331,2|0,0:0|0:0,0:0:0:0:
266,238,136180,2,0,B|261:271|230:286|230:286|281:259|332:274,1,166.117494930496,2|0,1:0|0:0,0:0:0:0:
420,275,136430,6,0,B|426:244|394:225|394:225|411:248|407:277,1,88.4924989197693,10|0,0:0|0:0,0:0:0:0:
377,336,136680,5,6,1:0:0:0:
8,64,136930,5,8,0:0:0:0:
219,208,137055,2,0,B|260:182|259:131|259:131|281:177|330:180,1,181.642500692911,4|0,1:0|0:0,0:0:0:0:
334,98,137305,5,8,0:3:0:0:
101,68,137430,2,0,P|155:80|173:160,1,121.095000461941,4|8,1:0|0:0,0:0:0:0:
143,202,137617,5,8,0:0:0:0:
143,202,137680,2,0,P|144:238|164:266,1,60.5475002309704,10|0,0:0|0:0,0:0:0:0:
334,98,137805,2,0,P|309:125|304:158,1,60.5475002309704,8|0,0:0|0:0,0:0:0:0:
436,318,137930,6,0,B|450:375|535:353|542:261|443:225,1,221.489993240662,6|0,1:0|0:0,0:0:0:0:
236,361,138305,1,8,0:0:0:0:
230,273,138430,2,0,B|261:265|282:301|282:301|258:282|226:287,1,110.744996620331,0|0,0:0|1:0,0:0:0:0:
114,353,138680,2,0,B|83:369|49:340|49:340|80:355|112:336,1,110.744996620331,0|0,1:0|0:0,0:0:0:0:
70,182,138930,6,0,L|80:269,1,88.4924989197693,8|0,0:0|0:0,0:0:0:0:
89,346,139180,5,6,1:0:0:0:
224,228,139305,1,8,0:0:0:0:
107,97,139430,1,8,0:0:0:0:
70,182,139555,5,4,1:0:0:0:
267,73,139680,1,8,0:0:0:0:
430,187,139805,5,8,0:0:0:0:
426,204,139868,1,8,0:0:0:0:
423,221,139930,1,2,1:0:0:0:
258,260,140055,1,8,0:0:0:0:
232,188,140180,5,10,0:0:0:0:
56,141,140305,1,8,0:0:0:0:
114,78,140430,6,0,B|156:190|15:162|57:275,1,221.489993240662,6|0,1:0|0:0,0:0:0:0:
370,150,140805,1,8,0:0:0:0:
370,150,140867,1,0,0:0:0:0:
370,150,140930,2,0,B|312:109|258:138|258:138|291:155|296:200,1,166.117494930496,2|0,0:0|0:0,0:0:0:0:
217,202,141180,2,0,P|183:243|130:240,1,110.744996620331,2|0,1:0|0:0,0:0:0:0:
406,272,141430,6,0,B|396:246|396:246|391:279|385:309,1,88.4924989197693,10|0,0:0|0:0,0:0:0:0:
351,377,141680,6,0,P|340:257|328:145,1,221.489993240662,2|0,1:0|0:0,0:0:0:0:
89,38,142055,2,0,P|143:63|186:27,1,110.744996620331,8|0,0:0|0:0,0:0:0:0:
181,37,142305,1,8,0:0:0:0:
90,145,142430,5,2,1:0:0:0:
119,316,142555,1,0,3:0:0:0:
55,359,142680,5,10,0:0:0:0:
202,200,142805,1,0,3:0:0:0:
244,267,142930,6,0,P|362:286|476:309,1,221.489993240662,6|0,1:0|0:0,0:0:0:0:
471,93,143305,1,8,0:0:0:0:
471,93,143367,1,0,0:0:0:0:
471,93,143430,2,0,P|446:143|419:203,1,110.744996620331,2|0,0:0|1:0,0:0:0:0:
280,10,143680,2,0,P|336:5|401:0,1,110.744996620331,2|0,1:0|0:0,0:0:0:0:
171,154,143930,6,0,P|164:130|173:147,1,88.4924989197693,10|0,0:0|0:0,0:0:0:0:
199,182,144180,6,0,B|87:219|124:70|12:107,1,221.489993240662,6|0,1:0|0:0,0:0:0:0:
307,51,144555,1,8,0:0:0:0:
241,16,144680,2,0,P|224:59|261:119,1,110.744996620331,0|0,0:0|1:0,0:0:0:0:
251,113,144930,1,0,1:0:0:0:
489,229,145055,5,8,0:0:0:0:
467,223,145117,1,8,0:0:0:0:
446,230,145180,1,10,0:3:0:0:
444,241,145242,1,8,0:3:0:0:
443,252,145305,1,8,0:3:0:0:
442,263,145367,1,8,0:3:0:0:
441,274,145430,6,0,B|372:353|289:313|300:227|358:234,1,221.489993240662,6|0,1:0|0:0,0:0:0:0:
358,234,145805,1,8,0:0:0:0:
232,377,145930,2,0,B|198:350|196:305|196:305|172:344|130:351,1,166.117494930496,2|0,0:0|0:0,0:0:0:0:
0,272,146180,2,0,B|39:289|52:332|52:332|65:289|104:272,1,166.117494930496,2|0,1:0|0:0,0:0:0:0:
174,212,146430,6,0,L|164:114,1,88.4924989197693,10|0,0:0|0:0,0:0:0:0:
99,78,146680,5,6,1:0:0:0:
496,55,146930,5,8,0:0:0:0:
320,207,147055,2,0,P|313:121|233:89,1,181.642500692911,4|0,1:0|0:0,0:0:0:0:
165,123,147305,5,8,0:3:0:0:
306,362,147430,2,0,P|329:308|386:298,1,121.095000461941,4|8,1:0|0:0,0:0:0:0:
441,353,147617,5,8,0:0:0:0:
441,353,147680,2,0,P|419:331|380:323,1,60.5475002309704,10|0,0:0|0:0,0:0:0:0:
145,383,147805,2,0,P|173:374|194:352,1,60.5475002309704,8|0,0:0|0:0,0:0:0:0:
55,120,147930,6,0,B|17:231|166:194|129:305,1,221.489993240662,12|0,0:0|0:0,0:0:0:0:
227,116,148305,5,8,0:0:0:0:
133,137,148430,2,0,P|190:147|229:110,1,110.744996620331,0|0,0:0|1:0,0:0:0:0:
435,271,148680,2,0,P|392:237|340:249,1,110.744996620331,8|8,0:0|0:0,0:0:0:0:
321,320,148867,5,8,0:0:0:0:
321,320,148930,2,0,L|327:265,1,55.3724983101654,8|0,0:0|0:0,0:0:0:0:
457,128,149055,2,0,L|406:149,1,55.3724983101654,8|0,0:0|0:0,0:0:0:0:
210,86,149180,5,6,1:0:0:0:
47,174,149305,2,0,L|57:233,1,55.3724983101654,8|0,0:0|0:0,0:0:0:0:
211,75,149430,6,0,L|220:20,1,55.3724983101654,8|0,0:0|0:0,0:0:0:0:
327,264,149555,5,4,1:0:0:0:
415,101,149680,2,0,L|474:111,1,55.3724983101654,8|0,0:0|0:0,0:0:0:0:
316,265,149805,6,0,L|261:274,1,55.3724983101654,8|0,0:0|0:0,0:0:0:0:
143,114,149930,5,0,1:0:0:0:
264,179,150055,1,8,0:0:0:0:
7,326,150180,5,8,0:0:0:0:
32,297,150242,1,8,0:0:0:0:
69,286,150305,1,8,0:0:0:0:
106,296,150367,1,8,0:0:0:0:
136,321,150430,6,0,B|194:310|214:251|214:251|220:313|274:337,1,221.489993240662,6|0,1:0|0:0,0:0:0:0:
403,199,150805,2,0,B|358:174|352:126|352:126|360:206|289:265,1,221.489993240662,0|0,1:0|0:0,0:0:0:0:
12,156,151180,6,0,B|-4:133|-2:106|-2:106|-20:138|0:159,1,110.744996620331,10|0,0:0|0:0,0:0:0:0:
67,32,151430,2,0,B|94:28|117:44|117:44|98:13|70:19,1,110.744996620331,2|0,0:0|0:0,0:0:0:0:
31,327,151680,6,0,P|53:210|73:109,1,221.489993240662,2|0,1:0|0:0,0:0:0:0:
248,93,152055,2,0,P|212:132|149:110,1,110.744996620331,2|0,1:0|0:0,0:0:0:0:
159,122,152305,1,0,0:0:0:0:
330,320,152430,2,0,P|294:281|231:303,1,110.744996620331,10|0,0:0|0:0,0:0:0:0:
468,180,152680,6,0,P|450:153|456:184,1,88.4924989197693,14|0,0:0|0:0,0:0:0:0:
407,243,152930,5,6,1:0:0:0:
27,15,153305,2,0,P|93:55|19:147,1,200.790004748909,0|0,1:0|0:0,0:0:0:0:
74,347,153680,2,0,P|54:307|31:263,1,90.0450007556877,8|0,0:0|0:0,0:0:0:0:
188,155,153930,2,0,P|163:191|136:234,1,90.0450007556877,0|0,1:0|0:0,0:0:0:0:
45,146,154180,5,0,3:0:0:0:
287,344,154555,2,0,B|333:295|416:311|416:311|412:304|412:304|372:300|342:261,1,206.482497479462,0|0,3:0|0:0,0:0:0:0:
418,225,155055,5,0,0:0:0:0:
418,225,155117,1,0,0:0:0:0:
418,225,155180,2,0,L|424:167,2,55.890001364502
27,50,168555,5,2,0:0:0:0:
27,50,168846,1,2,0:0:0:0:
27,50,171479,5,2,0:0:0:0:
27,50,172796,5,2,0:0:0:0:
27,50,174113,5,2,0:0:0:0:
50,104,175430,6,0,P|86:88|222:52,1,175.950001073914,2|0,0:0|0:0,0:0:0:0:
465,97,177930,5,8,0:0:0:0:
255,259,178055,2,0,B|227:227|255:182|255:182|245:222|273:254,1,135.067501133532,0|0,1:0|0:0,0:0:0:0:
330,203,178305,5,8,0:0:0:0:
54,44,178430,2,0,B|26:75|54:120|54:120|44:80|72:48,1,135.067501133532,0|0,1:0|0:0,0:0:0:0:
127,101,178680,6,0,L|234:81,1,100.395002374455,8|4,0:0|1:3,0:0:0:0:
406,245,178930,1,0,1:0:0:0:
406,245,179180,6,0,B|499:197|481:108|394:97|387:155,1,221.489993240662,6|0,1:0|0:0,0:0:0:0:
234,291,179555,1,8,0:0:0:0:
234,291,179617,1,0,0:0:0:0:
234,291,179680,2,0,P|254:235|308:218,1,110.744996620331,2|0,0:0|1:0,0:0:0:0:
156,370,179930,2,0,P|101:361|36:354,1,110.744996620331,2|0,1:0|0:0,0:0:0:0:
0,115,180180,6,0,P|7:156|15:212,1,88.4924989197693,10|0,0:0|0:0,0:0:0:0:
78,246,180430,5,2,1:0:0:0:
234,148,180555,1,2,0:0:0:0:
121,123,180680,5,2,0:0:0:0:
263,355,180805,2,0,P|287:302|352:286,1,110.744996620331,10|0,0:0|0:0,0:0:0:0:
333,283,181055,1,2,1:0:0:0:
461,115,181180,5,2,1:0:0:0:
491,225,181305,1,0,0:0:0:0:
215,122,181430,6,0,P|250:93|257:42,1,88.4924989197693,10|0,0:0|0:0,0:0:0:0:
182,55,181680,6,0,B|144:167|294:130|257:242,1,221.489993240662,6|0,1:0|0:0,0:0:0:0:
24,343,182055,1,8,0:0:0:0:
24,343,182117,1,0,0:0:0:0:
24,343,182180,2,0,P|81:327|142:307,1,110.744996620331,2|0,0:0|1:0,0:0:0:0:
279,76,182430,2,0,P|331:92|385:107,1,110.744996620331,2|0,1:0|0:0,0:0:0:0:
500,299,182680,6,0,P|467:271|427:282,1,88.4924989197693,10|0,0:0|0:0,0:0:0:0:
369,340,182930,6,0,B|264:324|253:231|333:194|358:247,1,221.489993240662,2|0,1:0|0:0,0:0:0:0:
159,119,183305,2,0,P|101:131|34:142,1,110.744996620331,8|0,0:0|0:0,0:0:0:0:
50,139,183555,1,0,1:0:0:0:
284,23,183680,1,0,1:0:0:0:
207,19,183805,5,8,0:0:0:0:
206,40,183867,1,8,0:0:0:0:
213,60,183930,1,10,0:0:0:0:
302,132,184055,1,8,0:3:0:0:
184,274,184180,6,0,B|72:236|109:385|-1:348,1,221.489993240662,6|0,1:0|0:0,0:0:0:0:
102,152,184555,1,8,0:0:0:0:
102,152,184617,1,0,0:0:0:0:
102,152,184680,2,0,P|129:192|106:248,1,110.744996620331,2|0,0:0|1:0,0:0:0:0:
108,246,184930,5,2,1:0:0:0:
293,352,185055,1,0,0:0:0:0:
447,199,185180,6,0,P|460:156|471:114,1,88.4924989197693,10|0,0:0|0:0,0:0:0:0:
387,129,185430,6,0,P|411:203|431:296,1,166.117494930496,6|0,1:0|0:0,0:0:0:0:
389,355,185680,5,8,0:0:0:0:
133,202,185805,2,0,B|80:216|73:276|73:276|62:246|28:231,1,166.117494930496,4|0,1:0|0:0,0:0:0:0:
3,304,186055,5,8,0:3:0:0:
137,9,186180,2,0,L|120:134,1,110.744996620331,4|8,1:0|0:0,0:0:0:0:
54,156,186367,1,8,0:0:0:0:
54,156,186430,1,10,0:0:0:0:
154,281,186555,1,8,0:0:0:0:
318,92,186680,5,4,1:0:0:0:
244,154,186805,2,0,B|214:119|244:69|244:69|234:114|263:149,1,166.117494930496,2|0,0:0|0:0,0:0:0:0:
331,172,187055,5,8,0:0:0:0:
456,38,187180,2,0,B|501:29|529:80|529:80|495:49|450:57,1,166.117494930496
401,105,187430,1,0,1:0:0:0:
401,105,187680,1,8,0:0:0:0:
377,289,187930,5,4,1:0:0:0:
224,121,188055,1,8,0:0:0:0:
307,101,188180,1,8,0:0:0:0:
62,291,188305,5,4,1:0:0:0:
215,123,188430,1,8,0:0:0:0:
132,103,188555,1,8,0:0:0:0:
262,293,188680,5,0,1:0:0:0:
420,241,188805,1,8,0:0:0:0:
315,187,188930,5,10,0:0:0:0:
328,108,189055,1,8,0:0:0:0:
391,332,189180,6,0,B|406:394|499:370|507:269|398:231,1,221.489993240662,6|0,1:0|0:0,0:0:0:0:
134,291,189555,1,8,0:0:0:0:
173,359,189680,2,0,P|214:325|209:254,1,110.744996620331,2|0,0:0|1:0,0:0:0:0:
40,79,189930,2,0,P|48:131|112:162,1,110.744996620331,2|0,1:0|0:0,0:0:0:0:
359,104,190180,2,0,P|309:85|250:125,1,110.744996620331,10|0,0:0|0:0,0:0:0:0:
260,109,190430,5,2,1:0:0:0:
339,234,190555,1,0,0:0:0:0:
357,129,190680,5,0,0:0:0:0:
153,255,190805,2,0,B|110:264|82:217|82:217|115:245|157:236,1,166.117494930496,8|0,0:0|0:0,0:0:0:0:
209,178,191055,1,8,0:0:0:0:
339,313,191180,5,2,1:0:0:0:
413,290,191305,1,0,0:0:0:0:
265,125,191430,5,10,0:0:0:0:
191,102,191555,1,0,0:0:0:0:
364,227,191680,6,0,B|322:115|461:143|419:32,1,221.489993240662,6|0,1:0|0:0,0:0:0:0:
209,178,192055,5,8,0:0:0:0:
191,102,192180,2,0,P|137:91|69:75,1,110.744996620331,2|0,0:0|1:0,0:0:0:0:
183,291,192430,2,0,P|199:238|216:185,1,110.744996620331,2|0,1:0|0:0,0:0:0:0:
9,264,192680,1,10,0:0:0:0:
404,343,192930,6,0,B|506:321|512:229|431:197|409:251,1,221.489993240662,6|0,1:0|0:0,0:0:0:0:
189,384,193305,2,0,B|87:362|81:270|162:238|184:292,1,221.489993240662,8|0,0:0|1:0,0:0:0:0:
6,181,193680,2,0,P|14:118|27:52,1,110.744996620331,0|8,1:0|0:0,0:0:0:0:
88,31,193867,1,8,0:0:0:0:
88,31,193930,1,10,0:0:0:0:
127,98,194055,1,8,0:3:0:0:
385,80,194180,6,0,P|280:58|160:30,1,221.489993240662,6|0,1:0|0:0,0:0:0:0:
399,158,194555,1,8,0:0:0:0:
478,109,194680,2,0,B|492:67|448:33|448:33|473:69|458:111,1,166.117494930496,2|0,0:0|0:0,0:0:0:0:
399,158,194930,2,0,L|410:277,1,110.744996620331,2|0,1:0|0:0,0:0:0:0:
86,326,195180,6,0,B|89:350|89:350|100:273,1,88.4924989197693,10|0,0:0|0:0,0:0:0:0:
47,205,195430,6,0,P|103:262|173:233,1,166.117494930496,6|0,1:0|0:0,0:0:0:0:
214,167,195680,5,8,0:0:0:0:
17,18,195805,2,0,B|30:127|30:127|32:93|55:69,1,166.117494930496,4|0,1:0|0:0,0:0:0:0:
107,128,196055,5,8,0:3:0:0:
395,16,196180,2,0,P|345:5|311:54,1,110.744996620331,4|8,1:3|0:0,0:0:0:0:
355,114,196367,1,8,0:0:0:0:
355,114,196430,1,10,0:0:0:0:
453,232,196555,1,8,0:0:0:0:
253,319,196680,6,0,B|216:331|204:294|204:294|295:264|265:385|355:354,1,242.190000923881,6|0,1:0|0:0,0:0:0:0:
159,223,197055,1,8,0:0:0:0:
122,293,197180,2,0,P|65:307|-1:320,1,110.744996620331,0|0,0:0|1:0,0:0:0:0:
14,317,197430,1,10,0:0:0:0:
187,147,197555,5,0,3:0:0:0:
189,125,197617,1,0,3:0:0:0:
192,102,197680,1,10,0:0:0:0:
138,37,197805,1,8,0:0:0:0:
315,207,197930,5,6,1:0:0:0:
470,65,198055,2,0,P|443:88|438:131,1,55.3724983101654,8|0,0:0|0:0,0:0:0:0:
489,313,198180,2,0,P|482:278|447:252,1,55.3724983101654,8|0,0:0|0:0,0:0:0:0:
314,197,198305,5,4,1:0:0:0:
159,339,198430,2,0,P|185:315|191:273,1,55.3724983101654,8|0,0:0|0:0,0:0:0:0:
140,91,198555,2,0,P|146:125|181:151,1,55.3724983101654,8|0,0:0|0:0,0:0:0:0:
316,186,198680,5,0,1:0:0:0:
107,239,198805,1,8,0:0:0:0:
39,198,198930,5,10,0:0:0:0:
43,162,198992,1,8,0:0:0:0:
48,127,199055,1,8,0:0:0:0:
52,91,199117,1,8,0:0:0:0:
58,57,199180,6,0,B|-4:41|-27:134|58:188|143:111,1,221.489993240662,6|0,1:0|0:0,0:0:0:0:
407,73,199555,2,0,B|455:31|392:-41|298:-2|313:111,1,221.489993240662,0|0,1:0|0:0,0:0:0:0:
492,320,199930,6,0,P|473:263|411:246,1,110.744996620331,10|0,0:0|0:0,0:0:0:0:
180,183,200180,2,0,P|238:195|284:150,1,110.744996620331,2|0,0:0|0:0,0:0:0:0:
32,342,200430,6,0,P|40:284|54:213,1,110.744996620331,2|0,1:0|0:0,0:0:0:0:
166,59,200680,1,0,0:0:0:0:
104,14,200805,2,0,P|112:71|126:143,1,110.744996620331,2|0,1:0|0:0,0:0:0:0:
363,222,201055,1,0,0:0:0:0:
385,148,201180,2,0,P|327:156|256:170,1,110.744996620331,10|0,0:0|0:0,0:0:0:0:
439,305,201430,6,0,P|432:277|437:305,1,88.4924989197693,12|0,0:0|0:0,0:0:0:0:
459,332,201680,6,0,B|496:219|347:257|385:145,1,221.489993240662,6|0,1:0|0:0,0:0:0:0:
186,46,202055,2,0,B|231:15|287:64|287:64|329:3|381:22,1,221.489993240662,2|0,1:0|0:0,0:0:0:0:
243,213,202430,2,0,P|209:165|228:108,1,110.744996620331,10|0,0:0|0:0,0:0:0:0:
28,74,202680,2,0,P|74:69|105:105,1,88.4924989197693,10|0,0:0|0:0,0:0:0:0:
130,170,202930,5,10,0:3:0:0:
250,338,203055,1,8,0:0:0:0:
424,225,203180,1,8,0:0:0:0:
397,299,203305,5,10,0:3:0:0:
263,173,203430,1,8,0:0:0:0:
369,22,203555,1,8,0:0:0:0:
394,95,203680,5,2,1:0:0:0:
216,55,203805,5,8,0:3:0:0:
139,40,203930,1,8,0:3:0:0:
84,95,204055,1,8,0:3:0:0:
174,250,204180,6,0,P|165:181|158:111,1,138.689993439652,6|0,1:0|0:0,0:0:0:0:
158,112,204555,1,0,3:0:0:0:
18,270,204680,2,0,P|65:289|124:306,1,104.017495079739,0|0,1:0|0:0,0:0:0:0:
191,327,204930,5,10,0:0:0:0:
191,327,205180,1,2,1:0:0:0:
455,137,205430,6,0,B|450:99|394:106|382:164|443:195,1,138.689993439652,2|0,1:0|0:0,0:0:0:0:
438,192,205805,1,0,3:0:0:0:
260,77,205930,2,0,P|311:71|367:62,1,104.017495079739,0|0,1:0|0:0,0:0:0:0:
435,33,206180,5,10,0:0:0:0:
435,33,206430,1,14,0:0:0:0:
203,170,206680,6,0,B|126:144|152:220|76:195,1,138.689993439652,6|0,1:0|0:0,0:0:0:0:
76,195,207055,1,0,3:0:0:0:
22,19,207180,2,0,P|66:26|82:91,1,104.017495079739,0|0,1:0|0:0,0:0:0:0:
32,130,207430,5,10,0:0:0:0:
32,130,207680,1,10,0:0:0:0:
151,343,207930,6,0,P|185:327|328:300,1,173.362491799565,6|0,1:0|0:0,0:0:0:0:
385,341,208305,2,0,P|348:302|374:239,1,104.017495079739,0|0,1:0|0:0,0:0:0:0:
423,221,208555,5,8,0:0:0:0:
505,56,208680,2,0,P|494:111|484:172,1,104.017495079739,0|0,1:0|0:0,0:0:0:0:
478,165,208930,6,0,P|482:135|488:104,1,55.890001364502,10|6,0:0|1:0,0:0:0:0:
256,192,209680,5,0,3:0:0:0:
256,192,209930,2,0,L|128:176,2,97.2899985154724,8|0|0,0:0|0:0|3:0,0:0:0:0:
101,59,210930,5,0,3:0:0:0:
101,59,211180,2,0,L|89:124,1,48.6449992577362,8|0,0:0|0:0,0:0:0:0:
39,193,211430,2,0,L|51:258,1,48.6449992577362,4|0,3:0|0:0,0:0:0:0:
42,350,211680,6,0,P|67:262|171:264,1,194.579997030945,4|0,3:0|3:0,0:0:0:0:
340,353,212430,2,0,L|231:378,2,97.2899985154724,8|8|0,0:0|0:0|3:0,0:0:0:0:
340,353,213305,1,0,3:0:0:0:
503,184,213555,5,8,0:0:0:0:
452,131,213680,2,0,P|431:162|432:203,1,72.9674988866043,0|0,3:0|0:0,0:0:0:0:
432,204,213930,1,8,0:3:0:0:
188,8,214180,6,0,B|169:17|188:132|188:132|215:158|215:158|314:152|322:141|322:141|315:160|325:177|325:177|316:169|217:176|217:176|193:207|193:207|194:357|212:366|212:366|176:368|176:368|194:357|176:208|176:208|145:181|145:181|47:188|38:197|38:197|45:179|36:161|36:161|45:170|144:163|144:163|171:133|171:133|169:17|151:10|151:10|171:9,1,1302.03000794696,4|0,0:0|0:0,0:0:0:0:
