osu file format v14

[General]
AudioFilename: audio.mp3
AudioLeadIn: 0
PreviewTime: 145067
Countdown: 0
SampleSet: Soft
StackLeniency: 0.4
Mode: 0
LetterboxInBreaks: 0
WidescreenStoryboard: 0

[Editor]
DistanceSpacing: 0.1
BeatDivisor: 4
GridSize: 32
TimelineZoom: 1.599999

[Metadata]
Title:Kami Ningyou
TitleUnicode:紙人形
Artist:KikuoHana
ArtistUnicode:きくおはな
Creator:SMOKELIND
Version:EX
Source:
Tags:Paper Doll Hanatan 花たん YURiCa ユリカ 第一幕 1 First Act Daiichi Maku Japanese Rock -Aqua Shizuku- Shikibe Mayu Kazato Asa Reform Kujinn JRock J-Rock
BeatmapID:3047440
BeatmapSetID:1486223

[Difficulty]
HPDrainRate:5.7
CircleSize:4
OverallDifficulty:8.7
ApproachRate:9.5
SliderMultiplier:2.07
SliderTickRate:1

[Events]
//Background and Video events
0,0,"86039950_p0.jpg",0,0
Video,997,"vid.mp4"
//Break Periods
//Storyboard Layer 0 (Background)
//Storyboard Layer 1 (Fail)
//Storyboard Layer 2 (Pass)
//Storyboard Layer 3 (Foreground)
//Storyboard Layer 4 (Overlay)
//Storyboard Sound Samples

[TimingPoints]
1099,250,6,2,77,27,1,0
1099,-588.235294117657,4,2,77,27,0,0
13099,-103.092783505155,4,2,77,67,0,0
17224,-175.438596491229,4,2,77,67,0,0
17474,-103.092783505155,4,2,77,67,0,0
19099,-78.7401574803149,4,2,77,77,0,0
19349,-103.092783505155,4,2,77,77,0,0
23724,-78.7401574803149,4,2,77,77,0,0
23974,-103.092783505155,4,2,77,77,0,0
25099,-78.7401574803149,4,2,77,77,0,0
25474,-175.438596491228,4,2,77,77,0,0
25724,-78.7401574803149,4,2,77,77,0,0
26224,-175.438596491228,4,2,77,77,0,0
26474,-78.7401574803149,4,2,77,77,0,0
26974,-175.438596491228,4,2,77,77,0,0
27224,-78.7401574803149,4,2,77,77,0,0
28474,-175.438596491228,4,2,77,77,0,0
28724,-78.7401574803149,4,2,77,77,0,0
29599,-103.092783505155,4,2,77,77,0,0
31099,-370.370370370374,4,2,77,47,0,0
32849,-270.270270270272,4,2,77,47,0,0
34849,-588.235294117647,4,2,77,47,0,0
37099,-175.438596491229,4,2,77,47,0,0
40099,-270.270270270272,4,2,77,47,0,0
41849,-270.270270270272,4,2,77,47,0,0
43099,-588.235294117647,4,2,77,47,0,0
45349,-175.438596491228,4,2,77,57,0,0
46099,-149.253731343284,4,2,77,67,0,0
47099,-129.87012987013,4,2,77,67,0,0
47599,-114.942528735632,4,2,77,67,0,0
48349,-212.765957446808,4,2,77,67,0,0
48599,-175.438596491227,4,2,77,67,0,0
48849,-149.253731343284,4,2,77,67,0,0
49099,-129.870129870131,4,2,77,67,0,0
49474,-114.942528735633,4,2,77,67,0,0
49849,-103.092783505155,4,2,77,67,0,0
50224,-93.4579439252339,4,2,77,67,0,0
50599,-85.4700854700857,4,2,77,67,0,0
50849,-78.7401574803149,4,2,77,67,0,0
51099,-72.992700729927,4,2,77,67,0,0
51349,-175.438596491228,4,2,77,67,0,0
52099,-93.4579439252336,4,2,77,87,0,0
52599,-175.438596491228,4,2,77,87,0,0
52849,-93.4579439252336,4,2,77,87,0,0
53349,-175.438596491228,4,2,77,87,0,0
53599,-93.4579439252336,4,2,77,87,0,0
54849,-175.438596491228,4,2,77,87,0,0
55099,-93.4579439252336,4,2,77,87,0,0
56349,-175.438596491228,4,2,77,87,0,0
56599,-93.4579439252336,4,2,77,87,0,0
57099,-175.438596491228,4,2,77,87,0,0
57349,-93.4579439252336,4,2,77,87,0,0
57849,-175.438596491228,4,2,77,87,0,0
58099,-93.4579439252336,4,2,77,87,0,0
58599,-175.438596491228,4,2,77,87,0,0
59599,-93.4579439252336,4,2,77,87,0,0
62349,-175.438596491228,4,2,77,87,0,0
62599,-93.4579439252336,4,2,77,87,0,0
63849,-175.438596491228,4,2,77,87,0,0
64099,-93.4579439252336,4,2,77,87,0,0
64599,-175.438596491228,4,2,77,87,0,0
65349,-175.438596491228,4,2,77,87,0,0
65599,-93.4579439252336,4,2,77,87,0,0
66849,-175.438596491228,4,2,77,87,0,0
67099,-93.4579439252336,4,2,77,87,0,0
68349,-175.438596491228,4,2,77,87,0,0
68599,-93.4579439252336,4,2,77,87,0,0
69099,-175.438596491228,4,2,77,87,0,0
69349,-93.4579439252336,4,2,77,87,0,0
69849,-175.438596491228,4,2,77,87,0,0
70099,-93.4579439252336,4,2,77,87,0,0
74349,-175.438596491228,4,2,77,87,0,0
74599,-93.4579439252336,4,2,77,87,0,0
75849,-175.438596491228,4,2,77,87,0,0
76099,-93.4579439252336,4,2,77,87,0,0
77099,-175.438596491228,4,2,77,87,0,0
77599,-93.4579439252336,4,2,77,87,0,0
78599,-175.438596491228,4,2,77,87,0,0
79099,-93.4579439252336,4,2,77,87,0,0
80349,-175.438596491228,4,2,77,87,0,0
80599,-93.4579439252336,4,2,77,87,0,0
81849,-175.438596491228,4,2,77,87,0,0
82224,-93.4579439252336,4,2,77,87,0,0
82849,-370.37037037037,4,2,77,87,0,0
83599,-114.942528735632,4,2,77,87,0,0
84099,-175.438596491228,4,2,77,87,0,0
84349,-114.942528735632,4,2,77,87,0,0
84849,-175.438596491228,4,2,77,87,0,0
85099,-93.4579439252336,4,2,77,87,0,0
86349,-175.438596491228,4,2,77,87,0,0
86599,-93.4579439252336,4,2,77,87,0,0
88099,-370.370370370369,4,2,77,47,0,0
100099,-149.253731343283,4,2,77,57,0,0
112099,-129.87012987013,4,2,77,57,0,0
113349,-212.765957446809,4,2,77,57,0,0
113599,-129.87012987013,4,2,77,57,0,0
114849,-212.765957446809,4,2,77,57,0,0
115099,-129.87012987013,4,2,77,57,0,0
119349,-212.765957446809,4,2,77,57,0,0
119599,-129.87012987013,4,2,77,57,0,0
120849,-212.765957446809,4,2,77,57,0,0
121099,-129.87012987013,4,2,77,57,0,0
122349,-212.765957446809,4,2,77,57,0,0
122599,-149.253731343284,4,2,77,57,0,0
123349,-129.87012987013,4,2,77,57,0,0
123849,-175.438596491228,4,2,77,57,0,0
124099,-103.092783505155,4,2,77,77,0,0
135099,-114.942528735633,4,2,77,67,0,0
135599,-129.870129870131,4,2,77,57,0,0
136099,-370.370370370374,4,2,77,47,0,0
137849,-270.270270270272,4,2,77,47,0,0
139849,-588.235294117647,4,2,77,47,0,0
142099,-175.438596491229,4,2,77,47,0,0
145099,-370.370370370373,4,2,77,47,0,0
146849,-270.270270270272,4,2,77,47,0,0
148099,-588.235294117647,4,2,77,47,0,0
150349,-175.438596491228,4,2,77,57,0,0
151099,-149.253731343284,4,2,77,67,0,0
152099,-129.87012987013,4,2,77,67,0,0
152599,-114.942528735632,4,2,77,67,0,0
153349,-212.765957446808,4,2,77,67,0,0
153599,-175.438596491227,4,2,77,67,0,0
153849,-149.253731343284,4,2,77,67,0,0
154099,-129.870129870131,4,2,77,67,0,0
154474,-114.942528735633,4,2,77,67,0,0
154849,-103.092783505155,4,2,77,67,0,0
155224,-93.4579439252339,4,2,77,67,0,0
155599,-85.4700854700857,4,2,77,67,0,0
155849,-78.7401574803149,4,2,77,67,0,0
156099,-72.992700729927,4,2,77,67,0,0
156349,-175.438596491228,4,2,77,67,0,0
157099,-93.4579439252336,4,2,77,87,0,0
157599,-175.438596491228,4,2,77,87,0,0
157849,-93.4579439252336,4,2,77,87,0,0
158349,-175.438596491228,4,2,77,87,0,0
158599,-93.4579439252336,4,2,77,87,0,0
159849,-175.438596491228,4,2,77,87,0,0
160099,-93.4579439252336,4,2,77,87,0,0
161349,-175.438596491228,4,2,77,87,0,0
161599,-93.4579439252336,4,2,77,87,0,0
162099,-175.438596491228,4,2,77,87,0,0
162349,-93.4579439252336,4,2,77,87,0,0
162849,-175.438596491228,4,2,77,87,0,0
163099,-93.4579439252336,4,2,77,87,0,0
163599,-175.438596491228,4,2,77,87,0,0
164599,-93.4579439252336,4,2,77,87,0,0
167349,-175.438596491228,4,2,77,87,0,0
167599,-93.4579439252336,4,2,77,87,0,0
168849,-175.438596491228,4,2,77,87,0,0
169099,-93.4579439252336,4,2,77,87,0,0
169599,-175.438596491228,4,2,77,87,0,0
170349,-175.438596491228,4,2,77,87,0,0
170599,-93.4579439252336,4,2,77,87,0,0
171849,-175.438596491228,4,2,77,87,0,0
172099,-93.4579439252336,4,2,77,87,0,0
173349,-175.438596491228,4,2,77,87,0,0
173599,-93.4579439252336,4,2,77,87,0,0
174099,-175.438596491228,4,2,77,87,0,0
174349,-93.4579439252336,4,2,77,87,0,0
174849,-175.438596491228,4,2,77,87,0,0
175099,-93.4579439252336,4,2,77,87,0,0
179349,-175.438596491228,4,2,77,87,0,0
179599,-93.4579439252336,4,2,77,87,0,0
180849,-175.438596491228,4,2,77,87,0,0
181099,-93.4579439252336,4,2,77,87,0,0
182099,-175.438596491228,4,2,77,87,0,0
182599,-93.4579439252336,4,2,77,87,0,0
183599,-175.438596491228,4,2,77,87,0,0
184099,-93.4579439252336,4,2,77,87,0,0
185349,-175.438596491228,4,2,77,87,0,0
185599,-93.4579439252336,4,2,77,87,0,0
186849,-175.438596491228,4,2,77,87,0,0
187224,-93.4579439252336,4,2,77,87,0,0
187849,-370.37037037037,4,2,77,87,0,0
188599,-114.942528735632,4,2,77,87,0,0
189099,-175.438596491228,4,2,77,87,0,0
189349,-114.942528735632,4,2,77,87,0,0
189849,-175.438596491228,4,2,77,87,0,0
190099,-93.4579439252336,4,2,77,87,0,0
191349,-175.438596491228,4,2,77,87,0,0
191599,-93.4579439252336,4,2,77,87,0,0
192849,-212.765957446809,4,2,77,87,0,0
193099,-129.87012987013,4,2,77,67,0,0
200099,-175.438596491228,4,2,77,67,0,0
200599,-129.87012987013,4,2,77,67,0,0
200849,-175.438596491228,4,2,77,67,0,0
201599,-129.87012987013,4,2,77,67,0,0
205099,-588.235294117647,4,2,77,47,0,0
205161,-588.235294117647,4,2,77,5,0,0

[Colours]
Combo1 : 255,255,149
Combo2 : 210,255,149

[HitObjects]
417,117,1099,6,0,B|470:103|450:22|363:16|329:110,1,211.140001288696,2|2,0:0|0:0,0:0:0:0:
95,267,4099,6,0,B|41:280|61:361|148:367|182:273,1,211.140001288696,2|2,0:0|0:0,0:0:0:0:
49,44,7099,6,0,B|106:65|106:144|106:144|127:100|172:91,1,211.140001288696,2|2,0:0|0:0,0:0:0:0:
448,248,10099,6,0,B|390:269|390:348|390:348|369:304|324:295,1,211.140001288696,2|2,0:0|0:0,0:0:0:0:
37,190,13099,6,0,B|-15:183|-25:262|50:298|112:225,1,200.790004748909,6|0,1:2|0:0,0:0:0:0:
271,35,13474,2,0,B|231:57|237:107|237:107|222:72|189:68,1,150.592503561682,10|0,0:0|0:0,0:0:0:0:
171,142,13724,1,0,1:0:0:0:
399,130,13849,5,10,0:3:0:0:
333,94,13974,1,2,0:0:0:0:
323,96,14036,1,0,0:0:0:0:
313,98,14099,1,0,0:0:0:0:
236,197,14224,2,0,P|285:180|346:165,1,100.395002374455,10|0,0:0|0:0,0:0:0:0:
332,168,14474,1,8,0:3:0:0:
491,278,14599,5,2,1:0:0:0:
420,310,14724,2,0,P|400:259|436:209,1,100.395002374455,2|0,0:0|0:0,0:0:0:0:
169,303,14974,2,0,P|213:322|230:368,1,100.395002374455,10|0,0:0|0:0,0:0:0:0:
230,368,15224,1,0,1:0:0:0:
300,197,15349,5,10,0:3:0:0:
223,185,15474,1,2,0:0:0:0:
221,175,15536,1,0,0:0:0:0:
220,164,15599,1,0,0:0:0:0:
328,108,15724,2,0,P|296:166|197:138,1,150.592503561682,10|0,0:0|0:0,0:0:0:0:
196,91,15974,1,8,0:3:0:0:
119,260,16099,5,2,1:0:0:0:
30,274,16224,2,0,B|21:235|64:209|64:209|39:239|47:278,1,150.592503561682,2|0,0:0|0:0,0:0:0:0:
91,341,16474,2,0,L|270:324,1,150.592503561682,10|0,0:0|0:0,0:0:0:0:
301,371,16724,1,0,1:0:0:0:
480,217,16849,5,10,0:3:0:0:
421,165,16974,5,2,0:0:0:0:
419,174,17036,1,0,0:0:0:0:
307,284,17161,5,0,0:0:0:0:
312,290,17224,2,0,L|324:176,1,88.4924989197693,10|0,0:3|0:0,0:0:0:0:
276,144,17474,1,8,0:3:0:0:
14,42,17599,5,6,0:3:0:0:
25,117,17724,2,0,P|80:110|109:59,1,100.395002374455,10|4,0:3|0:3,0:0:0:0:
352,95,17974,2,0,P|298:108|274:162,1,100.395002374455,10|4,0:3|0:3,0:0:0:0:
276,144,18224,1,8,0:3:0:0:
393,355,18349,5,8,0:0:0:0:
394,340,18411,1,8,0:3:0:0:
395,325,18474,1,8,0:3:0:0:
397,310,18536,1,8,0:3:0:0:
398,295,18599,5,10,0:3:0:0:
336,243,18682,1,2,0:0:0:0:
266,282,18765,1,2,0:0:0:0:
262,298,18849,5,10,1:0:0:0:
182,309,18932,1,2,0:0:0:0:
121,256,19015,1,2,0:0:0:0:
72,199,19099,6,0,B|63:171|94:148|94:148|122:257|3:221|25:321,1,262.889997994308,6|0,1:2|0:0,0:0:0:0:
180,132,19474,1,8,0:0:0:0:
134,70,19599,2,0,P|84:60|10:44,1,100.395002374455,0|0,0:0|1:0,0:0:0:0:
170,221,19849,2,0,P|193:153|272:143,1,150.592503561682,10|0,0:3|0:0,0:0:0:0:
319,197,20099,5,0,0:0:0:0:
446,239,20224,1,8,0:0:0:0:
500,181,20349,5,0,0:0:0:0:
368,270,20474,1,8,0:3:0:0:
293,67,20599,6,0,P|195:44|89:18,1,200.790004748909,2|0,1:0|0:0,0:0:0:0:
216,290,20974,1,8,0:0:0:0:
273,242,21099,2,0,P|263:186|253:116,1,100.395002374455,0|0,0:0|1:0,0:0:0:0:
82,311,21349,2,0,B|43:319|18:277|18:277|47:302|86:293,1,150.592503561682,10|0,0:3|0:0,0:0:0:0:
145,241,21599,5,0,0:0:0:0:
76,123,21724,1,8,0:0:0:0:
138,79,21849,5,0,0:0:0:0:
69,216,21974,1,8,0:3:0:0:
237,323,22099,6,0,B|342:358|307:217|413:252,1,200.790004748909,6|0,1:0|0:0,0:0:0:0:
271,29,22474,2,0,B|276:70|323:90|323:90|255:99|234:162,1,200.790004748909,0|0,1:0|0:0,0:0:0:0:
262,227,22786,5,0,0:0:0:0:
262,227,22849,1,10,0:1:0:0:
430,259,22974,5,0,0:0:0:0:
430,259,23036,2,0,P|383:275|341:251,1,100.395002374455
321,178,23224,1,8,0:1:0:0:
169,373,23349,2,0,P|204:329|182:271,1,100.395002374455,0|8,0:0|0:3,0:0:0:0:
134,245,23536,5,0,0:0:0:0:
134,245,23599,1,10,0:1:0:0:
216,60,23724,2,0,B|228:9|303:28|310:110|222:141,1,197.167498495731,8|0,0:1|0:0,0:0:0:0:
152,106,23974,2,0,B|44:89|44:89|71:102|82:125,1,150.592503561682,10|0,0:1|0:0,0:0:0:0:
14,158,24224,1,8,0:1:0:0:
125,352,24349,5,10,0:3:0:0:
182,298,24474,1,8,0:0:0:0:
166,285,24536,1,8,0:0:0:0:
146,278,24599,1,8,0:0:0:0:
347,371,24724,5,8,0:0:0:0:
294,315,24849,1,8,0:3:0:0:
299,295,24911,1,8,0:3:0:0:
312,278,24974,1,8,0:3:0:0:
434,80,25099,5,12,0:1:0:0:
266,161,25224,2,0,B|368:195|334:58|437:92,1,197.167498495731,8|0,0:1|0:0,0:0:0:0:
479,147,25474,2,0,L|472:210,1,58.9949992798462,8|0,0:1|0:0,0:0:0:0:
38,88,25849,5,8,0:1:0:0:
170,131,25974,2,0,P|83:169|41:74,1,197.167498495731,8|0,0:1|0:0,0:0:0:0:
66,16,26224,2,0,L|134:10,1,58.9949992798462,8|0,0:1|0:0,0:0:0:0:
290,158,26474,5,0,0:0:0:0:
288,169,26536,1,0,0:0:0:0:
287,180,26599,1,8,0:1:0:0:
464,316,26724,2,0,B|515:324|527:247|454:209|390:278,1,197.167498495731,8|0,0:1|0:0,0:0:0:0:
362,347,26974,2,0,L|297:358,2,58.9949992798462,8|0|8,0:1|0:0|0:3,0:0:0:0:
229,141,27349,6,0,B|262:240|129:207|162:307,1,197.167498495731,2|0,1:0|0:0,0:0:0:0:
229,342,27599,1,10,0:3:0:0:
7,236,27724,5,10,0:0:0:0:
68,190,27849,1,10,0:3:0:0:
73,270,27974,1,8,0:3:0:0:
45,85,28099,5,14,0:1:0:0:
243,226,28224,2,0,P|344:207|448:191,1,197.167498495731,8|0,0:1|0:0,0:0:0:0:
493,247,28474,2,0,L|485:316,2,58.9949992798462,8|0|8,0:1|0:0|0:3,0:0:0:0:
306,89,28849,5,8,0:1:0:0:
170,291,28974,2,0,B|134:250|170:196|170:196|154:246|192:285,1,197.167498495731,8|0,0:1|0:0,0:0:0:0:
286,317,29224,2,0,B|268:368|203:364|203:364|254:352|270:300,1,197.167498495731,8|0,0:1|0:0,0:0:0:0:
243,226,29474,1,8,0:0:0:0:
25,358,29599,6,0,P|33:276|38:208,1,150.592503561682,8|0,0:3|0:0,0:0:0:0:
0,145,29849,1,0,3:0:0:0:
117,56,29974,5,0,3:0:0:0:
259,141,30099,1,0,3:0:0:0:
380,45,30224,1,0,3:0:0:0:
307,22,30349,5,8,0:3:0:0:
328,99,30474,1,8,0:3:0:0:
401,124,30599,1,8,0:3:0:0:
246,287,30724,5,8,3:0:0:0:
267,210,30849,1,8,3:0:0:0:
340,185,30974,1,8,3:0:0:0:
508,321,31099,6,0,B|401:439|276:377|294:245|381:258,1,335.340008187012,6|0,0:0|0:0,0:0:0:0:
82,119,32849,6,0,P|97:155|114:205,2,76.5900018698731,2|2|2,0:0|0:0|0:0,0:0:0:0:
82,119,33849,5,2,0:0:0:0:
212,23,34099,2,0,P|287:35|371:49,1,153.180003739746,2|0,0:0|0:0,0:0:0:0:
363,47,34849,5,0,0:0:0:0:
448,143,35099,2,0,L|456:99,6,35.1900002147827
448,143,36849,1,10,0:0:0:0:
362,275,37099,6,0,P|390:257|429:246,2,58.9949992798462,10|0|0,0:3|0:0|0:0,0:0:0:0:
362,275,37474,1,8,0:0:0:0:
285,285,37599,1,0,0:0:0:0:
229,230,37724,1,8,0:3:0:0:
176,358,37849,6,0,P|194:330|205:291,1,58.9949992798462,10|0,0:3|0:0,0:0:0:0:
202,305,38036,1,0,3:0:0:0:
202,305,38099,1,0,3:0:0:0:
146,253,38224,1,8,0:0:0:0:
159,175,38349,1,0,0:0:0:0:
114,106,38474,1,8,0:3:0:0:
23,157,38599,6,0,P|54:165|99:179,2,58.9949992798462,10|0|0,0:3|0:0|0:0,0:0:0:0:
23,157,38974,1,8,0:0:0:0:
69,91,39099,1,0,0:0:0:0:
35,22,39224,1,8,0:3:0:0:
156,44,39349,1,10,0:3:0:0:
164,43,39411,1,0,0:0:0:0:
172,42,39474,2,0,L|101:28,1,58.9949992798462,0|0,0:0|3:0,0:0:0:0:
248,146,39724,1,8,0:0:0:0:
289,78,39849,2,0,L|360:64,1,58.9949992798462,2|10,3:0|0:0,0:0:0:0:
431,132,40099,6,0,B|404:67|496:29|496:29|570:194|338:134|391:292,1,459.540011219238,2|0,1:0|0:0,0:0:0:0:
232,346,41849,6,0,P|270:351|312:358,2,76.5900018698731,2|2|2,0:0|0:0|0:0,0:0:0:0:
232,346,42849,5,2,0:0:0:0:
83,304,43099,2,0,L|89:343,6,35.1900002147827,2|0|0|0|0|0|0,0:0|0:0|0:0|0:0|0:0|0:0|0:0,0:0:0:0:
26,113,44849,5,2,0:0:0:0:
73,174,45099,1,2,0:0:0:0:
426,115,45349,6,0,B|383:102|383:102|427:100,1,88.4924989197693,14|0,3:1|0:0,0:0:0:0:
426,99,45599,2,0,B|458:68|458:68|437:107,1,88.4924989197693,6|0,0:3|0:0,0:0:0:0:
439,107,45849,2,0,B|449:150|449:150|425:112,1,88.4924989197693,6|0,0:3|0:0,0:0:0:0:
371,186,46099,6,0,B|213:166|213:166|161:160|137:210|148:265|201:271,1,323.609984692521,14|0,0:1|0:0,0:0:0:0:
199,271,46765,5,0,0:0:0:0:
226,348,46849,1,8,0:1:0:0:
10,114,47099,6,0,B|-4:85|23:58|23:58|11:86|23:114,1,119.542497628704,6|0,0:3|0:0,0:0:0:0:
93,85,47349,2,0,L|180:70,1,79.6949984191361,6|0,0:3|0:0,0:0:0:0:
220,0,47536,5,0,0:0:0:0:
209,8,47599,2,0,B|178:98|299:68|269:159,1,180.090001511375,14|8,0:1|0:0,0:0:0:0:
269,158,47974,1,8,0:1:0:0:
371,280,48099,5,0,3:0:0:0:
402,274,48161,1,0,3:0:0:0:
433,269,48224,1,0,3:0:0:0:
322,350,48349,6,0,L|232:333,1,72.9674988866043,4|0,3:0|0:0,0:0:0:0:
174,351,48599,1,6,3:0:0:0:
173,359,48661,1,0,3:0:0:0:
82,268,48786,5,0,3:0:0:0:
82,257,48849,2,0,L|86:212,1,34.672498359913,2|0,3:0|0:0,0:0:0:0:
150,177,48974,2,0,L|154:132,1,34.672498359913,0|0,3:0|0:0,0:0:0:0:
0,83,49099,6,0,B|140:65|140:65|107:71|89:100,1,199.23749604784,14|0,0:1|0:0,0:0:0:0:
153,142,49474,6,0,B|218:123|214:53|214:53|232:132|175:157,1,225.112501889219,12|0,0:1|0:0,0:0:0:0:
170,241,49849,6,0,B|295:282|253:115|378:157,1,250.987505936136,12|0,0:1|0:0,0:0:0:0:
499,257,50224,6,0,B|462:239|452:179|452:179|439:218|398:231,1,166.117494930496,12|0,0:1|0:0,0:0:0:0:
329,295,50474,5,8,0:0:0:0:
329,295,50537,1,8,0:0:0:0:
329,295,50599,2,0,P|241:319|138:353,1,181.642500692911,12|0,0:1|0:0,0:0:0:0:
52,295,50849,6,0,P|120:329|146:216,1,197.167498495731,12|0,0:1|0:0,0:0:0:0:
28,179,51099,6,0,B|76:181|91:222|91:222|67:156|109:93,1,212.692506004046,12|0,0:1|0:0,0:0:0:0:
180,46,51349,6,0,L|204:48,1,14.7487498199615,10|0,3:1|0:0,0:0:0:0:
497,78,51599,5,2,0:0:0:0:
497,78,51849,5,2,0:0:0:0:
497,78,52099,6,0,B|386:41|423:188|312:151,1,221.489993240662,6|0,1:0|0:0,0:0:0:0:
154,12,52474,1,0,1:0:0:0:
154,12,52536,1,0,1:0:0:0:
154,12,52599,2,0,P|190:43|182:100,1,88.4924989197693,8|0,0:0|0:0,0:0:0:0:
132,136,52849,5,6,3:0:0:0:
132,136,53099,2,0,L|7:118,1,110.744996620331,2|0,1:0|0:0,0:0:0:0:
103,336,53349,6,0,P|135:303|198:311,1,88.4924989197693,10|0,0:0|0:0,0:0:0:0:
266,338,53599,6,0,B|258:401|162:389|142:290|245:238,1,221.489993240662,2|0,1:0|0:0,0:0:0:0:
225,249,53974,1,0,1:0:0:0:
445,314,54099,2,0,P|393:331|352:288,1,110.744996620331,8|0,0:0|0:0,0:0:0:0:
354,297,54349,5,2,1:0:0:0:
510,182,54474,1,0,3:0:0:0:
511,171,54536,1,0,3:0:0:0:
512,159,54599,1,2,3:0:0:0:
464,96,54724,1,0,0:0:0:0:
262,198,54849,6,0,P|305:180|360:170,1,88.4924989197693,10|0,0:0|0:0,0:0:0:0:
426,166,55099,6,0,P|309:138|185:106,1,221.489993240662,6|0,1:0|0:0,0:0:0:0:
210,112,55474,1,0,1:0:0:0:
17,303,55599,2,0,P|60:263|49:196,1,110.744996620331,8|0,0:0|0:0,0:0:0:0:
37,0,55849,2,0,P|38:53|79:88,1,110.744996620331,2|0,1:0|3:0,0:0:0:0:
116,162,56036,5,0,3:0:0:0:
116,162,56099,1,0,3:0:0:0:
238,104,56224,1,2,0:0:0:0:
367,220,56349,6,0,P|330:195|320:146,1,88.4924989197693,10|0,0:0|0:0,0:0:0:0:
400,150,56599,6,0,B|436:261|289:224|326:335,1,221.489993240662,2|0,1:0|0:0,0:0:0:0:
326,335,56974,1,2,1:0:0:0:
131,159,57099,6,0,L|43:169,1,88.4924989197693,10|0,0:0|0:0,0:0:0:0:
12,237,57349,5,2,1:0:0:0:
167,88,57474,1,0,3:0:0:0:
176,89,57536,1,0,3:0:0:0:
187,90,57599,1,0,3:0:0:0:
225,158,57724,1,0,0:0:0:0:
68,336,57849,6,0,P|58:306|73:333,1,88.4924989197693,8|0,0:1|0:0,0:0:0:0:
144,364,58099,6,0,P|249:343|379:326,1,221.489993240662,2|0,1:0|0:0,0:0:0:0:
482,174,58474,1,2,1:0:0:0:
482,174,58536,1,0,1:0:0:0:
482,174,58599,2,0,P|458:216|396:222,1,88.4924989197693,10|0,0:0|0:0,0:0:0:0:
365,178,58849,5,2,1:0:0:0:
365,178,59099,2,0,L|354:68,1,88.4924989197693,0|0,3:3|0:0,0:0:0:0:
397,21,59349,5,2,0:0:0:0:
48,75,59599,6,0,B|-16:82|-4:178|95:198|147:95,1,221.489993240662,2|0,1:0|0:0,0:0:0:0:
286,20,60349,5,2,1:0:0:0:
217,58,60474,1,0,3:0:0:0:
216,68,60536,1,0,3:0:0:0:
215,79,60599,1,2,3:0:0:0:
352,192,60724,1,0,3:0:0:0:
266,174,60849,5,10,0:1:0:0:
188,316,60974,1,8,0:3:0:0:
262,341,61099,6,0,B|299:229|150:266|187:155,1,221.489993240662,2|0,1:0|0:0,0:0:0:0:
186,156,61474,1,0,1:0:0:0:
487,67,61599,2,0,P|431:84|406:135,1,110.744996620331,8|0,0:0|0:0,0:0:0:0:
406,127,61849,5,0,1:0:0:0:
507,280,61974,1,0,3:0:0:0:
508,269,62036,1,0,3:0:0:0:
510,258,62099,1,0,3:0:0:0:
458,197,62224,1,0,0:0:0:0:
265,335,62349,6,0,P|220:342|174:352,1,88.4924989197693,10|0,0:0|0:0,0:0:0:0:
189,271,62599,6,0,P|297:293|406:312,1,221.489993240662,2|0,1:0|0:0,0:0:0:0:
406,312,62974,1,0,1:0:0:0:
315,163,63099,5,10,0:0:0:0:
164,196,63224,1,2,0:0:0:0:
40,101,63349,6,0,P|85:134|145:102,1,110.744996620331,2|0,1:0|3:0,0:0:0:0:
174,53,63536,1,0,3:0:0:0:
174,53,63599,1,0,3:0:0:0:
231,150,63724,1,0,0:0:0:0:
31,318,63849,6,0,P|28:273|61:235,1,88.4924989197693,8|0,0:1|0:0,0:0:0:0:
124,268,64099,5,14,0:1:0:0:
343,86,64224,2,0,B|304:108|310:157|310:157|292:111|247:109,1,166.117494930496,10|0,0:1|0:0,0:0:0:0:
176,80,64474,5,10,0:1:0:0:
389,150,64599,2,0,P|447:137|502:130,1,88.4924989197693,10|0,0:1|0:0,0:0:0:0:
512,198,64849,5,6,3:0:0:0:
512,198,65099,2,0,P|507:233|500:278,1,58.9949992798462,2|0,1:0|0:0,0:0:0:0:
330,365,65349,6,0,P|336:320|342:276,1,88.4924989197693,10|0,0:0|0:0,0:0:0:0:
299,212,65599,6,0,B|188:175|225:322|114:285,1,221.489993240662,2|0,1:0|0:0,0:0:0:0:
114,285,65974,1,0,1:0:0:0:
220,113,66099,2,0,P|191:161|218:201,1,110.744996620331,8|0,0:0|0:0,0:0:0:0:
218,201,66349,5,2,1:0:0:0:
74,122,66474,1,0,3:0:0:0:
75,111,66536,1,0,3:0:0:0:
76,99,66599,1,2,3:0:0:0:
145,62,66724,1,0,0:0:0:0:
339,205,66849,6,0,P|381:203|411:159,1,88.4924989197693,10|0,0:0|0:0,0:0:0:0:
501,123,67099,6,0,B|485:60|392:84|384:185|493:223,1,221.489993240662,6|0,1:0|0:0,0:0:0:0:
472,214,67474,1,0,1:0:0:0:
343,382,67599,2,0,P|379:341|368:288,1,110.744996620331,8|0,0:0|0:0,0:0:0:0:
153,78,67849,2,0,P|170:129|221:146,1,110.744996620331,2|0,1:0|3:0,0:0:0:0:
278,95,68036,5,0,3:0:0:0:
278,95,68099,1,0,3:0:0:0:
320,218,68224,1,2,0:0:0:0:
196,303,68349,6,0,P|152:294|99:287,1,88.4924989197693,10|0,0:0|0:0,0:0:0:0:
41,322,68599,6,0,B|28:282|-20:262|-20:262|56:262|85:195,1,221.489993240662,2|0,1:0|0:0,0:0:0:0:
84,197,68974,1,2,1:0:0:0:
7,1,69099,6,0,L|18:89,1,88.4924989197693,10|0,0:0|0:0,0:0:0:0:
90,119,69349,5,2,1:0:0:0:
269,14,69474,1,0,3:0:0:0:
270,25,69537,1,0,3:0:0:0:
271,34,69599,1,0,3:0:0:0:
220,90,69724,1,0,0:0:0:0:
466,219,69849,6,0,P|470:187|456:215,1,88.4924989197693,8|0,0:1|0:0,0:0:0:0:
418,283,70099,6,0,B|307:319|344:172|233:209,1,221.489993240662,2|0,1:0|0:0,0:0:0:0:
97,315,70474,1,0,1:0:0:0:
98,325,70536,1,0,1:0:0:0:
100,335,70599,1,10,0:0:0:0:
157,214,70724,1,2,0:0:0:0:
43,80,70849,5,2,1:0:0:0:
116,43,71099,5,2,0:0:0:0:
116,43,71349,1,2,0:0:0:0:
335,259,71599,6,0,B|402:236|408:158|408:158|420:206|469:213,1,221.489993240662,2|0,1:0|0:0,0:0:0:0:
435,297,72349,5,2,1:0:0:0:
373,342,72474,1,0,3:0:0:0:
363,340,72536,1,0,3:0:0:0:
352,338,72599,1,2,3:0:0:0:
207,245,72724,1,0,3:0:0:0:
272,207,72849,5,10,0:0:0:0:
120,299,72974,1,8,0:3:0:0:
53,258,73099,6,0,P|40:141|28:34,1,221.489993240662,2|0,1:0|0:0,0:0:0:0:
28,37,73474,1,0,1:0:0:0:
240,175,73599,2,0,P|295:164|353:156,1,110.744996620331,8|0,0:0|0:0,0:0:0:0:
349,156,73849,5,0,1:0:0:0:
475,41,73974,1,0,3:0:0:0:
476,30,74036,1,0,3:0:0:0:
478,19,74099,1,0,3:0:0:0:
386,72,74224,1,0,0:0:0:0:
508,251,74349,6,0,P|482:214|426:209,1,88.4924989197693,10|0,0:0|0:0,0:0:0:0:
363,225,74599,6,0,B|291:303|341:381|426:360|412:303,1,221.489993240662,2|0,1:0|0:0,0:0:0:0:
413,305,74974,1,0,1:0:0:0:
273,220,75099,5,10,0:0:0:0:
141,283,75224,1,2,0:0:0:0:
25,199,75349,6,0,L|47:82,1,110.744996620331,2|0,1:0|3:0,0:0:0:0:
117,57,75536,1,0,3:0:0:0:
117,57,75599,1,0,3:0:0:0:
166,118,75724,1,0,0:0:0:0:
427,20,75849,6,0,P|382:37|367:91,1,88.4924989197693
397,143,76099,5,14,0:1:0:0:
208,329,76224,2,0,B|155:311|151:250|151:250|135:285|103:293,1,166.117494930496,10|0,1:0|0:0,0:0:0:0:
81,220,76474,5,10,0:1:0:0:
311,136,76599,2,0,B|331:204|275:243|275:243|273:211|252:190,1,166.117494930496,10|0,0:1|0:0,0:0:0:0:
188,178,76849,5,6,3:0:0:0:
465,60,77099,6,0,B|477:33|477:33|466:121,1,117.989998559692,8|4,0:3|3:3,0:0:0:0:
269,240,77599,5,14,0:1:0:0:
81,330,77724,2,0,B|38:339|10:292|10:292|43:322|85:311,1,166.117494930496,10|0,0:1|0:0,0:0:0:0:
64,239,77974,5,10,0:1:0:0:
20,63,78099,2,0,B|30:104|85:108|85:108|43:92|34:50,1,166.117494930496,10|0,0:1|0:0,0:0:0:0:
111,36,78349,5,0,1:0:0:0:
162,100,78474,1,0,3:0:0:0:
172,101,78536,1,0,3:0:0:0:
182,102,78599,2,0,B|263:90|263:90|228:82,1,117.989998559692,10|10,0:0|0:0,0:0:0:0:
445,220,79099,6,0,B|490:202|509:246|509:246|410:279|438:154|340:181,1,276.862491550827,6|0,1:0|0:0,0:0:0:0:
285,231,79474,1,0,1:0:0:0:
327,350,79599,2,0,P|364:304|346:237,1,110.744996620331,10|0,0:0|0:0,0:0:0:0:
138,176,79849,6,0,P|83:187|30:200,1,110.744996620331,2|0,1:0|3:0,0:0:0:0:
5,272,80036,1,0,3:0:0:0:
5,272,80099,1,0,3:0:0:0:
62,326,80224,1,0,0:0:0:0:
174,92,80349,6,0,P|216:101|259:111,1,88.4924989197693,10|0,0:0|0:0,0:0:0:0:
350,71,80599,6,0,B|334:8|241:32|233:133|342:171,1,221.489993240662,2|0,1:0|0:0,0:0:0:0:
489,110,80974,1,0,1:0:0:0:
489,110,81036,1,0,1:0:0:0:
489,110,81099,2,0,P|438:126|429:185,1,110.744996620331,8|0,0:0|0:0,0:0:0:0:
388,366,81349,6,0,P|399:314|361:276,1,110.744996620331,2|0,1:0|3:0,0:0:0:0:
288,294,81536,1,0,3:0:0:0:
288,294,81599,1,0,3:0:0:0:
203,349,81724,1,0,0:0:0:0:
35,245,81849,6,0,P|50:218|41:247,1,88.4924989197693,8|0,0:1|0:0,0:0:0:0:
52,324,82099,5,14,0:1:0:0:
264,145,82224,2,0,B|254:38|254:38|253:74|229:96,1,166.117494930496,2|0,0:0|0:0,0:0:0:0:
179,37,82474,5,2,1:0:0:0:
343,218,82599,2,0,L|517:185,1,166.117494930496,10|0,0:1|0:0,0:0:0:0:
511,179,82849,6,0,L|393:202,1,111.780002729004,0|0,1:0|0:0,0:0:0:0:
401,200,83599,5,2,1:0:0:0:
217,303,83724,2,0,P|262:314|315:329,1,90.0450007556877,2|0,0:0|0:0,0:0:0:0:
304,325,83974,5,2,0:0:0:0:
230,176,84099,2,0,P|188:186|142:195,1,88.4924989197693,2|0,0:0|0:0,0:0:0:0:
70,166,84349,6,0,P|53:116|80:74,1,90.0450007556877,4|0,0:3|0:0,0:0:0:0:
126,34,84536,1,0,3:0:0:0:
126,34,84599,1,2,3:0:0:0:
234,99,84724,1,0,0:0:0:0:
355,6,84849,6,0,P|314:34|314:92,1,88.4924989197693,10|0,0:0|0:0,0:0:0:0:
321,151,85099,6,0,B|370:144|382:96|382:96|388:174|455:197,1,221.489993240662,6|0,1:0|0:0,0:0:0:0:
455,197,85474,1,0,1:0:0:0:
362,356,85599,2,0,P|355:298|348:236,1,110.744996620331,10|0,0:0|0:0,0:0:0:0:
103,118,85849,6,0,P|154:143|167:192,1,110.744996620331,2|0,1:0|3:0,0:0:0:0:
113,249,86036,1,0,3:0:0:0:
113,249,86099,1,0,3:0:0:0:
185,279,86224,1,0,0:0:0:0:
314,176,86349,6,0,P|308:132|303:85,1,88.4924989197693,10|0,0:0|0:0,0:0:0:0:
232,34,86599,6,0,B|342:-2|305:144|416:107,1,221.489993240662,2|0,1:0|0:0,0:0:0:0:
481,296,86974,1,0,1:0:0:0:
408,275,87099,2,0,P|401:223|450:180,1,110.744996620331,8|0,0:0|0:0,0:0:0:0:
261,348,87349,6,0,P|204:337|134:320,1,110.744996620331,0|0,1:0|3:0,0:0:0:0:
113,262,87536,1,0,3:0:0:0:
113,262,87599,1,0,3:0:0:0:
197,169,87724,1,0,3:0:0:0:
93,18,87849,5,8,0:1:0:0:
51,79,87974,1,0,0:3:0:0:
91,147,88099,1,14,0:0:0:0:
256,192,88161,12,0,90974,0:0:0:0:
149,200,91099,6,0,B|193:166|262:204|262:204|211:168|246:111|246:111|312:129|294:191,1,335.340008187012,2|0,0:0|0:0,0:0:0:0:
294,191,93349,1,2,0:0:0:0:
506,196,94099,6,0,B|468:163|398:168|368:240|368:240|338:313|268:317|231:285,1,335.340008187012,2|0,0:0|0:0,0:0:0:0:
234,288,96099,1,2,0:0:0:0:
62,98,97099,6,0,B|80:58|28:32|28:32|2:84|54:111|54:111|106:137|120:176|106:215|80:241,1,335.340008187012,2|2,0:0|0:0,0:0:0:0:
473,41,99349,6,0,L|469:54,1,13.9725003411255,8|0,0:0|0:0,0:0:0:0:
469,54,99599,2,0,L|465:67,1,13.9725003411255,8|0,0:0|0:0,0:0:0:0:
474,194,99849,5,0,0:0:0:0:
426,137,99974,1,0,0:0:0:0:
332,233,100099,6,0,P|374:230|406:201,2,69.3449967198259,2|0|0,1:0|0:0|0:0,0:0:0:0:
332,233,100474,1,0,0:0:0:0:
274,283,100599,1,8,0:0:0:0:
253,356,100724,1,0,0:0:0:0:
174,283,100849,6,0,P|183:246|193:197,2,69.3449967198259,10|0|0,0:0|0:0|0:0,0:0:0:0:
174,283,101224,1,8,0:0:0:0:
106,247,101349,1,0,1:0:0:0:
34,273,101474,1,0,0:0:0:0:
18,134,101599,6,0,P|38:161|46:203,2,69.3449967198259,2|0|0,1:0|0:0|0:0,0:0:0:0:
18,134,101974,1,8,0:0:0:0:
65,74,102099,1,0,0:0:0:0:
137,96,102224,1,0,0:0:0:0:
267,18,102349,6,0,P|232:39|218:85,2,69.3449967198259,10|0|0,0:0|1:0|0:0,0:0:0:0:
267,18,102661,1,0,0:0:0:0:
267,18,102724,1,8,0:0:0:0:
331,84,102849,1,0,1:0:0:0:
413,67,102974,1,0,0:0:0:0:
437,182,103099,6,0,P|401:156|375:148,2,69.3449967198259,2|0|0,1:0|0:0|0:0,0:0:0:0:
437,182,103474,1,0,0:0:0:0:
446,257,103599,1,8,0:0:0:0:
512,217,103724,1,0,0:0:0:0:
370,227,103849,6,0,P|337:244|299:260,2,69.3449967198259,10|0|0,0:0|0:0|0:0,0:0:0:0:
370,227,104224,1,8,0:0:0:0:
284,334,104349,1,0,1:0:0:0:
224,284,104474,5,8,0:0:0:0:
217,283,104536,1,8,0:0:0:0:
210,282,104599,1,10,0:0:0:0:
140,329,104724,1,0,0:0:0:0:
57,205,104849,5,2,0:0:0:0:
121,245,104974,1,8,0:0:0:0:
185,204,105099,2,0,P|179:167|174:120,1,69.3449967198259,2|0,0:0|0:0,0:0:0:0:
175,135,105349,5,10,0:0:0:0:
252,58,105474,1,8,0:0:0:0:
252,58,105724,5,8,0:0:0:0:
395,151,105849,1,10,0:0:0:0:
395,151,106099,6,0,P|425:131|460:117,2,69.3449967198259,2|0|0,1:0|0:0|0:0,0:0:0:0:
395,151,106474,1,0,0:0:0:0:
383,226,106599,1,8,0:0:0:0:
374,301,106724,1,0,0:0:0:0:
241,302,106849,6,0,P|272:316|302:335,2,69.3449967198259,10|0|0,0:0|0:0|0:0,0:0:0:0:
241,302,107224,1,8,0:0:0:0:
225,227,107349,1,0,1:0:0:0:
211,151,107474,1,0,0:0:0:0:
330,87,107599,6,0,P|311:117|301:157,1,69.3449967198259,2|0,1:0|0:0,0:0:0:0:
301,149,107849,1,2,0:0:0:0:
436,223,107974,2,0,P|419:192|412:158,1,69.3449967198259,10|2,0:0|0:0,0:0:0:0:
302,246,108224,2,0,P|264:240|205:229,1,69.3449967198259,2|10,0:0|0:0,0:0:0:0:
233,234,108474,1,2,1:0:0:0:
162,322,108599,5,2,3:0:0:0:
34,269,108724,1,8,0:0:0:0:
32,258,108786,1,0,3:0:0:0:
30,247,108849,1,2,1:0:0:0:
119,158,108974,1,2,3:0:0:0:
6,55,109099,6,0,L|136:32,1,104.017495079739,2|0,1:0|0:0,0:0:0:0:
163,94,109349,1,8,0:0:0:0:
191,15,109474,1,2,0:0:0:0:
191,15,109536,1,0,0:0:0:0:
191,15,109599,2,0,P|152:49|176:104,1,104.017495079739,8|0,0:0|0:0,0:0:0:0:
231,131,109849,2,0,P|268:139|341:169,1,104.017495079739,10|0,0:0|0:0,0:0:0:0:
367,229,110099,1,8,0:0:0:0:
477,136,110224,2,0,P|446:146|405:166,1,69.3449967198259,2|8,0:0|0:0,0:0:0:0:
332,308,110474,5,0,0:0:0:0:
322,310,110536,1,0,0:0:0:0:
311,312,110599,1,10,0:0:0:0:
237,269,110724,1,0,0:0:0:0:
154,313,110849,1,0,0:0:0:0:
50,236,110974,2,0,P|59:201|68:167,2,69.3449967198259,2|0|0,3:0|3:0|3:0,0:0:0:0:
194,123,111349,2,0,P|180:89|167:47,1,69.3449967198259,2|0,3:0|3:0,0:0:0:0:
303,215,111599,2,0,P|316:181|330:139,1,69.3449967198259,0|2,3:0|3:0,0:0:0:0:
189,281,111849,5,0,3:0:0:0:
219,206,111974,1,0,3:0:0:0:
302,325,112099,5,2,1:0:0:0:
142,213,112224,2,0,P|107:220|63:230,2,79.6949984191361,10|0|0,0:3|0:0|1:0,0:0:0:0:
142,213,112599,1,8,0:1:0:0:
447,253,112849,5,2,0:0:0:0:
484,183,112974,2,0,L|465:93,1,79.6949984191361,2|8,0:0|0:3,0:0:0:0:
166,27,113349,6,0,P|162:60|183:101,1,72.9674988866043,10|0,0:0|0:0,0:0:0:0:
257,79,113599,5,2,1:0:0:0:
92,108,113724,2,0,P|163:129|244:155,1,159.389996838272,2|0,0:0|1:0,0:0:0:0:
244,155,114099,1,8,0:0:0:0:
0,302,114349,6,0,P|35:279|81:287,1,79.6949984191361,10|0,0:3|0:0,0:0:0:0:
116,350,114536,1,0,0:0:0:0:
116,350,114599,1,0,0:0:0:0:
393,263,114849,6,0,P|400:228|410:186,1,72.9674988866043,10|0,0:0|0:0,0:0:0:0:
466,144,115099,5,2,1:0:0:0:
330,183,115224,2,0,P|349:264|365:346,1,159.389996838272,2|0,0:0|1:0,0:0:0:0:
364,338,115599,1,8,0:0:0:0:
134,97,115849,6,0,L|231:79,1,79.6949984191361,10|2,0:3|0:0,0:0:0:0:
259,24,116036,1,0,0:0:0:0:
259,24,116099,1,0,0:0:0:0:
312,84,116224,1,0,0:0:0:0:
277,153,116349,1,8,0:0:0:0:
113,338,116599,5,2,1:0:0:0:
7,302,116724,2,0,P|85:279|112:341,1,159.389996838272,2|0,0:0|1:0,0:0:0:0:
112,337,117099,1,8,0:0:0:0:
512,333,117349,6,0,P|477:356|431:348,1,79.6949984191361,10|2,0:3|0:0,0:0:0:0:
401,289,117536,1,0,0:0:0:0:
401,289,117599,1,0,0:0:0:0:
442,220,117724,1,0,0:0:0:0:
405,149,117849,1,8,0:1:0:0:
196,349,118099,5,2,1:0:0:0:
321,248,118224,2,0,B|274:263|266:318|266:318|252:284|217:276,1,159.389996838272,2|0,0:0|1:0,0:0:0:0:
76,355,118599,1,8,0:0:0:0:
76,355,118849,5,10,0:3:0:0:
94,282,118974,1,2,0:0:0:0:
47,131,119349,6,0,P|30:109|43:133,1,72.9674988866043,2|0,0:0|0:0,0:0:0:0:
98,184,119599,5,2,1:0:0:0:
244,129,119724,2,0,B|127:110|127:110|157:122|168:149,1,159.389996838272,2|0,0:0|0:0,0:0:0:0:
494,259,120349,5,6,0:3:0:0:
451,193,120474,1,0,3:0:0:0:
448,181,120536,1,0,3:0:0:0:
446,169,120599,1,8,3:0:0:0:
499,110,120724,1,0,0:0:0:0:
333,38,120849,6,0,P|297:35|262:56,1,72.9674988866043,6|0,0:3|0:0,0:0:0:0:
316,111,121099,6,0,P|273:90|148:65,1,159.389996838272,2|0,1:0|0:0,0:0:0:0:
164,65,121474,1,0,1:0:0:0:
96,205,121599,1,8,0:0:0:0:
96,205,121849,6,0,P|131:181|173:170,1,79.6949984191361,10|0,0:3|0:0,0:0:0:0:
229,212,122036,1,0,0:0:0:0:
229,212,122099,1,0,0:0:0:0:
202,287,122224,1,0,0:0:0:0:
418,318,122349,6,0,P|423:292|412:316,1,72.9674988866043,10|0,0:0|0:0,0:0:0:0:
434,353,122599,6,0,B|461:331|467:281|421:250|421:250|374:219|380:170|408:148,1,242.707488519391,2|0,1:0|0:0,0:0:0:0:
480,111,123099,1,8,0:0:0:0:
202,43,123349,6,0,P|161:35|100:24,1,79.6949984191361,10|0,0:3|0:0,0:0:0:0:
57,64,123536,1,0,0:0:0:0:
57,64,123599,1,0,0:0:0:0:
31,287,123849,6,0,P|67:318|106:305,1,88.4924989197693,8|0,0:1|0:0,0:0:0:0:
191,266,124099,6,0,B|184:213|106:223|90:304|174:347,1,200.790004748909,6|0,1:0|0:0,0:0:0:0:
398,194,124474,1,0,0:0:0:0:
458,248,124599,2,0,B|433:279|393:273|393:273|437:293|465:265,1,150.592503561682,8|0,0:0|0:0,0:0:0:0:
398,194,124849,2,0,B|390:155|411:125|411:125|370:151|379:190,1,150.592503561682,10|0,0:1|0:0,0:0:0:0:
473,173,125099,5,0,3:0:0:0:
328,46,125224,1,0,3:0:0:0:
281,104,125349,2,0,P|205:116|115:136,1,150.592503561682,0|0,1:0|0:0,0:0:0:0:
54,133,125599,6,0,P|101:100|96:44,1,100.395002374455,2|0,1:0|0:0,0:0:0:0:
225,226,125849,1,0,0:0:0:0:
202,298,125974,2,0,B|236:195|99:229|133:127,1,200.790004748909,8|0,0:0|0:0,0:0:0:0:
0,289,126349,2,0,P|46:258|96:275,1,100.395002374455,10|0,0:1|0:0,0:0:0:0:
134,332,126536,5,0,3:0:0:0:
134,332,126599,1,0,3:0:0:0:
288,256,126724,1,8,0:0:0:0:
345,310,126849,5,0,1:0:0:0:
467,353,126974,1,0,0:0:0:0:
510,288,127099,6,0,P|501:207|494:123,1,150.592503561682,2|0,1:0|0:0,0:0:0:0:
436,90,127349,2,0,P|403:121|338:108,1,100.395002374455,2|0,0:0|0:0,0:0:0:0:
84,35,127599,2,0,P|127:46|148:110,1,100.395002374455,10|0,0:0|0:0,0:0:0:0:
221,337,127849,2,0,P|209:293|253:243,1,100.395002374455,10|0,0:1|0:0,0:0:0:0:
436,90,128099,5,2,3:0:0:0:
327,140,128224,1,8,0:0:0:0:
165,62,128349,1,2,1:0:0:0:
227,120,128474,5,0,3:0:0:0:
227,120,128536,1,0,3:0:0:0:
227,120,128599,2,0,B|186:176|202:255|202:255|183:220|138:214,1,200.790004748909,2|0,3:0|0:0,0:0:0:0:
29,329,128974,2,0,P|58:295|125:304,1,100.395002374455,8|0,0:0|0:0,0:0:0:0:
110,294,129224,1,0,0:0:0:0:
258,377,129349,5,8,0:0:0:0:
213,219,129474,1,8,0:0:0:0:
281,263,129599,5,2,3:0:0:0:
439,200,129724,1,8,0:0:0:0:
461,278,129849,5,8,0:0:0:0:
362,222,129974,1,2,3:0:0:0:
480,42,130099,6,0,B|467:-8|390:10|384:92|473:124,1,200.790004748909,2|0,1:0|0:0,0:0:0:0:
474,124,130474,1,0,0:0:0:0:
248,32,130599,2,0,P|197:25|125:11,1,100.395002374455,8|0,0:0|0:0,0:0:0:0:
18,193,130849,2,0,P|62:135|134:150,1,150.592503561682,8|0,0:1|0:0,0:0:0:0:
177,202,131099,5,0,3:0:0:0:
111,349,131224,1,8,0:0:0:0:
277,335,131349,5,2,1:0:0:0:
197,290,131474,1,2,0:0:0:0:
441,186,131599,6,0,B|340:159|370:282|270:253,1,200.790004748909,2|0,1:0|0:0,0:0:0:0:
471,384,131974,1,8,0:0:0:0:
401,357,132099,2,0,P|413:305|423:254,1,100.395002374455
209,148,132349,2,0,P|258:146|295:185,1,100.395002374455,8|0,0:0|1:0,0:0:0:0:
143,260,132599,5,2,3:0:0:0:
209,148,132724,1,8,0:0:0:0:
59,37,132849,1,0,1:0:0:0:
1,96,132974,5,0,3:0:0:0:
1,96,133036,1,0,3:0:0:0:
1,96,133099,2,0,P|84:71|215:52,1,200.790004748909,2|8,1:0|0:0,0:0:0:0:
309,237,133474,5,0,0:0:0:0:
252,190,133599,2,0,P|259:136|267:87,1,100.395002374455,8|0,0:0|0:0,0:0:0:0:
462,259,133849,2,0,P|411:279|365:297,1,100.395002374455,8|0,0:1|0:0,0:0:0:0:
400,29,134099,2,0,P|443:62|481:93,1,100.395002374455,8|0,0:0|0:0,0:0:0:0:
478,91,134349,1,8,0:0:0:0:
373,167,134474,5,0,3:0:0:0:
373,167,134536,1,0,3:0:0:0:
373,167,134599,2,0,B|280:187|242:113|296:56|334:93,1,200.790004748909,6|0,1:0|0:0,0:0:0:0:
228,206,134974,5,8,0:0:0:0:
161,178,135099,2,0,P|143:133|163:91,1,90.0450007556877,4|0,0:3|0:0,0:0:0:0:
11,241,135349,1,8,0:0:0:0:
75,284,135474,2,0,P|120:272|170:261,1,90.0450007556877,8|8,0:0|0:0,0:0:0:0:
162,262,135724,5,0,3:0:0:0:
276,335,135849,1,0,3:0:0:0:
285,327,135911,2,0,L|370:313,1,79.6949984191361,0|0,3:0|0:0,0:0:0:0:
434,250,136099,6,0,B|496:234|472:141|371:133|333:242|333:242|330:187|274:164,1,335.340008187012,2|0,1:0|0:0,0:0:0:0:
50,46,137849,6,0,P|93:54|116:101,2,76.5900018698731,2|2|2,0:0|0:0|0:0,0:0:0:0:
50,46,138849,5,2,0:0:0:0:
217,180,139099,2,0,B|186:160|186:113|186:113|164:154|127:157,1,153.180003739746,2|0,0:0|0:0,0:0:0:0:
128,156,139849,5,0,0:0:0:0:
147,288,140099,2,0,L|153:253,6,35.1900002147827
147,288,141849,1,2,0:0:0:0:
253,200,142099,6,0,L|329:189,2,58.9949992798462,10|0|0,0:3|0:0|0:0,0:0:0:0:
253,200,142474,1,8,0:0:0:0:
206,142,142599,1,0,0:0:0:0:
229,72,142724,1,8,0:3:0:0:
126,126,142849,6,0,L|50:115,1,58.9949992798462,10|0,0:3|0:0,0:0:0:0:
67,117,143036,1,0,3:0:0:0:
67,117,143099,1,0,3:0:0:0:
27,184,143224,1,8,0:0:0:0:
66,253,143349,1,0,0:0:0:0:
24,313,143474,1,8,0:3:0:0:
155,350,143599,6,0,P|124:338|95:324,2,58.9949992798462,10|0|0,0:3|0:0|0:0,0:0:0:0:
155,350,143974,1,8,0:0:0:0:
223,316,144099,1,0,0:0:0:0:
289,353,144224,1,8,0:3:0:0:
401,296,144349,1,10,0:3:0:0:
402,287,144411,1,0,0:0:0:0:
403,278,144474,2,0,P|419:310|416:344,1,58.9949992798462,0|0,0:0|3:0,0:0:0:0:
418,332,144724,1,8,0:0:0:0:
418,197,144849,2,0,P|451:208|473:235,1,58.9949992798462,2|10,3:0|0:0,0:0:0:0:
318,239,145099,6,0,B|187:272|241:105|111:139|111:139|108:181|173:164,1,335.340008187012,2|0,1:0|0:0,0:0:0:0:
283,71,146849,6,0,P|305:109|292:150,2,76.5900018698731,2|2|2,0:0|0:0|0:0,0:0:0:0:
283,71,147849,5,2,0:0:0:0:
452,117,148099,2,0,L|491:111,5,35.1900002147827,2|0|0|0|0|0,0:0|0:0|0:0|0:0|0:0|0:0,0:0:0:0:
486,111,149599,5,2,0:0:0:0:
483,189,149849,1,2,0:0:0:0:
480,268,150099,1,2,0:0:0:0:
337,166,150349,6,0,L|241:154,1,88.4924989197693,14|0,3:1|0:0,0:0:0:0:
246,146,150599,2,0,L|333:156,1,88.4924989197693,6|0,0:3|0:0,0:0:0:0:
333,147,150849,2,0,L|245:136,1,88.4924989197693,6|0,0:3|0:0,0:0:0:0:
176,87,151099,6,0,B|100:96|100:96|60:101|24:137|30:195|75:220|115:215|115:215|194:205,1,346.724983599129,14|0,0:1|0:0,0:0:0:0:
191,206,151765,5,0,0:0:0:0:
257,262,151849,1,8,0:1:0:0:
454,63,152099,6,0,P|489:38|466:74,1,119.542497628704,6|0,0:3|0:0,0:0:0:0:
368,98,152349,2,0,P|342:85|370:87,1,79.6949984191361,6|0,0:3|0:0,0:0:0:0:
422,159,152536,5,0,0:0:0:0:
416,171,152599,2,0,B|326:200|356:81|266:111,1,180.090001511375,14|8,0:1|0:0,0:0:0:0:
265,111,152974,1,8,0:1:0:0:
97,262,153099,5,0,3:0:0:0:
128,261,153161,1,0,3:0:0:0:
153,241,153224,1,0,3:0:0:0:
110,45,153349,6,0,L|99:135,1,72.9674988866043,4|0,3:0|0:0,0:0:0:0:
167,160,153599,1,6,3:0:0:0:
175,159,153661,1,0,3:0:0:0:
304,251,153787,5,0,3:0:0:0:
298,241,153849,2,0,P|290:222|283:191,1,34.672498359913,2|0,3:0|0:0,0:0:0:0:
257,134,153974,2,0,P|264:114|280:87,1,34.672498359913,0|0,3:0|0:0,0:0:0:0:
393,84,154099,6,0,B|435:54|480:118|431:184|343:150,1,199.23749604784,14|0,0:1|0:0,0:0:0:0:
246,22,154474,6,0,B|201:32|186:87|186:87|167:13|95:0,1,225.112501889219,12|0,0:1|0:0,0:0:0:0:
6,54,154849,6,0,B|-37:183|135:140|92:269,1,250.987505936136,12|0,0:1|0:0,0:0:0:0:
68,362,155224,6,0,B|24:352|18:298|18:298|36:337|80:345,1,166.117494930496,12|0,0:1|0:0,0:0:0:0:
197,326,155474,5,8,0:0:0:0:
197,326,155536,1,8,0:0:0:0:
197,326,155599,2,0,P|258:308|391:288,1,181.642500692911,12|0,0:1|0:0,0:0:0:0:
448,336,155849,6,0,B|538:303|531:219|454:200|441:252,1,197.167498495731,12|0,0:1|0:0,0:0:0:0:
374,289,156099,6,0,B|279:255|286:167|367:147|380:201,1,212.692506004046,12|0,0:1|0:0,0:0:0:0:
443,247,156349,5,10,3:1:0:0:
178,54,156599,5,2,0:0:0:0:
178,54,156849,5,2,0:0:0:0:
178,54,157099,6,0,B|215:165|68:128|105:239,1,221.489993240662,6|0,1:0|0:0,0:0:0:0:
332,278,157474,1,0,1:0:0:0:
332,278,157536,1,0,1:0:0:0:
332,278,157599,2,0,P|286:262|238:251,1,88.4924989197693,8|0,0:0|0:0,0:0:0:0:
179,216,157849,5,6,3:0:0:0:
179,216,158099,2,0,L|297:194,1,110.744996620331,2|0,1:0|0:0,0:0:0:0:
447,38,158349,6,0,P|413:72|429:119,1,88.4924989197693,10|0,0:0|0:0,0:0:0:0:
501,153,158599,6,0,B|456:147|435:96|435:96|425:170|357:192,1,221.489993240662,2|0,1:0|0:0,0:0:0:0:
358,192,158974,1,0,1:0:0:0:
241,17,159099,2,0,P|272:64|246:123,1,110.744996620331,8|0,0:0|0:0,0:0:0:0:
257,112,159349,5,2,1:0:0:0:
69,226,159474,1,0,3:0:0:0:
58,223,159536,1,0,3:0:0:0:
46,221,159599,1,2,3:0:0:0:
9,138,159724,1,0,0:0:0:0:
253,203,159849,6,0,P|253:251|209:286,1,88.4924989197693,10|0,0:0|0:0,0:0:0:0:
138,278,160099,6,0,B|248:241|211:388|322:351,1,221.489993240662,6|0,1:0|0:0,0:0:0:0:
322,351,160474,1,0,1:0:0:0:
493,131,160599,2,0,B|467:166|493:217|493:217|462:188|424:197,1,166.117494930496,8|0,0:0|0:0,0:0:0:0:
352,225,160849,2,0,P|318:183|334:122,1,110.744996620331,2|0,1:0|3:0,0:0:0:0:
407,121,161036,5,0,3:0:0:0:
407,121,161099,1,0,3:0:0:0:
281,56,161224,1,2,0:0:0:0:
97,200,161349,6,0,P|94:168|108:196,1,88.4924989197693,10|0,0:0|0:0,0:0:0:0:
100,186,161599,6,0,B|1:150|8:58|93:37|107:94,1,221.489993240662,2|0,1:0|0:0,0:0:0:0:
106,93,161974,1,2,1:0:0:0:
301,303,162099,6,0,P|340:286|393:277,1,88.4924989197693,10|0,0:0|0:0,0:0:0:0:
453,311,162349,5,2,1:0:0:0:
299,180,162474,1,0,3:0:0:0:
297,171,162536,1,0,3:0:0:0:
296,160,162599,1,0,3:0:0:0:
358,114,162724,1,0,0:0:0:0:
167,302,162849,6,0,P|127:285|74:276,1,88.4924989197693,8|0,0:1|0:0,0:0:0:0:
39,355,163099,6,0,B|1:243|150:280|113:169,1,221.489993240662,2|0,1:0|0:0,0:0:0:0:
113,170,163474,1,2,1:0:0:0:
263,125,163599,1,10,0:0:0:0:
320,179,163724,5,2,0:0:0:0:
470,224,163849,1,2,1:0:0:0:
470,224,164099,6,0,L|459:324,1,88.4924989197693,0|0,3:3|0:0,0:0:0:0:
400,363,164349,5,2,0:0:0:0:
272,54,164599,6,0,B|326:76|326:141|326:141|342:78|400:69,1,221.489993240662,2|0,1:0|0:0,0:0:0:0:
13,56,165349,5,2,1:0:0:0:
46,125,165474,1,0,3:0:0:0:
55,128,165536,1,0,3:0:0:0:
65,131,165599,1,2,3:0:0:0:
245,59,165724,1,0,3:0:0:0:
177,33,165849,5,10,0:1:0:0:
77,230,165974,1,8,0:3:0:0:
130,289,166099,6,0,P|208:306|357:355,1,221.489993240662,2|0,1:0|0:0,0:0:0:0:
342,349,166474,1,0,1:0:0:0:
219,133,166599,2,0,P|247:179|221:233,1,110.744996620331,8|0,0:0|0:0,0:0:0:0:
227,228,166849,5,0,1:0:0:0:
392,95,166974,1,0,3:0:0:0:
402,97,167036,1,0,3:0:0:0:
413,100,167099,1,0,3:0:0:0:
456,167,167224,1,0,0:0:0:0:
238,33,167349,6,0,P|196:41|133:54,1,88.4924989197693,10|0,0:0|0:0,0:0:0:0:
57,33,167599,6,0,B|71:-23|156:-2|163:89|64:125,1,221.489993240662,2|0,1:0|0:0,0:0:0:0:
65,124,167974,1,0,1:0:0:0:
39,315,168099,5,10,0:0:0:0:
210,235,168224,1,2,0:0:0:0:
352,358,168349,1,2,1:0:0:0:
308,295,168474,1,0,3:0:0:0:
306,284,168536,1,0,3:0:0:0:
305,272,168599,1,0,3:0:0:0:
356,216,168724,1,0,0:0:0:0:
166,92,168849,6,0,P|183:64|174:95,1,88.4924989197693,8|0,0:1|0:0,0:0:0:0:
147,166,169099,5,12,0:1:0:0:
350,34,169224,2,0,B|461:43|461:43|433:47|414:70,1,166.117494930496,8|0,0:1|0:0,0:0:0:0:
474,116,169474,5,8,0:1:0:0:
252,218,169599,2,0,P|247:186|263:214,1,88.4924989197693,8|0,0:1|0:0,0:0:0:0:
305,281,169849,5,6,3:0:0:0:
305,281,170099,2,0,P|334:269|374:277,1,58.9949992798462,2|0,1:0|0:0,0:0:0:0:
217,330,170349,6,0,P|180:309|127:320,1,88.4924989197693,10|0,0:0|0:0,0:0:0:0:
93,381,170599,6,0,B|129:270|-17:307|19:196,1,221.489993240662,2|0,1:0|0:0,0:0:0:0:
19,196,170974,1,0,1:0:0:0:
206,76,171099,6,0,P|162:105|99:85,1,110.744996620331,8|0,0:0|0:0,0:0:0:0:
108,92,171349,5,2,1:0:0:0:
315,20,171474,1,0,3:0:0:0:
317,31,171537,1,0,3:0:0:0:
319,42,171599,1,2,3:0:0:0:
280,117,171724,1,0,0:0:0:0:
476,302,171849,6,0,L|377:274,1,88.4924989197693,10|0,0:0|0:0,0:0:0:0:
317,348,172099,6,0,B|275:303|317:241|317:241|295:296|341:341,1,221.489993240662,6|0,1:0|0:0,0:0:0:0:
338,338,172474,1,0,1:0:0:0:
89,188,172599,2,0,P|137:216|144:274,1,110.744996620331,8|0,0:0|0:0,0:0:0:0:
322,111,172849,2,0,P|300:160|248:175,1,110.744996620331,2|0,1:0|3:0,0:0:0:0:
179,134,173036,5,0,3:0:0:0:
179,134,173099,1,0,3:0:0:0:
300,35,173224,1,2,0:0:0:0:
483,134,173349,6,0,P|472:176|463:220,1,88.4924989197693,10|0,0:0|0:0,0:0:0:0:
450,306,173599,6,0,P|429:187|397:71,1,221.489993240662,2|0,1:0|0:0,0:0:0:0:
402,89,173974,1,2,1:0:0:0:
229,283,174099,6,0,P|268:256|319:265,1,88.4924989197693,10|0,0:0|0:0,0:0:0:0:
369,309,174349,5,2,1:0:0:0:
216,382,174474,1,0,3:0:0:0:
217,373,174536,1,0,3:0:0:0:
218,362,174599,1,0,3:0:0:0:
158,314,174724,1,0,0:0:0:0:
295,101,174849,6,0,L|191:122,1,88.4924989197693,8|0,0:1|0:0,0:0:0:0:
117,96,175099,6,0,B|131:38|217:60|224:153|124:188,1,221.489993240662,2|0,1:0|0:0,0:0:0:0:
27,45,175474,1,2,1:0:0:0:
29,35,175537,1,0,1:0:0:0:
30,25,175599,1,10,0:0:0:0:
117,96,175724,1,2,0:0:0:0:
255,19,175849,5,2,1:0:0:0:
255,19,176099,5,0,0:0:0:0:
255,19,176349,1,2,0:0:0:0:
454,172,176599,6,0,B|498:131|466:67|466:67|477:124|430:162,1,221.489993240662,2|0,1:0|0:0,0:0:0:0:
430,162,177349,5,2,1:0:0:0:
373,215,177474,1,0,3:0:0:0:
374,224,177536,1,0,3:0:0:0:
376,235,177599,1,2,3:0:0:0:
458,367,177724,1,0,3:0:0:0:
499,301,177849,5,10,0:0:0:0:
305,373,177974,1,8,0:3:0:0:
274,290,178099,6,0,B|337:297|325:393|226:413|174:310,1,221.489993240662,2|0,1:0|0:0,0:0:0:0:
186,329,178474,1,0,1:0:0:0:
30,80,178599,2,0,P|62:128|35:193,1,110.744996620331,8|0,0:0|0:0,0:0:0:0:
50,176,178849,5,0,1:0:0:0:
201,39,178974,1,0,3:0:0:0:
212,40,179036,1,0,3:0:0:0:
223,42,179099,1,0,3:0:0:0:
261,109,179224,1,0,0:0:0:0:
473,50,179349,6,0,P|477:20|470:49,1,88.4924989197693,10|0,0:0|0:0,0:0:0:0:
390,59,179599,6,0,P|424:158|438:283,1,221.489993240662,2|0,1:0|0:0,0:0:0:0:
437,273,179974,1,0,1:0:0:0:
214,147,180099,6,0,P|264:176|315:203,1,110.744996620331,8|0,0:0|0:0,0:0:0:0:
196,15,180349,2,0,P|147:41|100:69,1,110.744996620331,2|0,1:0|3:0,0:0:0:0:
71,143,180536,1,0,3:0:0:0:
71,143,180599,1,0,3:0:0:0:
139,185,180724,1,0,0:0:0:0:
0,373,180849,6,0,L|24:270,1,88.4924989197693,10|0,0:1|0:0,0:0:0:0:
68,229,181099,5,14,0:1:0:0:
224,316,181224,2,0,P|156:355|94:292,1,166.117494930496,8|0,1:0|0:0,0:0:0:0:
68,229,181474,5,8,0:1:0:0:
317,214,181599,2,0,B|304:318|304:318|304:283|284:262,1,166.117494930496,8|0,0:1|0:0,0:0:0:0:
211,232,181849,5,6,3:0:0:0:
376,44,182099,6,0,L|492:60,1,117.989998559692,8|4,0:3|3:3,0:0:0:0:
492,60,182599,5,14,0:1:0:0:
247,146,182724,2,0,B|207:126|214:72|214:72|221:116|261:133,1,166.117494930496,10|0,0:1|0:0,0:0:0:0:
288,62,182974,5,10,0:1:0:0:
427,268,183099,2,0,B|466:248|459:194|459:194|452:238|412:255,1,166.117494930496,10|0,0:1|0:0,0:0:0:0:
385,184,183349,5,0,1:0:0:0:
321,231,183474,1,0,3:0:0:0:
323,240,183536,1,0,3:0:0:0:
324,248,183599,1,10,0:0:0:0:
271,308,183724,1,0,0:0:0:0:
206,260,183849,1,10,0:0:0:0:
41,289,184099,6,0,B|-15:295|-5:381|83:399|129:306|129:306|116:336|127:366,1,276.862491550827,6|0,1:0|0:0,0:0:0:0:
198,341,184474,1,0,1:0:0:0:
135,194,184599,2,0,P|193:217|201:278,1,110.744996620331,10|0,0:0|0:0,0:0:0:0:
297,51,184849,6,0,P|350:65|405:75,1,110.744996620331,2|0,1:0|3:0,0:0:0:0:
471,37,185036,1,0,3:0:0:0:
471,37,185099,1,0,3:0:0:0:
507,109,185224,1,0,0:0:0:0:
393,224,185349,6,0,P|360:189|355:147,1,88.4924989197693,10|0,0:0|0:0,0:0:0:0:
438,156,185599,6,0,B|463:268|341:226|361:347,1,221.489993240662,2|0,1:0|0:0,0:0:0:0:
466,344,185974,1,0,1:0:0:0:
466,344,186036,1,0,1:0:0:0:
466,344,186099,2,0,P|449:308|450:347,1,110.744996620331,8|0,0:0|0:0,0:0:0:0:
189,364,186349,6,0,P|138:349|82:337,1,110.744996620331,2|0,1:0|3:0,0:0:0:0:
13,370,186536,1,0,3:0:0:0:
13,370,186599,1,0,3:0:0:0:
142,274,186724,1,0,0:0:0:0:
0,105,186849,6,0,P|31:141|82:138,1,88.4924989197693,8|0,0:1|0:0,0:0:0:0:
118,86,187099,5,14,0:1:0:0:
358,198,187224,2,0,B|396:175|390:126|390:126|409:172|453:174,1,166.117494930496
462,99,187474,5,2,1:0:0:0:
304,265,187599,2,0,B|266:242|271:193|271:193|253:239|208:241,1,166.117494930496,10|0,0:1|0:0,0:0:0:0:
140,204,187849,6,0,P|135:182|201:164,1,111.780002729004,0|0,1:0|0:0,0:0:0:0:
201,164,188599,5,2,1:0:0:0:
46,278,188724,1,2,0:0:0:0:
46,278,188974,5,2,0:0:0:0:
10,112,189099,1,2,0:0:0:0:
10,112,189349,6,0,L|108:128,1,90.0450007556877,4|0,0:3|0:0,0:0:0:0:
147,192,189536,1,0,3:0:0:0:
147,192,189599,1,2,3:0:0:0:
182,261,189724,1,0,0:0:0:0:
285,148,189849,6,0,P|238:161|231:209,1,88.4924989197693,10|0,0:0|0:0,0:0:0:0:
260,265,190099,6,0,P|340:230|478:203,1,221.489993240662,6|0,1:0|0:0,0:0:0:0:
471,203,190474,1,0,1:0:0:0:
366,37,190599,2,0,P|353:90|339:157,1,110.744996620331,10|0,0:0|0:0,0:0:0:0:
211,327,190849,6,0,P|179:275|191:222,1,110.744996620331,2|0,1:0|3:0,0:0:0:0:
254,181,191036,1,0,3:0:0:0:
254,181,191099,1,0,3:0:0:0:
169,156,191224,1,0,0:0:0:0:
8,277,191349,6,0,P|50:247|48:205,1,88.4924989197693,10|0,0:0|0:0,0:0:0:0:
16,147,191599,6,0,B|63:53|153:71|163:158|106:165,1,221.489993240662,2|0,1:0|0:0,0:0:0:0:
106,165,191974,1,0,1:0:0:0:
386,291,192099,2,0,P|312:258|255:325,1,166.117494930496,8|0,0:0|0:0,0:0:0:0:
197,358,192349,6,0,P|204:291|228:246,1,110.744996620331,0|0,1:0|3:0,0:0:0:0:
208,179,192536,1,0,3:0:0:0:
208,179,192599,1,0,3:0:0:0:
129,209,192724,1,0,3:0:0:0:
8,64,192849,6,0,L|84:80,1,72.9674988866043,8|0,0:1|0:0,0:0:0:0:
158,92,193099,5,2,1:0:0:0:
232,45,193224,1,0,1:0:0:0:
161,105,193349,1,0,0:0:0:0:
248,180,193474,2,0,P|287:173|329:168,2,79.6949984191361,0|8|0,1:0|0:0|0:0,0:0:0:0:
396,70,193849,5,14,0:0:0:0:
448,141,193974,1,0,0:0:0:0:
404,59,194099,1,0,1:0:0:0:
459,148,194224,2,0,P|451:190|444:239,2,79.6949984191361,0|8|0,0:0|0:0|0:0,0:0:0:0:
345,254,194599,5,2,1:0:0:0:
418,318,194724,1,0,0:0:0:0:
334,259,194849,1,0,0:0:0:0:
240,355,194974,2,0,P|201:365|158:380,2,79.6949984191361,0|8|0,1:0|0:0|0:0,0:0:0:0:
53,362,195349,6,0,P|64:321|74:277,1,79.6949984191361,2|0,1:0|0:0,0:0:0:0:
32,221,195536,1,0,0:0:0:0:
32,221,195599,2,0,P|52:212|80:209,1,39.847499209568
83,134,195724,2,0,P|103:141|125:158,1,39.847499209568
150,222,195849,5,8,0:0:0:0:
241,175,195974,1,0,0:0:0:0:
351,248,196099,6,0,P|361:209|374:171,2,79.6949984191361,6|0|0,1:0|0:0|0:0,0:0:0:0:
351,248,196474,1,0,1:0:0:0:
484,180,196599,2,0,P|471:142|461:104,1,79.6949984191361,8|0,0:0|0:0,0:0:0:0:
378,26,196849,5,2,1:0:0:0:
321,77,196974,1,0,0:0:0:0:
313,79,197036,1,0,0:0:0:0:
305,81,197099,1,0,1:0:0:0:
164,20,197224,2,0,P|199:37|216:80,2,79.6949984191361,0|8|0,0:0|0:0|0:0,0:0:0:0:
40,74,197599,5,2,1:0:0:0:
120,137,197724,1,0,0:0:0:0:
28,81,197849,1,0,0:0:0:0:
6,205,197974,2,0,P|18:252|29:299,2,79.6949984191361,0|8|0,1:0|0:0|0:0,0:0:0:0:
148,352,198349,6,0,P|179:318|222:306,1,79.6949984191361,2|0,1:0|0:0,0:0:0:0:
209,306,198536,1,0,0:0:0:0:
209,306,198599,1,0,1:0:0:0:
287,363,198724,1,0,0:0:0:0:
369,247,198849,5,8,0:1:0:0:
299,281,198974,1,0,0:0:0:0:
468,352,199099,6,0,P|454:313|441:268,2,79.6949984191361,6|0|0,1:0|0:0|0:0,0:0:0:0:
468,352,199474,1,0,1:0:0:0:
507,201,199599,2,0,P|465:191|421:179,1,79.6949984191361,8|0,0:0|0:0,0:0:0:0:
324,65,199849,1,2,1:0:0:0:
393,31,200036,5,0,3:0:0:0:
390,38,200099,2,0,P|367:59|320:54,1,58.9949992798462,4|0,0:3|0:0,0:0:0:0:
201,6,200349,2,0,P|227:17|246:40,1,58.9949992798462
74,112,200599,2,0,P|64:74|50:33,1,79.6949984191361,2|0,1:0|0:0,0:0:0:0:
179,79,200849,5,0,0:0:0:0:
174,82,200911,2,0,P|146:147|126:256,1,176.984997839539
126,250,201349,1,4,0:3:0:0:
208,340,201474,1,0,3:0:0:0:
208,340,201536,1,0,3:0:0:0:
208,340,201599,2,0,L|293:321,1,79.6949984191361,2|0,3:0|0:0,0:0:0:0:
285,322,201786,1,0,0:0:0:0:
285,322,201849,1,0,3:0:0:0:
358,380,201974,1,0,0:0:0:0:
445,252,202099,6,0,P|452:212|463:170,1,79.6949984191361,2|0,1:0|0:0,0:0:0:0:
461,174,202349,1,0,0:0:0:0:
331,85,202474,2,0,P|366:109|408:100,2,79.6949984191361,0|8|0,1:0|0:0|0:0,0:0:0:0:
225,42,202849,5,2,1:0:0:0:
130,84,202974,1,0,0:0:0:0:
216,33,203099,1,0,0:0:0:0:
276,160,203224,2,0,P|268:199|263:238,2,79.6949984191361,0|8|0,0:0|0:0|0:0,0:0:0:0:
162,268,203599,6,0,P|112:211|20:224,1,159.389996838272,2|0,1:0|0:0,0:0:0:0:
33,214,203974,1,0,1:0:0:0:
13,321,204099,5,10,0:0:0:0:
109,382,204224,1,2,0:0:0:0:
203,323,204349,1,10,0:0:0:0:
324,351,204474,5,0,0:0:0:0:
328,357,204536,1,2,0:0:0:0:
340,370,204599,2,0,L|426:357,1,79.6949984191361,10|0,0:0|0:0,0:0:0:0:
418,358,204786,5,2,0:0:0:0:
418,358,204849,2,0,L|504:345,1,79.6949984191361,10|8,0:0|0:0,0:0:0:0:
252,244,205099,6,0,B|272:321|233:390|177:378|177:378|120:364|120:283|177:217|177:217|92:236|21:199|35:141|35:141|49:85|129:85|196:141|196:141|177:56|214:-14|272:0|272:0|328:14|328:94|272:160|272:160|357:141|428:179|413:236|413:236|399:293|319:293|257:243|257:243,1,1513.17000923566,2|0,0:0|0:0,0:0:0:0:
