osu file format v14

[General]
AudioFilename: audio.mp3
AudioLeadIn: 0
PreviewTime: 216243
Countdown: 1
SampleSet: Soft
StackLeniency: 0.7
Mode: 0
LetterboxInBreaks: 0
WidescreenStoryboard: 0

[Editor]
Bookmarks: 25368,38118,50118,68118,74118,86118,117618,141618,146118,165618,167118,186618,192618,216618,243618,257118
DistanceSpacing: 0.82
BeatDivisor: 4
GridSize: 16
TimelineZoom: 1.1

[Metadata]
Title:Hitogawari
TitleUnicode:ヒトガワリ
Artist:KikuoHana
ArtistUnicode:きくおはな
Creator:Thexo
Version:leave me bleeding
Source:
Tags:act 2 dainimaku hanatan kikuo
BeatmapID:1808607
BeatmapSetID:864871

[Difficulty]
HPDrainRate:7
CircleSize:4
OverallDifficulty:7.3
ApproachRate:9
SliderMultiplier:2.3
SliderTickRate:1

[Events]
//Background and Video events
0,0,"6163457_p0.jpg",0,0
//Break Periods
2,67994,76569
2,248368,249618
//Storyboard Layer 0 (Background)
//Storyboard Layer 1 (Fail)
//Storyboard Layer 2 (Pass)
//Storyboard Layer 3 (Foreground)
//Storyboard Sound Samples

[TimingPoints]
669,375,4,2,0,65,1,0
50169,-1000,4,2,0,65,0,0
52794,-133.333333333333,4,2,0,65,0,0
56169,-1000,4,2,0,65,0,0
58794,-133.333333333333,4,2,0,65,0,0
62169,-1000,4,2,0,65,0,0
64794,-133.333333333333,4,2,0,65,0,0
77169,-100,4,2,0,35,0,0
77731,-200,4,2,0,35,0,0
78669,-100,4,2,0,35,0,0
80169,-500,4,2,0,35,0,0
85794,-250,4,2,0,65,0,0
86169,-80,4,2,0,65,0,0
92169,-100,4,2,0,65,0,0
92919,-80,4,2,0,65,0,0
112419,-200,4,2,0,65,0,0
113544,-1000,4,2,0,65,0,0
117669,-200,4,2,0,40,0,0
136419,-166.666666666667,4,2,0,45,0,0
137169,-142.857142857143,4,2,0,55,0,0
138669,-333.333333333333,4,2,0,65,0,0
141669,-66.6666666666667,4,2,0,65,0,0
143169,-100,4,2,0,65,0,0
143919,-66.6666666666667,4,2,0,65,0,0
147669,-1000,4,2,0,65,0,0
148419,-66.6666666666667,4,2,0,65,0,0
149169,-1000,4,2,0,65,0,0
149919,-80,4,2,0,65,0,0
150856,-500,4,2,0,65,0,0
151044,-80,4,2,0,65,0,0
151419,-50,4,2,0,65,0,0
151794,-500,4,2,0,65,0,0
152169,-50,4,2,0,65,0,0
152544,-66.6666666666667,4,2,0,65,0,0
152919,-100,4,2,0,65,0,0
153294,-333.333333333333,4,2,0,65,0,0
153669,-500,4,2,0,65,0,0
154419,-133.333333333333,4,2,0,65,0,0
155169,-500,4,2,0,65,0,0
155919,-181.818181818181,4,2,0,65,0,0
156669,-1000,4,2,0,65,0,0
157419,-133.333333333333,4,2,0,65,0,0
158169,-100,4,2,0,65,0,0
159669,-1000,4,2,0,65,0,0
160419,-111.111111111111,4,2,0,65,0,0
161169,-1000,4,2,0,65,0,0
161919,-80,4,2,0,65,0,0
165294,-500,4,2,0,65,0,0
167169,-80,4,2,0,65,0,0
179919,-66.6666666666667,4,2,0,65,0,0
180669,-80,4,2,0,65,0,0
185169,-133.333333333333,4,2,0,65,0,0
185919,-80,4,2,0,65,0,0
216669,-80,4,2,0,65,0,1
218919,-66.6666666666667,4,2,0,65,0,1
230919,-58.8235294117647,4,2,0,65,0,1
231294,-66.6666666666667,4,2,0,65,0,1
240669,-66.6666666666667,4,2,0,65,0,0
246294,-100,4,2,0,65,0,0
246669,-200,4,2,0,65,0,0
247044,-1000,4,2,0,20,0,0

[Colours]
Combo1 : 235,1,7
Combo2 : 82,88,82
Combo3 : 109,37,37

[HitObjects]
57,102,26169,6,0,P|111:84|168:78,1,115,4|0,0:0|0:0,0:0:0:0:
343,218,26731,1,0,0:0:0:0:
370,143,26919,2,0,L|363:29,1,115,8|0,0:0|0:0,0:0:0:0:
244,282,27481,1,2,0:0:0:0:
288,351,27669,6,0,P|342:368|399:374,1,115
488,114,28231,1,0,0:0:0:0:
454,181,28419,2,0,L|446:295,1,115,8|0,0:0|0:0,0:0:0:0:
160,370,28981,1,0,0:0:0:0:
170,363,29075,1,0,0:0:0:0:
179,356,29169,22,0,P|201:274|194:239,1,115
43,84,29731,1,0,0:0:0:0:
29,160,29919,2,0,L|36:274,1,115,8|0,0:0|0:0,0:0:0:0:
36,274,30481,1,2,0:0:0:0:
237,49,30669,5,2,0:0:0:0:
196,229,30856,2,8,P|250:246|307:252,1,115
376,211,31231,1,2,0:0:0:0:
224,128,31419,1,8,0:0:0:0:
393,206,31606,1,8,0:0:0:0:
322,96,31794,1,8,0:0:0:0:
338,329,31981,1,2,0:0:0:0:
220,384,32169,22,0,P|162:378|108:360,1,115,2|0,0:0|0:0,0:0:0:0:
65,123,32731,1,0,0:0:0:0:
32,196,32919,2,0,L|39:310,1,115,8|0,0:0|0:0,0:0:0:0:
268,316,33481,1,2,0:0:0:0:
210,261,33669,6,0,P|192:206|186:149,1,115,2|0,0:0|0:0,0:0:0:0:
327,1,34231,1,0,0:0:0:0:
362,73,34419,2,0,L|354:187,1,115,8|0,0:0|0:0,0:0:0:0:
483,377,34981,1,0,0:0:0:0:
471,363,35075,1,0,0:0:0:0:
461,350,35169,22,0,P|449:279|455:227,1,115,2|0,0:0|0:0,0:0:0:0:
389,84,35731,1,0,0:0:0:0:
357,159,35919,2,0,L|349:273,1,115,8|0,0:0|0:0,0:0:0:0:
348,273,36481,1,2,0:0:0:0:
128,109,36669,5,2,0:0:0:0:
196,237,36856,2,8,P|212:167|202:123,1,115
137,32,37231,1,2,0:0:0:0:
105,184,37419,1,8,0:0:0:0:
186,315,37606,1,8,0:0:0:0:
192,233,37794,1,8,0:0:0:0:
73,372,37981,1,2,0:0:0:0:
272,278,38169,22,0,P|331:261|394:265,1,115,2|0,0:0|0:0,0:0:0:0:
449,311,38544,1,0,0:0:0:0:
378,349,38731,1,0,0:0:0:0:
448,203,38919,1,8,0:0:0:0:
506,257,39106,1,0,0:0:0:0:
448,203,39294,1,0,0:0:0:0:
272,278,39481,1,2,0:0:0:0:
260,200,39669,6,0,P|258:138|274:73,1,115,2|0,0:0|0:0,0:0:0:0:
345,33,40044,1,0,0:0:0:0:
353,125,40231,1,0,0:0:0:0:
202,38,40419,1,8,0:0:0:0:
196,22,40513,1,0,0:0:0:0:
191,6,40606,1,0,0:0:0:0:
353,125,40794,1,0,0:0:0:0:
165,213,40981,1,0,0:0:0:0:
136,225,41075,1,0,0:0:0:0:
116,248,41169,22,0,P|108:324|121:371,1,115,2|0,0:0|0:0,0:0:0:0:
236,384,41544,2,0,P|244:308|231:261,1,115
148,133,41919,1,8,0:0:0:0:
148,133,42012,1,0,0:0:0:0:
148,133,42106,1,0,0:0:0:0:
235,271,42294,2,0,P|291:281|347:271,1,115,0|2,0:0|0:0,0:0:0:0:
435,192,42669,5,2,0:0:0:0:
402,363,42856,1,8,0:0:0:0:
347,271,43044,1,8,0:0:0:0:
402,363,43231,1,2,0:0:0:0:
327,157,43419,1,8,0:0:0:0:
125,239,43606,1,8,0:0:0:0:
198,296,43794,1,8,0:0:0:0:
188,114,43981,1,2,0:0:0:0:
106,30,44169,22,0,P|81:90|82:164,1,115,2|0,0:0|0:0,0:0:0:0:
192,14,44544,1,0,0:0:0:0:
117,212,44731,1,0,0:0:0:0:
287,89,44919,2,0,L|418:85,1,115,8|0,0:0|0:0,0:0:0:0:
486,54,45294,1,0,0:0:0:0:
268,6,45481,1,2,0:0:0:0:
332,174,45669,6,0,P|328:253|311:306,1,115,2|0,0:0|0:0,0:0:0:0:
183,382,46044,2,0,P|187:303|204:250,1,115
256,163,46419,1,8,0:0:0:0:
256,163,46512,1,0,0:0:0:0:
256,163,46606,1,0,0:0:0:0:
271,362,46794,1,0,0:0:0:0:
111,238,46981,1,0,0:0:0:0:
102,216,47075,1,0,0:0:0:0:
93,194,47169,22,0,L|101:63,1,115,2|0,0:0|0:0,0:0:0:0:
256,163,47544,2,0,L|263:277,1,115
162,15,47919,1,8,0:0:0:0:
162,15,48012,1,0,0:0:0:0:
162,15,48106,1,0,0:0:0:0:
178,177,48294,1,2,0:0:0:0:
178,177,48481,1,2,0:0:0:0:
234,81,48669,5,2,0:0:0:0:
473,107,48856,1,8,0:0:0:0:
401,27,49044,1,8,0:0:0:0:
374,114,49231,1,2,0:0:0:0:
487,266,49419,1,8,0:0:0:0:
490,20,49606,1,8,0:0:0:0:
296,145,49794,1,8,0:0:0:0:
388,112,49981,1,2,0:0:0:0:
408,308,50169,22,0,P|350:299|313:230,1,138,8|8,0:0|0:0,0:0:0:0:
147,217,52794,6,0,P|203:204|245:206,1,86.2500032901765
351,333,53169,2,0,P|295:346|253:344,1,86.2500032901765,2|0,0:0|0:0,0:0:0:0:
139,302,53544,2,0,L|147:200,1,86.2500032901765
271,25,53919,2,0,L|279:126,1,86.2500032901765,8|0,0:0|0:0,0:0:0:0:
337,164,54294,1,0,0:0:0:0:
432,54,54481,1,2,0:0:0:0:
184,16,54669,22,0,P|140:17|99:28,1,86.2500032901765,2|8,0:0|0:0,0:0:0:0:
45,85,55044,1,8,0:0:0:0:
60,273,55231,1,2,0:0:0:0:
222,201,55419,1,8,0:0:0:0:
222,201,55512,1,0,0:0:0:0:
222,201,55606,1,0,0:0:0:0:
26,162,55794,1,0,0:0:0:0:
104,381,55981,1,2,0:0:0:0:
216,348,56169,6,0,L|358:335,1,138,2|8,0:0|0:0,0:0:0:0:
462,181,58794,22,0,L|458:279,1,86.2500032901765
345,122,59169,2,0,L|341:35,1,86.2500032901765,2|0,0:0|0:0,0:0:0:0:
410,0,59544,1,0,0:0:0:0:
442,70,59731,1,0,0:0:0:0:
276,171,59919,1,8,0:0:0:0:
276,171,60012,1,0,0:0:0:0:
276,171,60106,1,0,0:0:0:0:
241,99,60294,1,0,0:0:0:0:
446,150,60481,1,2,0:0:0:0:
417,227,60669,6,0,P|375:238|332:239,1,86.2500032901765,2|8,0:0|0:0,0:0:0:0:
198,201,61044,2,0,P|154:202|113:213,1,86.2500032901765,8|2,0:0|0:0,0:0:0:0:
77,284,61419,1,8,0:0:0:0:
77,284,61512,1,0,0:0:0:0:
77,284,61606,1,0,0:0:0:0:
254,272,61794,1,0,0:0:0:0:
194,190,61981,1,2,0:0:0:0:
64,146,62169,22,0,P|29:100|65:38,1,138,2|8,0:0|0:0,0:0:0:0:
207,116,64794,6,0,P|214:172|211:208,1,86.2500032901765
149,369,65169,2,0,P|142:313|145:277,1,86.2500032901765,2|0,0:0|0:0,0:0:0:0:
217,208,65544,1,0,0:0:0:0:
160,377,65731,1,0,0:0:0:0:
207,116,65919,22,0,L|302:123,1,86.2500032901765,8|0,0:0|0:0,0:0:0:0:
361,182,66294,1,0,0:0:0:0:
303,247,66481,1,2,0:0:0:0:
400,302,66669,6,0,L|486:295,1,86.2500032901765,2|8,0:0|0:0,0:0:0:0:
506,218,67044,1,8,0:0:0:0:
506,218,67231,1,2,0:0:0:0:
473,62,67419,2,0,P|463:104|466:147,1,86.2500032901765,8|8,0:0|0:0,0:0:0:0:
512,364,67794,1,0,0:0:0:0:
85,174,77169,22,0,P|142:168|195:147,1,115
295,80,77731,6,0,P|287:37|169:48,1,172.5
275,269,78669,22,0,P|263:344|235:388,2,115
135,94,79981,5,0,0:0:0:0:
269,156,80169,22,0,P|319:151|451:100,1,184
256,192,83169,12,0,84669,0:0:0:0:
446,273,85794,6,0,P|416:286|363:291,1,69
277,266,86169,6,0,B|204:282|204:282|123:335,2,143.75,4|0|0,0:0|0:0|0:0,0:0:0:0:
444,358,86731,1,0,0:0:0:0:
352,196,86919,2,0,L|360:42,1,143.75,8|0,0:0|0:0,0:0:0:0:
444,15,87294,1,0,0:0:0:0:
262,181,87481,1,2,0:0:0:0:
55,30,87669,22,0,P|208:32|328:136,1,287.5,2|0,0:0|0:0,0:0:0:0:
352,233,88231,1,0,0:0:0:0:
155,148,88419,1,8,0:0:0:0:
155,148,88512,1,0,0:0:0:0:
155,148,88606,1,0,0:0:0:0:
50,303,88794,1,0,0:0:0:0:
323,366,88981,1,0,0:0:0:0:
297,321,89075,1,0,0:0:0:0:
255,297,89169,6,0,P|237:229|246:155,1,143.75,2|0,0:0|0:0,0:0:0:0:
66,24,89544,2,0,P|124:67|193:87,1,143.75
405,142,89919,2,0,P|347:99|279:80,1,143.75,8|0,0:0|0:0,0:0:0:0:
164,165,90294,1,0,0:0:0:0:
346,221,90481,1,2,0:0:0:0:
366,24,90669,21,2,0:0:0:0:
411,264,90856,1,8,0:0:0:0:
240,110,91044,1,8,0:0:0:0:
240,110,91231,1,2,0:0:0:0:
431,96,91419,5,8,0:0:0:0:
386,336,91606,1,8,0:0:0:0:
431,96,91794,1,0,0:0:0:0:
486,249,91981,1,2,0:0:0:0:
252,191,92169,22,0,P|194:191|138:205,2,115,2|0|0,0:0|0:0|0:0,0:0:0:0:
340,278,92731,1,0,0:0:0:0:
102,295,92919,6,0,P|40:234|64:155,1,143.75,8|0,0:0|0:0,0:0:0:0:
101,100,93294,1,0,0:0:0:0:
180,274,93481,1,2,0:0:0:0:
338,191,93669,22,0,B|400:140|400:140|427:77,2,143.75,2|0|0,0:0|0:0|0:0,0:0:0:0:
255,212,94231,1,0,0:0:0:0:
395,4,94419,1,8,0:0:0:0:
482,152,94606,1,0,0:0:0:0:
309,72,94794,1,0,0:0:0:0:
421,318,94981,1,0,0:0:0:0:
416,331,95075,1,0,0:0:0:0:
411,344,95169,6,0,P|335:342|267:335,2,143.75,2|0|0,0:0|0:0|0:0,0:0:0:0:
512,284,95731,1,0,0:0:0:0:
203,260,95919,1,8,0:0:0:0:
203,260,96012,1,0,0:0:0:0:
203,260,96106,1,0,0:0:0:0:
426,208,96294,1,0,0:0:0:0:
199,268,96481,1,2,0:0:0:0:
279,31,96669,21,2,0:0:0:0:
356,268,96856,1,8,0:0:0:0:
182,88,97044,1,8,0:0:0:0:
182,88,97231,1,2,0:0:0:0:
433,131,97419,1,8,0:0:0:0:
143,196,97606,1,8,0:0:0:0:
512,77,97794,2,0,L|508:230,1,143.75,0|2,0:0|0:0,0:0:0:0:
376,347,98169,6,0,B|311:376|311:376|239:383,2,143.75,2|0|0,0:0|0:0|0:0,0:0:0:0:
426,278,98731,1,0,0:0:0:0:
284,219,98919,2,0,P|200:221|129:241,1,143.75,8|0,0:0|0:0,0:0:0:0:
113,311,99294,1,0,0:0:0:0:
234,139,99481,1,2,0:0:0:0:
58,62,99669,22,0,P|19:135|16:215,2,143.75,2|0|0,0:0|0:0|0:0,0:0:0:0:
133,25,100231,1,0,0:0:0:0:
230,218,100419,2,0,P|291:253|362:262,1,143.75,8|0,0:0|0:0,0:0:0:0:
504,93,100794,2,0,L|418:100,1,71.875
275,148,100981,1,0,0:0:0:0:
268,136,101075,1,0,0:0:0:0:
260,125,101169,6,0,P|189:129|141:181,1,143.75,2|0,0:0|0:0,0:0:0:0:
300,344,101544,2,0,P|296:274|246:226,1,143.75
27,337,101919,2,0,P|97:333|146:283,1,143.75,8|0,0:0|0:0,0:0:0:0:
56,243,102294,1,0,0:0:0:0:
206,384,102481,1,2,0:0:0:0:
327,175,102669,21,2,0:0:0:0:
394,384,102856,1,8,0:0:0:0:
498,286,103044,1,8,0:0:0:0:
498,286,103231,1,2,0:0:0:0:
222,310,103419,1,8,0:0:0:0:
512,196,103606,1,8,0:0:0:0:
209,303,103794,1,0,0:0:0:0:
411,374,103981,1,2,0:0:0:0:
350,126,104169,6,0,B|378:62|378:62|440:14,2,143.75,2|0|0,0:0|0:0|0:0,0:0:0:0:
386,226,104731,1,0,0:0:0:0:
251,100,104919,2,0,P|190:65|119:56,1,143.75,8|0,0:0|0:0,0:0:0:0:
151,188,105294,1,0,0:0:0:0:
302,34,105481,1,2,0:0:0:0:
220,237,105669,22,0,P|227:329|251:380,2,143.75,2|0|0,0:0|0:0|0:0,0:0:0:0:
284,169,106231,1,0,0:0:0:0:
376,325,106419,1,8,0:0:0:0:
376,325,106512,1,0,0:0:0:0:
376,325,106606,1,0,0:0:0:0:
123,340,106794,2,0,L|132:266,1,71.875
150,157,106981,1,0,0:0:0:0:
150,157,107075,1,0,0:0:0:0:
150,157,107169,6,0,P|70:187|23:237,2,143.75,2|0|0,0:0|0:0|0:0,0:0:0:0:
275,176,107731,1,0,0:0:0:0:
375,336,107919,2,0,P|442:313|495:265,1,143.75,8|0,0:0|0:0,0:0:0:0:
503,117,108294,1,0,0:0:0:0:
474,384,108481,1,2,0:0:0:0:
382,96,108669,21,2,0:0:0:0:
237,322,108856,1,8,0:0:0:0:
216,46,109044,1,8,0:0:0:0:
216,46,109231,1,2,0:0:0:0:
436,188,109419,1,8,0:0:0:0:
146,174,109606,1,8,0:0:0:0:
457,201,109794,1,0,0:0:0:0:
134,163,109981,1,2,0:0:0:0:
311,371,110169,6,0,B|274:291|274:291|266:151,1,215.625,2|0,0:0|0:0,0:0:0:0:
303,74,110544,1,0,0:0:0:0:
303,74,110731,1,0,0:0:0:0:
248,319,110919,2,0,P|167:347|86:337,1,143.75,8|0,0:0|0:0,0:0:0:0:
154,197,111294,1,0,0:0:0:0:
354,265,111481,1,2,0:0:0:0:
16,290,111669,22,0,P|22:219|0:151,1,143.75,2|0,0:0|0:0,0:0:0:0:
96,0,112044,2,0,P|72:67|80:138,1,143.75
370,150,112419,6,0,P|328:184|277:193,1,86.25,8|0,0:0|0:0,0:0:0:0:
227,164,112794,2,0,L|213:269,1,86.25
245,323,113169,2,0,P|302:314|327:317,1,57.5
381,354,113544,6,0,P|387:303|362:247,1,115
22,51,117669,6,0,P|54:42|142:53,1,115
199,115,118419,2,0,P|231:124|319:113,1,115
393,35,119169,2,0,L|404:157,1,115
382,262,119919,1,0,0:0:0:0:
273,225,120294,1,0,0:0:0:0:
162,246,120669,2,0,P|148:305|159:367,1,115
68,330,121419,2,0,P|75:273|62:217,1,115
1,119,122169,21,0,0:0:0:0:
237,371,123669,6,0,P|294:355|357:361,1,115
400,282,124419,2,0,P|457:285|512:269,1,115
438,113,125169,1,0,0:0:0:0:
247,106,125919,2,0,P|310:80|375:93,1,115
331,292,126669,2,0,L|317:157,1,115
245,232,127419,2,0,L|233:346,1,115
327,384,128169,21,0,0:0:0:0:
512,172,129669,5,0,0:0:0:0:
512,172,130044,1,0,0:0:0:0:
350,233,130419,1,0,0:0:0:0:
350,233,130794,1,0,0:0:0:0:
179,208,131169,2,0,P|148:169|175:97,1,115
262,54,131919,2,0,L|385:46,1,115
484,87,132669,2,0,P|468:155|465:201,1,115
395,259,133419,2,0,P|411:327|414:373,1,115
305,335,134169,21,0,0:0:0:0:
221,323,135669,6,0,P|195:305|245:279,1,115
329,258,136419,22,0,P|301:218|210:182,1,137.999995788574
123,228,137169,6,0,B|106:333|106:333|124:386,1,160.99999508667
23,357,137919,2,0,B|40:252|40:252|22:199,1,160.99999508667
90,152,138669,22,0,P|86:126|108:144,1,68.9999978942872
512,112,141669,6,0,B|425:128|432:72|346:89,1,172.500006580353,4|0,0:0|0:0,0:0:0:0:
372,211,142044,1,0,0:0:0:0:
485,5,142231,1,0,0:0:0:0:
244,82,142419,2,0,B|246:137|277:162|277:162|256:212|273:258,1,172.500006580353,4|0,0:0|0:0,0:0:0:0:
202,384,142794,1,0,0:0:0:0:
169,185,142981,1,4,0:0:0:0:
290,327,143169,6,0,B|331:342|385:322|385:322|389:351|389:351|451:332|493:357,1,230,4|0,0:0|0:0,0:0:0:0:
450,244,143731,1,0,0:0:0:0:
334,97,143919,6,0,B|308:80|272:87|272:87|249:100|249:100|233:82|233:82|206:87|165:73,1,172.500006580353,4|0,0:0|0:0,0:0:0:0:
87,117,144294,1,0,0:0:0:0:
51,325,144481,1,0,0:0:0:0:
62,312,144575,1,0,0:0:0:0:
75,301,144669,6,0,B|110:299|123:273|123:273|184:285|239:253,1,172.500006580353,4|0,0:0|0:0,0:0:0:0:
299,175,145044,1,0,0:0:0:0:
154,379,145231,1,0,0:0:0:0:
166,186,145419,5,0,0:0:0:0:
267,340,145606,2,0,P|300:313|352:294,1,86.2500032901765,4|0,0:0|0:0,0:0:0:0:
496,238,145794,2,0,P|453:231|410:237,1,86.2500032901765,4|0,0:0|0:0,0:0:0:0:
221,273,145981,2,0,P|257:248|288:196,1,86.2500032901765,4|0,0:0|0:0,0:0:0:0:
252,69,146169,6,0,P|276:103|312:128,1,86.2500032901765,4|0,0:0|0:0,0:0:0:0:
512,149,146356,2,0,P|487:114|451:89,1,86.2500032901765,4|0,0:0|0:0,0:0:0:0:
392,155,146544,6,0,L|399:259,1,86.2500032901765,4|0,0:0|0:0,0:0:0:0:
326,298,146731,2,0,L|319:402,1,86.2500032901765,4|0,0:0|0:0,0:0:0:0:
220,249,146919,6,0,P|288:228|316:213,1,86.2500032901765,4|0,0:0|0:0,0:0:0:0:
131,305,147106,2,0,P|63:284|35:269,1,86.2500032901765,4|0,0:0|0:0,0:0:0:0:
206,164,147294,6,0,L|220:66,1,86.2500032901765,4|0,0:0|0:0,0:0:0:0:
125,211,147481,2,0,L|137:296,1,86.2500032901765,4|0,0:0|0:0,0:0:0:0:
95,100,147669,6,0,L|55:110,1,40.25,2|0,0:0|0:0,0:0:0:0:
156,42,148419,6,0,P|297:73|103:173,1,517.500019741059,4|0,0:0|0:0,0:0:0:0:
169,134,149169,6,0,L|209:140,1,40.25,2|0,0:0|0:0,0:0:0:0:
241,212,149919,6,0,P|346:209|215:71,1,431.25,4|0,0:0|0:0,0:0:0:0:
218,76,150575,1,0,0:0:0:0:
215,90,150669,6,0,L|293:97,1,71.875
295,107,150856,6,0,L|292:125,1,11.5
318,204,151044,6,0,L|419:187,1,71.875,2|0,0:0|0:0,0:0:0:0:
442,135,151231,2,0,L|543:152,1,71.875,2|0,0:0|0:0,0:0:0:0:
482,325,151419,6,0,P|462:276|466:200,1,115,4|0,0:0|0:0,0:0:0:0:
349,9,151606,2,0,P|369:58|365:134,1,115,4|0,0:0|0:0,0:0:0:0:
322,280,151794,6,0,L|301:285,1,11.5,2|0,0:0|0:0,0:0:0:0:
250,336,151981,2,0,L|271:341,1,11.5,2|0,0:0|0:0,0:0:0:0:
234,186,152169,6,0,P|175:191|120:229,1,115,4|0,0:0|0:0,0:0:0:0:
27,377,152356,2,0,P|86:372|141:334,1,115,4|0,0:0|0:0,0:0:0:0:
25,143,152544,6,2,B|17:172|17:172|22:218|22:218|0:276,2,115.000004386902
17,29,152919,6,0,L|89:18,1,57.5,4|0,0:0|0:0,0:0:0:0:
153,67,153106,2,0,L|225:78,1,57.5,4|0,0:0|0:0,0:0:0:0:
303,71,153294,6,0,L|252:65,1,51.7499984207154,4|0,0:0|0:0,0:0:0:0:
249,147,153669,6,0,L|257:231,1,80.5,2|0,0:0|0:0,0:0:0:0:
312,300,154419,6,0,B|357:270|357:270|401:183|338:68,1,258.75000987053,4|0,0:0|0:0,0:0:0:0:
478,25,155169,6,0,L|475:110,1,80.5,2|0,0:0|0:0,0:0:0:0:
429,174,155919,6,0,B|411:201|411:201|406:220|406:220|401:225|403:232|403:232|402:257|402:257|415:263|428:282|428:282|426:312|426:312|430:321|424:332|424:332|431:351|431:351|427:357|436:364|436:364|441:376,1,221.375006755829,4|0,0:0|0:0,0:0:0:0:
356,368,156669,6,0,L|313:357,1,40.25,2|0,0:0|0:0,0:0:0:0:
241,315,157419,6,0,B|178:335|178:294|115:315,1,129.375004935265,4|0,0:0|0:0,0:0:0:0:
25,278,157794,2,0,P|59:235|112:219,1,86.2500032901765,2|0,0:0|0:0,0:0:0:0:
172,107,158169,6,0,L|229:111,1,57.5,4|0,0:0|0:0,0:0:0:0:
364,183,158356,2,0,L|306:187,1,57.5,4|0,0:0|0:0,0:0:0:0:
177,289,158544,6,0,L|186:226,1,57.5,4|0,0:0|0:0,0:0:0:0:
158,102,158731,2,0,L|167:39,1,57.5,4|0,0:0|0:0,0:0:0:0:
307,110,158919,6,0,L|379:90,1,57.5,4|0,0:0|0:0,0:0:0:0:
181,213,159106,2,0,L|236:228,1,57.5,4|0,0:0|0:0,0:0:0:0:
458,201,159294,5,4,0:0:0:0:
461,142,159387,1,4,0:0:0:0:
465,85,159481,1,4,0:0:0:0:
393,286,159669,6,0,L|387:329,1,40.25,2|0,0:0|0:0,0:0:0:0:
306,376,160419,6,0,B|319:317|288:267|288:267|291:198|319:139|319:139|289:80|302:5,1,362.249988945008,4|0,0:0|0:0,0:0:0:0:
430,78,161169,6,0,L|425:118,1,40.25,2|0,0:0|0:0,0:0:0:0:
480,169,161919,6,0,B|449:170|423:155|423:155|302:190|159:182|159:182|74:199|74:199|195:242,1,503.125,4|0,0:0|0:0,0:0:0:0:
19,330,162669,6,0,P|90:314|171:309,1,143.75,2|0,0:0|0:0,0:0:0:0:
273,316,163044,2,0,P|284:349|292:384,1,71.875,2|0,0:0|0:0,0:0:0:0:
244,181,163231,2,0,P|232:214|224:249,1,71.875,2|0,0:0|0:0,0:0:0:0:
358,62,163419,6,0,P|302:82|262:86,1,71.875,4|0,0:0|0:0,0:0:0:0:
86,107,163606,2,0,P|120:115|154:129,1,71.875,4|0,0:0|0:0,0:0:0:0:
262,190,163794,6,0,L|332:178,1,71.875,2|0,0:0|0:0,0:0:0:0:
344,264,163981,2,0,L|408:234,1,71.875,2|0,0:0|0:0,0:0:0:0:
508,122,164169,6,0,L|438:134,1,71.875,4|0,0:0|0:0,0:0:0:0:
426,48,164356,2,0,L|361:77,1,71.875,4|0,0:0|0:0,0:0:0:0:
287,136,164544,5,2,0:0:0:0:
252,112,164669,5,0,0:0:0:0:
225,113,164794,5,0,0:0:0:0:
160,148,164919,6,0,P|145:193|145:223,1,71.875,4|0,0:0|0:0,0:0:0:0:
214,360,165106,2,0,P|229:315|229:285,1,71.875,4|0,0:0|0:0,0:0:0:0:
261,208,165294,6,0,L|226:211,1,34.5,4|0,0:0|0:0,0:0:0:0:
121,302,165669,5,4,0:0:0:0:
20,85,167169,22,0,P|96:47|166:52,1,143.75,2|0,0:0|0:0,0:0:0:0:
314,122,167544,2,0,P|395:75|380:17,1,143.75
158,170,167919,2,0,L|147:325,1,143.75,8|0,0:0|0:0,0:0:0:0:
178,384,168294,1,0,0:0:0:0:
336,238,168481,1,0,0:0:0:0:
357,221,168575,1,0,0:0:0:0:
371,213,168669,2,0,P|418:200|517:205,1,143.75,2|0,0:0|0:0,0:0:0:0:
438,344,173169,5,2,0:0:0:0:
486,110,173356,1,0,0:0:0:0:
353,207,173544,2,0,P|271:204|207:160,1,143.75
62,7,173919,2,0,L|74:161,1,143.75,8|0,0:0|0:0,0:0:0:0:
126,276,174294,1,0,0:0:0:0:
225,23,174481,1,0,0:0:0:0:
225,23,174575,1,0,0:0:0:0:
225,23,174669,1,2,0:0:0:0:
256,192,176169,12,0,177481,0:0:0:0:
287,358,179169,22,0,P|346:326|319:257,1,143.75,2|0,0:0|0:0,0:0:0:0:
207,150,179544,2,0,P|276:134|348:139,1,143.75
512,355,179919,6,0,B|506:249|506:249|468:187,1,172.500006580353,8|0,0:0|0:0,0:0:0:0:
424,277,180294,1,0,0:0:0:0:
472,114,180481,1,0,0:0:0:0:
478,97,180575,1,0,0:0:0:0:
482,83,180669,22,0,P|407:51|338:48,1,143.75,2|0,0:0|0:0,0:0:0:0:
256,192,182169,12,0,183481,0:0:0:0:
151,357,185169,6,0,P|198:338|248:330,1,86.2500032901765,2|0,0:0|0:0,0:0:0:0:
319,364,185544,2,0,P|324:331|274:247,1,129.375004935265
207,245,185919,22,0,P|253:220|374:192,1,143.75,8|0,0:0|0:0,0:0:0:0:
482,219,186294,1,0,0:0:0:0:
231,135,186481,1,0,0:0:0:0:
209,131,186575,1,0,0:0:0:0:
187,129,186669,1,0,0:0:0:0:
110,170,186856,1,0,0:0:0:0:
69,229,187044,1,0,0:0:0:0:
58,269,187231,1,0,0:0:0:0:
256,192,188169,12,0,189481,0:0:0:0:
256,192,189669,12,0,191169,0:0:0:0:
92,272,192669,6,0,P|69:222|175:32,1,287.5,4|0,0:0|0:0,0:0:0:0:
293,62,193231,1,0,0:0:0:0:
190,208,193419,2,0,P|138:178|47:172,1,143.75,8|0,0:0|0:0,0:0:0:0:
38,339,193794,2,0,P|90:369|181:375,1,143.75,0|2,0:0|0:0,0:0:0:0:
420,272,194169,6,0,P|443:222|337:32,1,287.5,2|0,0:0|0:0,0:0:0:0:
218,60,194731,1,0,0:0:0:0:
346,163,194919,2,0,L|509:147,1,143.75,8|0,0:0|0:0,0:0:0:0:
508,40,195294,1,0,0:0:0:0:
282,292,195481,1,0,0:0:0:0:
282,292,195575,1,0,0:0:0:0:
282,292,195669,22,0,B|257:219|257:219|256:143,1,143.75,2|0,0:0|0:0,0:0:0:0:
422,186,196044,2,0,B|371:127|371:127|305:88,1,143.75
90,186,196419,2,0,B|140:127|140:127|206:88,1,143.75,8|0,0:0|0:0,0:0:0:0:
378,263,196794,2,0,P|399:318|347:388,1,143.75,0|2,0:0|0:0,0:0:0:0:
38,358,197169,6,0,L|200:346,1,143.75,2|8,0:0|0:0,0:0:0:0:
350,188,197544,2,0,L|188:176,1,143.75,8|2,0:0|0:0,0:0:0:0:
79,250,197919,1,8,0:0:0:0:
267,73,198106,1,8,0:0:0:0:
116,151,198294,1,8,0:0:0:0:
175,249,198481,1,2,0:0:0:0:
267,73,198669,22,0,P|328:70|422:89,1,143.75,2|0,0:0|0:0,0:0:0:0:
512,183,199044,2,0,L|503:337,1,143.75
222,159,199419,2,0,P|166:118|171:49,1,143.75,8|0,0:0|0:0,0:0:0:0:
425,241,199794,2,0,L|416:395,1,143.75,0|2,0:0|0:0,0:0:0:0:
283,216,200169,6,0,P|226:200|116:207,1,143.75,2|0,0:0|0:0,0:0:0:0:
63,266,200544,1,0,0:0:0:0:
131,192,200731,1,0,0:0:0:0:
34,66,200919,1,8,0:0:0:0:
34,66,201012,1,0,0:0:0:0:
34,66,201106,1,0,0:0:0:0:
80,277,201294,1,0,0:0:0:0:
163,122,201481,1,0,0:0:0:0:
171,102,201575,1,0,0:0:0:0:
182,83,201669,22,0,P|212:47|300:2,1,143.75,2|0,0:0|0:0,0:0:0:0:
424,26,202044,1,0,0:0:0:0:
375,129,202231,1,0,0:0:0:0:
204,7,202419,1,8,0:0:0:0:
204,7,202512,1,0,0:0:0:0:
204,7,202606,1,0,0:0:0:0:
290,243,202794,1,0,0:0:0:0:
307,3,202981,1,2,0:0:0:0:
139,207,203169,6,0,P|102:222|-4:226,1,143.75,2|8,0:0|0:0,0:0:0:0:
61,129,203544,1,8,0:0:0:0:
0,338,203731,1,2,0:0:0:0:
8,46,203919,1,8,0:0:0:0:
154,290,204106,1,8,0:0:0:0:
111,31,204294,1,8,0:0:0:0:
72,203,204481,1,2,0:0:0:0:
247,53,204669,22,0,P|279:184|220:348,1,287.5,2|0,0:0|0:0,0:0:0:0:
188,177,205231,1,0,0:0:0:0:
361,97,205419,2,0,P|446:100|508:126,1,143.75,8|0,0:0|0:0,0:0:0:0:
512,271,205794,2,0,P|427:268|365:242,1,143.75,0|2,0:0|0:0,0:0:0:0:
247,53,206169,6,0,P|162:33|102:39,1,143.75,2|0,0:0|0:0,0:0:0:0:
30,104,206544,1,0,0:0:0:0:
95,231,206731,1,0,0:0:0:0:
286,124,206919,2,0,P|354:103|435:101,1,143.75,8|0,0:0|0:0,0:0:0:0:
489,249,207294,2,0,P|421:270|340:272,1,143.75
297,245,207575,1,0,0:0:0:0:
248,211,207669,6,0,B|201:155|232:139|186:84,1,143.75
45,278,208044,6,0,B|69:209|99:229|124:161,1,143.75
140,285,208419,6,0,B|211:272|209:307|280:294,1,143.75
174,370,208794,1,0,0:0:0:0:
248,211,208981,1,2,0:0:0:0:
466,247,209169,6,0,P|496:186|451:135,1,143.75,2|8,0:0|0:0,0:0:0:0:
263,63,209544,2,0,L|275:227,1,143.75,8|2,0:0|0:0,0:0:0:0:
134,146,209919,2,0,L|146:-18,1,143.75,8|0,0:0|0:0,0:0:0:0:
366,244,210294,2,0,P|319:298|221:289,1,143.75,0|2,0:0|0:0,0:0:0:0:
22,347,210669,22,0,P|123:259|275:206,1,287.5,2|0,0:0|0:0,0:0:0:0:
432,304,211231,1,0,0:0:0:0:
335,144,211419,2,0,P|318:66|327:2,1,143.75,8|0,0:0|0:0,0:0:0:0:
473,72,211794,2,0,P|490:150|481:214,1,143.75,0|2,0:0|0:0,0:0:0:0:
137,109,212169,6,0,P|60:104|-2:155,1,143.75,2|0,0:0|0:0,0:0:0:0:
101,282,212544,2,0,P|178:287|240:236,1,143.75
294,76,212919,1,8,0:0:0:0:
294,76,213012,1,0,0:0:0:0:
294,76,213106,1,0,0:0:0:0:
364,268,213294,1,0,0:0:0:0:
405,102,213481,1,0,0:0:0:0:
405,102,213575,1,0,0:0:0:0:
405,102,213669,22,0,P|342:150|268:160,1,143.75,2|0,0:0|0:0,0:0:0:0:
91,85,214044,2,0,P|154:37|228:27,1,143.75
377,187,214419,1,8,0:0:0:0:
377,187,214512,1,0,0:0:0:0:
377,187,214606,1,0,0:0:0:0:
137,202,214794,2,0,P|107:275|177:307,1,143.75,0|2,0:0|0:0,0:0:0:0:
323,329,215169,6,0,L|474:343,1,143.75,2|8,0:0|0:0,0:0:0:0:
507,209,215544,1,8,0:0:0:0:
507,209,215731,1,2,0:0:0:0:
373,86,215919,2,0,B|348:75|348:75|287:78|225:96,1,143.75,8|2,0:0|0:0,0:0:0:0:
222,193,216294,22,0,P|135:171|154:57,1,215.625,2|0,0:0|0:0,0:0:0:0:
221,105,216669,2,0,P|305:113|546:217,1,287.5,4|0,0:0|0:0,0:0:0:0:
422,307,217231,1,0,0:0:0:0:
324,221,217419,2,0,P|346:142|391:83,1,143.75,8|0,0:0|0:0,0:0:0:0:
236,328,217794,2,0,P|208:250|211:176,1,143.75,0|2,0:0|0:0,0:0:0:0:
261,25,218169,6,0,P|176:47|86:31,1,143.75,2|0,0:0|0:0,0:0:0:0:
0,0,218544,1,0,0:0:0:0:
132,55,218731,1,0,0:0:0:0:
176,218,218919,22,0,P|182:321|149:384,1,172.500006580353,8|0,0:0|0:0,0:0:0:0:
265,90,219294,2,0,P|328:170|338:241,1,172.500006580353
320,276,219575,1,0,0:0:0:0:
286,302,219669,6,0,P|305:195|503:65,1,345.000013160706,2|0,0:0|0:0,0:0:0:0:
508,287,220231,1,0,0:0:0:0:
508,287,220419,22,0,P|358:210|305:50,1,345.000013160706,8|0,0:0|0:0,0:0:0:0:
488,65,220981,1,2,0:0:0:0:
488,65,221169,6,0,P|435:224|285:301,1,345.000013160706,2|0,0:0|0:0,0:0:0:0:
216,120,221731,1,2,0:0:0:0:
0,331,221919,2,0,B|83:350|83:350|170:329,1,172.500006580353,8|0,0:0|0:0,0:0:0:0:
220,208,222294,2,0,B|137:189|137:189|49:209,1,172.500006580353,0|2,0:0|0:0,0:0:0:0:
311,162,222669,22,0,P|314:64|365:-2,1,172.500006580353,2|0,0:0|0:0,0:0:0:0:
285,367,223044,2,0,P|282:269|231:203,1,172.500006580353
26,343,223419,6,0,B|75:359|75:359|203:308,1,172.500006580353,8|0,3:0|0:0,0:0:0:0:
355,227,223794,1,0,0:0:0:0:
211,103,223981,1,2,0:0:0:0:
94,193,224169,22,0,P|186:213|277:188,1,172.500006580353,2|0,0:0|0:0,0:0:0:0:
315,98,224544,2,0,P|399:80|483:101,1,172.500006580353
421,359,224919,6,0,B|392:316|392:316|408:179,1,172.500006580353,8|0,3:0|0:0,0:0:0:0:
445,6,225294,1,0,0:0:0:0:
486,293,225481,1,0,0:0:0:0:
486,293,225575,1,0,0:0:0:0:
486,293,225669,22,0,P|392:279|316:307,1,172.500006580353,2|0,0:0|0:0,0:0:0:0:
70,269,226044,2,0,P|164:283|240:255,1,172.500006580353
494,53,226419,6,0,B|451:24|451:24|314:40,1,172.500006580353,8|0,3:0|0:0,0:0:0:0:
331,37,226700,1,0,0:0:0:0:
331,37,226794,1,0,0:0:0:0:
411,201,226981,1,2,0:0:0:0:
277,105,227169,22,0,L|85:95,1,172.500006580353,2|8,0:0|0:0,0:0:0:0:
7,23,227544,1,8,0:0:0:0:
7,23,227731,1,2,0:0:0:0:
157,206,227919,5,8,0:0:0:0:
256,0,228106,1,8,0:0:0:0:
62,158,228294,21,0,0:0:0:0:
307,89,228481,1,2,0:0:0:0:
317,348,228669,6,0,P|236:214|230:16,1,345.000013160706,2|0,0:0|0:0,0:0:0:0:
379,1,229231,1,0,0:0:0:0:
242,263,229419,2,0,B|200:263|158:285|158:285|108:278|64:290,1,172.500006580353,8|0,0:0|0:0,0:0:0:0:
266,139,229794,2,0,P|350:133|445:163,1,172.500006580353,0|2,0:0|0:0,0:0:0:0:
499,384,230169,22,0,L|513:198,1,172.500006580353,2|0,0:0|0:0,0:0:0:0:
224,76,230544,2,0,L|236:248,1,172.500006580353
499,0,230919,6,0,B|454:0|410:24|410:24|355:16|309:29,1,195.500003728867,8|0,0:0|0:0,0:0:0:0:
21,111,231294,2,0,P|113:111|186:138,1,172.500006580353
211,184,231575,1,0,0:0:0:0:
211,235,231669,22,0,P|139:195|148:114,1,172.500006580353,2|0,0:0|0:0,0:0:0:0:
352,182,232044,2,0,P|361:263|290:303,1,172.500006580353
252,132,232419,2,0,P|292:60|373:70,1,172.500006580353,8|0,0:0|0:0,0:0:0:0:
194,337,232794,2,0,P|127:356|19:335,1,172.500006580353,0|2,0:0|0:0,0:0:0:0:
326,190,233169,6,0,L|530:197,1,172.500006580353,2|8,0:0|0:0,0:0:0:0:
450,332,233544,1,8,0:0:0:0:
450,332,233731,1,2,0:0:0:0:
492,74,233919,21,8,0:0:0:0:
437,351,234106,1,8,0:0:0:0:
395,34,234294,5,8,0:0:0:0:
512,384,234481,1,2,0:0:0:0:
374,217,234669,22,0,P|284:176|37:143,1,345.000013160706,2|0,0:0|0:0,0:0:0:0:
110,281,235231,1,0,0:0:0:0:
412,63,235419,2,0,L|224:75,1,172.500006580353,8|0,0:0|0:0,0:0:0:0:
293,238,235794,1,0,0:0:0:0:
293,238,235981,1,2,0:0:0:0:
468,301,236169,6,0,P|373:350|290:359,1,172.500006580353,2|0,0:0|0:0,0:0:0:0:
65,229,236544,2,0,P|160:180|243:171,1,172.500006580353
412,63,236919,2,0,L|422:235,1,172.500006580353,8|0,0:0|0:0,0:0:0:0:
300,198,237294,1,0,0:0:0:0:
182,353,237481,1,0,0:0:0:0:
182,353,237575,1,0,0:0:0:0:
182,353,237669,22,0,P|137:255|179:212,1,172.500006580353,2|0,0:0|0:0,0:0:0:0:
481,279,238044,2,0,P|401:310|316:308,1,172.500006580353
239,73,238419,2,0,L|412:63,1,172.500006580353,8|0,0:0|0:0,0:0:0:0:
307,221,238794,1,0,0:0:0:0:
157,104,238981,1,2,0:0:0:0:
68,272,239169,6,0,P|172:282|255:296,1,172.500006580353,2|8,0:0|0:0,0:0:0:0:
379,360,239544,1,8,0:0:0:0:
379,360,239731,1,2,0:0:0:0:
207,202,239919,21,8,0:0:0:0:
496,247,240106,1,8,0:0:0:0:
252,43,240294,5,0,0:0:0:0:
382,352,240481,1,2,0:0:0:0:
496,134,240669,6,0,P|408:162|259:146,1,172.500006580353,2|0,0:0|0:0,0:0:0:0:
5,188,241044,2,2,P|93:216|242:200,1,172.500006580353,0|0,0:0|0:0,0:0:0:0:
412,63,241419,2,0,L|239:73,1,172.500006580353,8|0,0:0|0:0,0:0:0:0:
122,103,241794,1,0,0:0:0:0:
122,103,241981,1,2,0:0:0:0:
95,263,242169,6,2,P|183:291|332:275,1,172.500006580353,2|0,0:0|0:0,0:0:0:0:
380,219,242544,1,0,0:0:0:0:
380,219,242731,1,0,0:0:0:0:
236,17,242919,2,0,L|246:189,1,172.500006580353,4|0,0:0|0:0,0:0:0:0:
95,263,243669,22,2,P|183:291|332:275,1,172.500006580353,2|0,0:0|0:0,0:0:0:0:
380,219,244044,1,0,0:0:0:0:
380,219,244231,1,0,0:0:0:0:
236,17,244419,2,0,L|246:189,1,172.500006580353,4|0,0:0|0:0,0:0:0:0:
352,303,244794,1,0,0:0:0:0:
352,303,244981,1,2,0:0:0:0:
356,112,245169,6,0,P|443:58|535:51,1,172.500006580353,2|0,0:0|0:0,0:0:0:0:
146,188,245544,2,0,P|169:88|229:18,1,172.500006580353
259,383,245919,2,0,L|248:210,1,172.500006580353,8|0,0:0|0:0,0:0:0:0:
352,12,246294,22,0,L|344:126,1,115
294,287,246669,6,0,P|258:295|198:284,1,86.25
138,251,247044,6,0,L|129:320,1,69
459,234,251169,5,0,0:0:0:0:
389,183,251356,2,0,P|206:170|31:164,1,356.5,0|2,0:0|0:0,0:0:0:0:
256,192,257262,12,0,262794,0:0:0:0:
