osu file format v14

[General]
AudioFilename: audio.mp3
AudioLeadIn: 0
PreviewTime: 175645
Countdown: 0
SampleSet: Normal
StackLeniency: 0.7
Mode: 1
LetterboxInBreaks: 0
WidescreenStoryboard: 0

[Editor]
DistanceSpacing: 0.3
BeatDivisor: 16
GridSize: 32
TimelineZoom: 2.999999

[Metadata]
Title:Hikari yo
TitleUnicode:光よ
Artist:KikuoHana
ArtistUnicode:きくおはな
Creator:woosungko
Version:Salvation
Source:
Tags:mtmc#1 malaysian taiko mapping contest o light kikuo きくお hanatan 花たん yurica ユリカ 第一幕 1 first act daiichi maku japanese electronic
BeatmapID:3953702
BeatmapSetID:1916175

[Difficulty]
HPDrainRate:6.6
CircleSize:7
OverallDifficulty:6.6
ApproachRate:10
SliderMultiplier:1.4
SliderTickRate:1

[Events]
//Background and Video events
0,0,"89023151_p0_master1200.jpg",0,140
//Break Periods
//Storyboard Layer 0 (Background)
//Storyboard Layer 1 (Fail)
//Storyboard Layer 2 (Pass)
//Storyboard Layer 3 (Foreground)
//Storyboard Layer 4 (Overlay)
//Storyboard Sound Samples

[TimingPoints]
-60,234.375,6,1,0,5,1,0
1107,-153.846153846154,6,1,0,35,0,0
1341,-200,6,1,0,35,0,0
2044,-76.9230769230769,6,1,0,90,0,0
2752,234.375,6,1,0,90,1,1
2752,-100,6,1,0,90,0,1
3098,-105.728736009156,6,1,0,90,0,1
3450,-111.803398874989,6,1,0,90,0,1
3684,-116.033582189182,6,1,0,90,0,1
3801,-118.208320445801,6,1,0,90,0,1
4153,-125,6,1,0,90,0,1
4212,-123.855456386696,6,1,0,90,0,1
4271,-122.701931124389,6,1,0,90,0,1
4330,-121.559149196042,6,1,0,90,0,1
4388,-120.446111213234,6,1,0,90,0,1
4505,-118.231763538294,6,1,0,90,0,1
4564,-117.130614424421,6,1,0,90,0,1
4623,-116.03972084032,6,1,0,90,0,1
4740,-113.906382673938,6,1,0,90,0,1
4857,-111.812264971886,6,1,0,90,0,1
4915,-110.788472861785,6,1,0,90,0,1
4974,-109.756646683538,6,1,0,90,0,1
5091,-107.738820014459,6,1,0,90,0,1
5169,-106.414253948669,6,1,0,90,0,1
5248,-105.089304416816,6,1,0,90,0,1
5326,-103.797312110892,6,1,0,90,0,1
5560,-99.9841304519979,6,1,0,90,0,1
5619,-100.92475651984,6,1,0,90,0,1
5677,-101.858064785889,6,1,0,90,0,1
5736,-102.816320366293,6,1,0,90,0,1
5794,-103.76712099234,6,1,0,90,0,1
5912,-105.728736009156,6,1,0,90,0,1
5970,-106.706469388744,6,1,0,90,0,1
6029,-107.71033756523,6,1,0,90,0,1
6146,-109.729078927144,6,1,0,90,0,1
6263,-111.785656180937,6,1,0,90,0,1
6341,-113.178077267958,6,1,0,90,0,1
6419,-114.587842588129,6,1,0,90,0,1
6498,-116.033582189182,6,1,0,90,0,1
6615,-118.208320445801,6,1,0,90,0,1
6732,-120.423818337652,6,1,0,90,0,1
6967,-125,6,1,0,90,0,1
7025,-123.854646085203,6,1,0,90,0,1
7083,-122.719786855127,6,1,0,90,0,1
7201,-120.442932086575,6,1,0,90,0,1
7318,-118.227082549418,6,1,0,90,0,1
7552,-113.916931794347,6,1,0,90,0,1
7669,-111.821144385174,6,1,0,90,0,1
7845,-108.740906576581,6,1,0,90,0,1
7904,-107.727433421989,6,1,0,90,0,1
8021,-105.745517344791,6,1,0,90,0,1
8138,-103.800063580044,6,1,0,90,0,1
8216,-102.52301946645,6,1,0,90,0,1
8294,-101.261686727317,6,1,0,90,0,1
8373,-100,6,1,0,90,0,1
8430,-100.92475651984,6,1,0,90,0,1
8489,-101.874231766001,6,1,0,90,0,1
8547,-102.816320366293,6,1,0,90,0,1
8606,-103.783590979128,6,1,0,90,0,1
8664,-104.743336503232,6,1,0,90,0,1
8723,-105.728736009156,6,1,0,90,0,1
8782,-106.723405910875,6,1,0,90,0,1
8840,-107.71033756523,6,1,0,90,0,1
8957,-109.729078927144,6,1,0,90,0,1
9075,-111.803398874989,6,1,0,90,0,1
9309,-116.033582189182,6,1,0,90,0,1
9387,-117.478916162813,6,1,0,90,0,1
9465,-118.942253461479,6,1,0,90,0,1
9543,-120.423818337652,6,1,0,90,0,1
9661,-122.700311779644,6,1,0,90,0,1
9778,-125,6,1,0,90,0,1
9856,-123.46322098013,6,1,0,90,0,1
9934,-121.945335478307,6,1,0,90,0,1
10012,-120.446111213234,6,1,0,90,0,1
10247,-116.03972084032,6,1,0,90,0,1
10364,-113.906382673938,6,1,0,90,0,1
10481,-111.812264971886,6,1,0,90,0,1
10539,-110.788472861785,6,1,0,90,0,1
10598,-109.756646683538,6,1,0,90,0,1
10715,-107.738820014459,6,1,0,90,0,1
10832,-105.758090182697,6,1,0,90,0,1
10891,-104.773114370745,6,1,0,90,0,1
10950,-103.797312110892,6,1,0,90,0,1
11067,-101.889045132219,6,1,0,90,0,1
11185,-100,6,1,0,90,0,1
11189,-100,6,1,0,90,0,0
11302,-76.9230769230769,6,1,0,70,0,0
12591,-166.666666666667,6,1,0,70,0,0
13294,-76.9230769230769,6,1,0,70,0,0
13997,-76.9230769230769,6,1,0,70,0,0
15403,-200,6,1,0,50,0,0
25247,-200,6,1,0,50,0,0
25481,-195.762086049933,6,1,0,50,0,0
25715,-191.613971673107,6,1,0,50,0,0
25950,-187.536588629707,6,1,0,50,0,0
26184,-183.562769004198,6,1,0,50,0,0
26418,-179.67315290682,6,1,0,50,0,0
26653,-175.84986037434,6,1,0,50,0,0
27239,-166.666666666667,6,1,0,50,0,0
27356,-71.4285714285714,6,1,0,90,0,0
27474,-50,6,1,0,90,0,0
28060,-111.111111111111,6,1,0,90,0,0
28064,-111.111111111111,6,1,0,90,0,1
28119,-111.949938092087,6,1,0,90,0,1
28177,-112.795097749399,6,1,0,90,0,1
28236,-113.661375853842,6,1,0,90,0,1
28294,-114.519455912691,6,1,0,90,0,1
28353,-115.398977267514,6,1,0,90,0,1
28412,-116.285253437991,6,1,0,90,0,1
28470,-117.163142310652,6,1,0,90,0,1
28529,-118.062967452494,6,1,0,90,0,1
28646,-119.867858318953,6,1,0,90,0,1
28763,-90.9090909090909,6,1,0,90,0,1
28998,-111.111111111111,6,1,0,90,0,1
29076,-114.531837016531,6,1,0,90,0,1
29154,-118.05787521343,6,1,0,90,0,1
29232,-121.692467902162,6,1,0,90,0,1
29466,-111.111111111111,6,1,0,90,0,1
29524,-111.949938092087,6,1,0,90,0,1
29582,-112.795097749399,6,1,0,90,0,1
29641,-113.661375853842,6,1,0,90,0,1
29700,-114.534307064397,6,1,0,90,0,1
29758,-115.398977267514,6,1,0,90,0,1
29817,-116.285253437991,6,1,0,90,0,1
29875,-117.163142310652,6,1,0,90,0,1
29934,-118.062967452494,6,1,0,90,0,1
30051,-119.867858318953,6,1,0,90,0,1
30169,-90.9090909090909,6,1,0,90,0,1
30404,-111.111111111111,6,1,0,90,0,1
30482,-114.531837016531,6,1,0,90,0,1
30560,-118.05787521343,6,1,0,90,0,1
30638,-121.692467902162,6,1,0,90,0,1
30872,-111.111111111111,6,1,0,90,0,1
30931,-111.949938092087,6,1,0,90,0,1
30990,-112.809725282293,6,1,0,90,0,1
31048,-113.661375853842,6,1,0,90,0,1
31107,-114.534307064397,6,1,0,90,0,1
31165,-115.398977267514,6,1,0,90,0,1
31224,-116.285253437991,6,1,0,90,0,1
31283,-117.178336301812,6,1,0,90,0,1
31341,-118.062967452494,6,1,0,90,0,1
31458,-119.867858318953,6,1,0,90,0,1
31576,-90.9090909090909,6,1,0,90,0,1
31810,-117.528874425209,6,1,0,90,0,1
31869,-120.456372116045,6,1,0,90,0,1
31927,-123.405318146469,6,1,0,90,0,1
32044,-123.637204187405,6,1,0,90,0,1
32123,-125.736673247946,6,1,0,90,0,1
32201,-127.844541038098,6,1,0,90,0,1
32278,-111.111111111111,6,1,0,90,0,1
32337,-111.949339667687,6,1,0,90,0,1
32396,-112.808508847974,6,1,0,90,0,1
32455,-113.674271829372,6,1,0,90,0,1
32513,-114.531837016531,6,1,0,90,0,1
32572,-115.410825895057,6,1,0,90,0,1
32630,-116.281491745086,6,1,0,90,0,1
32689,-117.17390856721,6,1,0,90,0,1
32748,-118.073174353624,6,1,0,90,0,1
32865,-119.876928604012,6,1,0,90,0,1
32981,-90.9090909090909,6,1,0,90,0,1
33216,-117.570699962767,6,1,0,90,0,1
33275,-120.477803889228,6,1,0,90,0,1
33333,-123.405690257215,6,1,0,90,0,1
33450,-123.663559437783,6,1,0,90,0,1
33529,-125.736673247946,6,1,0,90,0,1
33607,-127.844541038098,6,1,0,90,0,1
33686,-111.096703829925,6,1,0,90,0,1
33743,-111.949938092087,6,1,0,90,0,1
33801,-112.795097749399,6,1,0,90,0,1
33860,-113.661375853842,6,1,0,90,0,1
33918,-114.519455912691,6,1,0,90,0,1
33977,-115.398977267514,6,1,0,90,0,1
34036,-116.285253437991,6,1,0,90,0,1
34094,-117.163142310652,6,1,0,90,0,1
34153,-118.062967452494,6,1,0,90,0,1
34270,-119.867858318953,6,1,0,90,0,1
34388,-90.9090909090909,6,1,0,90,0,1
34623,-111.111111111111,6,1,0,90,0,1
34701,-114.531837016531,6,1,0,90,0,1
34779,-118.05787521343,6,1,0,90,0,1
34857,-121.692467902162,6,1,0,90,0,1
35091,-111.096703829925,6,1,0,90,0,1
35149,-111.949938092087,6,1,0,90,0,1
35207,-112.795097749399,6,1,0,90,0,1
35266,-113.661375853842,6,1,0,90,0,1
35325,-114.534307064397,6,1,0,90,0,1
35383,-115.398977267514,6,1,0,90,0,1
35442,-116.285253437991,6,1,0,90,0,1
35500,-117.163142310652,6,1,0,90,0,1
35559,-118.062967452494,6,1,0,90,0,1
35676,-119.867858318953,6,1,0,90,0,1
35793,-90.9090909090909,6,1,0,90,0,1
36028,-111.111111111111,6,1,0,90,0,1
36106,-114.531837016531,6,1,0,90,0,1
36184,-118.05787521343,6,1,0,90,0,1
36262,-121.692467902162,6,1,0,90,0,1
36340,-125.438957099188,6,1,0,90,0,1
36418,-129.30078771007,6,1,0,90,0,1
36497,-111.111111111111,6,1,0,90,0,1
36556,-111.949938092087,6,1,0,90,0,1
36615,-112.809725282293,6,1,0,90,0,1
36673,-113.661375853842,6,1,0,90,0,1
36732,-114.534307064397,6,1,0,90,0,1
36790,-115.398977267514,6,1,0,90,0,1
36849,-116.285253437991,6,1,0,90,0,1
36908,-117.178336301812,6,1,0,90,0,1
36966,-118.062967452494,6,1,0,90,0,1
37083,-119.867858318953,6,1,0,90,0,1
37200,-90.9090909090909,6,1,0,90,0,1
37435,-111.111111111111,6,1,0,90,0,1
37513,-114.531837016531,6,1,0,90,0,1
37591,-118.05787521343,6,1,0,90,0,1
37669,-121.692467902162,6,1,0,90,0,1
37904,-111.111111111111,6,1,0,90,0,1
37957,-112.04390539882,6,1,0,90,0,1
38016,-113.000817368584,6,1,0,90,0,1
38075,-113.96590185353,6,1,0,90,0,1
38133,-114.922662533713,6,1,0,90,0,1
38250,-116.877193204351,6,1,0,90,0,1
38485,-120.903969904319,6,1,0,90,0,1
38606,-90.9090909090909,6,1,0,90,0,1
38840,-111.06783332209,6,1,0,90,0,1
38899,-113.650290712365,6,1,0,90,0,1
38957,-116.247497211045,6,1,0,90,0,1
39075,-121.668715447466,6,1,0,90,0,1
39154,-125.47147051747,6,1,0,90,0,1
39232,-129.34268205944,6,1,0,90,0,1
39310,-133.333333333333,6,1,0,90,0,1
39314,-133.333333333333,6,1,0,90,0,0
40013,-90.9090909090909,6,1,0,90,0,0
40248,-111.111111111111,6,1,0,90,0,0
40482,-121.692467902162,6,1,0,90,0,0
40560,-125.438957099188,6,1,0,90,0,0
40638,-129.30078771007,6,1,0,90,0,0
40716,-111.111111111111,6,1,0,90,0,0
40720,-111.111111111111,6,1,0,90,0,1
40774,-112.044238507014,6,1,0,90,0,1
40832,-112.98520244355,6,1,0,90,0,1
40891,-113.950498185554,6,1,0,90,0,1
40950,-114.924040988672,6,1,0,90,0,1
41008,-115.889189928521,6,1,0,90,0,1
41067,-116.879296058907,6,1,0,90,0,1
41125,-117.860865517405,6,1,0,90,0,1
41184,-118.867816774493,6,1,0,90,0,1
41301,-120.890169099009,6,1,0,90,0,1
41418,-90.9090909090909,6,1,0,90,0,1
41653,-111.111111111111,6,1,0,90,0,1
41731,-114.922505541218,6,1,0,90,0,1
41809,-118.864640518841,6,1,0,90,0,1
41887,-122.942000778133,6,1,0,90,0,1
41965,-127.159224891061,6,1,0,90,0,1
42043,-131.521110544439,6,1,0,90,0,1
42122,-136.091453456723,6,1,0,90,0,1
42180,-137.225606480441,6,1,0,90,0,1
42356,-140.752629800472,6,1,0,90,0,1
42414,-141.934691014682,6,1,0,90,0,1
42590,-145.582748968075,6,1,0,90,0,1
42707,-148.059614605673,6,1,0,90,0,1
42825,-90.9090909090909,6,1,0,90,0,1
43059,-124.944553069041,6,1,0,90,0,1
43137,-129.344142596814,6,1,0,90,0,1
43215,-133.898651947321,6,1,0,90,0,1
43293,-138.613536209341,6,1,0,90,0,1
43450,-148.613138158233,6,1,0,90,0,1
43528,-111.111111111111,6,1,0,90,0,1
43645,-113.000817368584,6,1,0,90,0,1
43704,-113.96590185353,6,1,0,90,0,1
43762,-114.922662533713,6,1,0,90,0,1
43821,-115.90416055437,6,1,0,90,0,1
43879,-116.877193204351,6,1,0,90,0,1
43938,-117.875383911571,6,1,0,90,0,1
43997,-118.882099675396,6,1,0,90,0,1
44114,-120.903969904319,6,1,0,90,0,1
44231,-90.9090909090909,6,1,0,90,0,1
44465,-117.556754823622,6,1,0,90,0,1
44524,-120.470658701007,6,1,0,90,0,1
44582,-123.405566205588,6,1,0,90,0,1
44700,-126.453894445261,6,1,0,90,0,1
44778,-129.533645226765,6,1,0,90,0,1
44856,-132.688402514932,6,1,0,90,0,1
44934,-135.930406858965,6,1,0,90,0,1
44993,-137.235088666968,6,1,0,90,0,1
45051,-138.387197628004,6,1,0,90,0,1
45110,-139.569094719158,6,1,0,90,0,1
45168,-140.74079800781,6,1,0,90,0,1
45227,-141.942796043923,6,1,0,90,0,1
45286,-143.155059754946,6,1,0,90,0,1
45403,-145.589748864816,6,1,0,90,0,1
45559,-148.900534249171,6,1,0,90,0,1
45637,-90.9090909090909,6,1,0,90,0,1
45754,-153.145090859815,6,1,0,90,0,1
45872,-155.772135326367,6,1,0,90,0,1
45989,-158.421407536163,6,1,0,90,0,1
46047,-159.751378792167,6,1,0,90,0,1
46106,-161.115736862411,6,1,0,90,0,1
46223,-163.855889607548,6,1,0,90,0,1
46340,-111.095091043255,6,1,0,90,0,1
46399,-112.044238507014,6,1,0,90,0,1
46457,-112.98520244355,6,1,0,90,0,1
46516,-113.950498185554,6,1,0,90,0,1
46575,-114.924040988672,6,1,0,90,0,1
46633,-115.889189928521,6,1,0,90,0,1
46692,-116.879296058907,6,1,0,90,0,1
46750,-117.860865517405,6,1,0,90,0,1
46809,-118.867816774493,6,1,0,90,0,1
46926,-120.890169099009,6,1,0,90,0,1
47043,-90.9090909090909,6,1,0,90,0,1
47161,-125.056711490993,6,1,0,90,0,1
47278,-127.184358301061,6,1,0,90,0,1
47356,-128.622862052377,6,1,0,90,0,1
47434,-130.077635831471,6,1,0,90,0,1
47512,-131.548863658582,6,1,0,90,0,1
47629,-133.786964411387,6,1,0,90,0,1
47747,-136.082763487954,6,1,0,90,0,1
47805,-137.225606480441,6,1,0,90,0,1
47864,-138.398001544261,6,1,0,90,0,1
48098,-143.147318420006,6,1,0,90,0,1
48215,-145.582748968075,6,1,0,90,0,1
48332,-148.059614605673,6,1,0,90,0,1
48450,-90.9090909090909,6,1,0,90,0,1
48684,-124.944553069041,6,1,0,90,0,1
48762,-129.344142596814,6,1,0,90,0,1
48840,-133.898651947321,6,1,0,90,0,1
48918,-138.613536209341,6,1,0,90,0,1
48997,-143.558121416048,6,1,0,90,0,1
49075,-148.613138158233,6,1,0,90,0,1
49153,-153.846153846154,6,1,0,90,0,1
49158,-153.846153846154,6,1,0,90,0,0
49505,-158.96599991357,6,1,0,80,0,0
49857,-164.271549980449,6,1,0,80,0,0
50208,-169.738342799962,6,1,0,80,0,0
50326,-171.616746605692,6,1,0,80,0,0
50443,-173.49975489061,6,1,0,80,0,0
50561,-175.419784239923,6,1,0,80,0,0
50677,-177.32798021957,6,1,0,80,0,0
50794,-179.273653136144,6,1,0,80,0,0
50912,-181.257579141094,6,1,0,80,0,0
51029,-183.246368288874,6,1,0,80,0,0
51146,-185.256978771205,6,1,0,80,0,0
51263,-187.289650015501,6,1,0,80,0,0
51498,-191.440000150895,6,1,0,80,0,0
51967,-200,6,1,0,50,0,0
57356,-142.857142857143,6,1,0,70,0,0
57591,-111.111111111111,6,1,0,80,0,0
57650,-110.758394935807,6,1,0,80,0,0
57708,-110.406798438805,6,1,0,80,0,0
57826,-109.694922909454,6,1,0,80,0,0
57943,-108.99361211972,6,1,0,80,0,0
58001,-108.647617829725,6,1,0,80,0,0
58060,-108.296785009,6,1,0,80,0,0
58177,-107.604412911861,6,1,0,80,0,0
58294,-106.916467346136,6,1,0,80,0,0
58353,-106.571224564286,6,1,0,80,0,0
58412,-106.227096602082,6,1,0,80,0,0
58470,-105.889884465038,6,1,0,80,0,0
58529,-105.547956610611,6,1,0,80,0,0
58646,-104.873158553945,6,1,0,80,0,0
58705,-104.53451379791,6,1,0,80,0,0
58763,-104.202674672863,6,1,0,80,0,0
58880,-103.536477385614,6,1,0,80,0,0
58998,-102.868899974728,6,1,0,80,0,0
59056,-102.542348250116,6,1,0,80,0,0
59115,-102.211229887846,6,1,0,80,0,0
59232,-101.557764472573,6,1,0,80,0,0
59349,-100.90847684725,6,1,0,80,0,0
59408,-100.582634401051,6,1,0,80,0,0
59466,-100.263340302079,6,1,0,80,0,0
59583,-99.6223282980261,6,1,0,80,0,0
59701,-98.9799883452773,6,1,0,80,0,0
59759,-98.6657817589899,6,1,0,80,0,0
59818,-98.3471811746884,6,1,0,80,0,0
59876,-98.0349834003253,6,1,0,80,0,0
59935,-97.718419720025,6,1,0,80,0,0
60052,-97.1503983286697,6,1,0,80,0,0
60169,-91.076486295981,6,1,0,80,0,0
60404,-80,6,1,0,80,0,0
60638,-109.695423132586,6,1,0,80,0,0
60755,-108.994357658165,6,1,0,80,0,0
60814,-108.642530097959,6,1,0,80,0,0
60873,-108.291838217019,6,1,0,80,0,0
60990,-107.599743079706,6,1,0,80,0,0
61107,-106.912071135193,6,1,0,80,0,0
61165,-106.572805041464,6,1,0,80,0,0
61224,-106.228794114773,6,1,0,80,0,0
61341,-105.549883930405,6,1,0,80,0,0
61458,-104.875312673559,6,1,0,80,0,0
61517,-104.536781155263,6,1,0,80,0,0
61576,-104.199342397369,6,1,0,80,0,0
61693,-103.533402476394,6,1,0,80,0,0
61810,-102.871718589749,6,1,0,80,0,0
61811,-102.866081436935,6,1,0,80,0,0
61869,-102.539654558699,6,1,0,80,0,0
61927,-102.214263537039,6,1,0,80,0,0
62044,-101.561010291709,6,1,0,80,0,0
62162,-100.906402239281,6,1,0,80,0,0
62220,-100.58619404804,6,1,0,80,0,0
62279,-100.26150755965,6,1,0,80,0,0
62337,-99.9433458248715,6,1,0,80,0,0
62396,-99.6207344138234,6,1,0,80,0,0
62455,-99.2991643739809,6,1,0,80,0,0
62513,-98.9840564610013,6,1,0,80,0,0
62630,-98.3514475287299,6,1,0,80,0,0
62748,-97.7175266043967,6,1,0,80,0,0
62865,-97.0930120878214,6,1,0,80,0,0
62982,-96.4724888550512,6,1,0,80,0,0
63099,-95.8559313977177,6,1,0,80,0,0
63216,-71.3855393919892,6,1,0,60,0,0
63220,-71.4285714285714,6,1,0,60,0,0
63332,-76.6004564801065,6,1,0,60,0,0
63450,-82.2458870353311,6,1,0,60,0,0
63567,-88.2541834687688,6,1,0,60,0,0
63684,-94.7014030791983,6,1,0,60,0,0
63801,-101.619610455548,6,1,0,60,0,0
63918,-109.043212596347,6,1,0,60,0,0
64036,-117.0796644991,6,1,0,60,0,0
64153,-125.632667646064,6,1,0,60,0,0
64270,-134.810492047385,6,1,0,60,0,0
64387,-144.658782676317,6,1,0,60,0,0
64504,-155.226519001492,6,1,0,60,0,0
64622,-166.666666666667,6,1,0,60,0,0
65501,-197.119925828757,6,1,0,50,0,0
65765,-192.853412818168,6,1,0,50,0,0
66029,-188.679245283019,6,1,0,50,0,0
66092,-200,6,1,0,50,0,0
68314,-197.119925828757,6,1,0,50,0,0
68578,-192.853412818168,6,1,0,50,0,0
68842,-188.679245283019,6,1,0,50,0,0
68905,-200,6,1,0,50,0,0
71390,-192.853412818168,6,1,0,50,0,0
71654,-188.679245283019,6,1,0,50,0,0
71717,-200,6,1,0,50,0,0
74466,-133.333333333333,6,1,0,70,0,0
75169,-200,6,1,0,50,0,0
75404,-196.158307757727,6,1,0,50,0,0
75638,-192.390408511876,6,1,0,50,0,0
75873,-188.679245283019,6,1,0,50,0,0
75936,-200,6,1,0,50,0,0
77786,-199.600798403194,6,1,0,50,0,0
78063,-196.161011797123,6,1,0,50,0,0
78336,-192.862393861108,6,1,0,50,0,0
78610,-189.607466201154,6,1,0,50,0,0
78685,-188.679245283019,6,1,0,50,0,0
79622,-196.158307757727,6,1,0,50,0,0
79856,-192.390408511876,6,1,0,50,0,0
80090,-188.694884812537,6,1,0,50,0,0
80154,-200,6,1,0,50,0,0
82850,-153.846153846154,6,1,0,50,0,0
83138,-158.180388978824,6,1,0,60,0,0
83373,-162.656041591759,6,1,0,60,0,0
83607,-167.238473536811,6,1,0,60,0,0
83841,-171.950004175804,6,1,0,60,0,0
84193,-179.288629941857,6,1,0,60,0,0
84311,-133.312173935997,6,1,0,60,0,0
84544,-138.35616132312,6,1,0,60,0,0
84779,-143.613783420307,6,1,0,60,0,0
85013,-149.047541574583,6,1,0,60,0,0
85248,-154.71144291891,6,1,0,60,0,0
85326,-156.63855488375,6,1,0,60,0,0
85404,-158.589671281972,6,1,0,60,0,0
85482,-160.565091116869,6,1,0,60,0,0
85717,-80,6,1,0,80,0,0
86067,-108.99361211972,6,1,0,80,0,0
86184,-108.296785009,6,1,0,80,0,0
86418,-106.916467346136,6,1,0,80,0,0
86536,-106.227096602082,6,1,0,80,0,0
86653,-105.547956610611,6,1,0,80,0,0
86770,-104.873158553945,6,1,0,80,0,0
87004,-103.536477385614,6,1,0,80,0,0
87122,-102.868899974728,6,1,0,80,0,0
87356,-101.557764472573,6,1,0,80,0,0
87473,-100.90847684725,6,1,0,80,0,0
87590,-100.263340302079,6,1,0,80,0,0
87707,-99.6223282980261,6,1,0,80,0,0
87825,-98.9799883452773,6,1,0,80,0,0
87942,-98.3471811746884,6,1,0,80,0,0
88000,-98.0349834003253,6,1,0,80,0,0
88059,-97.718419720025,6,1,0,80,0,0
88176,-97.1503983286697,6,1,0,80,0,0
88293,-91.076486295981,6,1,0,80,0,0
88528,-80,6,1,0,80,0,0
88880,-108.994357658165,6,1,0,80,0,0
88998,-108.291838217019,6,1,0,80,0,0
89115,-107.599743079706,6,1,0,80,0,0
89232,-106.912071135193,6,1,0,80,0,0
89349,-106.228794114773,6,1,0,80,0,0
89408,-105.885893635702,6,1,0,80,0,0
89466,-105.549883930405,6,1,0,80,0,0
89583,-104.875312673559,6,1,0,80,0,0
89701,-104.199342397369,6,1,0,80,0,0
89818,-103.533402476394,6,1,0,80,0,0
89936,-102.866081436935,6,1,0,80,0,0
90169,-101.561010291709,6,1,0,80,0,0
90287,-100.906402239281,6,1,0,80,0,0
90404,-100.26150755965,6,1,0,80,0,0
90638,-98.9840564610013,6,1,0,80,0,0
90755,-98.3514475287299,6,1,0,80,0,0
90814,-98.0339746744443,6,1,0,80,0,0
90873,-97.7175266043967,6,1,0,80,0,0
90990,-97.0930120878214,6,1,0,80,0,0
91107,-96.4724888550512,6,1,0,80,0,0
91224,-95.8559313977177,6,1,0,80,0,0
91341,-95.2265764460764,6,1,0,80,0,0
91810,-109.522673588569,6,1,0,80,0,0
92279,-125.975359918181,6,1,0,80,0,0
92748,-144.899597375896,6,1,0,80,0,0
93216,-166.616938927104,6,1,0,80,0,0
93450,-71.4285714285714,6,1,0,90,0,0
93567,-50,6,1,0,90,0,0
94153,-100,6,1,0,90,0,0
94211,-101.780785126841,6,1,0,90,0,0
94270,-103.624813567924,6,1,0,90,0,0
94329,-105.502251467259,6,1,0,90,0,0
94387,-107.38101986987,6,1,0,90,0,0
94504,-111.273381647489,6,1,0,90,0,0
94563,-113.289393611218,6,1,0,90,0,0
94622,-115.341930970128,6,1,0,90,0,0
94680,-117.395922921856,6,1,0,90,0,0
94739,-119.522860933439,6,1,0,90,0,0
94856,-123.855341813326,6,1,0,90,0,0
94934,-126.83056204614,6,1,0,90,0,0
95012,-129.877252231758,6,1,0,90,0,0
95090,-132.997129202463,6,1,0,90,0,0
95207,-137.818027186744,6,1,0,90,0,0
95325,-142.857142857143,6,1,0,90,0,0
95560,-137.231053852466,6,1,0,90,0,0
95637,-135.436238207589,6,1,0,90,0,0
95715,-133.642045185181,6,1,0,90,0,0
95793,-131.871620754136,6,1,0,90,0,0
95872,-130.102403893288,6,1,0,90,0,0
95950,-128.378870898329,6,1,0,90,0,0
96028,-126.67817042526,6,1,0,90,0,0
96106,-125,6,1,0,90,0,0
96266,-80,6,1,0,90,0,0
96497,-142.33919749453,6,1,0,90,0,0
96731,-153.846153846154,6,1,0,90,0,0
96966,-100,6,1,0,90,0,0
96970,-100,6,1,0,90,0,1
97025,-101.193809395642,6,1,0,90,0,1
97083,-102.401870600015,6,1,0,90,0,1
97142,-103.645558531255,6,1,0,90,0,1
97201,-104.904351261472,6,1,0,90,0,1
97259,-106.156709263269,6,1,0,90,0,1
97318,-107.446000341227,6,1,0,90,0,1
97376,-108.728700788542,6,1,0,90,0,1
97435,-110.049229135903,6,1,0,90,0,1
97552,-112.715529614363,6,1,0,90,0,1
97669,-80,6,1,0,90,0,1
97904,-100,6,1,0,90,0,1
97982,-104.90078153162,6,1,0,90,0,1
98060,-110.041739659446,6,1,0,90,0,1
98138,-115.434644913749,6,1,0,90,0,1
98255,-124.023578208089,6,1,0,90,0,1
98372,-100,6,1,0,90,0,1
98431,-101.193809395642,6,1,0,90,0,1
98489,-102.401870600015,6,1,0,90,0,1
98548,-103.645558531255,6,1,0,90,0,1
98607,-104.904351261472,6,1,0,90,0,1
98665,-106.156709263269,6,1,0,90,0,1
98724,-107.446000341227,6,1,0,90,0,1
98782,-108.728700788542,6,1,0,90,0,1
98841,-110.049229135903,6,1,0,90,0,1
98958,-112.715529614363,6,1,0,90,0,1
99075,-80,6,1,0,90,0,1
99310,-100,6,1,0,90,0,1
99388,-104.90078153162,6,1,0,90,0,1
99466,-110.041739659446,6,1,0,90,0,1
99544,-115.434644913749,6,1,0,90,0,1
99661,-124.023578208089,6,1,0,90,0,1
99778,-100,6,1,0,90,0,1
99837,-101.193809395642,6,1,0,90,0,1
99895,-102.401870600015,6,1,0,90,0,1
99954,-103.645558531255,6,1,0,90,0,1
100013,-104.904351261472,6,1,0,90,0,1
100071,-106.156709263269,6,1,0,90,0,1
100130,-107.446000341227,6,1,0,90,0,1
100188,-108.728700788542,6,1,0,90,0,1
100247,-110.049229135903,6,1,0,90,0,1
100364,-112.715529614363,6,1,0,90,0,1
100481,-80,6,1,0,90,0,1
100716,-108.43631281419,6,1,0,90,0,1
100774,-111.964235007057,6,1,0,90,0,1
100833,-115.544219099236,6,1,0,90,0,1
100950,-116.44505345118,6,1,0,90,0,1
101028,-119.166338680578,6,1,0,90,0,1
101106,-121.951219512195,6,1,0,90,0,1
101185,-100,6,1,0,90,0,1
101244,-101.193809395642,6,1,0,90,0,1
101302,-102.401870600015,6,1,0,90,0,1
101361,-103.645558531255,6,1,0,90,0,1
101420,-104.904351261472,6,1,0,90,0,1
101478,-106.156709263269,6,1,0,90,0,1
101537,-107.446000341227,6,1,0,90,0,1
101595,-108.728700788542,6,1,0,90,0,1
101654,-110.049229135903,6,1,0,90,0,1
101771,-112.715529614363,6,1,0,90,0,1
101888,-80,6,1,0,90,0,1
102123,-108.695652173913,6,1,0,90,0,1
102181,-112.068516631608,6,1,0,90,0,1
102240,-115.606936416185,6,1,0,90,0,1
102357,-116.44473884858,6,1,0,90,0,1
102435,-119.148643990323,6,1,0,90,0,1
102513,-121.915335163345,6,1,0,90,0,1
102591,-100,6,1,0,90,0,1
102650,-101.193809395642,6,1,0,90,0,1
102708,-102.401870600015,6,1,0,90,0,1
102767,-103.645558531255,6,1,0,90,0,1
102826,-104.904351261472,6,1,0,90,0,1
102884,-106.156709263269,6,1,0,90,0,1
102943,-107.446000341227,6,1,0,90,0,1
103001,-108.728700788542,6,1,0,90,0,1
103060,-110.049229135903,6,1,0,90,0,1
103177,-112.715529614363,6,1,0,90,0,1
103294,-80,6,1,0,90,0,1
103528,-100,6,1,0,90,0,1
103606,-104.90078153162,6,1,0,90,0,1
103684,-110.041739659446,6,1,0,90,0,1
103762,-115.434644913749,6,1,0,90,0,1
103879,-124.023578208089,6,1,0,90,0,1
103997,-100,6,1,0,90,0,1
104056,-101.193809395642,6,1,0,90,0,1
104114,-102.401870600015,6,1,0,90,0,1
104173,-103.645558531255,6,1,0,90,0,1
104232,-104.904351261472,6,1,0,90,0,1
104290,-106.156709263269,6,1,0,90,0,1
104349,-107.446000341227,6,1,0,90,0,1
104407,-108.728700788542,6,1,0,90,0,1
104466,-110.049229135903,6,1,0,90,0,1
104583,-112.715529614363,6,1,0,90,0,1
104700,-80,6,1,0,90,0,1
104934,-100,6,1,0,90,0,1
105012,-104.90078153162,6,1,0,90,0,1
105090,-110.041739659446,6,1,0,90,0,1
105168,-115.362360571451,6,1,0,90,0,1
105247,-121.115772239718,6,1,0,90,0,1
105325,-127.077809360889,6,1,0,90,0,1
105403,-100,6,1,0,90,0,1
105462,-101.193809395642,6,1,0,90,0,1
105520,-102.401870600015,6,1,0,90,0,1
105579,-103.645558531255,6,1,0,90,0,1
105638,-104.904351261472,6,1,0,90,0,1
105696,-106.156709263269,6,1,0,90,0,1
105755,-107.446000341227,6,1,0,90,0,1
105813,-108.728700788542,6,1,0,90,0,1
105872,-110.049229135903,6,1,0,90,0,1
105989,-112.715529614363,6,1,0,90,0,1
106106,-80,6,1,0,90,0,1
106340,-100,6,1,0,90,0,1
106418,-104.90078153162,6,1,0,90,0,1
106496,-110.041739659446,6,1,0,90,0,1
106574,-115.434644913749,6,1,0,90,0,1
106691,-124.023578208089,6,1,0,90,0,1
106810,-100,6,1,0,90,0,1
106869,-101.193809395642,6,1,0,90,0,1
106927,-102.401870600015,6,1,0,90,0,1
106986,-103.645558531255,6,1,0,90,0,1
107045,-104.904351261472,6,1,0,90,0,1
107162,-107.446000341227,6,1,0,90,0,1
107396,-112.715529614363,6,1,0,90,0,1
107513,-80,6,1,0,90,0,1
107748,-108.695652173913,6,1,0,90,0,1
107806,-112.068516631608,6,1,0,90,0,1
107865,-115.606936416185,6,1,0,90,0,1
107982,-116.44473884858,6,1,0,90,0,1
108060,-119.148643990323,6,1,0,90,0,1
108138,-121.915335163345,6,1,0,90,0,1
108216,-100,6,1,0,90,0,1
108275,-101.193809395642,6,1,0,90,0,1
108333,-102.401870600015,6,1,0,90,0,1
108392,-103.645558531255,6,1,0,90,0,1
108451,-104.904351261472,6,1,0,90,0,1
108509,-106.156709263269,6,1,0,90,0,1
108568,-107.446000341227,6,1,0,90,0,1
108626,-108.728700788542,6,1,0,90,0,1
108685,-110.049229135903,6,1,0,90,0,1
108802,-112.715529614363,6,1,0,90,0,1
108919,-80,6,1,0,90,0,1
109154,-100,6,1,0,90,0,1
109232,-104.90078153162,6,1,0,90,0,1
109310,-110.041739659446,6,1,0,90,0,1
109388,-115.434644913749,6,1,0,90,0,1
109505,-124.023578208089,6,1,0,90,0,1
109622,-100,6,1,0,90,0,1
109681,-101.193809395642,6,1,0,90,0,1
109739,-102.401870600015,6,1,0,90,0,1
109798,-103.645558531255,6,1,0,90,0,1
109857,-104.904351261472,6,1,0,90,0,1
109915,-106.156709263269,6,1,0,90,0,1
109974,-107.446000341227,6,1,0,90,0,1
110032,-108.728700788542,6,1,0,90,0,1
110091,-110.049229135903,6,1,0,90,0,1
110208,-112.715529614363,6,1,0,90,0,1
110325,-80,6,1,0,90,0,1
110560,-100,6,1,0,90,0,1
110638,-104.90078153162,6,1,0,90,0,1
110716,-110.041739659446,6,1,0,90,0,1
110794,-115.434644913749,6,1,0,90,0,1
110911,-124.023578208089,6,1,0,90,0,1
111028,-100,6,1,0,90,0,1
111087,-101.193809395642,6,1,0,90,0,1
111145,-102.401870600015,6,1,0,90,0,1
111204,-103.645558531255,6,1,0,90,0,1
111263,-104.904351261472,6,1,0,90,0,1
111321,-106.156709263269,6,1,0,90,0,1
111380,-107.446000341227,6,1,0,90,0,1
111438,-108.728700788542,6,1,0,90,0,1
111497,-110.049229135903,6,1,0,90,0,1
111614,-112.715529614363,6,1,0,90,0,1
111731,-80,6,1,0,90,0,1
111966,-108.507551609074,6,1,0,90,0,1
112024,-112.001007225588,6,1,0,90,0,1
112083,-115.544862181639,6,1,0,90,0,1
112200,-116.44505345118,6,1,0,90,0,1
112278,-119.166338680578,6,1,0,90,0,1
112356,-121.951219512195,6,1,0,90,0,1
112435,-100,6,1,0,90,0,1
112494,-101.193809395642,6,1,0,90,0,1
112552,-102.401870600015,6,1,0,90,0,1
112611,-103.645558531255,6,1,0,90,0,1
112670,-104.904351261472,6,1,0,90,0,1
112728,-106.156709263269,6,1,0,90,0,1
112787,-107.446000341227,6,1,0,90,0,1
112845,-108.728700788542,6,1,0,90,0,1
112904,-110.049229135903,6,1,0,90,0,1
113021,-112.715529614363,6,1,0,90,0,1
113138,-80,6,1,0,90,0,1
113372,-108.560443762531,6,1,0,90,0,1
113430,-111.705917151813,6,1,0,90,0,1
113489,-114.886897209382,6,1,0,90,0,1
113606,-116.44505345118,6,1,0,90,0,1
113684,-119.166338680578,6,1,0,90,0,1
113762,-121.951219512195,6,1,0,90,0,1
113841,-100,6,1,0,90,0,1
113900,-101.193809395642,6,1,0,90,0,1
113958,-102.401870600015,6,1,0,90,0,1
114017,-103.645558531255,6,1,0,90,0,1
114076,-104.904351261472,6,1,0,90,0,1
114134,-106.156709263269,6,1,0,90,0,1
114193,-107.446000341227,6,1,0,90,0,1
114251,-108.728700788542,6,1,0,90,0,1
114310,-110.049229135903,6,1,0,90,0,1
114427,-112.715529614363,6,1,0,90,0,1
114544,-80,6,1,0,90,0,1
114778,-100,6,1,0,90,0,1
114856,-104.90078153162,6,1,0,90,0,1
114934,-110.041739659446,6,1,0,90,0,1
115012,-115.434644913749,6,1,0,90,0,1
115129,-124.023578208089,6,1,0,90,0,1
115247,-100,6,1,0,90,0,1
115306,-101.193809395642,6,1,0,90,0,1
115364,-102.401870600015,6,1,0,90,0,1
115423,-103.645558531255,6,1,0,90,0,1
115482,-104.904351261472,6,1,0,90,0,1
115540,-106.156709263269,6,1,0,90,0,1
115599,-107.446000341227,6,1,0,90,0,1
115657,-108.728700788542,6,1,0,90,0,1
115716,-110.049229135903,6,1,0,90,0,1
115833,-112.715529614363,6,1,0,90,0,1
115950,-80,6,1,0,90,0,1
116184,-100,6,1,0,90,0,1
116262,-104.90078153162,6,1,0,90,0,1
116340,-110.041739659446,6,1,0,90,0,1
116418,-115.362360571451,6,1,0,90,0,1
116497,-121.115772239718,6,1,0,90,0,1
116575,-127.077809360889,6,1,0,90,0,1
116653,-100,6,1,0,90,0,1
116712,-101.193809395642,6,1,0,90,0,1
116770,-102.401870600015,6,1,0,90,0,1
116829,-103.645558531255,6,1,0,90,0,1
116888,-104.904351261472,6,1,0,90,0,1
116946,-106.156709263269,6,1,0,90,0,1
117005,-107.446000341227,6,1,0,90,0,1
117063,-108.728700788542,6,1,0,90,0,1
117122,-110.049229135903,6,1,0,90,0,1
117239,-112.715529614363,6,1,0,90,0,1
117356,-80,6,1,0,90,0,1
117590,-100,6,1,0,90,0,1
117668,-104.90078153162,6,1,0,90,0,1
117746,-110.041739659446,6,1,0,90,0,1
117824,-115.434644913749,6,1,0,90,0,1
117941,-124.023578208089,6,1,0,90,0,1
118060,-100,6,1,0,90,0,1
118119,-101.193809395642,6,1,0,90,0,1
118177,-102.401870600015,6,1,0,90,0,1
118236,-103.645558531255,6,1,0,90,0,1
118295,-104.904351261472,6,1,0,90,0,1
118412,-107.446000341227,6,1,0,90,0,1
118646,-112.715529614363,6,1,0,90,0,1
118763,-80,6,1,0,90,0,1
118998,-99.9386793477244,6,1,0,90,0,1
119056,-103.621731714624,6,1,0,90,0,1
119115,-107.374632835375,6,1,0,90,0,1
119232,-115.434644913749,6,1,0,90,0,1
119310,-121.091844672772,6,1,0,90,0,1
119388,-127.026291432793,6,1,0,90,0,1
119466,-133.333333333333,6,1,0,90,0,1
119470,-133.333333333333,6,1,0,90,0,0
120169,-80,6,1,0,90,0,0
120404,-99.9386793477244,6,1,0,90,0,0
120638,-115.434644913749,6,1,0,90,0,0
120716,-121.091844672772,6,1,0,90,0,0
120794,-127.026291432793,6,1,0,90,0,0
120872,-100,6,1,0,90,0,0
120877,-100,6,1,0,90,0,1
120931,-101.058814897782,6,1,0,90,0,1
120990,-102.147388415955,6,1,0,90,0,1
121048,-103.228940182199,6,1,0,90,0,1
121107,-104.340889602001,6,1,0,90,0,1
121165,-105.445666485585,6,1,0,90,0,1
121224,-106.581493778419,6,1,0,90,0,1
121283,-107.72955584279,6,1,0,90,0,1
121341,-108.870212429369,6,1,0,90,0,1
121458,-111.208078759503,6,1,0,90,0,1
121575,-80,6,1,0,90,0,1
121810,-105.217258049436,6,1,0,90,0,1
121868,-107.959894480109,6,1,0,90,0,1
121927,-110.725718753485,6,1,0,90,0,1
122044,-116.522565031256,6,1,0,90,0,1
122122,-120.607357760115,6,1,0,90,0,1
122200,-124.780911931502,6,1,0,90,0,1
122278,-129.098889749548,6,1,0,90,0,1
122396,-131.859738345759,6,1,0,90,0,1
122455,-133.280089647341,6,1,0,90,0,1
122513,-134.691279092304,6,1,0,90,0,1
122572,-136.142130853202,6,1,0,90,0,1
122630,-137.583624016835,6,1,0,90,0,1
122748,-140.563602095504,6,1,0,90,0,1
122865,-143.582048603953,6,1,0,90,0,1
122981,-80,6,1,0,90,0,1
123216,-153.031892199748,6,1,0,90,0,1
123294,-155.214918053406,6,1,0,90,0,1
123373,-157.457676008919,6,1,0,90,0,1
123451,-159.703836417992,6,1,0,90,0,1
123607,-164.292739894343,6,1,0,90,0,1
123685,-99.9818357315614,6,1,0,90,0,1
123802,-102.129605745702,6,1,0,90,0,1
123861,-103.230106802681,6,1,0,90,0,1
123919,-104.323513300726,6,1,0,90,0,1
123978,-105.44765488354,6,1,0,90,0,1
124037,-106.583909692398,6,1,0,90,0,1
124095,-107.712839449949,6,1,0,90,0,1
124154,-108.873502832514,6,1,0,90,0,1
124271,-111.212280101477,6,1,0,90,0,1
124388,-80,6,1,0,90,0,1
124623,-105.263157894737,6,1,0,90,0,1
124681,-107.954071632542,6,1,0,90,0,1
124740,-110.761969665973,6,1,0,90,0,1
124857,-116.548032280716,6,1,0,90,0,1
124935,-120.572369521203,6,1,0,90,0,1
125013,-124.735664836813,6,1,0,90,0,1
125091,-129.042716370816,6,1,0,90,0,1
125095,-129.098889749548,6,1,0,90,0,1
125150,-130.466857698103,6,1,0,90,0,1
125208,-131.848754069278,6,1,0,90,0,1
125267,-133.269494824665,6,1,0,90,0,1
125326,-134.705544820616,6,1,0,90,0,1
125384,-136.13233708686,6,1,0,90,0,1
125443,-137.599235737444,6,1,0,90,0,1
125560,-140.555087771198,6,1,0,90,0,1
125716,-144.595230967923,6,1,0,90,0,1
125794,-80,6,1,0,90,0,1
125912,-149.836324490323,6,1,0,90,0,1
126029,-153.05504879574,6,1,0,90,0,1
126146,-156.342916456011,6,1,0,90,0,1
126205,-158.027594895281,6,1,0,90,0,1
126263,-159.701412781174,6,1,0,90,0,1
126380,-163.132054988107,6,1,0,90,0,1
126498,-100,6,1,0,90,0,1
126556,-101.058814897782,6,1,0,90,0,1
126615,-102.147388415955,6,1,0,90,0,1
126673,-103.228940182199,6,1,0,90,0,1
126732,-104.340889602001,6,1,0,90,0,1
126790,-105.445666485585,6,1,0,90,0,1
126849,-106.581493778419,6,1,0,90,0,1
126908,-107.72955584279,6,1,0,90,0,1
126966,-108.870212429369,6,1,0,90,0,1
127083,-111.208078759503,6,1,0,90,0,1
127201,-80,6,1,0,90,0,1
127318,-116.056572020849,6,1,0,90,0,1
127435,-118.548757404379,6,1,0,90,0,1
127513,-120.239875501482,6,1,0,90,0,1
127591,-121.955117684581,6,1,0,90,0,1
127669,-123.694828087847,6,1,0,90,0,1
127787,-126.373983247341,6,1,0,90,0,1
127904,-129.087723524376,6,1,0,90,0,1
127962,-130.45452357226,6,1,0,90,0,1
128021,-131.859738345759,6,1,0,90,0,1
128255,-137.583624016835,6,1,0,90,0,1
128373,-140.563602095504,6,1,0,90,0,1
128490,-143.582048603953,6,1,0,90,0,1
128607,-80,6,1,0,90,0,1
128841,-124.923704096719,6,1,0,90,0,1
128919,-131.016905260654,6,1,0,90,0,1
128998,-137.491224765519,6,1,0,90,0,1
129076,-144.197411528309,6,1,0,90,0,1
129154,-151.23069510018,6,1,0,90,0,1
129232,-158.607029752358,6,1,0,90,0,1
129310,-166.343147931716,6,1,0,90,0,1
129314,-166.343147931716,6,1,0,90,0,0
129427,-100,6,1,0,80,0,0
130716,-200,6,1,0,80,0,0
132122,-166.666666666667,6,1,0,80,0,0
133518,-222.222222222222,6,1,0,80,0,0
134466,-200.094393632502,6,1,0,70,0,0
134935,-193.456779880533,6,1,0,70,0,0
135012,-192.39052952751,6,1,0,70,0,0
135873,-175.438596491228,6,1,0,70,0,0
135946,-177.231232055863,6,1,0,70,0,0
136019,-179.042184811423,6,1,0,70,0,0
136092,-180.871641923381,6,1,0,70,0,0
136165,-182.719792469672,6,1,0,70,0,0
136239,-184.61253529642,6,1,0,70,0,0
136312,-186.498910376183,6,1,0,70,0,0
136342,-187.27971011916,6,1,0,70,0,0
136385,-188.404560479368,6,1,0,70,0,0
136458,-190.329682558599,6,1,0,70,0,0
136532,-192.30125409177,6,1,0,70,0,0
136810,-199.936367875274,6,1,0,70,0,0
136926,-198.034098152292,6,1,0,70,0,0
137043,-196.149927338165,6,1,0,70,0,0
137278,-192.419472274081,6,1,0,70,0,0
137512,-188.775388420351,6,1,0,70,0,0
137649,-186.674000979537,6,1,0,70,0,0
137707,-185.791425525426,6,1,0,70,0,0
137747,-185.185185185185,6,1,0,70,0,0
137766,-185.47148441627,6,1,0,70,0,0
138098,-190.546237017951,6,1,0,70,0,0
138215,-192.367524106287,6,1,0,70,0,0
138450,-196.078431372549,6,1,0,70,0,0
138625,-172.387673894775,6,1,0,70,0,0
138699,-174.331223343012,6,1,0,70,0,0
138772,-176.269977507172,6,1,0,70,0,0
138845,-178.230292741328,6,1,0,70,0,0
138918,-180.212408828197,6,1,0,70,0,0
138992,-182.244176644481,6,1,0,70,0,0
139065,-184.270931517119,6,1,0,70,0,0
139138,-186.320226124027,6,1,0,70,0,0
139153,-186.744128390185,6,1,0,70,0,0
139739,-204.081632653061,6,1,0,70,0,0
139856,-201.27524553844,6,1,0,70,0,0
139973,-198.507449886141,6,1,0,70,0,0
140091,-195.754546473849,6,1,0,70,0,0
140208,-193.062667593271,6,1,0,70,0,0
140325,-190.407805538295,6,1,0,70,0,0
140442,-187.789451279564,6,1,0,70,0,0
140560,-185.165589031365,6,1,0,70,0,0
141028,-194.58758025447,6,1,0,70,0,0
141672,-208.37084422225,6,1,0,70,0,0
141746,-205.613198947669,6,1,0,70,0,0
141819,-202.928580391169,6,1,0,70,0,0
141892,-200.279013946259,6,1,0,70,0,0
141966,-197.628458498024,6,1,0,70,0,0
142435,-172.328152442844,6,1,0,70,0,0
142494,-173.881271122213,6,1,0,70,0,0
142552,-175.421708785939,6,1,0,70,0,0
142669,-178.570799240624,6,1,0,70,0,0
142728,-180.18018018018,6,1,0,70,0,0
142904,-169.491525423729,6,1,0,70,0,0
143021,-172.020601221233,6,1,0,70,0,0
143080,-173.310225303293,6,1,0,70,0,0
143255,-168.583783066196,6,1,0,70,0,0
143373,-165.469787216146,6,1,0,70,0,0
143416,-164.320911761848,6,1,0,70,0,0
143723,-169.839973374265,6,1,0,70,0,0
144075,-176.37481554406,6,1,0,70,0,0
144309,-180.857542203335,6,1,0,70,0,0
144661,-187.81630149913,6,1,0,70,0,0
144778,-190.188087010378,6,1,0,70,0,0
144856,-191.785893783643,6,1,0,70,0,0
145247,-200,6,1,0,70,0,0
145306,-195.88192358605,6,1,0,70,0,0
145365,-191.779833793224,6,1,0,70,0,0
145423,-187.831013742149,6,1,0,70,0,0
145482,-183.897523248784,6,1,0,70,0,0
145599,-176.339182218187,6,1,0,70,0,0
145716,-169.091495285185,6,1,0,70,0,0
145794,-164.425962514703,6,1,0,70,0,0
145873,-159.831816087525,6,1,0,70,0,0
145951,-155.421774207746,6,1,0,70,0,0
146029,-151.133413166348,6,1,0,70,0,0
146107,-146.963375574255,6,1,0,70,0,0
146185,-142.857142857143,6,1,0,80,0,0
146302,-141.717529715266,6,1,0,80,0,0
146419,-140.577301031628,6,1,0,80,0,0
146537,-139.436618575279,6,1,0,80,0,0
146595,-138.879341649278,6,1,0,80,0,0
146654,-138.31474161081,6,1,0,80,0,0
146771,-137.201891026471,6,1,0,80,0,0
146888,-136.097994197955,6,1,0,80,0,0
146947,-135.544701448673,6,1,0,80,0,0
147005,-135.002979085274,6,1,0,80,0,0
147123,-133.907528193364,6,1,0,80,0,0
147240,-132.830137097795,6,1,0,80,0,0
147357,-131.76141445865,6,1,0,80,0,0
147415,-131.234812503113,6,1,0,80,0,0
147474,-130.701290531396,6,1,0,80,0,0
147533,-130.169937539759,6,1,0,80,0,0
147592,-129.640744710433,6,1,0,80,0,0
147708,-128.60656263567,6,1,0,80,0,0
147826,-127.563014006601,6,1,0,80,0,0
147943,-126.536669504026,6,1,0,80,0,0
148060,-125.518582747995,6,1,0,80,0,0
148119,-125.008299535198,6,1,0,80,0,0
148177,-124.50868729846,6,1,0,80,0,0
148294,-123.506917249934,6,1,0,80,0,0
148412,-122.504748530583,6,1,0,80,0,0
148470,-122.015142067236,6,1,0,80,0,0
148529,-121.519101741247,6,1,0,80,0,0
148646,-120.54138525343,6,1,0,80,0,0
148763,-119.571535261635,6,1,0,80,0,0
148880,-118.609488473733,6,1,0,80,0,0
148998,-100,6,1,0,80,0,0
149075,-100.993909482848,6,1,0,80,0,0
149153,-101.997697526297,6,1,0,80,0,0
149231,-103.011462314297,6,1,0,80,0,0
149309,-104.035303006659,6,1,0,80,0,0
149387,-105.069319748752,6,1,0,80,0,0
149465,-106.113613681298,6,1,0,80,0,0
149543,-107.168286950269,6,1,0,80,0,0
149622,-108.247167069745,6,1,0,80,0,0
149700,-109.323045928166,6,1,0,80,0,0
149778,-110.409618048584,6,1,0,80,0,0
149856,-111.506989712345,6,1,0,80,0,0
149934,-112.615268257134,6,1,0,80,0,0
150012,-113.734562087476,6,1,0,80,0,0
150090,-114.864980685339,6,1,0,80,0,0
150168,-116.006634620842,6,1,0,80,0,0
150247,-117.174491786253,6,1,0,80,0,0
150325,-118.339100171596,6,1,0,80,0,0
150403,-119.515283710118,6,1,0,80,0,0
150481,-120.703157448365,6,1,0,80,0,0
150559,-121.902837576341,6,1,0,80,0,0
150637,-123.114441438873,6,1,0,80,0,0
150715,-124.33808754709,6,1,0,80,0,0
150793,-125.573895590012,6,1,0,80,0,0
150872,-126.838067886991,6,1,0,80,0,0
150950,-128.09872347158,6,1,0,80,0,0
151028,-129.371908831571,6,1,0,80,0,0
151106,-130.65774850159,6,1,0,80,0,0
151184,-131.956368254023,6,1,0,80,0,0
151262,-133.267895111321,6,1,0,80,0,0
151340,-134.592457358424,6,1,0,80,0,0
151418,-135.930184555307,6,1,0,80,0,0
151497,-137.298615253668,6,1,0,80,0,0
151575,-138.663239210493,6,1,0,80,0,0
151653,-140.04142629423,6,1,0,80,0,0
151731,-141.433311310083,6,1,0,80,0,0
151810,-142.857142857143,6,1,0,80,0,0
152044,-140.577301031628,6,1,0,80,0,0
152162,-139.436618575279,6,1,0,80,0,0
152396,-137.201891026471,6,1,0,80,0,0
152513,-136.097994197955,6,1,0,80,0,0
152630,-135.002979085274,6,1,0,80,0,0
152865,-132.830137097795,6,1,0,80,0,0
153099,-130.701290531396,6,1,0,80,0,0
153216,-129.649696132651,6,1,0,80,0,0
153333,-128.60656263567,6,1,0,80,0,0
153568,-126.536669504026,6,1,0,80,0,0
153685,-125.518582747995,6,1,0,80,0,0
153802,-124.50868729846,6,1,0,80,0,0
153919,-123.506917249934,6,1,0,80,0,0
154037,-122.504748530583,6,1,0,80,0,0
154095,-122.015142067236,6,1,0,80,0,0
154154,-121.519101741247,6,1,0,80,0,0
154271,-120.54138525343,6,1,0,80,0,0
154388,-119.571535261635,6,1,0,80,0,0
154505,-118.609488473733,6,1,0,80,0,0
154564,-118.127293490954,6,1,0,80,0,0
154623,-117.647058823529,6,1,0,80,0,0
154856,-119.562592949615,6,1,0,80,0,0
154973,-120.532024267574,6,1,0,80,0,0
155090,-121.509315879101,6,1,0,80,0,0
155207,-122.494531516626,6,1,0,80,0,0
155266,-122.99437542558,6,1,0,80,0,0
155325,-123.496258967897,6,1,0,80,0,0
155442,-124.497585036032,6,1,0,80,0,0
155559,-125.507030005121,6,1,0,80,0,0
155676,-126.524659704423,6,1,0,80,0,0
155793,-127.550540496948,6,1,0,80,0,0
155911,-128.593614634694,6,1,0,80,0,0
156028,-129.63627082206,6,1,0,80,0,0
156145,-130.687381021145,6,1,0,80,0,0
156379,-132.815238195801,6,1,0,80,0,0
156731,-136.081553021126,6,1,0,80,0,0
156848,-137.1849225286,6,1,0,80,0,0
156907,-137.744711174487,6,1,0,80,0,0
156965,-138.297238320439,6,1,0,80,0,0
157200,-140.558700660938,6,1,0,80,0,0
157435,-111.063388327824,6,1,0,80,0,0
157610,-119.7864089569,6,1,0,80,0,0
157787,-129.194543645981,6,1,0,80,0,0
158021,-142.857142857143,6,1,0,80,0,0
158138,-137.831307514321,6,1,0,80,0,0
158255,-132.982285317751,6,1,0,80,0,0
158373,-128.264587042424,6,1,0,80,0,0
158490,-123.752130178892,6,1,0,80,0,0
158607,-119.398425371674,6,1,0,80,0,0
158665,-117.297303339806,6,1,0,80,0,0
158724,-115.197887588902,6,1,0,80,0,0
158841,-80,6,1,0,80,0,0
159075,-109.694922909454,6,1,0,80,0,0
159192,-108.99361211972,6,1,0,80,0,0
159309,-108.296785009,6,1,0,80,0,0
159543,-106.916467346136,6,1,0,80,0,0
159661,-106.227096602082,6,1,0,80,0,0
159778,-105.547956610611,6,1,0,80,0,0
159895,-104.873158553945,6,1,0,80,0,0
160012,-104.202674672863,6,1,0,80,0,0
160129,-103.536477385614,6,1,0,80,0,0
160247,-102.868899974728,6,1,0,80,0,0
160481,-101.557764472573,6,1,0,80,0,0
160598,-100.90847684725,6,1,0,80,0,0
160715,-100.263340302079,6,1,0,80,0,0
160832,-99.6223282980261,6,1,0,80,0,0
160950,-98.9799883452773,6,1,0,80,0,0
161067,-98.3471811746884,6,1,0,80,0,0
161125,-98.0349834003253,6,1,0,80,0,0
161184,-97.718419720025,6,1,0,80,0,0
161301,-97.1503983286697,6,1,0,80,0,0
161418,-91.076486295981,6,1,0,80,0,0
161653,-80,6,1,0,80,0,0
161888,-109.567275310862,6,1,0,80,0,0
162005,-108.803420209371,6,1,0,80,0,0
162123,-108.038430055138,6,1,0,80,0,0
162357,-106.537287690042,6,1,0,80,0,0
162474,-105.794556336449,6,1,0,80,0,0
162533,-105.421982787124,6,1,0,80,0,0
162591,-105.057002980866,6,1,0,80,0,0
162708,-104.324591524556,6,1,0,80,0,0
162826,-103.591091739282,6,1,0,80,0,0
162943,-102.868899974728,6,1,0,80,0,0
163061,-102.145635067191,6,1,0,80,0,0
163294,-100.732393353834,6,1,0,80,0,0
163412,-100.024150092917,6,1,0,80,0,0
163529,-99.3268254847802,6,1,0,80,0,0
163587,-98.9829476277791,6,1,0,80,0,0
163646,-98.6343623186913,6,1,0,80,0,0
163763,-97.9467267028039,6,1,0,80,0,0
163880,-97.2638849815505,6,1,0,80,0,0
163939,-96.9213536443663,6,1,0,80,0,0
163998,-96.5800285896267,6,1,0,80,0,0
164115,-95.9067148896094,6,1,0,80,0,0
164232,-95.2380952380952,6,1,0,80,0,0
164349,-94.6073793755913,6,1,0,80,0,0
164466,-80,6,1,0,80,0,0
164817,-108.99361211972,6,1,0,80,0,0
164934,-108.296785009,6,1,0,80,0,0
165051,-107.604412911861,6,1,0,80,0,0
165168,-106.916467346136,6,1,0,80,0,0
165286,-106.227096602082,6,1,0,80,0,0
165344,-105.889884465038,6,1,0,80,0,0
165403,-105.547956610611,6,1,0,80,0,0
165520,-104.873158553945,6,1,0,80,0,0
165637,-104.202674672863,6,1,0,80,0,0
165754,-103.536477385614,6,1,0,80,0,0
165872,-80,6,1,0,80,0,0
166224,-108.99361211972,6,1,0,80,0,0
166341,-108.296785009,6,1,0,80,0,0
166458,-107.604412911861,6,1,0,80,0,0
166575,-106.916467346136,6,1,0,80,0,0
166693,-106.227096602082,6,1,0,80,0,0
166810,-105.547956610611,6,1,0,80,0,0
166927,-104.873158553945,6,1,0,80,0,0
167044,-104.202674672863,6,1,0,80,0,0
167161,-103.536477385614,6,1,0,80,0,0
167278,-80,6,1,0,80,0,0
167630,-108.99361211972,6,1,0,80,0,0
167747,-108.296785009,6,1,0,80,0,0
167981,-106.916467346136,6,1,0,80,0,0
168216,-105.547956610611,6,1,0,80,0,0
168333,-104.873158553945,6,1,0,80,0,0
168450,-104.202674672863,6,1,0,80,0,0
168684,-80,6,1,0,80,0,0
168919,-109.694922909454,6,1,0,80,0,0
169036,-108.99361211972,6,1,0,80,0,0
169153,-108.296785009,6,1,0,80,0,0
169270,-107.604412911861,6,1,0,80,0,0
169387,-106.916467346136,6,1,0,80,0,0
169505,-106.227096602082,6,1,0,80,0,0
169622,-105.547956610611,6,1,0,80,0,0
169739,-104.873158553945,6,1,0,80,0,0
169856,-104.202674672863,6,1,0,80,0,0
169973,-103.536477385614,6,1,0,80,0,0
170091,-102.127262869946,6,1,0,60,0,0
170560,-110.816765851902,6,1,0,60,0,0
170794,-115.424912186479,6,1,0,60,0,0
171263,-125.245846288215,6,1,0,60,0,0
171498,-130.476719484915,6,1,0,60,0,0
171966,-141.553689027661,6,1,0,60,0,0
172201,-147.46565672777,6,1,0,60,0,0
172435,-153.597791340273,6,1,0,60,0,0
172904,-166.666666666667,6,1,0,60,0,0
173841,-192.382435434533,6,1,0,60,0,0
174075,-190.525791109006,6,1,0,60,0,0
174310,-188.679245283019,6,1,0,60,0,0
175716,-200,6,1,0,60,0,0
176653,-192.382435434533,6,1,0,60,0,0
176887,-190.525791109006,6,1,0,60,0,0
177122,-188.679245283019,6,1,0,60,0,0
177825,-71.4285714285714,6,1,0,90,0,0
177942,-50,6,1,0,90,0,0
178528,-80,6,1,0,90,0,0
178880,-125,6,1,0,90,0,0
179231,-105.263157894737,6,1,0,90,0,0
179309,-108.885664161609,6,1,0,90,0,0
179387,-112.63283466919,6,1,0,90,0,0
179465,-116.508959588915,6,1,0,90,0,0
179582,-122.574685823729,6,1,0,90,0,0
179700,-129.01215866782,6,1,0,90,0,0
179935,-142.930662107136,6,1,0,90,0,0
179939,-142.897970848814,6,1,0,90,0,0
179993,-141.014615903179,6,1,0,90,0,0
180051,-139.15608304445,6,1,0,90,0,0
180110,-137.290636675252,6,1,0,90,0,0
180168,-135.481184812249,6,1,0,90,0,0
180286,-131.873165917107,6,1,0,90,0,0
180403,-128.390598330401,6,1,0,90,0,0
180520,-125,6,1,0,90,0,0
180637,-111.074825980743,6,1,0,90,0,0
180696,-113.236056241792,6,1,0,90,0,0
180754,-115.401639898749,6,1,0,90,0,0
180813,-117.647058823529,6,1,0,90,0,0
180931,-111.074825980743,6,1,0,90,0,0
180990,-113.236056241792,6,1,0,90,0,0
181106,-111.074825980743,6,1,0,90,0,0
181165,-113.236056241792,6,1,0,90,0,0
181223,-115.401639898749,6,1,0,90,0,0
181282,-117.647058823529,6,1,0,90,0,0
181341,-80,6,1,0,90,0,0
181693,-111.273381647489,6,1,0,90,0,0
181751,-113.254921478001,6,1,0,90,0,0
181869,-117.395922921856,6,1,0,90,0,0
181927,-119.486492056767,6,1,0,90,0,0
182044,-123.817654632677,6,1,0,90,0,0
182123,-126.83056204614,6,1,0,90,0,0
182201,-129.877252231758,6,1,0,90,0,0
182279,-132.997129202463,6,1,0,90,0,0
182396,-137.818027186744,6,1,0,90,0,0
182513,-142.881569930224,6,1,0,90,0,0
182747,-137.254518923336,6,1,0,90,0,0
182825,-135.436238207589,6,1,0,90,0,0
182903,-133.642045185181,6,1,0,90,0,0
182981,-131.871620754136,6,1,0,90,0,0
183059,-130.124650039783,6,1,0,90,0,0
183137,-128.40082233876,6,1,0,90,0,0
183215,-126.699831063747,6,1,0,90,0,0
183293,-124.958479024537,6,1,0,90,0,0
183450,-80,6,1,0,90,0,0
183684,-142.291916995918,6,1,0,90,0,0
183918,-153.795051107123,6,1,0,90,0,0
184154,-80,6,1,0,90,0,0
184158,-80,6,1,0,90,0,1
184212,-81.9351580446364,6,1,0,90,0,1
184271,-83.9517155517758,6,1,0,90,0,1
184330,-86.0179038190999,6,1,0,90,0,1
184388,-88.0986318010785,6,1,0,90,0,1
184447,-90.2668824222636,6,1,0,90,0,1
184505,-92.4503909683098,6,1,0,90,0,1
184564,-94.7257454607434,6,1,0,90,0,1
184623,-97.0571001281035,6,1,0,90,0,1
184740,-101.851375777935,6,1,0,90,0,1
184857,-71.4285714285714,6,1,0,90,0,1
185091,-99.9239788160987,6,1,0,90,0,1
185169,-106.030708912148,6,1,0,90,0,1
185248,-112.59624124352,6,1,0,90,0,1
185326,-119.477420948837,6,1,0,90,0,1
185443,-130.595664333489,6,1,0,90,0,1
185560,-80,6,1,0,90,0,1
185618,-81.9351580446364,6,1,0,90,0,1
185677,-83.9517155517758,6,1,0,90,0,1
185736,-86.0179038190999,6,1,0,90,0,1
185794,-88.0986318010785,6,1,0,90,0,1
185853,-90.2668824222636,6,1,0,90,0,1
185911,-92.4503909683098,6,1,0,90,0,1
185970,-94.7257454607434,6,1,0,90,0,1
186029,-97.0571001281035,6,1,0,90,0,1
186146,-101.851375777935,6,1,0,90,0,1
186263,-71.4285714285714,6,1,0,90,0,1
186497,-99.9239788160987,6,1,0,90,0,1
186575,-106.030708912148,6,1,0,90,0,1
186654,-112.59624124352,6,1,0,90,0,1
186732,-119.477420948837,6,1,0,90,0,1
186849,-130.595664333489,6,1,0,90,0,1
186966,-80,6,1,0,90,0,1
187024,-81.9351580446364,6,1,0,90,0,1
187083,-83.9517155517758,6,1,0,90,0,1
187142,-86.0179038190999,6,1,0,90,0,1
187200,-88.0986318010785,6,1,0,90,0,1
187259,-90.2668824222636,6,1,0,90,0,1
187317,-92.4503909683098,6,1,0,90,0,1
187376,-94.7257454607434,6,1,0,90,0,1
187435,-97.0571001281035,6,1,0,90,0,1
187552,-101.851375777935,6,1,0,90,0,1
187669,-71.4285714285714,6,1,0,90,0,1
187903,-100,6,1,0,90,0,1
187962,-104.220063502768,6,1,0,90,0,1
188021,-108.695652173913,6,1,0,90,0,1
188138,-112.610641790852,6,1,0,90,0,1
188216,-117.158169656579,6,1,0,90,0,1
188294,-121.889339222245,6,1,0,90,0,1
188372,-80,6,1,0,90,0,1
188430,-81.9351580446364,6,1,0,90,0,1
188489,-83.9517155517758,6,1,0,90,0,1
188548,-86.0179038190999,6,1,0,90,0,1
188606,-88.0986318010785,6,1,0,90,0,1
188665,-90.2668824222636,6,1,0,90,0,1
188723,-92.4503909683098,6,1,0,90,0,1
188782,-94.7257454607434,6,1,0,90,0,1
188841,-97.0571001281035,6,1,0,90,0,1
188958,-101.851375777935,6,1,0,90,0,1
189075,-71.4285714285714,6,1,0,90,0,1
189309,-99.8783929211912,6,1,0,90,0,1
189368,-104.193795672541,6,1,0,90,0,1
189427,-108.617752301795,6,1,0,90,0,1
189544,-112.587635504959,6,1,0,90,0,1
189622,-117.205749952447,6,1,0,90,0,1
189700,-121.951219512195,6,1,0,90,0,1
189778,-80,6,1,0,90,0,1
189836,-81.9351580446364,6,1,0,90,0,1
189895,-83.9517155517758,6,1,0,90,0,1
189954,-86.0179038190999,6,1,0,90,0,1
190012,-88.0986318010785,6,1,0,90,0,1
190071,-90.2668824222636,6,1,0,90,0,1
190129,-92.4503909683098,6,1,0,90,0,1
190188,-94.7257454607434,6,1,0,90,0,1
190247,-97.0571001281035,6,1,0,90,0,1
190364,-101.851375777935,6,1,0,90,0,1
190481,-71.4285714285714,6,1,0,90,0,1
190715,-99.9239788160987,6,1,0,90,0,1
190793,-106.030708912148,6,1,0,90,0,1
190872,-112.59624124352,6,1,0,90,0,1
190950,-119.477420948837,6,1,0,90,0,1
191067,-130.595664333489,6,1,0,90,0,1
191185,-80,6,1,0,90,0,1
191243,-81.9351580446364,6,1,0,90,0,1
191302,-83.9517155517758,6,1,0,90,0,1
191361,-86.0179038190999,6,1,0,90,0,1
191419,-88.0986318010785,6,1,0,90,0,1
191478,-90.2668824222636,6,1,0,90,0,1
191536,-92.4503909683098,6,1,0,90,0,1
191595,-94.7257454607434,6,1,0,90,0,1
191654,-97.0571001281035,6,1,0,90,0,1
191771,-101.851375777935,6,1,0,90,0,1
191888,-71.4285714285714,6,1,0,90,0,1
192122,-99.9239788160987,6,1,0,90,0,1
192200,-106.030708912148,6,1,0,90,0,1
192279,-112.59624124352,6,1,0,90,0,1
192357,-119.4743130227,6,1,0,90,0,1
192435,-126.776932158899,6,1,0,90,0,1
192513,-134.525908716196,6,1,0,90,0,1
192591,-80,6,1,0,90,0,1
192649,-81.9351580446364,6,1,0,90,0,1
192708,-83.9517155517758,6,1,0,90,0,1
192767,-86.0179038190999,6,1,0,90,0,1
192825,-88.0986318010785,6,1,0,90,0,1
192884,-90.2668824222636,6,1,0,90,0,1
192942,-92.4503909683098,6,1,0,90,0,1
193001,-94.7257454607434,6,1,0,90,0,1
193060,-97.0571001281035,6,1,0,90,0,1
193177,-101.851375777935,6,1,0,90,0,1
193294,-71.4285714285714,6,1,0,90,0,1
193528,-99.9239788160987,6,1,0,90,0,1
193606,-106.030708912148,6,1,0,90,0,1
193685,-112.59624124352,6,1,0,90,0,1
193763,-119.477420948837,6,1,0,90,0,1
193997,-80,6,1,0,90,0,1
194055,-81.9351580446364,6,1,0,90,0,1
194114,-83.9517155517758,6,1,0,90,0,1
194173,-86.0179038190999,6,1,0,90,0,1
194231,-88.0986318010785,6,1,0,90,0,1
194348,-92.4503909683098,6,1,0,90,0,1
194583,-101.851375777935,6,1,0,90,0,1
194700,-71.4285714285714,6,1,0,90,0,1
194935,-99.8783929211912,6,1,0,90,0,1
194994,-104.193795672541,6,1,0,90,0,1
195053,-108.617752301795,6,1,0,90,0,1
195170,-112.587635504959,6,1,0,90,0,1
195248,-117.205749952447,6,1,0,90,0,1
195326,-121.951219512195,6,1,0,90,0,1
195403,-74.0740740740741,6,1,0,90,0,1
195461,-75.6891763034687,6,1,0,90,0,1
195520,-77.3682611016943,6,1,0,90,0,1
195579,-79.0845946308128,6,1,0,90,0,1
195637,-80.8089456496493,6,1,0,90,0,1
195696,-82.6016071479981,6,1,0,90,0,1
195754,-84.4026426860583,6,1,0,90,0,1
195813,-86.2750265748196,6,1,0,90,0,1
195872,-88.1889473315666,6,1,0,90,0,1
195989,-92.1108442963349,6,1,0,90,0,1
196106,-66.6666666666667,6,1,0,90,0,1
196340,-83.2613202043358,6,1,0,90,0,1
196418,-89.0695502062288,6,1,0,90,0,1
196497,-95.3653674756868,6,1,0,90,0,1
196575,-102.017964229551,6,1,0,90,0,1
196692,-112.877037432184,6,1,0,90,0,1
196810,-74.0740740740741,6,1,0,90,0,1
196868,-75.6891763034687,6,1,0,90,0,1
196927,-77.3682611016943,6,1,0,90,0,1
196986,-79.0845946308128,6,1,0,90,0,1
197044,-80.8089456496493,6,1,0,90,0,1
197103,-82.6016071479981,6,1,0,90,0,1
197161,-84.4026426860583,6,1,0,90,0,1
197220,-86.2750265748196,6,1,0,90,0,1
197279,-88.1889473315666,6,1,0,90,0,1
197396,-92.1108442963349,6,1,0,90,0,1
197513,-66.6666666666667,6,1,0,90,0,1
197747,-83.2613202043358,6,1,0,90,0,1
197825,-89.0695502062288,6,1,0,90,0,1
197904,-95.3653674756868,6,1,0,90,0,1
197982,-102.017964229551,6,1,0,90,0,1
198099,-112.877037432184,6,1,0,90,0,1
198216,-74.0740740740741,6,1,0,90,0,1
198274,-75.6891763034687,6,1,0,90,0,1
198333,-77.3682611016943,6,1,0,90,0,1
198392,-79.0845946308128,6,1,0,90,0,1
198450,-80.8089456496493,6,1,0,90,0,1
198509,-82.6016071479981,6,1,0,90,0,1
198567,-84.4026426860583,6,1,0,90,0,1
198626,-86.2750265748196,6,1,0,90,0,1
198685,-88.1889473315666,6,1,0,90,0,1
198802,-92.1108442963349,6,1,0,90,0,1
198919,-66.6666666666667,6,1,0,90,0,1
199153,-86.9565217391304,6,1,0,90,0,1
199212,-91.1832853107609,6,1,0,90,0,1
199271,-95.6937799043062,6,1,0,90,0,1
199388,-100.695949093059,6,1,0,90,0,1
199466,-105.742266022553,6,1,0,90,0,1
199544,-111.041476090076,6,1,0,90,0,1
199622,-74.0740740740741,6,1,0,90,0,1
199680,-75.6891763034687,6,1,0,90,0,1
199739,-77.3682611016943,6,1,0,90,0,1
199798,-79.0845946308128,6,1,0,90,0,1
199856,-80.8089456496493,6,1,0,90,0,1
199915,-82.6016071479981,6,1,0,90,0,1
199973,-84.4026426860583,6,1,0,90,0,1
200032,-86.2750265748196,6,1,0,90,0,1
200091,-88.1889473315666,6,1,0,90,0,1
200208,-92.1108442963349,6,1,0,90,0,1
200325,-66.6666666666667,6,1,0,90,0,1
200560,-86.9565217391304,6,1,0,90,0,1
200619,-91.1832853107609,6,1,0,90,0,1
200678,-95.6937799043062,6,1,0,90,0,1
200795,-100.695949093059,6,1,0,90,0,1
200873,-105.742266022553,6,1,0,90,0,1
200951,-111.041476090076,6,1,0,90,0,1
201028,-74.0740740740741,6,1,0,90,0,1
201086,-75.6891763034687,6,1,0,90,0,1
201145,-77.3682611016943,6,1,0,90,0,1
201204,-79.0845946308128,6,1,0,90,0,1
201262,-80.8089456496493,6,1,0,90,0,1
201321,-82.6016071479981,6,1,0,90,0,1
201379,-84.4026426860583,6,1,0,90,0,1
201438,-86.2750265748196,6,1,0,90,0,1
201497,-88.1889473315666,6,1,0,90,0,1
201614,-92.1108442963349,6,1,0,90,0,1
201731,-66.6666666666667,6,1,0,90,0,1
201965,-83.2613202043358,6,1,0,90,0,1
202043,-89.0695502062288,6,1,0,90,0,1
202122,-95.3653674756868,6,1,0,90,0,1
202200,-102.017964229551,6,1,0,90,0,1
202317,-112.877037432184,6,1,0,90,0,1
202435,-74.0740740740741,6,1,0,90,0,1
202493,-75.6891763034687,6,1,0,90,0,1
202552,-77.3682611016943,6,1,0,90,0,1
202611,-79.0845946308128,6,1,0,90,0,1
202669,-80.8089456496493,6,1,0,90,0,1
202728,-82.6016071479981,6,1,0,90,0,1
202786,-84.4026426860583,6,1,0,90,0,1
202845,-86.2750265748196,6,1,0,90,0,1
202904,-88.1889473315666,6,1,0,90,0,1
203021,-92.1108442963349,6,1,0,90,0,1
203138,-66.6666666666667,6,1,0,90,0,1
203372,-83.2613202043358,6,1,0,90,0,1
203450,-89.0695502062288,6,1,0,90,0,1
203529,-95.3653674756868,6,1,0,90,0,1
203606,-102.017964229551,6,1,0,90,0,1
203684,-109.134639765273,6,1,0,90,0,1
203762,-116.747767774471,6,1,0,90,0,1
203841,-74.0740740740741,6,1,0,90,0,1
203899,-75.6891763034687,6,1,0,90,0,1
203958,-77.3682611016943,6,1,0,90,0,1
204017,-79.0845946308128,6,1,0,90,0,1
204075,-80.8089456496493,6,1,0,90,0,1
204134,-82.6016071479981,6,1,0,90,0,1
204192,-84.4026426860583,6,1,0,90,0,1
204251,-86.2750265748196,6,1,0,90,0,1
204310,-88.1889473315666,6,1,0,90,0,1
204427,-92.1108442963349,6,1,0,90,0,1
204544,-66.6666666666667,6,1,0,90,0,1
204778,-83.2613202043358,6,1,0,90,0,1
204856,-89.0695502062288,6,1,0,90,0,1
204935,-95.3653674756868,6,1,0,90,0,1
205012,-102.017964229551,6,1,0,90,0,1
205247,-74.0740740740741,6,1,0,90,0,1
205305,-75.6891763034687,6,1,0,90,0,1
205364,-77.3682611016943,6,1,0,90,0,1
205423,-79.0845946308128,6,1,0,90,0,1
205481,-80.8089456496493,6,1,0,90,0,1
205598,-84.4026426860583,6,1,0,90,0,1
205833,-92.1108442963349,6,1,0,90,0,1
205950,-66.6666666666667,6,1,0,90,0,1
206337,-99.9431313630055,6,1,0,90,0,1
206379,-102.185155228906,6,1,0,90,0,1
206414,-104.477474407218,6,1,0,90,0,1
206497,-109.279682976042,6,1,0,90,0,1
206536,-111.731153666913,6,1,0,90,0,1
206575,-114.237618189982,6,1,0,90,0,1
206653,-119.420491113442,6,1,0,90,0,1
206887,-136.423124678776,6,1,0,90,0,1
206965,-142.612536977757,6,1,0,90,0,1
207239,-166.666666666667,6,1,0,90,0,1
207356,-66.6666666666667,6,1,0,90,0,1
207590,-83.2613202043358,6,1,0,90,0,1
207824,-102.017964229551,6,1,0,90,0,1
207902,-109.134639765273,6,1,0,90,0,1
207980,-116.747767774471,6,1,0,90,0,1
208060,-74.0740740740741,6,1,0,90,0,1
208118,-75.6891763034687,6,1,0,90,0,1
208177,-77.3682611016943,6,1,0,90,0,1
208236,-79.0845946308128,6,1,0,90,0,1
208294,-80.8089456496493,6,1,0,90,0,1
208353,-82.6016071479981,6,1,0,90,0,1
208411,-84.4026426860583,6,1,0,90,0,1
208470,-86.2750265748196,6,1,0,90,0,1
208529,-88.1889473315666,6,1,0,90,0,1
208646,-92.1108442963349,6,1,0,90,0,1
208763,-66.6666666666667,6,1,0,90,0,1
208997,-83.2613202043358,6,1,0,90,0,1
209075,-89.0695502062288,6,1,0,90,0,1
209154,-95.3653674756868,6,1,0,90,0,1
209232,-102.017964229551,6,1,0,90,0,1
209349,-112.877037432184,6,1,0,90,0,1
209466,-74.0740740740741,6,1,0,90,0,1
209524,-75.6891763034687,6,1,0,90,0,1
209583,-77.3682611016943,6,1,0,90,0,1
209642,-79.0845946308128,6,1,0,90,0,1
209700,-80.8089456496493,6,1,0,90,0,1
209759,-82.6016071479981,6,1,0,90,0,1
209817,-84.4026426860583,6,1,0,90,0,1
209876,-86.2750265748196,6,1,0,90,0,1
209935,-88.1889473315666,6,1,0,90,0,1
210052,-92.1108442963349,6,1,0,90,0,1
210169,-66.6666666666667,6,1,0,90,0,1
210403,-83.2613202043358,6,1,0,90,0,1
210481,-89.0695502062288,6,1,0,90,0,1
210560,-95.3653674756868,6,1,0,90,0,1
210638,-102.017964229551,6,1,0,90,0,1
210755,-112.877037432184,6,1,0,90,0,1
210872,-74.0740740740741,6,1,0,90,0,1
210930,-75.6891763034687,6,1,0,90,0,1
210989,-77.3682611016943,6,1,0,90,0,1
211048,-79.0845946308128,6,1,0,90,0,1
211106,-80.8089456496493,6,1,0,90,0,1
211165,-82.6016071479981,6,1,0,90,0,1
211223,-84.4026426860583,6,1,0,90,0,1
211282,-86.2750265748196,6,1,0,90,0,1
211341,-88.1889473315666,6,1,0,90,0,1
211458,-92.1108442963349,6,1,0,90,0,1
211575,-66.6666666666667,6,1,0,90,0,1
211810,-86.9565217391304,6,1,0,90,0,1
211869,-91.1832853107609,6,1,0,90,0,1
211928,-95.6937799043062,6,1,0,90,0,1
212045,-100.695949093059,6,1,0,90,0,1
212123,-105.742266022553,6,1,0,90,0,1
212201,-111.041476090076,6,1,0,90,0,1
212278,-74.0740740740741,6,1,0,90,0,1
212336,-75.6891763034687,6,1,0,90,0,1
212395,-77.3682611016943,6,1,0,90,0,1
212454,-79.0845946308128,6,1,0,90,0,1
212512,-80.8089456496493,6,1,0,90,0,1
212571,-82.6016071479981,6,1,0,90,0,1
212629,-84.4026426860583,6,1,0,90,0,1
212688,-86.2750265748196,6,1,0,90,0,1
212747,-88.1889473315666,6,1,0,90,0,1
212864,-92.1108442963349,6,1,0,90,0,1
212981,-66.6666666666667,6,1,0,90,0,1
213216,-86.9565217391304,6,1,0,90,0,1
213275,-91.1832853107609,6,1,0,90,0,1
213334,-95.6937799043062,6,1,0,90,0,1
213451,-100.695949093059,6,1,0,90,0,1
213529,-105.742266022553,6,1,0,90,0,1
213607,-111.041476090076,6,1,0,90,0,1
213684,-74.0740740740741,6,1,0,90,0,1
213742,-75.6891763034687,6,1,0,90,0,1
213801,-77.3682611016943,6,1,0,90,0,1
213860,-79.0845946308128,6,1,0,90,0,1
213918,-80.8089456496493,6,1,0,90,0,1
213977,-82.6016071479981,6,1,0,90,0,1
214035,-84.4026426860583,6,1,0,90,0,1
214094,-86.2750265748196,6,1,0,90,0,1
214153,-88.1889473315666,6,1,0,90,0,1
214270,-92.1108442963349,6,1,0,90,0,1
214387,-66.6666666666667,6,1,0,90,0,1
214621,-83.2613202043358,6,1,0,90,0,1
214699,-89.0695502062288,6,1,0,90,0,1
214778,-95.3653674756868,6,1,0,90,0,1
214856,-102.017964229551,6,1,0,90,0,1
214973,-112.877037432184,6,1,0,90,0,1
215091,-74.0740740740741,6,1,0,90,0,1
215149,-75.6891763034687,6,1,0,90,0,1
215208,-77.3682611016943,6,1,0,90,0,1
215267,-79.0845946308128,6,1,0,90,0,1
215325,-80.8089456496493,6,1,0,90,0,1
215384,-82.6016071479981,6,1,0,90,0,1
215442,-84.4026426860583,6,1,0,90,0,1
215501,-86.2750265748196,6,1,0,90,0,1
215560,-88.1889473315666,6,1,0,90,0,1
215677,-92.1108442963349,6,1,0,90,0,1
215794,-66.6666666666667,6,1,0,90,0,1
216028,-83.2613202043358,6,1,0,90,0,1
216106,-89.0695502062288,6,1,0,90,0,1
216185,-95.3653674756868,6,1,0,90,0,1
216262,-102.017964229551,6,1,0,90,0,1
216340,-109.134639765273,6,1,0,90,0,1
216418,-116.747767774471,6,1,0,90,0,1
216497,-74.0740740740741,6,1,0,90,0,1
216555,-75.6891763034687,6,1,0,90,0,1
216614,-77.3682611016943,6,1,0,90,0,1
216673,-79.0845946308128,6,1,0,90,0,1
216731,-80.8089456496493,6,1,0,90,0,1
216790,-82.6016071479981,6,1,0,90,0,1
216848,-84.4026426860583,6,1,0,90,0,1
216907,-86.2750265748196,6,1,0,90,0,1
216966,-88.1889473315666,6,1,0,90,0,1
217083,-92.1108442963349,6,1,0,90,0,1
217200,-66.6666666666667,6,1,0,90,0,1
217434,-83.2613202043358,6,1,0,90,0,1
217512,-89.0695502062288,6,1,0,90,0,1
217591,-95.3653674756868,6,1,0,90,0,1
217668,-102.017964229551,6,1,0,90,0,1
217903,-74.0740740740741,6,1,0,90,0,1
217961,-75.6891763034687,6,1,0,90,0,1
218020,-77.3682611016943,6,1,0,90,0,1
218079,-79.0845946308128,6,1,0,90,0,1
218137,-80.8089456496493,6,1,0,90,0,1
218254,-84.4026426860583,6,1,0,90,0,1
218489,-92.1108442963349,6,1,0,90,0,1
218606,-66.6666666666667,6,1,0,90,0,1
218841,-86.9565217391304,6,1,0,90,0,1
218900,-91.1832853107609,6,1,0,90,0,1
218959,-95.6937799043062,6,1,0,90,0,1
219076,-100.695949093059,6,1,0,90,0,1
219154,-105.742266022553,6,1,0,90,0,1
219232,-111.041476090076,6,1,0,90,0,1
219311,-68.9655172413793,6,1,0,90,0,1
219369,-70.5018169445351,6,1,0,90,0,1
219427,-72.0723397909706,6,1,0,90,0,1
219486,-73.7058406956122,6,1,0,90,0,1
219544,-75.3477374827442,6,1,0,90,0,1
219603,-77.055474427288,6,1,0,90,0,1
219662,-78.8019167871395,6,1,0,90,0,1
219720,-80.5573355269782,6,1,0,90,0,1
219779,-82.383146661187,6,1,0,90,0,1
219896,-86.1271290155507,6,1,0,90,0,1
220013,-55.5555555555556,6,1,0,90,0,1
220248,-76.9230769230769,6,1,0,90,0,1
220326,-82.5553351942147,6,1,0,90,0,1
220404,-88.599983797379,6,1,0,90,0,1
220482,-95.08721768773,6,1,0,90,0,1
220599,-105.719447775332,6,1,0,90,0,1
220716,-68.9655172413793,6,1,0,90,0,1
220774,-70.5018169445351,6,1,0,90,0,1
220832,-72.0723397909706,6,1,0,90,0,1
220891,-73.7058406956122,6,1,0,90,0,1
220949,-75.3477374827442,6,1,0,90,0,1
221008,-77.055474427288,6,1,0,90,0,1
221067,-78.8019167871395,6,1,0,90,0,1
221125,-80.5573355269782,6,1,0,90,0,1
221184,-82.383146661187,6,1,0,90,0,1
221301,-86.1271290155507,6,1,0,90,0,1
221418,-55.5555555555556,6,1,0,90,0,1
221653,-76.9230769230769,6,1,0,90,0,1
221731,-82.5553351942147,6,1,0,90,0,1
221809,-88.599983797379,6,1,0,90,0,1
221887,-95.08721768773,6,1,0,90,0,1
222004,-105.719447775332,6,1,0,90,0,1
222122,-68.9655172413793,6,1,0,90,0,1
222180,-70.5018169445351,6,1,0,90,0,1
222238,-72.0723397909706,6,1,0,90,0,1
222297,-73.7058406956122,6,1,0,90,0,1
222355,-75.3477374827442,6,1,0,90,0,1
222414,-77.055474427288,6,1,0,90,0,1
222473,-78.8019167871395,6,1,0,90,0,1
222531,-80.5573355269782,6,1,0,90,0,1
222590,-82.383146661187,6,1,0,90,0,1
222707,-86.1271290155507,6,1,0,90,0,1
222824,-55.5555555555556,6,1,0,90,0,1
223060,-83.192094381404,6,1,0,90,0,1
223119,-87.9704466132798,6,1,0,90,0,1
223178,-92.935242923375,6,1,0,90,0,1
223295,-98.921051107607,6,1,0,90,0,1
223373,-104.842699986188,6,1,0,90,0,1
223451,-111.037086386853,6,1,0,90,0,1
223528,-68.9655172413793,6,1,0,90,0,1
223586,-70.5018169445351,6,1,0,90,0,1
223644,-72.0723397909706,6,1,0,90,0,1
223703,-73.7058406956122,6,1,0,90,0,1
223761,-75.3477374827442,6,1,0,90,0,1
223820,-77.055474427288,6,1,0,90,0,1
223879,-78.8019167871395,6,1,0,90,0,1
223937,-80.5573355269782,6,1,0,90,0,1
223996,-82.383146661187,6,1,0,90,0,1
224113,-86.1271290155507,6,1,0,90,0,1
224230,-55.5555555555556,6,1,0,90,0,1
224466,-83.192094381404,6,1,0,90,0,1
224525,-87.9704466132798,6,1,0,90,0,1
224584,-92.935242923375,6,1,0,90,0,1
224701,-98.921051107607,6,1,0,90,0,1
224779,-104.842699986188,6,1,0,90,0,1
224857,-111.037086386853,6,1,0,90,0,1
224935,-68.9655172413793,6,1,0,90,0,1
224993,-70.5018169445351,6,1,0,90,0,1
225051,-72.0723397909706,6,1,0,90,0,1
225110,-73.7058406956122,6,1,0,90,0,1
225168,-75.3477374827442,6,1,0,90,0,1
225227,-77.055474427288,6,1,0,90,0,1
225286,-78.8019167871395,6,1,0,90,0,1
225344,-80.5573355269782,6,1,0,90,0,1
225403,-82.383146661187,6,1,0,90,0,1
225520,-86.1271290155507,6,1,0,90,0,1
225637,-55.5555555555556,6,1,0,90,0,1
225872,-76.9230769230769,6,1,0,90,0,1
225950,-82.5553351942147,6,1,0,90,0,1
226028,-88.599983797379,6,1,0,90,0,1
226106,-95.08721768773,6,1,0,90,0,1
226223,-105.719447775332,6,1,0,90,0,1
226341,-68.9655172413793,6,1,0,90,0,1
226399,-70.5018169445351,6,1,0,90,0,1
226457,-72.0723397909706,6,1,0,90,0,1
226516,-73.7058406956122,6,1,0,90,0,1
226574,-75.3477374827442,6,1,0,90,0,1
226633,-77.055474427288,6,1,0,90,0,1
226692,-78.8019167871395,6,1,0,90,0,1
226750,-80.5573355269782,6,1,0,90,0,1
226809,-82.383146661187,6,1,0,90,0,1
226926,-86.1271290155507,6,1,0,90,0,1
227043,-55.5555555555556,6,1,0,90,0,1
227278,-76.9230769230769,6,1,0,90,0,1
227356,-82.5553351942147,6,1,0,90,0,1
227434,-88.599983797379,6,1,0,90,0,1
227512,-94.9976675997505,6,1,0,90,0,1
227590,-101.985225055808,6,1,0,90,0,1
227668,-109.486752595925,6,1,0,90,0,1
227747,-68.9655172413793,6,1,0,90,0,1
227805,-70.5018169445351,6,1,0,90,0,1
227863,-72.0723397909706,6,1,0,90,0,1
227922,-73.7058406956122,6,1,0,90,0,1
227980,-75.3477374827442,6,1,0,90,0,1
228039,-77.055474427288,6,1,0,90,0,1
228098,-78.8019167871395,6,1,0,90,0,1
228156,-80.5573355269782,6,1,0,90,0,1
228215,-82.383146661187,6,1,0,90,0,1
228332,-86.1271290155507,6,1,0,90,0,1
228449,-55.5555555555556,6,1,0,90,0,1
228684,-76.9230769230769,6,1,0,90,0,1
228762,-82.5553351942147,6,1,0,90,0,1
228840,-88.599983797379,6,1,0,90,0,1
228918,-95.08721768773,6,1,0,90,0,1
229153,-68.9655172413793,6,1,0,90,0,1
229211,-70.5018169445351,6,1,0,90,0,1
229269,-72.0723397909706,6,1,0,90,0,1
229328,-73.7058406956122,6,1,0,90,0,1
229386,-75.3477374827442,6,1,0,90,0,1
229504,-78.8019167871395,6,1,0,90,0,1
229738,-86.1271290155507,6,1,0,90,0,1
229855,-55.5555555555556,6,1,0,90,0,1
230091,-76.8532724551363,6,1,0,90,0,1
230150,-81.0821133085122,6,1,0,90,0,1
230209,-85.4660182814675,6,1,0,90,0,1
230325,-95.0439720722648,6,1,0,90,0,1
230404,-102.111094685993,6,1,0,90,0,1
230482,-109.604151212707,6,1,0,90,0,1
230560,-117.647058823529,6,1,0,90,0,1
230564,-117.647058823529,6,1,0,90,0,0
230677,-83.3333333333333,6,1,0,90,0,0
231263,-55.5555555555556,6,1,0,90,0,0
231497,-125,6,1,0,90,0,0
231555,-123.192456335366,6,1,0,90,0,0
231614,-121.380563461183,6,1,0,90,0,0
231672,-119.625358113231,6,1,0,90,0,0
231731,-117.865929489234,6,1,0,90,0,0
231789,-116.161546976239,6,1,0,90,0,0
231848,-114.453063474234,6,1,0,90,0,0
231907,-112.769708045613,6,1,0,90,0,0
231966,-111.097086377805,6,1,0,90,0,0
232317,-116.144793259796,6,1,0,90,0,0
232668,-121.406517012246,6,1,0,90,0,0
232903,-125.061890961065,6,1,0,90,0,0
233137,-128.811061992379,6,1,0,90,0,0
233372,-132.689376039385,6,1,0,90,0,0
233723,-138.700621330791,6,1,0,90,0,0
234075,-145.002497497434,6,1,0,90,0,0
234309,-149.349458501364,6,1,0,90,0,0
234543,-153.826734984653,6,1,0,90,0,0
234778,-68.9655172413793,6,1,0,90,0,0
234783,-68.9655172413793,6,1,0,90,0,1
234836,-70.5018169445351,6,1,0,90,0,1
234894,-72.0723397909706,6,1,0,90,0,1
234953,-73.7058406956122,6,1,0,90,0,1
235011,-75.3477374827442,6,1,0,90,0,1
235070,-77.055474427288,6,1,0,90,0,1
235129,-78.8019167871395,6,1,0,90,0,1
235187,-80.5573355269782,6,1,0,90,0,1
235246,-82.383146661187,6,1,0,90,0,1
235363,-86.1252260787185,6,1,0,90,0,1
235480,-55.5555555555556,6,1,0,90,0,1
235716,-98.4100066192667,6,1,0,90,0,1
235833,-102.88266918376,6,1,0,90,0,1
235951,-107.599478797812,6,1,0,90,0,1
236009,-109.9965736773,6,1,0,90,0,1
236068,-112.489796127429,6,1,0,90,0,1
236186,-117.647058823529,6,1,0,90,0,1
236263,-116.363999847393,6,1,0,90,0,1
236341,-115.078543906935,6,1,0,90,0,1
236380,-114.4411508726,6,1,0,90,0,1
236419,-113.807288208623,6,1,0,90,0,1
236498,-112.534048275885,6,1,0,90,0,1
236537,-111.910748605405,6,1,0,90,0,1
236576,-111.290901245449,6,1,0,90,0,1
236654,-110.06148707687,6,1,0,90,0,1
236732,-108.845654065251,6,1,0,90,0,1
236810,-107.643252181553,6,1,0,90,0,1
236888,-106.454133054087,6,1,0,90,0,1
236966,-105.278149950206,6,1,0,90,0,1
237123,-76.9230769230769,6,1,0,90,0,1
237181,-79.3990965803411,6,1,0,90,0,1
237240,-81.9995930144795,6,1,0,90,0,1
237298,-84.6390168689692,6,1,0,90,0,1
237357,-87.4111323090236,6,1,0,90,0,1
237513,-95.1860879841368,6,1,0,90,0,1
237591,-60.6060606060606,6,1,0,90,0,1
237884,-66.9149193448678,6,1,0,90,0,1
238177,-107.339195028015,6,1,0,90,0,1
238294,-76.8969941348722,6,1,0,90,0,1
238529,-125,6,1,0,90,0,1
238606,-122.575245139422,6,1,0,90,0,1
238684,-120.197525767916,6,1,0,90,0,1
238762,-117.865929489234,6,1,0,90,0,1
238840,-115.57956160583,6,1,0,90,0,1
238879,-114.453063474234,6,1,0,90,0,1
238918,-113.337544775532,6,1,0,90,0,1
238957,-112.232898498497,6,1,0,90,0,1
238997,-111.111111111111,6,1,0,90,0,1
239172,-83.3333333333333,6,1,0,90,0,1
239231,-85.1781763710071,6,1,0,90,0,1
239348,-89.0248936965432,6,1,0,90,0,1
239407,-91.0300970875595,6,1,0,90,0,1
239524,-95.1410920223037,6,1,0,90,0,1
239582,-97.2473365968719,6,1,0,90,0,1
239641,-99.4377429092461,6,1,0,90,0,1
239700,-101.67748609789,6,1,0,90,0,1
239778,-104.716122073722,6,1,0,90,0,1
239856,-107.845567814311,6,1,0,90,0,1
239934,-111.068537173319,6,1,0,90,0,1
240090,-117.806310103196,6,1,0,90,0,1
240168,-121.326956667126,6,1,0,90,0,1
240247,-125,6,1,0,90,0,1
240403,-68.9655172413793,6,1,0,90,0,1
240461,-70.5018169445351,6,1,0,90,0,1
240519,-72.0723397909706,6,1,0,90,0,1
240578,-73.7058406956122,6,1,0,90,0,1
240636,-75.3477374827442,6,1,0,90,0,1
240695,-77.055474427288,6,1,0,90,0,1
240754,-78.8019167871395,6,1,0,90,0,1
240812,-80.5573355269782,6,1,0,90,0,1
240871,-82.383146661187,6,1,0,90,0,1
241105,-55.5555555555556,6,1,0,90,0,1
241341,-98.3683610978096,6,1,0,90,0,1
241399,-100.603359590126,6,1,0,90,0,1
241576,-107.576709209978,6,1,0,90,0,1
241653,-110.819810587957,6,1,0,90,0,1
241731,-114.160681330932,6,1,0,90,0,1
241810,-90.9090909090909,6,1,0,90,0,1
241868,-93.4722911403582,6,1,0,90,0,1
241926,-96.1077613213067,6,1,0,90,0,1
242103,-90.9090909090909,6,1,0,90,0,1
242161,-93.4722911403582,6,1,0,90,0,1
242219,-96.1077613213067,6,1,0,90,0,1
242434,-90.9090909090909,6,1,0,90,0,1
242473,-92.5551012771023,6,1,0,90,0,1
242512,-94.2754222071722,6,1,0,90,0,1
242590,-97.8125851716401,6,1,0,90,0,1
242629,-99.6306269129724,6,1,0,90,0,1
242668,-101.482460581667,6,1,0,90,0,1
242747,-105.339758953885,6,1,0,90,0,1
242981,-117.647058823529,6,1,0,90,0,1
243216,-68.9655172413793,6,1,0,90,0,1
243274,-70.5018169445351,6,1,0,90,0,1
243332,-72.0723397909706,6,1,0,90,0,1
243391,-73.7058406956122,6,1,0,90,0,1
243449,-75.3477374827442,6,1,0,90,0,1
243508,-77.055474427288,6,1,0,90,0,1
243567,-78.8019167871395,6,1,0,90,0,1
243625,-80.5573355269782,6,1,0,90,0,1
243684,-82.383146661187,6,1,0,90,0,1
243919,-55.5555555555556,6,1,0,90,0,1
244153,-98.3671060397403,6,1,0,90,0,1
244207,-100.56866978048,6,1,0,90,0,1
244270,-102.858753031661,6,1,0,90,0,1
244329,-105.200984544411,6,1,0,90,0,1
244384,-107.55549798277,6,1,0,90,0,1
244446,-110.004680666009,6,1,0,90,0,1
244505,-112.466706093169,6,1,0,90,0,1
244622,-117.647058823529,6,1,0,90,0,1
245091,-142.89546396311,6,1,0,90,0,1
245169,-139.937070293883,6,1,0,90,0,1
245248,-137.003174054619,6,1,0,90,0,1
245326,-134.166769654184,6,1,0,90,0,1
245384,-132.095783649781,6,1,0,90,0,1
245443,-130.021887118621,6,1,0,90,0,1
245501,-128.014881142531,6,1,0,90,0,1
245560,-126.005054556073,6,1,0,90,0,1
245619,-124.026782136377,6,1,0,90,0,1
245677,-122.112316053325,6,1,0,90,0,1
245736,-120.19515941382,6,1,0,90,0,1
245794,-118.339837909213,6,1,0,90,0,1
246026,-111.111111111111,6,1,0,90,0,1
246087,-112.268183028552,6,1,0,90,0,1
246146,-113.457567950373,6,1,0,90,0,1
246205,-114.659553383346,6,1,0,90,0,1
246263,-115.853577526922,6,1,0,90,0,1
246322,-117.080946622354,6,1,0,90,0,1
246380,-118.300186300991,6,1,0,90,0,1
246439,-119.553475113897,6,1,0,90,0,1
246498,-120.820041444766,6,1,0,90,0,1
246556,-122.078218737944,6,1,0,90,0,1
246615,-123.371532557878,6,1,0,90,0,1
246673,-124.656280179487,6,1,0,90,0,1
246732,-76.9230769230769,6,1,0,90,0,1
246966,-131.353877572521,6,1,0,90,0,1
247436,-142.857142857143,6,1,0,90,0,1
247787,-127.613936273078,6,1,0,90,0,1
247865,-124.453856600569,6,1,0,90,0,1
247943,-121.372029380952,6,1,0,90,0,1
248021,-118.366516863595,6,1,0,90,0,1
248099,-115.435429282016,6,1,0,90,0,1
248177,-112.576923665664,6,1,0,90,0,1
248255,-109.789202681114,6,1,0,90,0,1
248373,-105.702534450702,6,1,0,90,0,1
248451,-103.085042660969,6,1,0,90,0,1
248529,-100.532367323413,6,1,0,90,0,1
248607,-98.0429034005377,6,1,0,90,0,1
248724,-94.423815467063,6,1,0,90,0,1
248842,-90.9090909090909,6,1,0,90,0,1
248845,-90.9090909090909,6,1,0,90,0,0
249075,-66.6666666666667,6,1,0,50,0,0
250247,-200,6,1,0,50,0,0
251653,-215.13755824916,6,1,0,50,0,0
253060,-231.432854067361,6,1,0,50,0,0
254466,-248.936577441765,6,1,0,50,0,0
255872,-267.791933068169,6,1,0,50,0,0
257278,-288.060512995543,6,1,0,50,0,0
258685,-309.879256830911,6,1,0,50,0,0
260091,-333.316036422522,6,1,0,50,0,0

[HitObjects]
256,192,1111,12,0,1932,0:0:0:0:
256,192,2049,5,12,0:0:0:0:
256,192,2752,1,4,0:0:0:0:
256,192,3103,1,0,0:0:0:0:
256,192,3455,1,8,0:0:0:0:
256,192,3689,1,0,0:0:0:0:
256,192,3806,1,8,0:0:0:0:
256,192,4158,1,0,0:0:0:0:
256,192,4216,1,0,0:0:0:0:
256,192,4275,1,8,0:0:0:0:
256,192,4334,1,8,0:0:0:0:
256,192,4392,1,0,0:0:0:0:
256,192,4509,1,8,0:0:0:0:
256,192,4568,1,0,0:0:0:0:
256,192,4627,1,8,0:0:0:0:
256,192,4744,1,0,0:0:0:0:
256,192,4861,1,8,0:0:0:0:
256,192,4919,1,8,0:0:0:0:
256,192,4978,1,8,0:0:0:0:
256,192,5095,1,0,0:0:0:0:
256,192,5173,1,8,0:0:0:0:
256,192,5252,1,8,0:0:0:0:
256,192,5330,1,0,0:0:0:0:
256,192,5564,1,0,0:0:0:0:
256,192,5623,1,0,0:0:0:0:
256,192,5681,1,0,0:0:0:0:
256,192,5740,1,0,0:0:0:0:
256,192,5798,1,0,0:0:0:0:
256,192,5916,1,8,0:0:0:0:
256,192,5974,1,8,0:0:0:0:
256,192,6033,1,0,0:0:0:0:
256,192,6150,1,0,0:0:0:0:
256,192,6267,1,8,0:0:0:0:
256,192,6345,1,0,0:0:0:0:
256,192,6423,1,0,0:0:0:0:
256,192,6502,1,8,0:0:0:0:
256,192,6619,1,0,0:0:0:0:
256,192,6736,1,8,0:0:0:0:
256,192,6970,1,0,0:0:0:0:
256,192,7029,1,0,0:0:0:0:
256,192,7087,1,8,0:0:0:0:
256,192,7205,1,0,0:0:0:0:
256,192,7322,1,8,0:0:0:0:
256,192,7556,1,0,0:0:0:0:
256,192,7673,1,8,0:0:0:0:
256,192,7849,1,0,0:0:0:0:
256,192,7908,1,0,0:0:0:0:
256,192,8025,1,0,0:0:0:0:
256,192,8142,1,8,0:0:0:0:
256,192,8220,1,8,0:0:0:0:
256,192,8298,1,8,0:0:0:0:
256,192,8377,1,0,0:0:0:0:
256,192,8435,1,0,0:0:0:0:
256,192,8494,1,8,0:0:0:0:
256,192,8552,1,8,0:0:0:0:
256,192,8611,1,0,0:0:0:0:
256,192,8669,1,8,0:0:0:0:
256,192,8728,1,0,0:0:0:0:
256,192,8787,1,0,0:0:0:0:
256,192,8845,1,8,0:0:0:0:
256,192,8962,1,0,0:0:0:0:
256,192,9080,1,8,0:0:0:0:
256,192,9314,1,0,0:0:0:0:
256,192,9392,1,0,0:0:0:0:
256,192,9470,1,0,0:0:0:0:
256,192,9548,1,8,0:0:0:0:
256,192,9666,1,8,0:0:0:0:
256,192,9783,1,0,0:0:0:0:
256,192,9861,1,8,0:0:0:0:
256,192,9939,1,8,0:0:0:0:
256,192,10017,1,0,0:0:0:0:
256,192,10252,1,8,0:0:0:0:
256,192,10369,1,0,0:0:0:0:
256,192,10486,1,8,0:0:0:0:
256,192,10544,1,8,0:0:0:0:
256,192,10603,1,8,0:0:0:0:
256,192,10720,1,0,0:0:0:0:
256,192,10837,1,8,0:0:0:0:
256,192,10896,1,8,0:0:0:0:
256,192,10955,1,0,0:0:0:0:
256,192,11072,1,0,0:0:0:0:
256,192,11189,1,8,0:0:0:0:
256,192,11306,12,0,13181,0:0:0:0:
256,192,13298,12,0,13884,0:0:0:0:
256,192,14002,12,0,15408,0:0:0:0:
256,192,16345,5,0,0:0:0:0:
256,192,16580,5,0,0:0:0:0:
256,192,16814,1,8,0:0:0:0:
256,192,17048,1,8,0:0:0:0:
256,192,17283,1,0,0:0:0:0:
256,192,18220,1,8,0:0:0:0:
256,192,18455,1,8,0:0:0:0:
256,192,18689,1,0,0:0:0:0:
256,192,19627,1,8,0:0:0:0:
256,192,20564,1,0,0:0:0:0:
256,192,20798,1,0,0:0:0:0:
256,192,21033,1,8,0:0:0:0:
256,192,22439,1,0,0:0:0:0:
256,192,22673,1,8,0:0:0:0:
256,192,22908,1,8,0:0:0:0:
256,192,23611,1,0,0:0:0:0:
256,192,23845,1,8,0:0:0:0:
256,192,24080,1,8,0:0:0:0:
256,192,24314,1,0,0:0:0:0:
256,192,25252,1,8,0:0:0:0:
256,192,25486,1,0,0:0:0:0:
256,192,25720,1,0,0:0:0:0:
256,192,25955,1,8,0:0:0:0:
256,192,26189,1,8,0:0:0:0:
256,192,26423,1,0,0:0:0:0:
256,192,26658,1,8,0:0:0:0:
256,192,27244,1,0,0:0:0:0:
256,192,27361,1,12,0:0:0:0:
256,192,27478,12,12,27947,0:0:0:0:
256,192,28064,5,0,0:0:0:0:
256,192,28123,1,0,0:0:0:0:
256,192,28181,1,8,0:0:0:0:
256,192,28240,1,8,0:0:0:0:
256,192,28298,1,0,0:0:0:0:
256,192,28357,1,0,0:0:0:0:
256,192,28416,1,8,0:0:0:0:
256,192,28474,1,8,0:0:0:0:
256,192,28533,1,0,0:0:0:0:
256,192,28650,1,0,0:0:0:0:
256,192,28767,1,12,0:0:0:0:
256,192,29002,1,0,0:0:0:0:
256,192,29080,1,8,0:0:0:0:
256,192,29158,1,8,0:0:0:0:
256,192,29236,1,0,0:0:0:0:
256,192,29470,1,0,0:0:0:0:
256,192,29529,1,0,0:0:0:0:
256,192,29587,1,8,0:0:0:0:
256,192,29646,1,0,0:0:0:0:
256,192,29705,1,8,0:0:0:0:
256,192,29763,1,8,0:0:0:0:
256,192,29822,1,0,0:0:0:0:
256,192,29880,1,8,0:0:0:0:
256,192,29939,1,0,0:0:0:0:
256,192,30056,1,0,0:0:0:0:
256,192,30173,1,12,0:0:0:0:
256,192,30408,1,0,0:0:0:0:
256,192,30486,1,0,0:0:0:0:
256,192,30564,1,8,0:0:0:0:
256,192,30642,1,8,0:0:0:0:
256,192,30877,1,0,0:0:0:0:
256,192,30935,1,8,0:0:0:0:
256,192,30994,1,0,0:0:0:0:
256,192,31052,1,0,0:0:0:0:
256,192,31111,1,8,0:0:0:0:
256,192,31169,1,8,0:0:0:0:
256,192,31228,1,0,0:0:0:0:
256,192,31287,1,0,0:0:0:0:
256,192,31345,1,8,0:0:0:0:
256,192,31462,1,0,0:0:0:0:
256,192,31580,1,12,0:0:0:0:
256,192,31814,1,0,0:0:0:0:
256,192,31873,1,8,0:0:0:0:
256,192,31931,1,8,0:0:0:0:
256,192,32048,1,0,0:0:0:0:
256,192,32127,1,8,0:0:0:0:
256,192,32205,1,8,0:0:0:0:
256,192,32283,1,0,0:0:0:0:
256,192,32341,1,0,0:0:0:0:
256,192,32400,1,0,0:0:0:0:
256,192,32459,1,0,0:0:0:0:
256,192,32517,1,8,0:0:0:0:
256,192,32576,1,8,0:0:0:0:
256,192,32634,1,0,0:0:0:0:
256,192,32693,1,8,0:0:0:0:
256,192,32752,1,0,0:0:0:0:
256,192,32869,1,0,0:0:0:0:
256,192,32986,1,12,0:0:0:0:
256,192,33220,1,8,0:0:0:0:
256,192,33279,1,8,0:0:0:0:
256,192,33337,1,8,0:0:0:0:
256,192,33455,1,0,0:0:0:0:
256,192,33533,1,8,0:0:0:0:
256,192,33611,1,8,0:0:0:0:
256,192,33689,1,0,0:0:0:0:
256,192,33748,1,0,0:0:0:0:
256,192,33806,1,8,0:0:0:0:
256,192,33865,1,8,0:0:0:0:
256,192,33923,1,0,0:0:0:0:
256,192,33982,1,8,0:0:0:0:
256,192,34041,1,8,0:0:0:0:
256,192,34099,1,8,0:0:0:0:
256,192,34158,1,0,0:0:0:0:
256,192,34275,1,0,0:0:0:0:
256,192,34392,1,12,0:0:0:0:
256,192,34627,1,0,0:0:0:0:
256,192,34705,1,0,0:0:0:0:
256,192,34783,1,0,0:0:0:0:
256,192,34861,1,8,0:0:0:0:
256,192,35095,1,0,0:0:0:0:
256,192,35154,1,8,0:0:0:0:
256,192,35212,1,0,0:0:0:0:
256,192,35271,1,0,0:0:0:0:
256,192,35330,1,8,0:0:0:0:
256,192,35388,1,0,0:0:0:0:
256,192,35447,1,8,0:0:0:0:
256,192,35505,1,8,0:0:0:0:
256,192,35564,1,0,0:0:0:0:
256,192,35681,1,0,0:0:0:0:
256,192,35798,1,12,0:0:0:0:
256,192,36033,1,0,0:0:0:0:
256,192,36111,1,0,0:0:0:0:
256,192,36189,1,0,0:0:0:0:
256,192,36267,1,8,0:0:0:0:
256,192,36345,1,8,0:0:0:0:
256,192,36423,1,8,0:0:0:0:
256,192,36502,1,0,0:0:0:0:
256,192,36560,1,0,0:0:0:0:
256,192,36619,1,0,0:0:0:0:
256,192,36677,1,0,0:0:0:0:
256,192,36736,1,8,0:0:0:0:
256,192,36794,1,8,0:0:0:0:
256,192,36853,1,0,0:0:0:0:
256,192,36912,1,0,0:0:0:0:
256,192,36970,1,8,0:0:0:0:
256,192,37087,1,0,0:0:0:0:
256,192,37205,1,12,0:0:0:0:
256,192,37439,1,8,0:0:0:0:
256,192,37517,1,8,0:0:0:0:
256,192,37595,1,8,0:0:0:0:
256,192,37673,1,0,0:0:0:0:
256,192,37908,1,0,0:0:0:0:
256,192,37966,1,0,0:0:0:0:
256,192,38025,1,8,0:0:0:0:
256,192,38084,1,8,0:0:0:0:
256,192,38142,1,0,0:0:0:0:
256,192,38259,1,8,0:0:0:0:
256,192,38494,1,0,0:0:0:0:
256,192,38611,1,12,0:0:0:0:
256,192,38845,1,8,0:0:0:0:
256,192,38904,1,8,0:0:0:0:
256,192,38962,1,0,0:0:0:0:
256,192,39080,1,8,0:0:0:0:
256,192,39158,1,8,0:0:0:0:
256,192,39236,1,8,0:0:0:0:
256,192,39314,1,0,0:0:0:0:
256,192,40017,1,12,0:0:0:0:
256,192,40252,1,0,0:0:0:0:
256,192,40486,1,8,0:0:0:0:
256,192,40564,1,8,0:0:0:0:
256,192,40642,1,8,0:0:0:0:
256,192,40720,1,0,0:0:0:0:
256,192,40779,1,0,0:0:0:0:
256,192,40837,1,8,0:0:0:0:
256,192,40896,1,0,0:0:0:0:
256,192,40955,1,8,0:0:0:0:
256,192,41013,1,8,0:0:0:0:
256,192,41072,1,0,0:0:0:0:
256,192,41130,1,0,0:0:0:0:
256,192,41189,1,8,0:0:0:0:
256,192,41306,1,0,0:0:0:0:
256,192,41423,1,12,0:0:0:0:
256,192,41658,1,0,0:0:0:0:
256,192,41736,1,0,0:0:0:0:
256,192,41814,1,0,0:0:0:0:
256,192,41892,1,8,0:0:0:0:
256,192,41970,1,8,0:0:0:0:
256,192,42048,1,8,0:0:0:0:
256,192,42127,1,0,0:0:0:0:
256,192,42185,1,0,0:0:0:0:
256,192,42361,1,8,0:0:0:0:
256,192,42419,1,8,0:0:0:0:
256,192,42595,1,0,0:0:0:0:
256,192,42712,1,0,0:0:0:0:
256,192,42830,1,12,0:0:0:0:
256,192,43064,1,0,0:0:0:0:
256,192,43142,1,8,0:0:0:0:
256,192,43220,1,8,0:0:0:0:
256,192,43298,1,0,0:0:0:0:
256,192,43455,1,8,0:0:0:0:
256,192,43533,1,0,0:0:0:0:
256,192,43650,1,8,0:0:0:0:
256,192,43709,1,0,0:0:0:0:
256,192,43767,1,8,0:0:0:0:
256,192,43826,1,8,0:0:0:0:
256,192,43884,1,0,0:0:0:0:
256,192,43943,1,0,0:0:0:0:
256,192,44002,1,8,0:0:0:0:
256,192,44119,1,0,0:0:0:0:
256,192,44236,1,12,0:0:0:0:
256,192,44470,1,0,0:0:0:0:
256,192,44529,1,0,0:0:0:0:
256,192,44587,1,8,0:0:0:0:
256,192,44705,1,0,0:0:0:0:
256,192,44783,1,0,0:0:0:0:
256,192,44861,1,8,0:0:0:0:
256,192,44939,1,0,0:0:0:0:
256,192,44998,1,0,0:0:0:0:
256,192,45056,1,8,0:0:0:0:
256,192,45115,1,8,0:0:0:0:
256,192,45173,1,8,0:0:0:0:
256,192,45232,1,8,0:0:0:0:
256,192,45291,1,0,0:0:0:0:
256,192,45408,1,8,0:0:0:0:
256,192,45564,1,0,0:0:0:0:
256,192,45642,1,12,0:0:0:0:
256,192,45759,1,0,0:0:0:0:
256,192,45877,1,0,0:0:0:0:
256,192,45994,1,8,0:0:0:0:
256,192,46052,1,8,0:0:0:0:
256,192,46111,1,0,0:0:0:0:
256,192,46228,1,0,0:0:0:0:
256,192,46345,1,8,0:0:0:0:
256,192,46404,1,8,0:0:0:0:
256,192,46462,1,8,0:0:0:0:
256,192,46521,1,8,0:0:0:0:
256,192,46580,1,0,0:0:0:0:
256,192,46638,1,0,0:0:0:0:
256,192,46697,1,8,0:0:0:0:
256,192,46755,1,8,0:0:0:0:
256,192,46814,1,0,0:0:0:0:
256,192,46931,1,0,0:0:0:0:
256,192,47048,1,12,0:0:0:0:
256,192,47166,1,0,0:0:0:0:
256,192,47283,1,0,0:0:0:0:
256,192,47361,1,8,0:0:0:0:
256,192,47439,1,8,0:0:0:0:
256,192,47517,1,0,0:0:0:0:
256,192,47634,1,8,0:0:0:0:
256,192,47752,1,0,0:0:0:0:
256,192,47810,1,8,0:0:0:0:
256,192,47869,1,0,0:0:0:0:
256,192,48103,1,8,0:0:0:0:
256,192,48220,1,0,0:0:0:0:
256,192,48337,1,0,0:0:0:0:
256,192,48455,1,12,0:0:0:0:
256,192,48689,1,0,0:0:0:0:
256,192,48767,1,8,0:0:0:0:
256,192,48845,1,8,0:0:0:0:
256,192,48923,1,0,0:0:0:0:
256,192,49002,1,8,0:0:0:0:
256,192,49080,1,8,0:0:0:0:
256,192,49158,1,0,0:0:0:0:
256,192,49509,1,0,0:0:0:0:
256,192,49861,1,8,0:0:0:0:
256,192,50212,1,0,0:0:0:0:
256,192,50330,1,8,0:0:0:0:
256,192,50447,1,8,0:0:0:0:
256,192,50564,1,0,0:0:0:0:
256,192,50681,1,0,0:0:0:0:
256,192,50798,1,8,0:0:0:0:
256,192,50916,1,0,0:0:0:0:
256,192,51033,1,0,0:0:0:0:
256,192,51150,1,8,0:0:0:0:
256,192,51267,1,0,0:0:0:0:
256,192,51502,1,8,0:0:0:0:
256,192,51970,1,0,0:0:0:0:
256,192,52322,1,0,0:0:0:0:
256,192,52673,1,0,0:0:0:0:
256,192,53377,1,8,0:0:0:0:
256,192,53728,1,8,0:0:0:0:
256,192,54080,1,8,0:0:0:0:
256,192,54783,1,0,0:0:0:0:
256,192,55134,1,0,0:0:0:0:
256,192,55486,1,0,0:0:0:0:
256,192,55720,1,0,0:0:0:0:
256,192,55955,1,0,0:0:0:0:
256,192,56189,1,8,0:0:0:0:
256,192,56541,1,8,0:0:0:0:
256,192,56892,1,8,0:0:0:0:
256,192,57127,1,8,0:0:0:0:
256,192,57361,1,8,0:0:0:0:
256,192,57595,5,0,0:0:0:0:
256,192,57654,1,0,0:0:0:0:
256,192,57712,1,8,0:0:0:0:
256,192,57830,1,0,0:0:0:0:
256,192,57947,1,8,0:0:0:0:
256,192,58005,1,8,0:0:0:0:
256,192,58064,1,0,0:0:0:0:
256,192,58181,1,0,0:0:0:0:
256,192,58298,1,8,0:0:0:0:
256,192,58357,1,8,0:0:0:0:
256,192,58416,1,0,0:0:0:0:
256,192,58474,1,0,0:0:0:0:
256,192,58533,1,8,0:0:0:0:
256,192,58650,1,0,0:0:0:0:
256,192,58709,1,8,0:0:0:0:
256,192,58767,1,0,0:0:0:0:
256,192,58884,1,8,0:0:0:0:
256,192,59002,1,0,0:0:0:0:
256,192,59060,1,0,0:0:0:0:
256,192,59119,1,8,0:0:0:0:
256,192,59236,1,0,0:0:0:0:
256,192,59353,1,8,0:0:0:0:
256,192,59412,1,8,0:0:0:0:
256,192,59470,1,0,0:0:0:0:
256,192,59587,1,0,0:0:0:0:
256,192,59705,1,8,0:0:0:0:
256,192,59763,1,0,0:0:0:0:
256,192,59822,1,8,0:0:0:0:
256,192,59880,1,8,0:0:0:0:
256,192,59939,1,0,0:0:0:0:
256,192,60056,1,0,0:0:0:0:
256,192,60173,1,12,0:0:0:0:
256,192,60408,1,4,0:0:0:0:
256,192,60642,1,0,0:0:0:0:
256,192,60759,1,8,0:0:0:0:
256,192,60818,1,8,0:0:0:0:
256,192,60877,1,0,0:0:0:0:
256,192,60994,1,0,0:0:0:0:
256,192,61111,1,8,0:0:0:0:
256,192,61169,1,8,0:0:0:0:
256,192,61228,1,8,0:0:0:0:
256,192,61345,1,0,0:0:0:0:
256,192,61462,1,8,0:0:0:0:
256,192,61521,1,0,0:0:0:0:
256,192,61580,1,8,0:0:0:0:
256,192,61697,1,8,0:0:0:0:
256,192,61814,1,0,0:0:0:0:
256,192,61873,1,0,0:0:0:0:
256,192,61931,1,8,0:0:0:0:
256,192,62048,1,0,0:0:0:0:
256,192,62166,1,8,0:0:0:0:
256,192,62224,1,8,0:0:0:0:
256,192,62283,1,0,0:0:0:0:
256,192,62341,1,0,0:0:0:0:
256,192,62400,1,8,0:0:0:0:
256,192,62459,1,0,0:0:0:0:
256,192,62517,1,8,0:0:0:0:
256,192,62634,1,0,0:0:0:0:
256,192,62752,1,8,0:0:0:0:
256,192,62869,1,8,0:0:0:0:
256,192,62986,1,0,0:0:0:0:
256,192,63103,1,8,0:0:0:0:
256,192,63220,1,0,0:0:0:0:
256,192,63337,1,0,0:0:0:0:
256,192,63455,1,0,0:0:0:0:
256,192,63572,1,0,0:0:0:0:
256,192,63689,1,0,0:0:0:0:
256,192,63806,1,0,0:0:0:0:
256,192,63923,1,0,0:0:0:0:
256,192,64041,1,0,0:0:0:0:
256,192,64158,1,0,0:0:0:0:
256,192,64275,1,0,0:0:0:0:
256,192,64392,1,0,0:0:0:0:
256,192,64509,1,0,0:0:0:0:
256,192,64627,1,0,0:0:0:0:
256,192,65505,1,0,0:0:0:0:
256,192,65769,1,8,0:0:0:0:
256,192,66033,1,0,0:0:0:0:
256,192,68318,1,0,0:0:0:0:
256,192,68582,1,8,0:0:0:0:
256,192,68845,1,0,0:0:0:0:
256,192,71394,1,8,0:0:0:0:
256,192,71658,1,0,0:0:0:0:
256,192,74470,1,4,0:0:0:0:
256,192,75173,1,0,0:0:0:0:
256,192,75408,1,0,0:0:0:0:
256,192,75642,1,8,0:0:0:0:
256,192,75877,1,8,0:0:0:0:
256,192,77791,1,0,0:0:0:0:
256,192,78064,1,8,0:0:0:0:
256,192,78337,1,8,0:0:0:0:
256,192,78611,1,0,0:0:0:0:
256,192,79627,1,0,0:0:0:0:
256,192,79861,1,8,0:0:0:0:
256,192,80095,1,0,0:0:0:0:
256,192,82908,1,8,0:0:0:0:
256,192,83142,1,8,0:0:0:0:
256,192,83377,1,0,0:0:0:0:
256,192,83611,1,0,0:0:0:0:
256,192,83845,1,8,0:0:0:0:
256,192,84197,1,0,0:0:0:0:
256,192,84314,1,8,0:0:0:0:
256,192,84548,1,0,0:0:0:0:
256,192,84783,1,8,0:0:0:0:
256,192,85017,1,8,0:0:0:0:
256,192,85252,1,0,0:0:0:0:
256,192,85330,1,8,0:0:0:0:
256,192,85408,1,8,0:0:0:0:
256,192,85486,1,0,0:0:0:0:
256,192,85720,1,12,0:0:0:0:
256,192,86072,1,0,0:0:0:0:
256,192,86189,1,8,0:0:0:0:
256,192,86423,1,0,0:0:0:0:
256,192,86541,1,0,0:0:0:0:
256,192,86658,1,0,0:0:0:0:
256,192,86775,1,8,0:0:0:0:
256,192,87009,1,8,0:0:0:0:
256,192,87127,1,0,0:0:0:0:
256,192,87361,1,0,0:0:0:0:
256,192,87478,1,0,0:0:0:0:
256,192,87595,1,8,0:0:0:0:
256,192,87712,1,8,0:0:0:0:
256,192,87830,1,0,0:0:0:0:
256,192,87947,1,8,0:0:0:0:
256,192,88005,1,8,0:0:0:0:
256,192,88064,1,0,0:0:0:0:
256,192,88181,1,0,0:0:0:0:
256,192,88298,1,12,0:0:0:0:
256,192,88533,1,4,0:0:0:0:
256,192,88884,1,0,0:0:0:0:
256,192,89002,1,8,0:0:0:0:
256,192,89119,1,0,0:0:0:0:
256,192,89236,1,0,0:0:0:0:
256,192,89353,1,8,0:0:0:0:
256,192,89412,1,0,0:0:0:0:
256,192,89470,1,8,0:0:0:0:
256,192,89587,1,0,0:0:0:0:
256,192,89705,1,8,0:0:0:0:
256,192,89822,1,8,0:0:0:0:
256,192,89939,1,0,0:0:0:0:
256,192,90173,1,8,0:0:0:0:
256,192,90291,1,0,0:0:0:0:
256,192,90408,1,8,0:0:0:0:
256,192,90642,1,0,0:0:0:0:
256,192,90759,1,0,0:0:0:0:
256,192,90818,1,0,0:0:0:0:
256,192,90877,1,8,0:0:0:0:
256,192,90994,1,0,0:0:0:0:
256,192,91111,1,8,0:0:0:0:
256,192,91228,1,8,0:0:0:0:
256,192,91345,1,0,0:0:0:0:
256,192,91814,1,0,0:0:0:0:
256,192,92283,1,0,0:0:0:0:
256,192,92752,1,0,0:0:0:0:
256,192,93220,1,0,0:0:0:0:
256,192,93455,1,12,0:0:0:0:
256,192,93572,12,0,94041,0:0:0:0:
256,192,94158,5,0,0:0:0:0:
256,192,94216,1,0,0:0:0:0:
256,192,94275,1,8,0:0:0:0:
256,192,94334,1,8,0:0:0:0:
256,192,94392,1,0,0:0:0:0:
256,192,94509,1,8,0:0:0:0:
256,192,94568,1,8,0:0:0:0:
256,192,94627,1,8,0:0:0:0:
256,192,94685,1,8,0:0:0:0:
256,192,94744,1,0,0:0:0:0:
256,192,94861,1,8,0:0:0:0:
256,192,94939,1,0,0:0:0:0:
256,192,95017,1,0,0:0:0:0:
256,192,95095,1,8,0:0:0:0:
256,192,95212,1,0,0:0:0:0:
256,192,95330,1,8,0:0:0:0:
256,192,95564,1,0,0:0:0:0:
256,192,95642,1,8,0:0:0:0:
256,192,95720,1,0,0:0:0:0:
256,192,95798,1,8,0:0:0:0:
256,192,95877,1,0,0:0:0:0:
256,192,95955,1,8,0:0:0:0:
256,192,96033,1,0,0:0:0:0:
256,192,96111,1,8,0:0:0:0:
256,192,96267,1,12,0:0:0:0:
256,192,96502,1,0,0:0:0:0:
256,192,96736,1,8,0:0:0:0:
256,192,96970,1,0,0:0:0:0:
256,192,97029,1,0,0:0:0:0:
256,192,97087,1,8,0:0:0:0:
256,192,97146,1,8,0:0:0:0:
256,192,97205,1,0,0:0:0:0:
256,192,97263,1,0,0:0:0:0:
256,192,97322,1,8,0:0:0:0:
256,192,97380,1,0,0:0:0:0:
256,192,97439,1,8,0:0:0:0:
256,192,97556,1,0,0:0:0:0:
256,192,97673,1,12,0:0:0:0:
256,192,97908,1,0,0:0:0:0:
256,192,97986,1,8,0:0:0:0:
256,192,98064,1,8,0:0:0:0:
256,192,98142,1,0,0:0:0:0:
256,192,98259,1,8,0:0:0:0:
256,192,98377,1,0,0:0:0:0:
256,192,98435,1,0,0:0:0:0:
256,192,98494,1,8,0:0:0:0:
256,192,98552,1,0,0:0:0:0:
256,192,98611,1,8,0:0:0:0:
256,192,98669,1,0,0:0:0:0:
256,192,98728,1,8,0:0:0:0:
256,192,98787,1,8,0:0:0:0:
256,192,98845,1,0,0:0:0:0:
256,192,98962,1,0,0:0:0:0:
256,192,99080,1,12,0:0:0:0:
256,192,99314,1,0,0:0:0:0:
256,192,99392,1,0,0:0:0:0:
256,192,99470,1,8,0:0:0:0:
256,192,99548,1,8,0:0:0:0:
256,192,99666,1,0,0:0:0:0:
256,192,99783,1,0,0:0:0:0:
256,192,99841,1,8,0:0:0:0:
256,192,99900,1,0,0:0:0:0:
256,192,99959,1,0,0:0:0:0:
256,192,100017,1,8,0:0:0:0:
256,192,100076,1,8,0:0:0:0:
256,192,100134,1,0,0:0:0:0:
256,192,100193,1,0,0:0:0:0:
256,192,100252,1,8,0:0:0:0:
256,192,100369,1,0,0:0:0:0:
256,192,100486,1,12,0:0:0:0:
256,192,100720,1,0,0:0:0:0:
256,192,100779,1,8,0:0:0:0:
256,192,100837,1,8,0:0:0:0:
256,192,100955,1,0,0:0:0:0:
256,192,101033,1,8,0:0:0:0:
256,192,101111,1,8,0:0:0:0:
256,192,101189,1,0,0:0:0:0:
256,192,101248,1,0,0:0:0:0:
256,192,101306,1,0,0:0:0:0:
256,192,101365,1,0,0:0:0:0:
256,192,101423,1,8,0:0:0:0:
256,192,101482,1,0,0:0:0:0:
256,192,101541,1,8,0:0:0:0:
256,192,101599,1,8,0:0:0:0:
256,192,101658,1,0,0:0:0:0:
256,192,101775,1,0,0:0:0:0:
256,192,101892,1,12,0:0:0:0:
256,192,102127,1,8,0:0:0:0:
256,192,102185,1,8,0:0:0:0:
256,192,102244,1,8,0:0:0:0:
256,192,102361,1,0,0:0:0:0:
256,192,102439,1,8,0:0:0:0:
256,192,102517,1,8,0:0:0:0:
256,192,102595,1,0,0:0:0:0:
256,192,102654,1,0,0:0:0:0:
256,192,102712,1,8,0:0:0:0:
256,192,102771,1,8,0:0:0:0:
256,192,102830,1,0,0:0:0:0:
256,192,102888,1,8,0:0:0:0:
256,192,102947,1,0,0:0:0:0:
256,192,103005,1,8,0:0:0:0:
256,192,103064,1,0,0:0:0:0:
256,192,103181,1,0,0:0:0:0:
256,192,103298,1,12,0:0:0:0:
256,192,103533,1,0,0:0:0:0:
256,192,103611,1,0,0:0:0:0:
256,192,103689,1,0,0:0:0:0:
256,192,103767,1,8,0:0:0:0:
256,192,103884,1,8,0:0:0:0:
256,192,104002,1,0,0:0:0:0:
256,192,104060,1,8,0:0:0:0:
256,192,104119,1,0,0:0:0:0:
256,192,104177,1,0,0:0:0:0:
256,192,104236,1,8,0:0:0:0:
256,192,104294,1,0,0:0:0:0:
256,192,104353,1,8,0:0:0:0:
256,192,104412,1,8,0:0:0:0:
256,192,104470,1,0,0:0:0:0:
256,192,104587,1,0,0:0:0:0:
256,192,104705,1,12,0:0:0:0:
256,192,104939,1,0,0:0:0:0:
256,192,105017,1,0,0:0:0:0:
256,192,105095,1,0,0:0:0:0:
256,192,105173,1,8,0:0:0:0:
256,192,105252,1,8,0:0:0:0:
256,192,105330,1,8,0:0:0:0:
256,192,105408,1,0,0:0:0:0:
256,192,105466,1,0,0:0:0:0:
256,192,105525,1,0,0:0:0:0:
256,192,105584,1,0,0:0:0:0:
256,192,105642,1,8,0:0:0:0:
256,192,105701,1,8,0:0:0:0:
256,192,105759,1,0,0:0:0:0:
256,192,105818,1,0,0:0:0:0:
256,192,105877,1,8,0:0:0:0:
256,192,105994,1,0,0:0:0:0:
256,192,106111,1,12,0:0:0:0:
256,192,106345,1,8,0:0:0:0:
256,192,106423,1,8,0:0:0:0:
256,192,106502,1,8,0:0:0:0:
256,192,106580,1,0,0:0:0:0:
256,192,106697,1,8,0:0:0:0:
256,192,106814,1,0,0:0:0:0:
256,192,106873,1,0,0:0:0:0:
256,192,106931,1,8,0:0:0:0:
256,192,106990,1,8,0:0:0:0:
256,192,107048,1,0,0:0:0:0:
256,192,107166,1,8,0:0:0:0:
256,192,107400,1,0,0:0:0:0:
256,192,107517,1,12,0:0:0:0:
256,192,107752,1,8,0:0:0:0:
256,192,107810,1,8,0:0:0:0:
256,192,107869,1,0,0:0:0:0:
256,192,107986,1,8,0:0:0:0:
256,192,108064,1,8,0:0:0:0:
256,192,108142,1,8,0:0:0:0:
256,192,108220,1,0,0:0:0:0:
256,192,108279,1,0,0:0:0:0:
256,192,108337,1,8,0:0:0:0:
256,192,108396,1,8,0:0:0:0:
256,192,108455,1,0,0:0:0:0:
256,192,108513,1,8,0:0:0:0:
256,192,108572,1,0,0:0:0:0:
256,192,108630,1,0,0:0:0:0:
256,192,108689,1,8,0:0:0:0:
256,192,108806,1,0,0:0:0:0:
256,192,108923,1,12,0:0:0:0:
256,192,109158,1,0,0:0:0:0:
256,192,109236,1,8,0:0:0:0:
256,192,109314,1,8,0:0:0:0:
256,192,109392,1,0,0:0:0:0:
256,192,109509,1,8,0:0:0:0:
256,192,109627,1,0,0:0:0:0:
256,192,109685,1,0,0:0:0:0:
256,192,109744,1,8,0:0:0:0:
256,192,109802,1,0,0:0:0:0:
256,192,109861,1,8,0:0:0:0:
256,192,109919,1,0,0:0:0:0:
256,192,109978,1,0,0:0:0:0:
256,192,110037,1,0,0:0:0:0:
256,192,110095,1,8,0:0:0:0:
256,192,110212,1,0,0:0:0:0:
256,192,110330,1,12,0:0:0:0:
256,192,110564,1,0,0:0:0:0:
256,192,110642,1,0,0:0:0:0:
256,192,110720,1,8,0:0:0:0:
256,192,110798,1,8,0:0:0:0:
256,192,110916,1,0,0:0:0:0:
256,192,111033,1,0,0:0:0:0:
256,192,111091,1,8,0:0:0:0:
256,192,111150,1,0,0:0:0:0:
256,192,111209,1,0,0:0:0:0:
256,192,111267,1,8,0:0:0:0:
256,192,111326,1,8,0:0:0:0:
256,192,111384,1,0,0:0:0:0:
256,192,111443,1,0,0:0:0:0:
256,192,111502,1,8,0:0:0:0:
256,192,111619,1,0,0:0:0:0:
256,192,111736,1,12,0:0:0:0:
256,192,111970,1,0,0:0:0:0:
256,192,112029,1,8,0:0:0:0:
256,192,112087,1,8,0:0:0:0:
256,192,112205,1,0,0:0:0:0:
256,192,112283,1,8,0:0:0:0:
256,192,112361,1,8,0:0:0:0:
256,192,112439,1,0,0:0:0:0:
256,192,112498,1,0,0:0:0:0:
256,192,112556,1,0,0:0:0:0:
256,192,112615,1,0,0:0:0:0:
256,192,112673,1,8,0:0:0:0:
256,192,112732,1,8,0:0:0:0:
256,192,112791,1,0,0:0:0:0:
256,192,112849,1,8,0:0:0:0:
256,192,112908,1,0,0:0:0:0:
256,192,113025,1,0,0:0:0:0:
256,192,113142,1,12,0:0:0:0:
256,192,113377,1,8,0:0:0:0:
256,192,113435,1,8,0:0:0:0:
256,192,113494,1,8,0:0:0:0:
256,192,113611,1,0,0:0:0:0:
256,192,113689,1,8,0:0:0:0:
256,192,113767,1,8,0:0:0:0:
256,192,113845,1,0,0:0:0:0:
256,192,113904,1,8,0:0:0:0:
256,192,113962,1,8,0:0:0:0:
256,192,114021,1,8,0:0:0:0:
256,192,114080,1,0,0:0:0:0:
256,192,114138,1,8,0:0:0:0:
256,192,114197,1,0,0:0:0:0:
256,192,114255,1,0,0:0:0:0:
256,192,114314,1,8,0:0:0:0:
256,192,114431,1,0,0:0:0:0:
256,192,114548,1,12,0:0:0:0:
256,192,114783,1,0,0:0:0:0:
256,192,114861,1,0,0:0:0:0:
256,192,114939,1,0,0:0:0:0:
256,192,115017,1,8,0:0:0:0:
256,192,115134,1,8,0:0:0:0:
256,192,115252,1,0,0:0:0:0:
256,192,115310,1,8,0:0:0:0:
256,192,115369,1,0,0:0:0:0:
256,192,115427,1,8,0:0:0:0:
256,192,115486,1,8,0:0:0:0:
256,192,115544,1,0,0:0:0:0:
256,192,115603,1,8,0:0:0:0:
256,192,115662,1,8,0:0:0:0:
256,192,115720,1,0,0:0:0:0:
256,192,115837,1,0,0:0:0:0:
256,192,115955,1,12,0:0:0:0:
256,192,116189,1,0,0:0:0:0:
256,192,116267,1,0,0:0:0:0:
256,192,116345,1,0,0:0:0:0:
256,192,116423,1,8,0:0:0:0:
256,192,116502,1,8,0:0:0:0:
256,192,116580,1,8,0:0:0:0:
256,192,116658,1,0,0:0:0:0:
256,192,116716,1,0,0:0:0:0:
256,192,116775,1,0,0:0:0:0:
256,192,116834,1,0,0:0:0:0:
256,192,116892,1,8,0:0:0:0:
256,192,116951,1,8,0:0:0:0:
256,192,117009,1,0,0:0:0:0:
256,192,117068,1,0,0:0:0:0:
256,192,117127,1,8,0:0:0:0:
256,192,117244,1,0,0:0:0:0:
256,192,117361,1,12,0:0:0:0:
256,192,117595,1,8,0:0:0:0:
256,192,117673,1,8,0:0:0:0:
256,192,117752,1,8,0:0:0:0:
256,192,117830,1,0,0:0:0:0:
256,192,117947,1,8,0:0:0:0:
256,192,118064,1,0,0:0:0:0:
256,192,118123,1,0,0:0:0:0:
256,192,118181,1,8,0:0:0:0:
256,192,118240,1,8,0:0:0:0:
256,192,118298,1,0,0:0:0:0:
256,192,118416,1,8,0:0:0:0:
256,192,118650,1,0,0:0:0:0:
256,192,118767,1,12,0:0:0:0:
256,192,119002,1,8,0:0:0:0:
256,192,119060,1,8,0:0:0:0:
256,192,119119,1,0,0:0:0:0:
256,192,119236,1,8,0:0:0:0:
256,192,119314,1,8,0:0:0:0:
256,192,119392,1,8,0:0:0:0:
256,192,119470,1,0,0:0:0:0:
256,192,120173,1,12,0:0:0:0:
256,192,120408,1,0,0:0:0:0:
256,192,120642,1,8,0:0:0:0:
256,192,120720,1,8,0:0:0:0:
256,192,120798,1,8,0:0:0:0:
256,192,120877,1,0,0:0:0:0:
256,192,120935,1,0,0:0:0:0:
256,192,120994,1,8,0:0:0:0:
256,192,121052,1,0,0:0:0:0:
256,192,121111,1,8,0:0:0:0:
256,192,121169,1,0,0:0:0:0:
256,192,121228,1,8,0:0:0:0:
256,192,121287,1,8,0:0:0:0:
256,192,121345,1,0,0:0:0:0:
256,192,121462,1,0,0:0:0:0:
256,192,121580,1,12,0:0:0:0:
256,192,121814,1,8,0:0:0:0:
256,192,121873,1,8,0:0:0:0:
256,192,121931,1,0,0:0:0:0:
256,192,122048,1,8,0:0:0:0:
256,192,122127,1,0,0:0:0:0:
256,192,122205,1,0,0:0:0:0:
256,192,122283,1,8,0:0:0:0:
256,192,122400,1,0,0:0:0:0:
256,192,122459,1,0,0:0:0:0:
256,192,122517,1,8,0:0:0:0:
256,192,122576,1,0,0:0:0:0:
256,192,122634,1,8,0:0:0:0:
256,192,122752,1,0,0:0:0:0:
256,192,122869,1,0,0:0:0:0:
256,192,122986,1,12,0:0:0:0:
256,192,123220,1,0,0:0:0:0:
256,192,123298,1,8,0:0:0:0:
256,192,123377,1,8,0:0:0:0:
256,192,123455,1,0,0:0:0:0:
256,192,123611,1,8,0:0:0:0:
256,192,123689,1,0,0:0:0:0:
256,192,123806,1,8,0:0:0:0:
256,192,123865,1,8,0:0:0:0:
256,192,123923,1,0,0:0:0:0:
256,192,123982,1,8,0:0:0:0:
256,192,124041,1,0,0:0:0:0:
256,192,124099,1,0,0:0:0:0:
256,192,124158,1,8,0:0:0:0:
256,192,124275,1,0,0:0:0:0:
256,192,124392,1,12,0:0:0:0:
256,192,124627,1,0,0:0:0:0:
256,192,124685,1,0,0:0:0:0:
256,192,124744,1,8,0:0:0:0:
256,192,124861,1,0,0:0:0:0:
256,192,124939,1,8,0:0:0:0:
256,192,125017,1,8,0:0:0:0:
256,192,125095,1,0,0:0:0:0:
256,192,125154,1,0,0:0:0:0:
256,192,125212,1,8,0:0:0:0:
256,192,125271,1,0,0:0:0:0:
256,192,125330,1,8,0:0:0:0:
256,192,125388,1,8,0:0:0:0:
256,192,125447,1,0,0:0:0:0:
256,192,125564,1,8,0:0:0:0:
256,192,125720,1,0,0:0:0:0:
256,192,125798,1,12,0:0:0:0:
256,192,125916,1,0,0:0:0:0:
256,192,126033,1,0,0:0:0:0:
256,192,126150,1,8,0:0:0:0:
256,192,126209,1,8,0:0:0:0:
256,192,126267,1,0,0:0:0:0:
256,192,126384,1,0,0:0:0:0:
256,192,126502,1,8,0:0:0:0:
256,192,126560,1,0,0:0:0:0:
256,192,126619,1,8,0:0:0:0:
256,192,126677,1,0,0:0:0:0:
256,192,126736,1,8,0:0:0:0:
256,192,126794,1,8,0:0:0:0:
256,192,126853,1,0,0:0:0:0:
256,192,126912,1,8,0:0:0:0:
256,192,126970,1,0,0:0:0:0:
256,192,127087,1,0,0:0:0:0:
256,192,127205,1,12,0:0:0:0:
256,192,127322,1,0,0:0:0:0:
256,192,127439,1,0,0:0:0:0:
256,192,127517,1,8,0:0:0:0:
256,192,127595,1,0,0:0:0:0:
256,192,127673,1,8,0:0:0:0:
256,192,127791,1,8,0:0:0:0:
256,192,127908,1,0,0:0:0:0:
256,192,127966,1,0,0:0:0:0:
256,192,128025,1,8,0:0:0:0:
256,192,128259,1,8,0:0:0:0:
256,192,128377,1,0,0:0:0:0:
256,192,128494,1,0,0:0:0:0:
256,192,128611,1,12,0:0:0:0:
256,192,128845,1,0,0:0:0:0:
256,192,128923,1,8,0:0:0:0:
256,192,129002,1,8,0:0:0:0:
256,192,129080,1,0,0:0:0:0:
256,192,129158,1,8,0:0:0:0:
256,192,129236,1,8,0:0:0:0:
256,192,129314,1,0,0:0:0:0:
256,192,129431,12,8,132009,0:0:0:0:
256,192,132127,12,0,134353,0:0:0:0:
256,192,134470,5,0,0:0:0:0:
256,192,134939,1,0,0:0:0:0:
256,192,135017,1,8,0:0:0:0:
256,192,135877,1,8,0:0:0:0:
256,192,135950,1,0,0:0:0:0:
256,192,136023,1,8,0:0:0:0:
256,192,136096,1,0,0:0:0:0:
256,192,136169,1,8,0:0:0:0:
256,192,136243,1,0,0:0:0:0:
256,192,136316,1,8,0:0:0:0:
256,192,136389,1,0,0:0:0:0:
256,192,136462,1,8,0:0:0:0:
256,192,136536,1,0,0:0:0:0:
256,192,136814,1,8,0:0:0:0:
256,192,136931,1,8,0:0:0:0:
256,192,137048,1,0,0:0:0:0:
256,192,137283,1,8,0:0:0:0:
256,192,137517,1,8,0:0:0:0:
256,192,137654,1,0,0:0:0:0:
256,192,137712,1,8,0:0:0:0:
256,192,137771,1,0,0:0:0:0:
256,192,138103,1,8,0:0:0:0:
256,192,138220,1,0,0:0:0:0:
256,192,138455,1,8,0:0:0:0:
256,192,138630,1,8,0:0:0:0:
256,192,138704,1,0,0:0:0:0:
256,192,138777,1,8,0:0:0:0:
256,192,138850,1,0,0:0:0:0:
256,192,138923,1,8,0:0:0:0:
256,192,138997,1,0,0:0:0:0:
256,192,139070,1,8,0:0:0:0:
256,192,139143,1,0,0:0:0:0:
256,192,139744,1,0,0:0:0:0:
256,192,139861,1,8,0:0:0:0:
256,192,139978,1,0,0:0:0:0:
256,192,140096,1,8,0:0:0:0:
256,192,140213,1,8,0:0:0:0:
256,192,140330,1,0,0:0:0:0:
256,192,140447,1,0,0:0:0:0:
256,192,140564,1,8,0:0:0:0:
256,192,141033,1,0,0:0:0:0:
256,192,141677,1,8,0:0:0:0:
256,192,141751,1,8,0:0:0:0:
256,192,141824,1,0,0:0:0:0:
256,192,141897,1,0,0:0:0:0:
256,192,141970,1,8,0:0:0:0:
256,192,142439,1,8,0:0:0:0:
256,192,142498,1,8,0:0:0:0:
256,192,142556,1,0,0:0:0:0:
256,192,142673,1,8,0:0:0:0:
256,192,142732,1,0,0:0:0:0:
256,192,142908,1,0,0:0:0:0:
256,192,143025,1,8,0:0:0:0:
256,192,143084,1,0,0:0:0:0:
256,192,143259,1,0,0:0:0:0:
256,192,143377,1,8,0:0:0:0:
256,192,143420,1,8,0:0:0:0:
256,192,143728,1,0,0:0:0:0:
256,192,144080,1,8,0:0:0:0:
256,192,144314,1,0,0:0:0:0:
256,192,144666,1,0,0:0:0:0:
256,192,144783,1,8,0:0:0:0:
256,192,144861,1,8,0:0:0:0:
256,192,145252,1,8,0:0:0:0:
256,192,145310,1,0,0:0:0:0:
256,192,145369,1,8,0:0:0:0:
256,192,145427,1,0,0:0:0:0:
256,192,145486,1,8,0:0:0:0:
256,192,145603,1,0,0:0:0:0:
256,192,145720,1,8,0:0:0:0:
256,192,145798,1,8,0:0:0:0:
256,192,145877,1,0,0:0:0:0:
256,192,145955,1,8,0:0:0:0:
256,192,146033,1,0,0:0:0:0:
256,192,146111,1,0,0:0:0:0:
256,192,146189,1,8,0:0:0:0:
256,192,146306,1,0,0:0:0:0:
256,192,146423,1,8,0:0:0:0:
256,192,146541,1,0,0:0:0:0:
256,192,146599,1,0,0:0:0:0:
256,192,146658,1,8,0:0:0:0:
256,192,146775,1,0,0:0:0:0:
256,192,146892,1,8,0:0:0:0:
256,192,146951,1,8,0:0:0:0:
256,192,147009,1,0,0:0:0:0:
256,192,147127,1,8,0:0:0:0:
256,192,147244,1,0,0:0:0:0:
256,192,147361,1,8,0:0:0:0:
256,192,147419,1,8,0:0:0:0:
256,192,147478,1,0,0:0:0:0:
256,192,147537,1,0,0:0:0:0:
256,192,147595,1,8,0:0:0:0:
256,192,147712,1,0,0:0:0:0:
256,192,147830,1,8,0:0:0:0:
256,192,147947,1,0,0:0:0:0:
256,192,148064,1,8,0:0:0:0:
256,192,148123,1,0,0:0:0:0:
256,192,148181,1,8,0:0:0:0:
256,192,148298,1,8,0:0:0:0:
256,192,148416,1,0,0:0:0:0:
256,192,148474,1,0,0:0:0:0:
256,192,148533,1,8,0:0:0:0:
256,192,148650,1,0,0:0:0:0:
256,192,148767,1,8,0:0:0:0:
256,192,148884,1,8,0:0:0:0:
256,192,149002,1,0,0:0:0:0:
256,192,149080,1,0,0:0:0:0:
256,192,149158,1,0,0:0:0:0:
256,192,149236,1,8,0:0:0:0:
256,192,149314,1,8,0:0:0:0:
256,192,149392,1,8,0:0:0:0:
256,192,149470,1,0,0:0:0:0:
256,192,149548,1,0,0:0:0:0:
256,192,149627,1,0,0:0:0:0:
256,192,149705,1,8,0:0:0:0:
256,192,149783,1,8,0:0:0:0:
256,192,149861,1,8,0:0:0:0:
256,192,149939,1,0,0:0:0:0:
256,192,150017,1,0,0:0:0:0:
256,192,150095,1,0,0:0:0:0:
256,192,150173,1,8,0:0:0:0:
256,192,150252,1,8,0:0:0:0:
256,192,150330,1,8,0:0:0:0:
256,192,150408,1,0,0:0:0:0:
256,192,150486,1,0,0:0:0:0:
256,192,150564,1,8,0:0:0:0:
256,192,150642,1,8,0:0:0:0:
256,192,150720,1,0,0:0:0:0:
256,192,150798,1,8,0:0:0:0:
256,192,150877,1,0,0:0:0:0:
256,192,150955,1,0,0:0:0:0:
256,192,151033,1,8,0:0:0:0:
256,192,151111,1,8,0:0:0:0:
256,192,151189,1,0,0:0:0:0:
256,192,151267,1,8,0:0:0:0:
256,192,151345,1,0,0:0:0:0:
256,192,151423,1,0,0:0:0:0:
256,192,151502,1,0,0:0:0:0:
256,192,151580,1,8,0:0:0:0:
256,192,151658,1,8,0:0:0:0:
256,192,151736,1,8,0:0:0:0:
256,192,151814,1,0,0:0:0:0:
256,192,152048,1,0,0:0:0:0:
256,192,152166,1,8,0:0:0:0:
256,192,152400,1,0,0:0:0:0:
256,192,152517,1,8,0:0:0:0:
256,192,152634,1,0,0:0:0:0:
256,192,152869,1,8,0:0:0:0:
256,192,153103,1,0,0:0:0:0:
256,192,153220,1,8,0:0:0:0:
256,192,153337,1,0,0:0:0:0:
256,192,153572,1,8,0:0:0:0:
256,192,153689,1,8,0:0:0:0:
256,192,153806,1,0,0:0:0:0:
256,192,153923,1,8,0:0:0:0:
256,192,154041,1,0,0:0:0:0:
256,192,154099,1,0,0:0:0:0:
256,192,154158,1,8,0:0:0:0:
256,192,154275,1,0,0:0:0:0:
256,192,154392,1,8,0:0:0:0:
256,192,154509,1,8,0:0:0:0:
256,192,154568,1,8,0:0:0:0:
256,192,154627,1,0,0:0:0:0:
256,192,154861,1,8,0:0:0:0:
256,192,154978,1,0,0:0:0:0:
256,192,155095,1,8,0:0:0:0:
256,192,155212,1,0,0:0:0:0:
256,192,155271,1,0,0:0:0:0:
256,192,155330,1,8,0:0:0:0:
256,192,155447,1,0,0:0:0:0:
256,192,155564,1,8,0:0:0:0:
256,192,155681,1,8,0:0:0:0:
256,192,155798,1,0,0:0:0:0:
256,192,155916,1,0,0:0:0:0:
256,192,156033,1,8,0:0:0:0:
256,192,156150,1,8,0:0:0:0:
256,192,156384,1,8,0:0:0:0:
256,192,156736,1,0,0:0:0:0:
256,192,156853,1,8,0:0:0:0:
256,192,156912,1,8,0:0:0:0:
256,192,156970,1,0,0:0:0:0:
256,192,157205,1,0,0:0:0:0:
256,192,157439,1,12,0:0:0:0:
256,192,157615,1,0,0:0:0:0:
256,192,157791,1,8,0:0:0:0:
256,192,158025,1,8,0:0:0:0:
256,192,158142,1,0,0:0:0:0:
256,192,158259,1,8,0:0:0:0:
256,192,158377,1,0,0:0:0:0:
256,192,158494,1,0,0:0:0:0:
256,192,158611,1,8,0:0:0:0:
256,192,158669,1,8,0:0:0:0:
256,192,158728,1,0,0:0:0:0:
256,192,158845,1,12,0:0:0:0:
256,192,159080,1,0,0:0:0:0:
256,192,159197,1,0,0:0:0:0:
256,192,159314,1,8,0:0:0:0:
256,192,159548,1,0,0:0:0:0:
256,192,159666,1,0,0:0:0:0:
256,192,159783,1,8,0:0:0:0:
256,192,159900,1,0,0:0:0:0:
256,192,160017,1,8,0:0:0:0:
256,192,160134,1,8,0:0:0:0:
256,192,160252,1,0,0:0:0:0:
256,192,160486,1,8,0:0:0:0:
256,192,160603,1,0,0:0:0:0:
256,192,160720,1,8,0:0:0:0:
256,192,160837,1,8,0:0:0:0:
256,192,160955,1,0,0:0:0:0:
256,192,161072,1,0,0:0:0:0:
256,192,161130,1,0,0:0:0:0:
256,192,161189,1,8,0:0:0:0:
256,192,161306,1,0,0:0:0:0:
256,192,161423,1,12,0:0:0:0:
256,192,161658,1,4,0:0:0:0:
256,192,161892,1,0,0:0:0:0:
256,192,162009,1,0,0:0:0:0:
256,192,162127,1,8,0:0:0:0:
256,192,162361,1,0,0:0:0:0:
256,192,162478,1,8,0:0:0:0:
256,192,162537,1,8,0:0:0:0:
256,192,162595,1,0,0:0:0:0:
256,192,162712,1,0,0:0:0:0:
256,192,162830,1,8,0:0:0:0:
256,192,162947,1,8,0:0:0:0:
256,192,163064,1,0,0:0:0:0:
256,192,163298,1,8,0:0:0:0:
256,192,163416,1,0,0:0:0:0:
256,192,163533,1,8,0:0:0:0:
256,192,163591,1,8,0:0:0:0:
256,192,163650,1,8,0:0:0:0:
256,192,163767,1,0,0:0:0:0:
256,192,163884,1,0,0:0:0:0:
256,192,163943,1,0,0:0:0:0:
256,192,164002,1,8,0:0:0:0:
256,192,164119,1,0,0:0:0:0:
256,192,164236,1,8,0:0:0:0:
256,192,164353,1,8,0:0:0:0:
256,192,164470,1,4,0:0:0:0:
256,192,164822,1,0,0:0:0:0:
256,192,164939,1,8,0:0:0:0:
256,192,165056,1,0,0:0:0:0:
256,192,165173,1,0,0:0:0:0:
256,192,165291,1,8,0:0:0:0:
256,192,165349,1,0,0:0:0:0:
256,192,165408,1,8,0:0:0:0:
256,192,165525,1,0,0:0:0:0:
256,192,165642,1,8,0:0:0:0:
256,192,165759,1,8,0:0:0:0:
256,192,165877,1,4,0:0:0:0:
256,192,166228,1,0,0:0:0:0:
256,192,166345,1,8,0:0:0:0:
256,192,166462,1,8,0:0:0:0:
256,192,166580,1,0,0:0:0:0:
256,192,166697,1,0,0:0:0:0:
256,192,166814,1,8,0:0:0:0:
256,192,166931,1,0,0:0:0:0:
256,192,167048,1,8,0:0:0:0:
256,192,167166,1,8,0:0:0:0:
256,192,167283,1,4,0:0:0:0:
256,192,167634,1,0,0:0:0:0:
256,192,167752,1,8,0:0:0:0:
256,192,167986,1,0,0:0:0:0:
256,192,168220,1,8,0:0:0:0:
256,192,168337,1,0,0:0:0:0:
256,192,168455,1,8,0:0:0:0:
256,192,168689,1,4,0:0:0:0:
256,192,168923,1,0,0:0:0:0:
256,192,169041,1,0,0:0:0:0:
256,192,169158,1,8,0:0:0:0:
256,192,169275,1,0,0:0:0:0:
256,192,169392,1,8,0:0:0:0:
256,192,169509,1,8,0:0:0:0:
256,192,169627,1,0,0:0:0:0:
256,192,169744,1,8,0:0:0:0:
256,192,169861,1,8,0:0:0:0:
256,192,169978,1,8,0:0:0:0:
256,192,170095,1,0,0:0:0:0:
256,192,170564,1,8,0:0:0:0:
256,192,170798,1,0,0:0:0:0:
256,192,171267,1,8,0:0:0:0:
256,192,171502,1,0,0:0:0:0:
256,192,171970,1,8,0:0:0:0:
256,192,172205,1,0,0:0:0:0:
256,192,172439,1,8,0:0:0:0:
256,192,172908,1,0,0:0:0:0:
256,192,173845,1,0,0:0:0:0:
256,192,174080,1,0,0:0:0:0:
256,192,174314,1,8,0:0:0:0:
256,192,175720,1,0,0:0:0:0:
256,192,176658,1,0,0:0:0:0:
256,192,176892,1,8,0:0:0:0:
256,192,177127,1,0,0:0:0:0:
256,192,177830,1,12,0:0:0:0:
256,192,177947,12,0,178416,0:0:0:0:
256,192,178533,5,4,0:0:0:0:
256,192,178884,1,8,0:0:0:0:
256,192,179236,1,8,0:0:0:0:
256,192,179314,1,8,0:0:0:0:
256,192,179392,1,8,0:0:0:0:
256,192,179470,1,0,0:0:0:0:
256,192,179587,1,0,0:0:0:0:
256,192,179705,1,8,0:0:0:0:
256,192,179939,1,0,0:0:0:0:
256,192,179998,1,0,0:0:0:0:
256,192,180056,1,8,0:0:0:0:
256,192,180115,1,0,0:0:0:0:
256,192,180173,1,8,0:0:0:0:
256,192,180291,1,8,0:0:0:0:
256,192,180408,1,0,0:0:0:0:
256,192,180525,1,8,0:0:0:0:
256,192,180642,1,0,0:0:0:0:
256,192,180701,1,0,0:0:0:0:
256,192,180759,1,8,0:0:0:0:
256,192,180818,1,8,0:0:0:0:
256,192,180935,1,0,0:0:0:0:
256,192,180994,1,8,0:0:0:0:
256,192,181111,1,0,0:0:0:0:
256,192,181169,1,0,0:0:0:0:
256,192,181228,1,8,0:0:0:0:
256,192,181287,1,8,0:0:0:0:
256,192,181345,1,4,0:0:0:0:
256,192,181697,1,8,0:0:0:0:
256,192,181755,1,8,0:0:0:0:
256,192,181873,1,0,0:0:0:0:
256,192,181931,1,0,0:0:0:0:
256,192,182048,1,8,0:0:0:0:
256,192,182127,1,0,0:0:0:0:
256,192,182205,1,0,0:0:0:0:
256,192,182283,1,8,0:0:0:0:
256,192,182400,1,0,0:0:0:0:
256,192,182517,1,8,0:0:0:0:
256,192,182752,1,0,0:0:0:0:
256,192,182830,1,8,0:0:0:0:
256,192,182908,1,0,0:0:0:0:
256,192,182986,1,8,0:0:0:0:
256,192,183064,1,0,0:0:0:0:
256,192,183142,1,8,0:0:0:0:
256,192,183220,1,0,0:0:0:0:
256,192,183298,1,8,0:0:0:0:
256,192,183455,1,12,0:0:0:0:
256,192,183689,1,0,0:0:0:0:
256,192,183923,1,8,0:0:0:0:
256,192,184158,1,0,0:0:0:0:
256,192,184216,1,0,0:0:0:0:
256,192,184275,1,8,0:0:0:0:
256,192,184334,1,8,0:0:0:0:
256,192,184392,1,0,0:0:0:0:
256,192,184451,1,0,0:0:0:0:
256,192,184509,1,8,0:0:0:0:
256,192,184568,1,8,0:0:0:0:
256,192,184627,1,0,0:0:0:0:
256,192,184744,1,0,0:0:0:0:
256,192,184861,1,12,0:0:0:0:
256,192,185095,1,0,0:0:0:0:
256,192,185173,1,8,0:0:0:0:
256,192,185252,1,8,0:0:0:0:
256,192,185330,1,0,0:0:0:0:
256,192,185447,1,8,0:0:0:0:
256,192,185564,1,0,0:0:0:0:
256,192,185623,1,0,0:0:0:0:
256,192,185681,1,8,0:0:0:0:
256,192,185740,1,0,0:0:0:0:
256,192,185798,1,8,0:0:0:0:
256,192,185857,1,8,0:0:0:0:
256,192,185916,1,0,0:0:0:0:
256,192,185974,1,8,0:0:0:0:
256,192,186033,1,0,0:0:0:0:
256,192,186150,1,0,0:0:0:0:
256,192,186267,1,12,0:0:0:0:
256,192,186502,1,0,0:0:0:0:
256,192,186580,1,0,0:0:0:0:
256,192,186658,1,8,0:0:0:0:
256,192,186736,1,8,0:0:0:0:
256,192,186853,1,0,0:0:0:0:
256,192,186970,1,0,0:0:0:0:
256,192,187029,1,8,0:0:0:0:
256,192,187087,1,0,0:0:0:0:
256,192,187146,1,0,0:0:0:0:
256,192,187205,1,8,0:0:0:0:
256,192,187263,1,8,0:0:0:0:
256,192,187322,1,0,0:0:0:0:
256,192,187380,1,0,0:0:0:0:
256,192,187439,1,8,0:0:0:0:
256,192,187556,1,0,0:0:0:0:
256,192,187673,1,12,0:0:0:0:
256,192,187908,1,0,0:0:0:0:
256,192,187966,1,8,0:0:0:0:
256,192,188025,1,8,0:0:0:0:
256,192,188142,1,0,0:0:0:0:
256,192,188220,1,8,0:0:0:0:
256,192,188298,1,8,0:0:0:0:
256,192,188377,1,0,0:0:0:0:
256,192,188435,1,0,0:0:0:0:
256,192,188494,1,0,0:0:0:0:
256,192,188552,1,0,0:0:0:0:
256,192,188611,1,8,0:0:0:0:
256,192,188669,1,8,0:0:0:0:
256,192,188728,1,0,0:0:0:0:
256,192,188787,1,8,0:0:0:0:
256,192,188845,1,0,0:0:0:0:
256,192,188962,1,0,0:0:0:0:
256,192,189080,1,12,0:0:0:0:
256,192,189314,1,8,0:0:0:0:
256,192,189373,1,8,0:0:0:0:
256,192,189431,1,8,0:0:0:0:
256,192,189548,1,0,0:0:0:0:
256,192,189627,1,8,0:0:0:0:
256,192,189705,1,8,0:0:0:0:
256,192,189783,1,0,0:0:0:0:
256,192,189841,1,0,0:0:0:0:
256,192,189900,1,8,0:0:0:0:
256,192,189959,1,8,0:0:0:0:
256,192,190017,1,0,0:0:0:0:
256,192,190076,1,8,0:0:0:0:
256,192,190134,1,8,0:0:0:0:
256,192,190193,1,8,0:0:0:0:
256,192,190252,1,0,0:0:0:0:
256,192,190369,1,0,0:0:0:0:
256,192,190486,1,12,0:0:0:0:
256,192,190720,1,0,0:0:0:0:
256,192,190798,1,0,0:0:0:0:
256,192,190877,1,0,0:0:0:0:
256,192,190955,1,8,0:0:0:0:
256,192,191072,1,8,0:0:0:0:
256,192,191189,1,0,0:0:0:0:
256,192,191248,1,8,0:0:0:0:
256,192,191306,1,0,0:0:0:0:
256,192,191365,1,0,0:0:0:0:
256,192,191423,1,8,0:0:0:0:
256,192,191482,1,0,0:0:0:0:
256,192,191541,1,8,0:0:0:0:
256,192,191599,1,8,0:0:0:0:
256,192,191658,1,0,0:0:0:0:
256,192,191775,1,0,0:0:0:0:
256,192,191892,1,12,0:0:0:0:
256,192,192127,1,0,0:0:0:0:
256,192,192205,1,0,0:0:0:0:
256,192,192283,1,0,0:0:0:0:
256,192,192361,1,8,0:0:0:0:
256,192,192439,1,8,0:0:0:0:
256,192,192517,1,8,0:0:0:0:
256,192,192595,1,0,0:0:0:0:
256,192,192654,1,0,0:0:0:0:
256,192,192712,1,0,0:0:0:0:
256,192,192771,1,0,0:0:0:0:
256,192,192830,1,8,0:0:0:0:
256,192,192888,1,8,0:0:0:0:
256,192,192947,1,0,0:0:0:0:
256,192,193005,1,0,0:0:0:0:
256,192,193064,1,8,0:0:0:0:
256,192,193181,1,0,0:0:0:0:
256,192,193298,1,12,0:0:0:0:
256,192,193533,1,8,0:0:0:0:
256,192,193611,1,8,0:0:0:0:
256,192,193689,1,8,0:0:0:0:
256,192,193767,1,0,0:0:0:0:
256,192,194002,1,0,0:0:0:0:
256,192,194060,1,0,0:0:0:0:
256,192,194119,1,8,0:0:0:0:
256,192,194177,1,8,0:0:0:0:
256,192,194236,1,0,0:0:0:0:
256,192,194353,1,8,0:0:0:0:
256,192,194587,1,0,0:0:0:0:
256,192,194705,1,12,0:0:0:0:
256,192,194939,1,8,0:0:0:0:
256,192,194998,1,8,0:0:0:0:
256,192,195056,1,0,0:0:0:0:
256,192,195173,1,8,0:0:0:0:
256,192,195252,1,8,0:0:0:0:
256,192,195330,1,8,0:0:0:0:
256,192,195408,1,0,0:0:0:0:
256,192,195466,1,0,0:0:0:0:
256,192,195525,1,8,0:0:0:0:
256,192,195584,1,8,0:0:0:0:
256,192,195642,1,0,0:0:0:0:
256,192,195701,1,8,0:0:0:0:
256,192,195759,1,8,0:0:0:0:
256,192,195818,1,0,0:0:0:0:
256,192,195877,1,8,0:0:0:0:
256,192,195994,1,0,0:0:0:0:
256,192,196111,1,12,0:0:0:0:
256,192,196345,1,0,0:0:0:0:
256,192,196423,1,8,0:0:0:0:
256,192,196502,1,8,0:0:0:0:
256,192,196580,1,0,0:0:0:0:
256,192,196697,1,8,0:0:0:0:
256,192,196814,1,0,0:0:0:0:
256,192,196873,1,0,0:0:0:0:
256,192,196931,1,8,0:0:0:0:
256,192,196990,1,0,0:0:0:0:
256,192,197048,1,8,0:0:0:0:
256,192,197107,1,0,0:0:0:0:
256,192,197166,1,0,0:0:0:0:
256,192,197224,1,8,0:0:0:0:
256,192,197283,1,0,0:0:0:0:
256,192,197400,1,0,0:0:0:0:
256,192,197517,1,12,0:0:0:0:
256,192,197752,1,0,0:0:0:0:
256,192,197830,1,0,0:0:0:0:
256,192,197908,1,8,0:0:0:0:
256,192,197986,1,8,0:0:0:0:
256,192,198103,1,0,0:0:0:0:
256,192,198220,1,0,0:0:0:0:
256,192,198279,1,8,0:0:0:0:
256,192,198337,1,0,0:0:0:0:
256,192,198396,1,0,0:0:0:0:
256,192,198455,1,8,0:0:0:0:
256,192,198513,1,0,0:0:0:0:
256,192,198572,1,0,0:0:0:0:
256,192,198630,1,0,0:0:0:0:
256,192,198689,1,8,0:0:0:0:
256,192,198806,1,0,0:0:0:0:
256,192,198923,1,12,0:0:0:0:
256,192,199158,1,0,0:0:0:0:
256,192,199216,1,8,0:0:0:0:
256,192,199275,1,8,0:0:0:0:
256,192,199392,1,0,0:0:0:0:
256,192,199470,1,8,0:0:0:0:
256,192,199548,1,8,0:0:0:0:
256,192,199627,1,0,0:0:0:0:
256,192,199685,1,0,0:0:0:0:
256,192,199744,1,0,0:0:0:0:
256,192,199802,1,0,0:0:0:0:
256,192,199861,1,8,0:0:0:0:
256,192,199919,1,0,0:0:0:0:
256,192,199978,1,8,0:0:0:0:
256,192,200037,1,8,0:0:0:0:
256,192,200095,1,0,0:0:0:0:
256,192,200212,1,0,0:0:0:0:
256,192,200330,1,12,0:0:0:0:
256,192,200564,1,8,0:0:0:0:
256,192,200623,1,8,0:0:0:0:
256,192,200681,1,8,0:0:0:0:
256,192,200798,1,0,0:0:0:0:
256,192,200877,1,8,0:0:0:0:
256,192,200955,1,8,0:0:0:0:
256,192,201033,1,0,0:0:0:0:
256,192,201091,1,0,0:0:0:0:
256,192,201150,1,8,0:0:0:0:
256,192,201209,1,8,0:0:0:0:
256,192,201267,1,0,0:0:0:0:
256,192,201326,1,8,0:0:0:0:
256,192,201384,1,0,0:0:0:0:
256,192,201443,1,8,0:0:0:0:
256,192,201502,1,0,0:0:0:0:
256,192,201619,1,0,0:0:0:0:
256,192,201736,1,12,0:0:0:0:
256,192,201970,1,0,0:0:0:0:
256,192,202048,1,0,0:0:0:0:
256,192,202127,1,0,0:0:0:0:
256,192,202205,1,8,0:0:0:0:
256,192,202322,1,8,0:0:0:0:
256,192,202439,1,0,0:0:0:0:
256,192,202498,1,8,0:0:0:0:
256,192,202556,1,0,0:0:0:0:
256,192,202615,1,0,0:0:0:0:
256,192,202673,1,8,0:0:0:0:
256,192,202732,1,0,0:0:0:0:
256,192,202791,1,8,0:0:0:0:
256,192,202849,1,0,0:0:0:0:
256,192,202908,1,8,0:0:0:0:
256,192,203025,1,0,0:0:0:0:
256,192,203142,1,12,0:0:0:0:
256,192,203377,1,0,0:0:0:0:
256,192,203455,1,0,0:0:0:0:
256,192,203533,1,0,0:0:0:0:
256,192,203611,1,8,0:0:0:0:
256,192,203689,1,8,0:0:0:0:
256,192,203767,1,8,0:0:0:0:
256,192,203845,1,0,0:0:0:0:
256,192,203904,1,0,0:0:0:0:
256,192,203962,1,0,0:0:0:0:
256,192,204021,1,0,0:0:0:0:
256,192,204080,1,8,0:0:0:0:
256,192,204138,1,8,0:0:0:0:
256,192,204197,1,0,0:0:0:0:
256,192,204255,1,0,0:0:0:0:
256,192,204314,1,8,0:0:0:0:
256,192,204431,1,0,0:0:0:0:
256,192,204548,1,12,0:0:0:0:
256,192,204783,1,8,0:0:0:0:
256,192,204861,1,8,0:0:0:0:
256,192,204939,1,8,0:0:0:0:
256,192,205017,1,0,0:0:0:0:
256,192,205252,1,0,0:0:0:0:
256,192,205310,1,0,0:0:0:0:
256,192,205369,1,8,0:0:0:0:
256,192,205427,1,8,0:0:0:0:
256,192,205486,1,0,0:0:0:0:
256,192,205603,1,8,0:0:0:0:
256,192,205837,1,0,0:0:0:0:
256,192,205955,1,12,0:0:0:0:
256,192,206345,1,8,0:0:0:0:
256,192,206384,1,0,0:0:0:0:
256,192,206423,1,0,0:0:0:0:
256,192,206502,1,8,0:0:0:0:
256,192,206541,1,0,0:0:0:0:
256,192,206580,1,0,0:0:0:0:
256,192,206658,1,8,0:0:0:0:
256,192,206892,1,0,0:0:0:0:
256,192,206970,1,8,0:0:0:0:
256,192,207244,1,0,0:0:0:0:
256,192,207361,1,12,0:0:0:0:
256,192,207595,1,0,0:0:0:0:
256,192,207830,1,8,0:0:0:0:
256,192,207908,1,8,0:0:0:0:
256,192,207986,1,8,0:0:0:0:
256,192,208064,1,0,0:0:0:0:
256,192,208123,1,0,0:0:0:0:
256,192,208181,1,8,0:0:0:0:
256,192,208240,1,8,0:0:0:0:
256,192,208298,1,0,0:0:0:0:
256,192,208357,1,0,0:0:0:0:
256,192,208416,1,8,0:0:0:0:
256,192,208474,1,8,0:0:0:0:
256,192,208533,1,0,0:0:0:0:
256,192,208650,1,0,0:0:0:0:
256,192,208767,1,12,0:0:0:0:
256,192,209002,1,0,0:0:0:0:
256,192,209080,1,8,0:0:0:0:
256,192,209158,1,8,0:0:0:0:
256,192,209236,1,0,0:0:0:0:
256,192,209353,1,8,0:0:0:0:
256,192,209470,1,0,0:0:0:0:
256,192,209529,1,0,0:0:0:0:
256,192,209587,1,8,0:0:0:0:
256,192,209646,1,0,0:0:0:0:
256,192,209705,1,8,0:0:0:0:
256,192,209763,1,8,0:0:0:0:
256,192,209822,1,0,0:0:0:0:
256,192,209880,1,8,0:0:0:0:
256,192,209939,1,0,0:0:0:0:
256,192,210056,1,0,0:0:0:0:
256,192,210173,1,12,0:0:0:0:
256,192,210408,1,0,0:0:0:0:
256,192,210486,1,0,0:0:0:0:
256,192,210564,1,8,0:0:0:0:
256,192,210642,1,8,0:0:0:0:
256,192,210759,1,0,0:0:0:0:
256,192,210877,1,0,0:0:0:0:
256,192,210935,1,8,0:0:0:0:
256,192,210994,1,0,0:0:0:0:
256,192,211052,1,0,0:0:0:0:
256,192,211111,1,8,0:0:0:0:
256,192,211169,1,8,0:0:0:0:
256,192,211228,1,0,0:0:0:0:
256,192,211287,1,0,0:0:0:0:
256,192,211345,1,8,0:0:0:0:
256,192,211462,1,0,0:0:0:0:
256,192,211580,1,12,0:0:0:0:
256,192,211814,1,0,0:0:0:0:
256,192,211873,1,8,0:0:0:0:
256,192,211931,1,8,0:0:0:0:
256,192,212048,1,0,0:0:0:0:
256,192,212127,1,8,0:0:0:0:
256,192,212205,1,8,0:0:0:0:
256,192,212283,1,0,0:0:0:0:
256,192,212341,1,0,0:0:0:0:
256,192,212400,1,0,0:0:0:0:
256,192,212459,1,0,0:0:0:0:
256,192,212517,1,8,0:0:0:0:
256,192,212576,1,8,0:0:0:0:
256,192,212634,1,0,0:0:0:0:
256,192,212693,1,8,0:0:0:0:
256,192,212752,1,0,0:0:0:0:
256,192,212869,1,0,0:0:0:0:
256,192,212986,1,12,0:0:0:0:
256,192,213220,1,8,0:0:0:0:
256,192,213279,1,8,0:0:0:0:
256,192,213337,1,8,0:0:0:0:
256,192,213455,1,0,0:0:0:0:
256,192,213533,1,8,0:0:0:0:
256,192,213611,1,8,0:0:0:0:
256,192,213689,1,0,0:0:0:0:
256,192,213748,1,0,0:0:0:0:
256,192,213806,1,8,0:0:0:0:
256,192,213865,1,8,0:0:0:0:
256,192,213923,1,0,0:0:0:0:
256,192,213982,1,8,0:0:0:0:
256,192,214041,1,8,0:0:0:0:
256,192,214099,1,8,0:0:0:0:
256,192,214158,1,0,0:0:0:0:
256,192,214275,1,0,0:0:0:0:
256,192,214392,1,12,0:0:0:0:
256,192,214627,1,0,0:0:0:0:
256,192,214705,1,0,0:0:0:0:
256,192,214783,1,0,0:0:0:0:
256,192,214861,1,8,0:0:0:0:
256,192,214978,1,8,0:0:0:0:
256,192,215095,1,0,0:0:0:0:
256,192,215154,1,8,0:0:0:0:
256,192,215212,1,0,0:0:0:0:
256,192,215271,1,0,0:0:0:0:
256,192,215330,1,8,0:0:0:0:
256,192,215388,1,0,0:0:0:0:
256,192,215447,1,8,0:0:0:0:
256,192,215505,1,8,0:0:0:0:
256,192,215564,1,0,0:0:0:0:
256,192,215681,1,0,0:0:0:0:
256,192,215798,1,12,0:0:0:0:
256,192,216033,1,0,0:0:0:0:
256,192,216111,1,0,0:0:0:0:
256,192,216189,1,0,0:0:0:0:
256,192,216267,1,8,0:0:0:0:
256,192,216345,1,8,0:0:0:0:
256,192,216423,1,8,0:0:0:0:
256,192,216502,1,0,0:0:0:0:
256,192,216560,1,0,0:0:0:0:
256,192,216619,1,0,0:0:0:0:
256,192,216677,1,0,0:0:0:0:
256,192,216736,1,8,0:0:0:0:
256,192,216794,1,8,0:0:0:0:
256,192,216853,1,0,0:0:0:0:
256,192,216912,1,0,0:0:0:0:
256,192,216970,1,8,0:0:0:0:
256,192,217087,1,0,0:0:0:0:
256,192,217205,1,12,0:0:0:0:
256,192,217439,1,8,0:0:0:0:
256,192,217517,1,8,0:0:0:0:
256,192,217595,1,8,0:0:0:0:
256,192,217673,1,0,0:0:0:0:
256,192,217908,1,0,0:0:0:0:
256,192,217966,1,0,0:0:0:0:
256,192,218025,1,8,0:0:0:0:
256,192,218084,1,8,0:0:0:0:
256,192,218142,1,0,0:0:0:0:
256,192,218259,1,8,0:0:0:0:
256,192,218494,1,0,0:0:0:0:
256,192,218611,1,12,0:0:0:0:
256,192,218845,1,8,0:0:0:0:
256,192,218904,1,8,0:0:0:0:
256,192,218962,1,0,0:0:0:0:
256,192,219080,1,8,0:0:0:0:
256,192,219158,1,8,0:0:0:0:
256,192,219236,1,8,0:0:0:0:
256,192,219314,1,0,0:0:0:0:
256,192,219373,1,0,0:0:0:0:
256,192,219431,1,8,0:0:0:0:
256,192,219490,1,8,0:0:0:0:
256,192,219548,1,0,0:0:0:0:
256,192,219607,1,8,0:0:0:0:
256,192,219666,1,0,0:0:0:0:
256,192,219724,1,0,0:0:0:0:
256,192,219783,1,8,0:0:0:0:
256,192,219900,1,0,0:0:0:0:
256,192,220017,1,12,0:0:0:0:
256,192,220252,1,0,0:0:0:0:
256,192,220330,1,8,0:0:0:0:
256,192,220408,1,8,0:0:0:0:
256,192,220486,1,0,0:0:0:0:
256,192,220603,1,8,0:0:0:0:
256,192,220720,1,0,0:0:0:0:
256,192,220779,1,0,0:0:0:0:
256,192,220837,1,8,0:0:0:0:
256,192,220896,1,0,0:0:0:0:
256,192,220955,1,8,0:0:0:0:
256,192,221013,1,0,0:0:0:0:
256,192,221072,1,8,0:0:0:0:
256,192,221130,1,8,0:0:0:0:
256,192,221189,1,0,0:0:0:0:
256,192,221306,1,0,0:0:0:0:
256,192,221423,1,12,0:0:0:0:
256,192,221658,1,0,0:0:0:0:
256,192,221736,1,0,0:0:0:0:
256,192,221814,1,8,0:0:0:0:
256,192,221892,1,8,0:0:0:0:
256,192,222009,1,0,0:0:0:0:
256,192,222127,1,0,0:0:0:0:
256,192,222185,1,8,0:0:0:0:
256,192,222244,1,0,0:0:0:0:
256,192,222302,1,0,0:0:0:0:
256,192,222361,1,8,0:0:0:0:
256,192,222419,1,8,0:0:0:0:
256,192,222478,1,8,0:0:0:0:
256,192,222537,1,0,0:0:0:0:
256,192,222595,1,8,0:0:0:0:
256,192,222712,1,0,0:0:0:0:
256,192,222830,1,12,0:0:0:0:
256,192,223064,1,0,0:0:0:0:
256,192,223123,1,8,0:0:0:0:
256,192,223181,1,8,0:0:0:0:
256,192,223298,1,0,0:0:0:0:
256,192,223377,1,8,0:0:0:0:
256,192,223455,1,8,0:0:0:0:
256,192,223533,1,0,0:0:0:0:
256,192,223591,1,0,0:0:0:0:
256,192,223650,1,0,0:0:0:0:
256,192,223709,1,0,0:0:0:0:
256,192,223767,1,8,0:0:0:0:
256,192,223826,1,0,0:0:0:0:
256,192,223884,1,8,0:0:0:0:
256,192,223943,1,8,0:0:0:0:
256,192,224002,1,0,0:0:0:0:
256,192,224119,1,0,0:0:0:0:
256,192,224236,1,12,0:0:0:0:
256,192,224470,1,8,0:0:0:0:
256,192,224529,1,8,0:0:0:0:
256,192,224587,1,8,0:0:0:0:
256,192,224705,1,0,0:0:0:0:
256,192,224783,1,8,0:0:0:0:
256,192,224861,1,8,0:0:0:0:
256,192,224939,1,0,0:0:0:0:
256,192,224998,1,0,0:0:0:0:
256,192,225056,1,8,0:0:0:0:
256,192,225115,1,8,0:0:0:0:
256,192,225173,1,0,0:0:0:0:
256,192,225232,1,8,0:0:0:0:
256,192,225291,1,0,0:0:0:0:
256,192,225349,1,8,0:0:0:0:
256,192,225408,1,0,0:0:0:0:
256,192,225525,1,0,0:0:0:0:
256,192,225642,1,12,0:0:0:0:
256,192,225877,1,0,0:0:0:0:
256,192,225955,1,0,0:0:0:0:
256,192,226033,1,0,0:0:0:0:
256,192,226111,1,8,0:0:0:0:
256,192,226228,1,8,0:0:0:0:
256,192,226345,1,0,0:0:0:0:
256,192,226404,1,8,0:0:0:0:
256,192,226462,1,8,0:0:0:0:
256,192,226521,1,0,0:0:0:0:
256,192,226580,1,8,0:0:0:0:
256,192,226638,1,0,0:0:0:0:
256,192,226697,1,0,0:0:0:0:
256,192,226755,1,8,0:0:0:0:
256,192,226814,1,0,0:0:0:0:
256,192,226931,1,0,0:0:0:0:
256,192,227048,1,12,0:0:0:0:
256,192,227283,1,0,0:0:0:0:
256,192,227361,1,0,0:0:0:0:
256,192,227439,1,0,0:0:0:0:
256,192,227517,1,8,0:0:0:0:
256,192,227595,1,8,0:0:0:0:
256,192,227673,1,8,0:0:0:0:
256,192,227752,1,0,0:0:0:0:
256,192,227810,1,0,0:0:0:0:
256,192,227869,1,0,0:0:0:0:
256,192,227927,1,0,0:0:0:0:
256,192,227986,1,8,0:0:0:0:
256,192,228044,1,8,0:0:0:0:
256,192,228103,1,0,0:0:0:0:
256,192,228162,1,0,0:0:0:0:
256,192,228220,1,8,0:0:0:0:
256,192,228337,1,0,0:0:0:0:
256,192,228455,1,12,0:0:0:0:
256,192,228689,1,8,0:0:0:0:
256,192,228767,1,8,0:0:0:0:
256,192,228845,1,8,0:0:0:0:
256,192,228923,1,0,0:0:0:0:
256,192,229158,1,0,0:0:0:0:
256,192,229216,1,0,0:0:0:0:
256,192,229275,1,8,0:0:0:0:
256,192,229334,1,8,0:0:0:0:
256,192,229392,1,0,0:0:0:0:
256,192,229509,1,8,0:0:0:0:
256,192,229744,1,0,0:0:0:0:
256,192,229861,1,12,0:0:0:0:
256,192,230095,1,8,0:0:0:0:
256,192,230154,1,8,0:0:0:0:
256,192,230212,1,0,0:0:0:0:
256,192,230330,1,8,0:0:0:0:
256,192,230408,1,8,0:0:0:0:
256,192,230486,1,8,0:0:0:0:
256,192,230564,1,0,0:0:0:0:
256,192,230681,12,0,231150,0:0:0:0:
256,192,231267,5,12,0:0:0:0:
256,192,231502,1,0,0:0:0:0:
256,192,231560,1,0,0:0:0:0:
256,192,231619,1,0,0:0:0:0:
256,192,231677,1,0,0:0:0:0:
256,192,231736,1,8,0:0:0:0:
256,192,231794,1,8,0:0:0:0:
256,192,231853,1,8,0:0:0:0:
256,192,231912,1,8,0:0:0:0:
256,192,231970,1,0,0:0:0:0:
256,192,232322,1,8,0:0:0:0:
256,192,232673,1,8,0:0:0:0:
256,192,232908,1,0,0:0:0:0:
256,192,233142,1,8,0:0:0:0:
256,192,233377,1,0,0:0:0:0:
256,192,233728,1,8,0:0:0:0:
256,192,234080,1,8,0:0:0:0:
256,192,234314,1,0,0:0:0:0:
256,192,234548,1,8,0:0:0:0:
256,192,234783,1,0,0:0:0:0:
256,192,234841,1,0,0:0:0:0:
256,192,234900,1,8,0:0:0:0:
256,192,234959,1,8,0:0:0:0:
256,192,235017,1,0,0:0:0:0:
256,192,235076,1,0,0:0:0:0:
256,192,235134,1,0,0:0:0:0:
256,192,235193,1,0,0:0:0:0:
256,192,235252,1,8,0:0:0:0:
256,192,235369,1,0,0:0:0:0:
256,192,235486,1,12,0:0:0:0:
256,192,235720,1,0,0:0:0:0:
256,192,235837,1,8,0:0:0:0:
256,192,235955,1,0,0:0:0:0:
256,192,236013,1,0,0:0:0:0:
256,192,236072,1,8,0:0:0:0:
256,192,236189,1,0,0:0:0:0:
256,192,236267,1,0,0:0:0:0:
256,192,236345,1,8,0:0:0:0:
256,192,236384,1,0,0:0:0:0:
256,192,236423,1,0,0:0:0:0:
256,192,236502,1,8,0:0:0:0:
256,192,236541,1,0,0:0:0:0:
256,192,236580,1,0,0:0:0:0:
256,192,236658,1,8,0:0:0:0:
256,192,236736,1,8,0:0:0:0:
256,192,236814,1,0,0:0:0:0:
256,192,236892,1,0,0:0:0:0:
256,192,236970,1,8,0:0:0:0:
256,192,237127,1,0,0:0:0:0:
256,192,237185,1,8,0:0:0:0:
256,192,237244,1,8,0:0:0:0:
256,192,237302,1,8,0:0:0:0:
256,192,237361,1,0,0:0:0:0:
256,192,237517,1,8,0:0:0:0:
256,192,237595,1,4,0:0:0:0:
256,192,237888,1,4,0:0:0:0:
256,192,238181,1,0,0:0:0:0:
256,192,238298,1,12,0:0:0:0:
256,192,238533,1,0,0:0:0:0:
256,192,238611,1,8,0:0:0:0:
256,192,238689,1,8,0:0:0:0:
256,192,238767,1,0,0:0:0:0:
256,192,238845,1,8,0:0:0:0:
256,192,238884,1,8,0:0:0:0:
256,192,238923,1,0,0:0:0:0:
256,192,238962,1,0,0:0:0:0:
256,192,239002,1,8,0:0:0:0:
256,192,239177,1,0,0:0:0:0:
256,192,239236,1,0,0:0:0:0:
256,192,239353,1,0,0:0:0:0:
256,192,239412,1,0,0:0:0:0:
256,192,239529,1,8,0:0:0:0:
256,192,239587,1,8,0:0:0:0:
256,192,239646,1,8,0:0:0:0:
256,192,239705,1,0,0:0:0:0:
256,192,239783,1,0,0:0:0:0:
256,192,239861,1,0,0:0:0:0:
256,192,239939,1,8,0:0:0:0:
256,192,240095,1,0,0:0:0:0:
256,192,240173,1,8,0:0:0:0:
256,192,240252,1,0,0:0:0:0:
256,192,240408,1,8,0:0:0:0:
256,192,240466,1,8,0:0:0:0:
256,192,240525,1,8,0:0:0:0:
256,192,240584,1,8,0:0:0:0:
256,192,240642,1,0,0:0:0:0:
256,192,240701,1,0,0:0:0:0:
256,192,240759,1,8,0:0:0:0:
256,192,240818,1,8,0:0:0:0:
256,192,240877,1,0,0:0:0:0:
256,192,241111,1,12,0:0:0:0:
256,192,241345,1,0,0:0:0:0:
256,192,241404,1,0,0:0:0:0:
256,192,241580,1,8,0:0:0:0:
256,192,241658,1,8,0:0:0:0:
256,192,241736,1,8,0:0:0:0:
256,192,241814,1,0,0:0:0:0:
256,192,241873,1,8,0:0:0:0:
256,192,241931,1,0,0:0:0:0:
256,192,242107,1,8,0:0:0:0:
256,192,242166,1,0,0:0:0:0:
256,192,242224,1,8,0:0:0:0:
256,192,242439,1,8,0:0:0:0:
256,192,242478,1,0,0:0:0:0:
256,192,242517,1,0,0:0:0:0:
256,192,242595,1,8,0:0:0:0:
256,192,242634,1,0,0:0:0:0:
256,192,242673,1,0,0:0:0:0:
256,192,242752,1,8,0:0:0:0:
256,192,242986,1,0,0:0:0:0:
256,192,243220,1,0,0:0:0:0:
256,192,243279,1,0,0:0:0:0:
256,192,243337,1,8,0:0:0:0:
256,192,243396,1,0,0:0:0:0:
256,192,243455,1,8,0:0:0:0:
256,192,243513,1,0,0:0:0:0:
256,192,243572,1,8,0:0:0:0:
256,192,243630,1,8,0:0:0:0:
256,192,243689,1,0,0:0:0:0:
256,192,243923,1,12,0:0:0:0:
256,192,244158,1,0,0:0:0:0:
256,192,244216,1,8,0:0:0:0:
256,192,244275,1,0,0:0:0:0:
256,192,244334,1,8,0:0:0:0:
256,192,244392,1,0,0:0:0:0:
256,192,244451,1,0,0:0:0:0:
256,192,244509,1,8,0:0:0:0:
256,192,245095,1,0,0:0:0:0:
256,192,245173,1,0,0:0:0:0:
256,192,245252,1,0,0:0:0:0:
256,192,245330,1,8,0:0:0:0:
256,192,245388,1,8,0:0:0:0:
256,192,245447,1,0,0:0:0:0:
256,192,245505,1,0,0:0:0:0:
256,192,245564,1,8,0:0:0:0:
256,192,245623,1,0,0:0:0:0:
256,192,245681,1,0,0:0:0:0:
256,192,245740,1,0,0:0:0:0:
256,192,245798,1,8,0:0:0:0:
256,192,246033,1,0,0:0:0:0:
256,192,246091,1,0,0:0:0:0:
256,192,246150,1,8,0:0:0:0:
256,192,246209,1,8,0:0:0:0:
256,192,246267,1,8,0:0:0:0:
256,192,246326,1,8,0:0:0:0:
256,192,246384,1,0,0:0:0:0:
256,192,246443,1,0,0:0:0:0:
256,192,246502,1,8,0:0:0:0:
256,192,246560,1,8,0:0:0:0:
256,192,246619,1,0,0:0:0:0:
256,192,246677,1,0,0:0:0:0:
256,192,246736,1,12,0:0:0:0:
256,192,246970,1,0,0:0:0:0:
256,192,247791,1,8,0:0:0:0:
256,192,247869,1,8,0:0:0:0:
256,192,247947,1,8,0:0:0:0:
256,192,248025,1,0,0:0:0:0:
256,192,248103,1,8,0:0:0:0:
256,192,248181,1,8,0:0:0:0:
256,192,248259,1,0,0:0:0:0:
256,192,248377,1,8,0:0:0:0:
256,192,248455,1,0,0:0:0:0:
256,192,248533,1,0,0:0:0:0:
256,192,248611,1,8,0:0:0:0:
256,192,248728,1,0,0:0:0:0:
256,192,248845,1,8,0:0:0:0:
256,192,249080,12,0,250252,0:0:0:0:
256,192,251658,5,0,0:0:0:0:
256,192,254470,1,0,0:0:0:0:
256,192,257283,1,0,0:0:0:0:
256,192,260095,1,0,0:0:0:0:
