osu file format v14

[General]
AudioFilename: audio.mp3
AudioLeadIn: 0
PreviewTime: 175645
Countdown: 0
SampleSet: Normal
StackLeniency: 0.7
Mode: 1
LetterboxInBreaks: 0
WidescreenStoryboard: 1

[Editor]
DistanceSpacing: 0.4
BeatDivisor: 4
GridSize: 32
TimelineZoom: 2.999999

[Metadata]
Title:Hikari yo
TitleUnicode:光よ
Artist:KikuoHana
ArtistUnicode:きくおはな
Creator:woosungko
Version:Oni
Source:
Tags:mtmc#1 malaysian taiko mapping contest o light kikuo きくお hanatan 花たん yurica ユリカ 第一幕 1 first act daiichi maku japanese electronic
BeatmapID:3958032
BeatmapSetID:1916175

[Difficulty]
HPDrainRate:5.5
CircleSize:7
OverallDifficulty:5.5
ApproachRate:10
SliderMultiplier:1.4
SliderTickRate:1

[Events]
//Background and Video events
0,0,"89023151_p0_master1200.jpg",0,140
//Break Periods
//Storyboard Layer 0 (Background)
//Storyboard Layer 1 (Fail)
//Storyboard Layer 2 (Pass)
//Storyboard Layer 3 (Foreground)
//Storyboard Layer 4 (Overlay)
//Storyboard Sound Samples

[TimingPoints]
-60,234.375,6,1,0,5,1,0
1107,-153.846153846154,6,1,0,35,0,0
1341,-200,6,1,0,35,0,0
2044,-90.9090909090909,6,1,0,90,0,0
2752,234.375,6,1,0,90,1,1
2752,-111.111111111111,6,1,0,90,0,1
3098,-116.285253437991,6,1,0,90,0,1
3450,-121.716123890037,6,1,0,90,0,1
3684,-125.466047174787,6,1,0,90,0,1
3801,-127.384112826386,6,1,0,90,0,1
4153,-133.333333333333,6,1,0,90,0,1
4212,-132.334990619788,6,1,0,90,0,1
4271,-131.327104365682,6,1,0,90,0,1
4388,-129.35106255806,6,1,0,90,0,1
4505,-127.404753692807,6,1,0,90,0,1
4564,-126.434416978735,6,1,0,90,0,1
4623,-125.47147051747,6,1,0,90,0,1
4740,-123.583536776726,6,1,0,90,0,1
4857,-121.724010241179,6,1,0,90,0,1
5091,-118.088475476435,6,1,0,90,0,1
5169,-116.900922203432,6,1,0,90,0,1
5248,-115.710316605243,6,1,0,90,0,1
5326,-114.546679216832,6,1,0,90,0,1
5560,-111.096703829925,6,1,0,90,0,1
5619,-111.949938092087,6,1,0,90,0,1
5677,-112.795097749399,6,1,0,90,0,1
5794,-114.519455912691,6,1,0,90,0,1
5912,-116.285253437991,6,1,0,90,0,1
6146,-119.867858318953,6,1,0,90,0,1
6263,-121.700341504241,6,1,0,90,0,1
6341,-122.937534068168,6,1,0,90,0,1
6419,-124.187303798448,6,1,0,90,0,1
6498,-125.466047174787,6,1,0,90,0,1
6615,-127.384112826386,6,1,0,90,0,1
6732,-129.331500959459,6,1,0,90,0,1
6967,-133.31604459591,6,1,0,90,0,1
7025,-132.334283227817,6,1,0,90,0,1
7083,-131.342718880651,6,1,0,90,0,1
7201,-129.348272971915,6,1,0,90,0,1
7318,-127.400632296981,6,1,0,90,0,1
7552,-123.592888223584,6,1,0,90,0,1
7669,-121.73190832253,6,1,0,90,0,1
7904,-118.07827813509,6,1,0,90,0,1
8021,-116.300333582463,6,1,0,90,0,1
8138,-114.549160142035,6,1,0,90,0,1
8373,-111.111111111111,6,1,0,90,0,1
8430,-111.949938092087,6,1,0,90,0,1
8489,-112.809725282293,6,1,0,90,0,1
8547,-113.661375853842,6,1,0,90,0,1
8606,-114.534307064397,6,1,0,90,0,1
8723,-116.285253437991,6,1,0,90,0,1
8840,-118.062967452494,6,1,0,90,0,1
8957,-119.867858318953,6,1,0,90,0,1
9075,-121.716123890037,6,1,0,90,0,1
9309,-125.466047174787,6,1,0,90,0,1
9427,-127.384112826386,6,1,0,90,0,1
9543,-129.331500959459,6,1,0,90,0,1
9778,-133.333333333333,6,1,0,90,0,1
9856,-131.99247059663,6,1,0,90,0,1
9934,-130.665092206517,6,1,0,90,0,1
10012,-129.35106255806,6,1,0,90,0,1
10247,-125.47147051747,6,1,0,90,0,1
10364,-123.583536776726,6,1,0,90,0,1
10481,-121.724010241179,6,1,0,90,0,1
10539,-120.81259315102,6,1,0,90,0,1
10598,-119.892463475645,6,1,0,90,0,1
10715,-118.088475476435,6,1,0,90,0,1
10832,-116.311631574585,6,1,0,90,0,1
10891,-115.425782003677,6,1,0,90,0,1
10950,-114.546679216832,6,1,0,90,0,1
11067,-112.823127721884,6,1,0,90,0,1
11189,-111.125510018959,6,1,0,90,0,0
11302,-76.9230769230769,6,1,0,70,0,0
12591,-166.666666666667,6,1,0,70,0,0
13294,-76.9230769230769,6,1,0,70,0,0
13997,-76.9230769230769,6,1,0,70,0,0
15403,-200,6,1,0,50,0,0
25247,-200,6,1,0,50,0,0
25481,-195.762086049933,6,1,0,50,0,0
25715,-191.613971673107,6,1,0,50,0,0
25950,-187.536588629707,6,1,0,50,0,0
26184,-183.562769004198,6,1,0,50,0,0
26418,-179.67315290682,6,1,0,50,0,0
26653,-175.84986037434,6,1,0,50,0,0
27356,-90.9090909090909,6,1,0,90,0,0
28060,-125,6,1,0,90,0,0
28064,-124.988128996095,6,1,0,90,0,1
28119,-125.690450818495,6,1,0,90,0,1
28177,-126.384715415651,6,1,0,90,0,1
28236,-127.094884808273,6,1,0,90,0,1
28294,-127.796906946212,6,1,0,90,0,1
28412,-129.237151353252,6,1,0,90,0,1
28529,-130.681215297018,6,1,0,90,0,1
28646,-132.141414853894,6,1,0,90,0,1
28763,-100,6,1,0,90,0,1
28998,-136.633616077564,6,1,0,90,0,1
29114,-138.160326287577,6,1,0,90,0,1
29232,-139.704095579624,6,1,0,90,0,1
29466,-124.988128996095,6,1,0,90,0,1
29526,-125.690450818495,6,1,0,90,0,1
29584,-126.384715415651,6,1,0,90,0,1
29643,-127.094884808273,6,1,0,90,0,1
29701,-127.796906946212,6,1,0,90,0,1
29819,-129.237151353252,6,1,0,90,0,1
29936,-130.681215297018,6,1,0,90,0,1
30053,-132.141414853894,6,1,0,90,0,1
30170,-100,6,1,0,90,0,1
30405,-136.633616077564,6,1,0,90,0,1
30521,-138.160326287577,6,1,0,90,0,1
30639,-139.704095579624,6,1,0,90,0,1
30872,-124.988128996095,6,1,0,90,0,1
30932,-125.690450818495,6,1,0,90,0,1
30990,-126.384715415651,6,1,0,90,0,1
31049,-127.094884808273,6,1,0,90,0,1
31107,-127.796906946212,6,1,0,90,0,1
31225,-129.237151353252,6,1,0,90,0,1
31342,-130.681215297018,6,1,0,90,0,1
31459,-132.141414853894,6,1,0,90,0,1
31576,-100,6,1,0,90,0,1
31811,-136.617677723262,6,1,0,90,0,1
31868,-137.387363440338,6,1,0,90,0,1
31927,-138.148230186568,6,1,0,90,0,1
32045,-139.69592970494,6,1,0,90,0,1
32161,-141.274420070137,6,1,0,90,0,1
32278,-124.988128996095,6,1,0,90,0,1
32338,-125.690450818495,6,1,0,90,0,1
32396,-126.384715415651,6,1,0,90,0,1
32455,-127.094884808273,6,1,0,90,0,1
32513,-127.796906946212,6,1,0,90,0,1
32631,-129.237151353252,6,1,0,90,0,1
32748,-130.681215297018,6,1,0,90,0,1
32865,-132.141414853894,6,1,0,90,0,1
32982,-100,6,1,0,90,0,1
33217,-136.617677723262,6,1,0,90,0,1
33274,-137.387363440338,6,1,0,90,0,1
33333,-138.148230186568,6,1,0,90,0,1
33451,-139.69592970494,6,1,0,90,0,1
33567,-141.274420070137,6,1,0,90,0,1
33685,-124.988128996095,6,1,0,90,0,1
33745,-125.690450818495,6,1,0,90,0,1
33803,-126.384715415651,6,1,0,90,0,1
33862,-127.094884808273,6,1,0,90,0,1
33920,-127.796906946212,6,1,0,90,0,1
34038,-129.237151353252,6,1,0,90,0,1
34155,-130.681215297018,6,1,0,90,0,1
34272,-132.141414853894,6,1,0,90,0,1
34389,-100,6,1,0,90,0,1
34624,-136.633616077564,6,1,0,90,0,1
34740,-138.160326287577,6,1,0,90,0,1
34858,-139.704095579624,6,1,0,90,0,1
35091,-124.988128996095,6,1,0,90,0,1
35151,-125.690450818495,6,1,0,90,0,1
35209,-126.384715415651,6,1,0,90,0,1
35268,-127.094884808273,6,1,0,90,0,1
35326,-127.796906946212,6,1,0,90,0,1
35444,-129.237151353252,6,1,0,90,0,1
35561,-130.681215297018,6,1,0,90,0,1
35678,-132.141414853894,6,1,0,90,0,1
35795,-100,6,1,0,90,0,1
36030,-136.633616077564,6,1,0,90,0,1
36146,-138.160326287577,6,1,0,90,0,1
36264,-139.704095579624,6,1,0,90,0,1
36380,-141.274420070137,6,1,0,90,0,1
36497,-124.988128996095,6,1,0,90,0,1
36557,-125.690450818495,6,1,0,90,0,1
36615,-126.384715415651,6,1,0,90,0,1
36674,-127.094884808273,6,1,0,90,0,1
36732,-127.796906946212,6,1,0,90,0,1
36850,-129.237151353252,6,1,0,90,0,1
36967,-130.681215297018,6,1,0,90,0,1
37084,-132.141414853894,6,1,0,90,0,1
37201,-100,6,1,0,90,0,1
37436,-136.633616077564,6,1,0,90,0,1
37552,-138.160326287577,6,1,0,90,0,1
37670,-139.704095579624,6,1,0,90,0,1
37903,-124.988128996095,6,1,0,90,0,1
37963,-125.690450818495,6,1,0,90,0,1
38021,-126.384715415651,6,1,0,90,0,1
38138,-127.796906946212,6,1,0,90,0,1
38256,-129.237151353252,6,1,0,90,0,1
38490,-132.141414853894,6,1,0,90,0,1
38607,-100,6,1,0,90,0,1
38842,-136.633616077564,6,1,0,90,0,1
38899,-137.387363440338,6,1,0,90,0,1
38958,-138.160326287577,6,1,0,90,0,1
39076,-139.704095579624,6,1,0,90,0,1
39310,-142.857142857143,6,1,0,90,0,1
39314,-142.857142857143,6,1,0,90,0,0
40013,-100,6,1,0,90,0,0
40248,-136.633616077564,6,1,0,90,0,0
40482,-139.704095579624,6,1,0,90,0,0
40598,-141.274420070137,6,1,0,90,0,0
40716,-125,6,1,0,90,0,0
40720,-125,6,1,0,90,0,1
40774,-125.536491320601,6,1,0,90,0,1
40832,-126.075285224699,6,1,0,90,0,1
40891,-126.625741352219,6,1,0,90,0,1
40950,-127.178600821105,6,1,0,90,0,1
41067,-128.282099043081,6,1,0,90,0,1
41184,-129.395172054512,6,1,0,90,0,1
41301,-130.517902933548,6,1,0,90,0,1
41418,-100,6,1,0,90,0,1
41653,-133.954775324767,6,1,0,90,0,1
41771,-135.117068787989,6,1,0,90,0,1
41887,-136.289447192874,6,1,0,90,0,1
42005,-137.471998044043,6,1,0,90,0,1
42122,-138.675049056307,6,1,0,90,0,1
42180,-139.270232737929,6,1,0,90,0,1
42356,-141.091989662234,6,1,0,90,0,1
42414,-141.697546685115,6,1,0,90,0,1
42590,-143.55105465847,6,1,0,90,0,1
42707,-144.796612736289,6,1,0,90,0,1
42825,-100,6,1,0,90,0,1
43059,-148.609480315909,6,1,0,90,0,1
43177,-149.898929140151,6,1,0,90,0,1
43293,-151.199566202631,6,1,0,90,0,1
43528,-125,6,1,0,90,0,1
43645,-126.08420779252,6,1,0,90,0,1
43704,-126.634506753542,6,1,0,90,0,1
43762,-127.177819637339,6,1,0,90,0,1
43879,-128.280917102031,6,1,0,90,0,1
43997,-129.403133898875,6,1,0,90,0,1
44114,-130.525532988072,6,1,0,90,0,1
44231,-100,6,1,0,90,0,1
44465,-133.951480615531,6,1,0,90,0,1
44524,-134.536116565589,6,1,0,90,0,1
44582,-135.113330528355,6,1,0,90,0,1
44700,-136.295318094563,6,1,0,90,0,1
44934,-138.669931056353,6,1,0,90,0,1
44993,-139.275160849372,6,1,0,90,0,1
45051,-139.872707215069,6,1,0,90,0,1
45110,-140.483186566951,6,1,0,90,0,1
45168,-141.085915848057,6,1,0,90,0,1
45286,-142.320152304573,6,1,0,90,0,1
45403,-143.554589249864,6,1,0,90,0,1
45524,-144.799733284397,6,1,0,90,0,1
45637,-100,6,1,0,90,0,1
45872,-148.611309875985,6,1,0,90,0,1
45989,-149.900314197778,6,1,0,90,0,1
46106,-151.200498907814,6,1,0,90,0,1
46340,-125,6,1,0,90,0,1
46345,-124.990770283656,6,1,0,90,0,1
46399,-125.536491320601,6,1,0,90,0,1
46457,-126.075285224699,6,1,0,90,0,1
46516,-126.625741352219,6,1,0,90,0,1
46575,-127.178600821105,6,1,0,90,0,1
46692,-128.282099043081,6,1,0,90,0,1
46809,-129.395172054512,6,1,0,90,0,1
46926,-130.517902933548,6,1,0,90,0,1
47043,-100,6,1,0,90,0,1
47278,-133.954775324767,6,1,0,90,0,1
47396,-135.117068787989,6,1,0,90,0,1
47512,-136.289447192874,6,1,0,90,0,1
47747,-138.675049056307,6,1,0,90,0,1
47864,-139.878299202779,6,1,0,90,0,1
48098,-142.316211022763,6,1,0,90,0,1
48215,-143.55105465847,6,1,0,90,0,1
48332,-144.796612736289,6,1,0,90,0,1
48450,-100,6,1,0,90,0,1
48684,-148.609480315909,6,1,0,90,0,1
48802,-149.898929140151,6,1,0,90,0,1
48918,-151.199566202631,6,1,0,90,0,1
49036,-152.522750514796,6,1,0,90,0,1
49153,-153.846153846154,6,1,0,90,0,1
49158,-153.846153846154,6,1,0,90,0,0
49505,-158.96599991357,6,1,0,80,0,0
49857,-164.271549980449,6,1,0,80,0,0
50208,-169.738342799962,6,1,0,80,0,0
50326,-171.616746605692,6,1,0,80,0,0
50443,-173.49975489061,6,1,0,80,0,0
50561,-175.419784239923,6,1,0,80,0,0
50677,-177.32798021957,6,1,0,80,0,0
50794,-179.273653136144,6,1,0,80,0,0
50912,-181.257579141094,6,1,0,80,0,0
51029,-183.246368288874,6,1,0,80,0,0
51146,-185.256978771205,6,1,0,80,0,0
51263,-187.289650015501,6,1,0,80,0,0
51498,-191.440000150895,6,1,0,80,0,0
51967,-200,6,1,0,50,0,0
57356,-160,6,1,0,70,0,0
57591,-133.348212988075,6,1,0,80,0,0
57595,-133.333333333333,6,1,0,80,0,0
57708,-132.243972825963,6,1,0,80,0,0
57826,-131.144961611571,6,1,0,80,0,0
57943,-130.064281803609,6,1,0,80,0,0
58060,-128.992507170753,6,1,0,80,0,0
58177,-127.929564331281,6,1,0,80,0,0
58294,-126.875380508165,6,1,0,80,0,0
58412,-125.820984885975,6,1,0,80,0,0
58470,-125.30593917652,6,1,0,80,0,0
58529,-124.784176486223,6,1,0,80,0,0
58646,-123.755911746009,6,1,0,80,0,0
58763,-122.736120262629,6,1,0,80,0,0
58880,-121.724732213515,6,1,0,80,0,0
58998,-120.713140963549,6,1,0,80,0,0
59115,-119.718422963011,6,1,0,80,0,0
59232,-118.731901782576,6,1,0,80,0,0
59349,-117.753509877614,6,1,0,80,0,0
59466,-116.783180260085,6,1,0,80,0,0
59583,-115.820846493956,6,1,0,80,0,0
59701,-114.858319382609,6,1,0,80,0,0
59818,-113.91184713535,6,1,0,80,0,0
59876,-113.445551245389,6,1,0,80,0,0
59935,-112.973174146513,6,1,0,80,0,0
60052,-112.042236147514,6,1,0,80,0,0
60169,-105.263157894737,6,1,0,80,0,0
60404,-100,6,1,0,80,0,0
60638,-131.144961611571,6,1,0,80,0,0
60755,-130.064281803609,6,1,0,80,0,0
60872,-128.992507170753,6,1,0,80,0,0
60989,-127.929564331281,6,1,0,80,0,0
61106,-126.875380508165,6,1,0,80,0,0
61224,-125.820984885975,6,1,0,80,0,0
61282,-125.30593917652,6,1,0,80,0,0
61341,-124.784176486223,6,1,0,80,0,0
61458,-123.755911746009,6,1,0,80,0,0
61575,-122.736120262629,6,1,0,80,0,0
61692,-121.724732213515,6,1,0,80,0,0
61810,-120.713140963549,6,1,0,80,0,0
61927,-119.718422963011,6,1,0,80,0,0
62044,-118.731901782576,6,1,0,80,0,0
62161,-117.753509877614,6,1,0,80,0,0
62278,-116.781501810113,6,1,0,80,0,0
62337,-116.422634874027,6,1,0,80,0,0
62395,-116.058712031364,6,1,0,80,0,0
62513,-115.340395778441,6,1,0,80,0,0
62630,-114.626525363578,6,1,0,80,0,0
62747,-113.91102854134,6,1,0,80,0,0
62864,-113.206004836042,6,1,0,80,0,0
62982,-112.505344697919,6,1,0,80,0,0
63099,-111.809021119768,6,1,0,80,0,0
63216,-100,6,1,0,60,0,0
63220,-100,6,1,0,60,0,0
64622,-166.666666666667,6,1,0,60,0,0
65501,-197.119925828757,6,1,0,50,0,0
65765,-192.853412818168,6,1,0,50,0,0
66029,-188.679245283019,6,1,0,50,0,0
66092,-200,6,1,0,50,0,0
68314,-197.119925828757,6,1,0,50,0,0
68578,-192.853412818168,6,1,0,50,0,0
68842,-188.679245283019,6,1,0,50,0,0
68905,-200,6,1,0,50,0,0
71390,-192.853412818168,6,1,0,50,0,0
71654,-188.679245283019,6,1,0,50,0,0
71717,-200,6,1,0,50,0,0
74466,-153.846153846154,6,1,0,70,0,0
75169,-200,6,1,0,50,0,0
75404,-196.158307757727,6,1,0,50,0,0
75638,-192.390408511876,6,1,0,50,0,0
75873,-188.679245283019,6,1,0,50,0,0
75936,-200,6,1,0,50,0,0
77786,-199.600798403194,6,1,0,50,0,0
78063,-196.161011797123,6,1,0,50,0,0
78336,-192.862393861108,6,1,0,50,0,0
78610,-189.607466201154,6,1,0,50,0,0
78685,-188.679245283019,6,1,0,50,0,0
79622,-196.158307757727,6,1,0,50,0,0
79856,-192.390408511876,6,1,0,50,0,0
80090,-188.694884812537,6,1,0,50,0,0
80154,-200,6,1,0,50,0,0
82850,-166.666666666667,6,1,0,50,0,0
83138,-169.096031121976,6,1,0,60,0,0
83373,-171.57141640003,6,1,0,60,0,0
83607,-174.072273403326,6,1,0,60,0,0
83841,-176.609583365292,6,1,0,60,0,0
84193,-180.49622389959,6,1,0,60,0,0
84310,-142.857142857143,6,1,0,60,0,0
84544,-144.62239609007,6,1,0,60,0,0
84779,-146.424896978386,6,1,0,60,0,0
85013,-148.242049529085,6,1,0,60,0,0
85248,-150.089663959395,6,1,0,60,0,0
85326,-150.707990730345,6,1,0,60,0,0
85404,-151.328864831908,6,1,0,60,0,0
85482,-151.952296758362,6,1,0,60,0,0
85720,-100,6,1,0,80,0,0
86067,-130.064281803609,6,1,0,80,0,0
86184,-128.992507170753,6,1,0,80,0,0
86418,-126.875380508165,6,1,0,80,0,0
86536,-125.820984885975,6,1,0,80,0,0
86653,-124.784176486223,6,1,0,80,0,0
86770,-123.755911746009,6,1,0,80,0,0
87004,-121.724732213515,6,1,0,80,0,0
87122,-120.713140963549,6,1,0,80,0,0
87356,-118.731901782576,6,1,0,80,0,0
87473,-117.753509877614,6,1,0,80,0,0
87590,-116.783180260085,6,1,0,80,0,0
87825,-114.858319382609,6,1,0,80,0,0
87942,-113.91184713535,6,1,0,80,0,0
88000,-113.445551245389,6,1,0,80,0,0
88059,-112.973174146513,6,1,0,80,0,0
88176,-112.042236147514,6,1,0,80,0,0
88293,-105.263157894737,6,1,0,80,0,0
88528,-100,6,1,0,80,0,0
88880,-130.064281803609,6,1,0,80,0,0
88998,-128.98338487319,6,1,0,80,0,0
89232,-126.866407932938,6,1,0,80,0,0
89349,-125.820984885975,6,1,0,80,0,0
89408,-125.297077591545,6,1,0,80,0,0
89466,-124.784176486223,6,1,0,80,0,0
89583,-123.755911746009,6,1,0,80,0,0
89701,-122.727440414199,6,1,0,80,0,0
89818,-121.716123890037,6,1,0,80,0,0
89936,-120.713140963549,6,1,0,80,0,0
90169,-118.731901782576,6,1,0,80,0,0
90287,-117.745182397362,6,1,0,80,0,0
90404,-116.774921401148,6,1,0,80,0,0
90638,-114.858319382609,6,1,0,80,0,0
90755,-113.91184713535,6,1,0,80,0,0
90814,-113.437528422216,6,1,0,80,0,0
90873,-112.965184729656,6,1,0,80,0,0
90990,-112.034312566214,6,1,0,80,0,0
91107,-111.111111111111,6,1,0,80,0,0
91224,-110.253583241455,6,1,0,80,0,0
91341,-109.384652342831,6,1,0,80,0,0
91810,-121.518750511676,6,1,0,80,0,0
92279,-134.998890700288,6,1,0,80,0,0
92748,-149.974390072068,6,1,0,80,0,0
93216,-166.573762481418,6,1,0,80,0,0
93450,-90.9090909090909,6,1,0,90,0,0
94153,-111.111111111111,6,1,0,90,0,0
94211,-112.50163600398,6,1,0,90,0,0
94270,-113.933991418658,6,1,0,90,0,0
94387,-116.828589605282,6,1,0,90,0,0
94504,-119.79672772988,6,1,0,90,0,0
94563,-121.321963252842,6,1,0,90,0,0
94622,-122.866617865495,6,1,0,90,0,0
94856,-129.189003073173,6,1,0,90,0,0
94934,-131.367951561339,6,1,0,90,0,0
95012,-133.583650983418,6,1,0,90,0,0
95090,-135.836721193962,6,1,0,90,0,0
95207,-139.287778441664,6,1,0,90,0,0
95325,-142.857142857143,6,1,0,90,0,0
95560,-139.613825177188,6,1,0,90,0,0
95677,-138.019884382352,6,1,0,90,0,0
95793,-136.444141264244,6,1,0,90,0,0
95911,-134.873150876744,6,1,0,90,0,0
96028,-133.333333333333,6,1,0,90,0,0
96266,-90.9090909090909,6,1,0,90,0,0
96497,-154.73599882252,6,1,0,90,0,0
96731,-166.666666666667,6,1,0,90,0,0
96966,-111.111111111111,6,1,0,90,0,0
96970,-111.101803532294,6,1,0,90,0,1
97025,-111.652286951474,6,1,0,90,0,1
97083,-112.196098633449,6,1,0,90,0,1
97142,-112.752004028597,6,1,0,90,0,1
97201,-113.3106638048,6,1,0,90,0,1
97318,-114.426715033204,6,1,0,90,0,1
97435,-115.55375878696,6,1,0,90,0,1
97552,-116.691903336735,6,1,0,90,0,1
97669,-90.9090909090909,6,1,0,90,0,1
97904,-120.184108135685,6,1,0,90,0,1
98021,-121.367859223319,6,1,0,90,0,1
98138,-122.563269644781,6,1,0,90,0,1
98372,-111.111111111111,6,1,0,90,0,1
98427,-111.652286951474,6,1,0,90,0,1
98485,-112.196098633449,6,1,0,90,0,1
98544,-112.752004028597,6,1,0,90,0,1
98603,-113.3106638048,6,1,0,90,0,1
98720,-114.426715033204,6,1,0,90,0,1
98837,-115.55375878696,6,1,0,90,0,1
98954,-116.691903336735,6,1,0,90,0,1
99071,-90.9090909090909,6,1,0,90,0,1
99306,-120.184108135685,6,1,0,90,0,1
99423,-121.367859223319,6,1,0,90,0,1
99540,-122.563269644781,6,1,0,90,0,1
99778,-111.111111111111,6,1,0,90,0,1
99833,-111.652286951474,6,1,0,90,0,1
99891,-112.196098633449,6,1,0,90,0,1
99950,-112.752004028597,6,1,0,90,0,1
100009,-113.3106638048,6,1,0,90,0,1
100126,-114.426715033204,6,1,0,90,0,1
100243,-115.55375878696,6,1,0,90,0,1
100360,-116.691903336735,6,1,0,90,0,1
100477,-90.9090909090909,6,1,0,90,0,1
100712,-120.16769121535,6,1,0,90,0,1
100774,-120.769316151388,6,1,0,90,0,1
100829,-121.363679888691,6,1,0,90,0,1
100946,-122.563269644781,6,1,0,90,0,1
101185,-111.111111111111,6,1,0,90,0,1
101240,-111.652286951474,6,1,0,90,0,1
101298,-112.196098633449,6,1,0,90,0,1
101357,-112.752004028597,6,1,0,90,0,1
101416,-113.3106638048,6,1,0,90,0,1
101533,-114.426715033204,6,1,0,90,0,1
101650,-115.55375878696,6,1,0,90,0,1
101767,-116.691903336735,6,1,0,90,0,1
101884,-90.9090909090909,6,1,0,90,0,1
102119,-120.16769121535,6,1,0,90,0,1
102181,-120.769316151388,6,1,0,90,0,1
102236,-121.363679888691,6,1,0,90,0,1
102353,-122.563269644781,6,1,0,90,0,1
102591,-111.101803532294,6,1,0,90,0,1
102646,-111.652286951474,6,1,0,90,0,1
102704,-112.196098633449,6,1,0,90,0,1
102763,-112.752004028597,6,1,0,90,0,1
102822,-113.3106638048,6,1,0,90,0,1
102939,-114.426715033204,6,1,0,90,0,1
103056,-115.55375878696,6,1,0,90,0,1
103173,-116.691903336735,6,1,0,90,0,1
103290,-90.9090909090909,6,1,0,90,0,1
103525,-120.16769121535,6,1,0,90,0,1
103642,-121.363679888691,6,1,0,90,0,1
103759,-122.563269644781,6,1,0,90,0,1
103997,-111.111111111111,6,1,0,90,0,1
104052,-111.652286951474,6,1,0,90,0,1
104110,-112.196098633449,6,1,0,90,0,1
104169,-112.752004028597,6,1,0,90,0,1
104228,-113.3106638048,6,1,0,90,0,1
104345,-114.426715033204,6,1,0,90,0,1
104462,-115.55375878696,6,1,0,90,0,1
104579,-116.691903336735,6,1,0,90,0,1
104696,-90.9090909090909,6,1,0,90,0,1
104931,-120.16769121535,6,1,0,90,0,1
105048,-121.363679888691,6,1,0,90,0,1
105165,-122.55373215713,6,1,0,90,0,1
105286,-123.776027419867,6,1,0,90,0,1
105403,-111.111111111111,6,1,0,90,0,1
105458,-111.652286951474,6,1,0,90,0,1
105516,-112.196098633449,6,1,0,90,0,1
105575,-112.752004028597,6,1,0,90,0,1
105634,-113.3106638048,6,1,0,90,0,1
105751,-114.426715033204,6,1,0,90,0,1
105868,-115.55375878696,6,1,0,90,0,1
105985,-116.691903336735,6,1,0,90,0,1
106102,-90.9090909090909,6,1,0,90,0,1
106337,-120.16769121535,6,1,0,90,0,1
106454,-121.363679888691,6,1,0,90,0,1
106571,-122.563269644781,6,1,0,90,0,1
106810,-111.111111111111,6,1,0,90,0,1
106865,-111.652286951474,6,1,0,90,0,1
106923,-112.196098633449,6,1,0,90,0,1
107041,-113.3106638048,6,1,0,90,0,1
107158,-114.426715033204,6,1,0,90,0,1
107392,-116.691903336735,6,1,0,90,0,1
107509,-90.9090909090909,6,1,0,90,0,1
107744,-120.16769121535,6,1,0,90,0,1
107806,-120.769316151388,6,1,0,90,0,1
107861,-121.363679888691,6,1,0,90,0,1
107978,-122.563269644781,6,1,0,90,0,1
108216,-111.111111111111,6,1,0,90,0,1
108271,-111.652286951474,6,1,0,90,0,1
108329,-112.196098633449,6,1,0,90,0,1
108388,-112.752004028597,6,1,0,90,0,1
108447,-113.3106638048,6,1,0,90,0,1
108564,-114.426715033204,6,1,0,90,0,1
108681,-115.55375878696,6,1,0,90,0,1
108798,-116.691903336735,6,1,0,90,0,1
108915,-90.9090909090909,6,1,0,90,0,1
109150,-120.16769121535,6,1,0,90,0,1
109267,-121.363679888691,6,1,0,90,0,1
109384,-122.563269644781,6,1,0,90,0,1
109622,-111.111111111111,6,1,0,90,0,1
109677,-111.652286951474,6,1,0,90,0,1
109735,-112.196098633449,6,1,0,90,0,1
109794,-112.752004028597,6,1,0,90,0,1
109853,-113.3106638048,6,1,0,90,0,1
109970,-114.426715033204,6,1,0,90,0,1
110087,-115.55375878696,6,1,0,90,0,1
110204,-116.691903336735,6,1,0,90,0,1
110321,-90.9090909090909,6,1,0,90,0,1
110556,-120.16769121535,6,1,0,90,0,1
110673,-121.363679888691,6,1,0,90,0,1
110790,-122.563269644781,6,1,0,90,0,1
111028,-111.111111111111,6,1,0,90,0,1
111083,-111.652286951474,6,1,0,90,0,1
111141,-112.196098633449,6,1,0,90,0,1
111200,-112.752004028597,6,1,0,90,0,1
111259,-113.3106638048,6,1,0,90,0,1
111376,-114.426715033204,6,1,0,90,0,1
111493,-115.55375878696,6,1,0,90,0,1
111610,-116.691903336735,6,1,0,90,0,1
111727,-90.9090909090909,6,1,0,90,0,1
111962,-120.16769121535,6,1,0,90,0,1
112024,-120.769316151388,6,1,0,90,0,1
112079,-121.363679888691,6,1,0,90,0,1
112196,-122.563269644781,6,1,0,90,0,1
112435,-111.111111111111,6,1,0,90,0,1
112490,-111.652286951474,6,1,0,90,0,1
112548,-112.196098633449,6,1,0,90,0,1
112607,-112.752004028597,6,1,0,90,0,1
112666,-113.3106638048,6,1,0,90,0,1
112783,-114.426715033204,6,1,0,90,0,1
112900,-115.55375878696,6,1,0,90,0,1
113017,-116.691903336735,6,1,0,90,0,1
113134,-90.9090909090909,6,1,0,90,0,1
113369,-120.16769121535,6,1,0,90,0,1
113431,-120.769316151388,6,1,0,90,0,1
113486,-121.363679888691,6,1,0,90,0,1
113603,-122.563269644781,6,1,0,90,0,1
113841,-111.101803532294,6,1,0,90,0,1
113896,-111.652286951474,6,1,0,90,0,1
113954,-112.196098633449,6,1,0,90,0,1
114013,-112.752004028597,6,1,0,90,0,1
114072,-113.3106638048,6,1,0,90,0,1
114189,-114.426715033204,6,1,0,90,0,1
114306,-115.55375878696,6,1,0,90,0,1
114423,-116.691903336735,6,1,0,90,0,1
114540,-90.9090909090909,6,1,0,90,0,1
114775,-120.16769121535,6,1,0,90,0,1
114892,-121.363679888691,6,1,0,90,0,1
115009,-122.563269644781,6,1,0,90,0,1
115247,-111.111111111111,6,1,0,90,0,1
115302,-111.652286951474,6,1,0,90,0,1
115360,-112.196098633449,6,1,0,90,0,1
115419,-112.752004028597,6,1,0,90,0,1
115478,-113.3106638048,6,1,0,90,0,1
115595,-114.426715033204,6,1,0,90,0,1
115712,-115.55375878696,6,1,0,90,0,1
115829,-116.691903336735,6,1,0,90,0,1
115946,-90.9090909090909,6,1,0,90,0,1
116181,-120.16769121535,6,1,0,90,0,1
116298,-121.363679888691,6,1,0,90,0,1
116415,-122.563269644781,6,1,0,90,0,1
116536,-123.776027419867,6,1,0,90,0,1
116653,-111.111111111111,6,1,0,90,0,1
116708,-111.652286951474,6,1,0,90,0,1
116766,-112.196098633449,6,1,0,90,0,1
116825,-112.752004028597,6,1,0,90,0,1
116884,-113.3106638048,6,1,0,90,0,1
117001,-114.426715033204,6,1,0,90,0,1
117118,-115.55375878696,6,1,0,90,0,1
117235,-116.691903336735,6,1,0,90,0,1
117352,-90.9090909090909,6,1,0,90,0,1
117587,-120.16769121535,6,1,0,90,0,1
117704,-121.363679888691,6,1,0,90,0,1
117821,-122.563269644781,6,1,0,90,0,1
118060,-111.111111111111,6,1,0,90,0,1
118115,-111.652286951474,6,1,0,90,0,1
118173,-112.196098633449,6,1,0,90,0,1
118291,-113.3106638048,6,1,0,90,0,1
118408,-114.426715033204,6,1,0,90,0,1
118642,-116.691903336735,6,1,0,90,0,1
118759,-90.9090909090909,6,1,0,90,0,1
118994,-120.16769121535,6,1,0,90,0,1
119056,-120.769316151388,6,1,0,90,0,1
119111,-121.363679888691,6,1,0,90,0,1
119228,-122.563269644781,6,1,0,90,0,1
119466,-125,6,1,0,90,0,1
119470,-125,6,1,0,90,0,0
120169,-90.9090909090909,6,1,0,90,0,0
120403,-120.16769121535,6,1,0,90,0,0
120637,-122.563269644781,6,1,0,90,0,0
120758,-123.776027419867,6,1,0,90,0,0
120872,-111.111111111111,6,1,0,90,0,0
120877,-111.111111111111,6,1,0,90,0,1
120931,-111.688354358538,6,1,0,90,0,1
120990,-112.278627058577,6,1,0,90,0,1
121048,-112.861935772276,6,1,0,90,0,1
121107,-113.458410847431,6,1,0,90,0,1
121224,-114.650591383777,6,1,0,90,0,1
121341,-115.85529892822,6,1,0,90,0,1
121458,-117.072665110094,6,1,0,90,0,1
121575,-90.9090909090909,6,1,0,90,0,1
121810,-120.812845588522,6,1,0,90,0,1
121868,-121.451341204063,6,1,0,90,0,1
121927,-122.082303903472,6,1,0,90,0,1
122044,-123.365101233868,6,1,0,90,0,1
122278,-125.982529881858,6,1,0,90,0,1
122396,-127.306309396511,6,1,0,90,0,1
122455,-127.979122953583,6,1,0,90,0,1
122513,-128.643998714412,6,1,0,90,0,1
122572,-129.323881956502,6,1,0,90,0,1
122630,-129.995743994815,6,1,0,90,0,1
122748,-131.373429357756,6,1,0,90,0,1
122865,-132.753854522393,6,1,0,90,0,1
122981,-90.9090909090909,6,1,0,90,0,1
123216,-136.982771365215,6,1,0,90,0,1
123294,-137.940676103077,6,1,0,90,0,1
123373,-138.917689760221,6,1,0,90,0,1
123451,-139.889125159491,6,1,0,90,0,1
123685,-111.101181318225,6,1,0,90,0,1
123802,-112.269010254773,6,1,0,90,0,1
123861,-112.862563280071,6,1,0,90,0,1
123919,-113.449114708187,6,1,0,90,0,1
124037,-114.651869935235,6,1,0,90,0,1
124154,-115.857021579448,6,1,0,90,0,1
124271,-117.07484105443,6,1,0,90,0,1
124388,-90.9090909090909,6,1,0,90,0,1
124623,-120.81644218358,6,1,0,90,0,1
124681,-121.444330250652,6,1,0,90,0,1
124740,-122.086392111373,6,1,0,90,0,1
124857,-123.3696909906,6,1,0,90,0,1
125091,-125.988157669742,6,1,0,90,0,1
125150,-126.642923356957,6,1,0,90,0,1
125208,-127.301091888639,6,1,0,90,0,1
125267,-127.974117757868,6,1,0,90,0,1
125326,-128.650701835545,6,1,0,90,0,1
125443,-130.00300079878,6,1,0,90,0,1
125560,-131.369514317085,6,1,0,90,0,1
125680,-132.75039180533,6,1,0,90,0,1
125794,-90.9090909090909,6,1,0,90,0,1
126029,-136.992968702299,6,1,0,90,0,1
126146,-138.432956567919,6,1,0,90,0,1
126263,-139.88808072172,6,1,0,90,0,1
126498,-111.111111111111,6,1,0,90,0,1
126556,-111.688354358538,6,1,0,90,0,1
126615,-112.278627058577,6,1,0,90,0,1
126673,-112.861935772276,6,1,0,90,0,1
126732,-113.458410847431,6,1,0,90,0,1
126849,-114.650591383777,6,1,0,90,0,1
126966,-115.85529892822,6,1,0,90,0,1
127083,-117.072665110094,6,1,0,90,0,1
127201,-90.9090909090909,6,1,0,90,0,1
127435,-120.812845588522,6,1,0,90,0,1
127552,-122.082303903472,6,1,0,90,0,1
127669,-123.365101233868,6,1,0,90,0,1
127904,-125.982529881858,6,1,0,90,0,1
128021,-127.306309396511,6,1,0,90,0,1
128255,-129.995743994815,6,1,0,90,0,1
128373,-131.373429357756,6,1,0,90,0,1
128490,-132.753854522393,6,1,0,90,0,1
128607,-90.9090909090909,6,1,0,90,0,1
128841,-136.982771365215,6,1,0,90,0,1
128958,-138.422137496087,6,1,0,90,0,1
129076,-139.889125159491,6,1,0,90,0,1
129192,-141.359030219998,6,1,0,90,0,1
129310,-142.857142857143,6,1,0,90,0,1
129314,-142.844380518899,6,1,0,90,0,0
129427,-100,6,1,0,80,0,0
130716,-200,6,1,0,80,0,0
132122,-166.666666666667,6,1,0,80,0,0
133528,-222.222222222222,6,1,0,80,0,0
134466,-200.094393632502,6,1,0,70,0,0
134935,-193.456779880533,6,1,0,70,0,0
135012,-192.39052952751,6,1,0,70,0,0
135873,-175.438596491228,6,1,0,70,0,0
135989,-178.315881587719,6,1,0,70,0,0
136106,-181.240355670511,6,1,0,70,0,0
136224,-184.212792663756,6,1,0,70,0,0
136341,-187.260013701101,6,1,0,70,0,0
136458,-190.304714750192,6,1,0,70,0,0
136810,-199.936367875274,6,1,0,70,0,0
136926,-198.034098152292,6,1,0,70,0,0
137043,-196.149927338165,6,1,0,70,0,0
137278,-192.419472274081,6,1,0,70,0,0
137512,-188.775388420351,6,1,0,70,0,0
137649,-186.674000979537,6,1,0,70,0,0
137707,-185.791425525426,6,1,0,70,0,0
137747,-185.185185185185,6,1,0,70,0,0
137766,-185.47148441627,6,1,0,70,0,0
138098,-190.546237017951,6,1,0,70,0,0
138215,-192.367524106287,6,1,0,70,0,0
138450,-196.078431372549,6,1,0,70,0,0
138625,-172.357905464561,6,1,0,70,0,0
138743,-175.473105702667,6,1,0,70,0,0
138860,-178.617493595473,6,1,0,70,0,0
138978,-181.818227303673,6,1,0,70,0,0
139095,-185.076316515327,6,1,0,70,0,0
139153,-186.741363211951,6,1,0,70,0,0
139739,-204.081632653061,6,1,0,70,0,0
139856,-201.27524553844,6,1,0,70,0,0
139973,-198.507449886141,6,1,0,70,0,0
140091,-195.754546473849,6,1,0,70,0,0
140208,-193.062667593271,6,1,0,70,0,0
140325,-190.407805538295,6,1,0,70,0,0
140442,-187.789451279564,6,1,0,70,0,0
140560,-185.165589031365,6,1,0,70,0,0
141028,-194.58758025447,6,1,0,70,0,0
141672,-208.37084422225,6,1,0,70,0,0
141746,-205.613198947669,6,1,0,70,0,0
141819,-202.928580391169,6,1,0,70,0,0
141892,-200.279013946259,6,1,0,70,0,0
141966,-197.628458498024,6,1,0,70,0,0
142435,-172.328152442844,6,1,0,70,0,0
142494,-173.881271122213,6,1,0,70,0,0
142552,-175.421708785939,6,1,0,70,0,0
142669,-178.570799240624,6,1,0,70,0,0
142904,-169.491525423729,6,1,0,70,0,0
143021,-172.020601221233,6,1,0,70,0,0
143255,-168.583783066196,6,1,0,70,0,0
143373,-165.469787216146,6,1,0,70,0,0
143416,-164.320911761848,6,1,0,70,0,0
143723,-169.839973374265,6,1,0,70,0,0
144075,-176.37481554406,6,1,0,70,0,0
144309,-180.857542203335,6,1,0,70,0,0
144661,-187.81630149913,6,1,0,70,0,0
144778,-190.188087010378,6,1,0,70,0,0
144856,-191.785893783643,6,1,0,70,0,0
145247,-200,6,1,0,70,0,0
145306,-197.757938934807,6,1,0,70,0,0
145365,-195.503007925305,6,1,0,70,0,0
145423,-193.311359514318,6,1,0,70,0,0
145482,-191.10713053921,6,1,0,70,0,0
145599,-186.810094281948,6,1,0,70,0,0
145716,-182.609676714654,6,1,0,70,0,0
145833,-178.503705369912,6,1,0,70,0,0
145951,-174.45614382735,6,1,0,70,0,0
146067,-170.533504346483,6,1,0,70,0,0
146185,-166.679892864226,6,1,0,80,0,0
146302,-165.139528113604,6,1,0,80,0,0
146419,-163.613398574705,6,1,0,80,0,0
146537,-162.088509805543,6,1,0,80,0,0
146654,-160.590576115433,6,1,0,80,0,0
146771,-159.106485512304,6,1,0,80,0,0
146888,-157.63611006589,6,1,0,80,0,0
147005,-156.179323028185,6,1,0,80,0,0
147123,-154.723720383562,6,1,0,80,0,0
147240,-153.293848064421,6,1,0,80,0,0
147357,-151.877189846156,6,1,0,80,0,0
147474,-150.473623611247,6,1,0,80,0,0
147591,-149.071198499986,6,1,0,80,0,0
147708,-147.705284253702,6,1,0,80,0,0
147826,-146.328660266508,6,1,0,80,0,0
147943,-144.976370518734,6,1,0,80,0,0
148060,-143.636577895985,6,1,0,80,0,0
148177,-142.309166906639,6,1,0,80,0,0
148294,-140.994023126388,6,1,0,80,0,0
148412,-139.679948580798,6,1,0,80,0,0
148470,-139.038544025481,6,1,0,80,0,0
148529,-138.389102603726,6,1,0,80,0,0
148646,-137.110185921828,6,1,0,80,0,0
148763,-135.843088291059,6,1,0,80,0,0
148998,-111.111111111111,6,1,0,80,0,0
149114,-112.278627058577,6,1,0,80,0,0
149231,-113.458410847431,6,1,0,80,0,0
149349,-114.650591383777,6,1,0,80,0,0
149465,-115.85529892822,6,1,0,80,0,0
149583,-117.072665110094,6,1,0,80,0,0
149700,-118.313392630598,6,1,0,80,0,0
149817,-119.556587584853,6,1,0,80,0,0
149934,-120.812845588522,6,1,0,80,0,0
150052,-122.082303903472,6,1,0,80,0,0
150168,-123.365101233868,6,1,0,80,0,0
150286,-124.67251553102,6,1,0,80,0,0
150403,-125.982529881858,6,1,0,80,0,0
150521,-127.306309396511,6,1,0,80,0,0
150637,-128.643998714412,6,1,0,80,0,0
150755,-129.995743994815,6,1,0,80,0,0
150872,-131.373429357756,6,1,0,80,0,0
150989,-132.753854522393,6,1,0,80,0,0
151106,-134.148784702575,6,1,0,80,0,0
151224,-135.558372311835,6,1,0,80,0,0
151340,-136.982771365215,6,1,0,80,0,0
151458,-138.422137496087,6,1,0,80,0,0
151575,-139.889125159491,6,1,0,80,0,0
151692,-141.359030219998,6,1,0,80,0,0
151810,-142.857142857143,6,1,0,80,0,0
152044,-140.577301031628,6,1,0,80,0,0
152162,-139.436618575279,6,1,0,80,0,0
152396,-137.201891026471,6,1,0,80,0,0
152513,-136.097994197955,6,1,0,80,0,0
152630,-135.002979085274,6,1,0,80,0,0
152865,-132.830137097795,6,1,0,80,0,0
153099,-130.701290531396,6,1,0,80,0,0
153216,-129.649696132651,6,1,0,80,0,0
153333,-128.60656263567,6,1,0,80,0,0
153568,-126.536669504026,6,1,0,80,0,0
153802,-124.50868729846,6,1,0,80,0,0
153919,-123.506917249934,6,1,0,80,0,0
154037,-122.504748530583,6,1,0,80,0,0
154095,-122.015142067236,6,1,0,80,0,0
154154,-121.519101741247,6,1,0,80,0,0
154388,-119.571535261635,6,1,0,80,0,0
154505,-118.609488473733,6,1,0,80,0,0
154564,-118.127293490954,6,1,0,80,0,0
154623,-117.647058823529,6,1,0,80,0,0
154856,-119.562592949615,6,1,0,80,0,0
154973,-120.532024267574,6,1,0,80,0,0
155090,-121.509315879101,6,1,0,80,0,0
155207,-122.494531516626,6,1,0,80,0,0
155266,-122.99437542558,6,1,0,80,0,0
155325,-123.496258967897,6,1,0,80,0,0
155442,-124.497585036032,6,1,0,80,0,0
155559,-125.507030005121,6,1,0,80,0,0
155676,-126.524659704423,6,1,0,80,0,0
155793,-127.550540496948,6,1,0,80,0,0
155911,-128.593614634694,6,1,0,80,0,0
156028,-129.63627082206,6,1,0,80,0,0
156145,-130.687381021145,6,1,0,80,0,0
156379,-132.815238195801,6,1,0,80,0,0
156731,-136.081553021126,6,1,0,80,0,0
156848,-137.1849225286,6,1,0,80,0,0
156907,-137.744711174487,6,1,0,80,0,0
156965,-138.297238320439,6,1,0,80,0,0
157200,-140.558700660938,6,1,0,80,0,0
157435,-114.942528735632,6,1,0,80,0,0
157610,-119.685701524327,6,1,0,80,0,0
157787,-124.653404284478,6,1,0,80,0,0
158021,-131.578947368421,6,1,0,80,0,0
158138,-129.052539772767,6,1,0,80,0,0
158255,-126.574640965693,6,1,0,80,0,0
158373,-124.123749977889,6,1,0,80,0,0
158490,-121.740487373826,6,1,0,80,0,0
158607,-119.402985074627,6,1,0,80,0,0
158841,-100,6,1,0,80,0,0
159075,-131.144961611571,6,1,0,80,0,0
159192,-130.064281803609,6,1,0,80,0,0
159309,-128.992507170753,6,1,0,80,0,0
159543,-126.875380508165,6,1,0,80,0,0
159778,-124.784176486223,6,1,0,80,0,0
159895,-123.755911746009,6,1,0,80,0,0
160012,-122.736120262629,6,1,0,80,0,0
160129,-121.724732213515,6,1,0,80,0,0
160247,-120.713140963549,6,1,0,80,0,0
160481,-118.731901782576,6,1,0,80,0,0
160598,-117.753509877614,6,1,0,80,0,0
160715,-116.781501810113,6,1,0,80,0,0
160832,-116.058712031364,6,1,0,80,0,0
160950,-115.340395778441,6,1,0,80,0,0
161067,-114.626318202659,6,1,0,80,0,0
161126,-114.272775936778,6,1,0,80,0,0
161184,-113.914256889001,6,1,0,80,0,0
161302,-112.50095802005,6,1,0,80,0,0
161418,-105.263157894737,6,1,0,80,0,0
161653,-100,6,1,0,80,0,0
161888,-131.144961611571,6,1,0,80,0,0
162005,-130.064281803609,6,1,0,80,0,0
162122,-128.992507170753,6,1,0,80,0,0
162356,-126.871352448617,6,1,0,80,0,0
162473,-125.826600215532,6,1,0,80,0,0
162532,-125.303026866844,6,1,0,80,0,0
162591,-124.790451242422,6,1,0,80,0,0
162708,-123.755911746009,6,1,0,80,0,0
162825,-122.736120262629,6,1,0,80,0,0
162942,-121.724732213515,6,1,0,80,0,0
163060,-120.713140963549,6,1,0,80,0,0
163294,-118.731901782576,6,1,0,80,0,0
163411,-117.753509877614,6,1,0,80,0,0
163528,-116.781501810113,6,1,0,80,0,0
163587,-116.424835975367,6,1,0,80,0,0
163645,-116.063138347261,6,1,0,80,0,0
163763,-115.340395778441,6,1,0,80,0,0
163880,-114.626318202659,6,1,0,80,0,0
163939,-114.272775936778,6,1,0,80,0,0
163997,-113.908189998861,6,1,0,80,0,0
164114,-112.50095802005,6,1,0,80,0,0
164231,-111.111111111111,6,1,0,80,0,0
164466,-100,6,1,0,80,0,0
164817,-130.064281803609,6,1,0,80,0,0
164934,-128.992507170753,6,1,0,80,0,0
165168,-126.871352448617,6,1,0,80,0,0
165285,-125.826600215532,6,1,0,80,0,0
165344,-125.303026866844,6,1,0,80,0,0
165403,-124.790451242422,6,1,0,80,0,0
165520,-123.755911746009,6,1,0,80,0,0
165637,-122.736120262629,6,1,0,80,0,0
165872,-100,6,1,0,80,0,0
166223,-130.064281803609,6,1,0,80,0,0
166340,-128.992507170753,6,1,0,80,0,0
166574,-126.871352448617,6,1,0,80,0,0
166691,-125.826600215532,6,1,0,80,0,0
166809,-124.790451242422,6,1,0,80,0,0
166926,-123.755911746009,6,1,0,80,0,0
167043,-122.736120262629,6,1,0,80,0,0
167161,-121.724732213515,6,1,0,80,0,0
167278,-100,6,1,0,80,0,0
167630,-130.064281803609,6,1,0,80,0,0
167747,-128.992507170753,6,1,0,80,0,0
167981,-126.871352448617,6,1,0,80,0,0
168216,-124.790451242422,6,1,0,80,0,0
168333,-123.755911746009,6,1,0,80,0,0
168450,-122.736120262629,6,1,0,80,0,0
168684,-100,6,1,0,80,0,0
168919,-131.144961611571,6,1,0,80,0,0
169036,-130.064281803609,6,1,0,80,0,0
169153,-128.992507170753,6,1,0,80,0,0
169387,-126.871352448617,6,1,0,80,0,0
169504,-125.826600215532,6,1,0,80,0,0
169622,-124.790451242422,6,1,0,80,0,0
169739,-123.755911746009,6,1,0,80,0,0
169856,-122.736120262629,6,1,0,80,0,0
169973,-121.724732213515,6,1,0,80,0,0
170091,-120.71463061323,6,1,0,80,0,0
170560,-127.372254991351,6,1,0,60,0,0
170794,-130.837519383463,6,1,0,60,0,0
171263,-138.069276011319,6,1,0,60,0,0
171498,-141.841831284727,6,1,0,60,0,0
171966,-149.664657971114,6,1,0,60,0,0
172201,-153.754041293623,6,1,0,60,0,0
172435,-157.93704334909,6,1,0,60,0,0
172904,-166.666666666667,6,1,0,60,0,0
173841,-192.382435434533,6,1,0,60,0,0
174075,-190.525791109006,6,1,0,60,0,0
174310,-188.679245283019,6,1,0,60,0,0
175716,-200,6,1,0,60,0,0
176653,-192.382435434533,6,1,0,60,0,0
176887,-190.525791109006,6,1,0,60,0,0
177122,-188.679245283019,6,1,0,60,0,0
177825,-90.9090909090909,6,1,0,90,0,0
178528,-83.3333333333333,6,1,0,90,0,0
178880,-111.084646182463,6,1,0,90,0,0
179231,-120.800855720436,6,1,0,90,0,0
179349,-124.21504015909,6,1,0,90,0,0
179465,-127.725719405762,6,1,0,90,0,0
179582,-131.335620685106,6,1,0,90,0,0
179700,-135.07972217798,6,1,0,90,0,0
179935,-142.816338189089,6,1,0,90,0,0
179993,-141.345051397926,6,1,0,90,0,0
180051,-139.888921729885,6,1,0,90,0,0
180168,-136.997048995717,6,1,0,90,0,0
180286,-134.141007075368,6,1,0,90,0,0
180403,-131.367958887577,6,1,0,90,0,0
180520,-128.652236915083,6,1,0,90,0,0
180637,-125.992656073915,6,1,0,90,0,0
180696,-124.672424880335,6,1,0,90,0,0
180931,-119.571089349814,6,1,0,90,0,0
180990,-118.318147417092,6,1,0,90,0,0
181106,-115.872199444647,6,1,0,90,0,0
181165,-114.678489826633,6,1,0,90,0,0
181341,-83.3333333333333,6,1,0,90,0,0
181693,-119.79672772988,6,1,0,90,0,0
181751,-121.295950717814,6,1,0,90,0,0
181869,-124.404259681297,6,1,0,90,0,0
181927,-125.961144660089,6,1,0,90,0,0
182044,-129.161303773082,6,1,0,90,0,0
182161,-132.471168907715,6,1,0,90,0,0
182279,-135.836721193962,6,1,0,90,0,0
182396,-139.287778441664,6,1,0,90,0,0
182513,-142.871163636883,6,1,0,90,0,0
182747,-139.613825177188,6,1,0,90,0,0
182864,-138.019884382352,6,1,0,90,0,0
182981,-136.444141264244,6,1,0,90,0,0
183099,-134.886388063933,6,1,0,90,0,0
183215,-133.346419394424,6,1,0,90,0,0
183450,-83.3333333333333,6,1,0,90,0,0
183685,-154.73599882252,6,1,0,90,0,0
183919,-166.666666666667,6,1,0,90,0,0
184154,-100,6,1,0,90,0,0
184158,-100,6,1,0,90,0,1
184212,-100.672192130866,6,1,0,90,0,1
184271,-101.360609909979,6,1,0,90,0,1
184330,-102.05373523572,6,1,0,90,0,1
184388,-102.739732413228,6,1,0,90,0,1
184505,-104.137619393928,6,1,0,90,0,1
184623,-105.5667191978,6,1,0,90,0,1
184740,-107.003070440844,6,1,0,90,0,1
184857,-83.3333333333333,6,1,0,90,0,1
185091,-111.430450235504,6,1,0,90,0,1
185208,-112.946583984141,6,1,0,90,0,1
185326,-114.496570837683,6,1,0,90,0,1
185443,-116.054422527087,6,1,0,90,0,1
185560,-99.9884417114429,6,1,0,90,0,1
185618,-100.672671823543,6,1,0,90,0,1
185677,-101.349868520907,6,1,0,90,0,1
185736,-102.043415002004,6,1,0,90,0,1
185794,-102.729832302503,6,1,0,90,0,1
185911,-104.140622326346,6,1,0,90,0,1
186029,-105.558584570408,6,1,0,90,0,1
186146,-106.995853564138,6,1,0,90,0,1
186263,-83.3333333333333,6,1,0,90,0,1
186497,-111.439028209525,6,1,0,90,0,1
186614,-112.95636439387,6,1,0,90,0,1
186732,-114.494360387739,6,1,0,90,0,1
186849,-116.053297491832,6,1,0,90,0,1
186966,-99.9884417114429,6,1,0,90,0,1
187024,-100.672671823543,6,1,0,90,0,1
187083,-101.349868520907,6,1,0,90,0,1
187142,-102.043415002004,6,1,0,90,0,1
187200,-102.729832302503,6,1,0,90,0,1
187317,-104.140622326346,6,1,0,90,0,1
187435,-105.558584570408,6,1,0,90,0,1
187552,-106.995853564138,6,1,0,90,0,1
187669,-83.3333333333333,6,1,0,90,0,1
187903,-111.433028749721,6,1,0,90,0,1
187962,-112.185451571697,6,1,0,90,0,1
188020,-112.956060092624,6,1,0,90,0,1
188138,-114.494360387739,6,1,0,90,0,1
188255,-116.053297491832,6,1,0,90,0,1
188372,-99.9884417114429,6,1,0,90,0,1
188430,-100.672671823543,6,1,0,90,0,1
188489,-101.349868520907,6,1,0,90,0,1
188548,-102.043415002004,6,1,0,90,0,1
188606,-102.729832302503,6,1,0,90,0,1
188723,-104.140622326346,6,1,0,90,0,1
188841,-105.558584570408,6,1,0,90,0,1
188958,-106.995853564138,6,1,0,90,0,1
189075,-83.3333333333333,6,1,0,90,0,1
189309,-111.433028749721,6,1,0,90,0,1
189368,-112.185451571697,6,1,0,90,0,1
189426,-112.956060092624,6,1,0,90,0,1
189544,-114.494360387739,6,1,0,90,0,1
189661,-116.053297491832,6,1,0,90,0,1
189778,-99.9884417114429,6,1,0,90,0,1
189836,-100.672671823543,6,1,0,90,0,1
189895,-101.349868520907,6,1,0,90,0,1
189954,-102.043415002004,6,1,0,90,0,1
190012,-102.729832302503,6,1,0,90,0,1
190129,-104.140622326346,6,1,0,90,0,1
190247,-105.558584570408,6,1,0,90,0,1
190364,-106.995853564138,6,1,0,90,0,1
190481,-83.3333333333333,6,1,0,90,0,1
190715,-111.439028209525,6,1,0,90,0,1
190832,-112.95636439387,6,1,0,90,0,1
190950,-114.494360387739,6,1,0,90,0,1
191067,-116.053297491832,6,1,0,90,0,1
191185,-99.9884417114429,6,1,0,90,0,1
191243,-100.672671823543,6,1,0,90,0,1
191302,-101.349868520907,6,1,0,90,0,1
191361,-102.043415002004,6,1,0,90,0,1
191419,-102.729832302503,6,1,0,90,0,1
191536,-104.140622326346,6,1,0,90,0,1
191654,-105.558584570408,6,1,0,90,0,1
191771,-106.995853564138,6,1,0,90,0,1
191888,-83.3333333333333,6,1,0,90,0,1
192122,-111.439028209525,6,1,0,90,0,1
192239,-112.95636439387,6,1,0,90,0,1
192357,-114.494360387739,6,1,0,90,0,1
192474,-116.053297491832,6,1,0,90,0,1
192591,-99.9884417114429,6,1,0,90,0,1
192649,-100.672671823543,6,1,0,90,0,1
192708,-101.349868520907,6,1,0,90,0,1
192767,-102.043415002004,6,1,0,90,0,1
192825,-102.729832302503,6,1,0,90,0,1
192942,-104.140622326346,6,1,0,90,0,1
193060,-105.558584570408,6,1,0,90,0,1
193177,-106.995853564138,6,1,0,90,0,1
193294,-83.3333333333333,6,1,0,90,0,1
193528,-111.439028209525,6,1,0,90,0,1
193645,-112.95636439387,6,1,0,90,0,1
193763,-114.494360387739,6,1,0,90,0,1
193997,-99.9884417114429,6,1,0,90,0,1
194055,-100.672671823543,6,1,0,90,0,1
194114,-101.349868520907,6,1,0,90,0,1
194173,-102.043415002004,6,1,0,90,0,1
194231,-102.729832302503,6,1,0,90,0,1
194348,-104.140622326346,6,1,0,90,0,1
194583,-106.995853564138,6,1,0,90,0,1
194700,-83.3333333333333,6,1,0,90,0,1
194934,-111.439028209525,6,1,0,90,0,1
194993,-112.185451571697,6,1,0,90,0,1
195051,-112.95636439387,6,1,0,90,0,1
195169,-114.494360387739,6,1,0,90,0,1
195286,-116.053297491832,6,1,0,90,0,1
195403,-100,6,1,0,90,0,1
195462,-100.672192130866,6,1,0,90,0,1
195521,-101.360609909979,6,1,0,90,0,1
195580,-102.05373523572,6,1,0,90,0,1
195638,-102.739732413228,6,1,0,90,0,1
195755,-104.137619393928,6,1,0,90,0,1
195873,-105.5667191978,6,1,0,90,0,1
195990,-107.003070440844,6,1,0,90,0,1
196107,-83.3333333333333,6,1,0,90,0,1
196341,-111.430450235504,6,1,0,90,0,1
196458,-112.946583984141,6,1,0,90,0,1
196576,-114.496570837683,6,1,0,90,0,1
196693,-116.054422527087,6,1,0,90,0,1
196810,-99.9884417114429,6,1,0,90,0,1
196868,-100.672671823543,6,1,0,90,0,1
196927,-101.349868520907,6,1,0,90,0,1
196986,-102.043415002004,6,1,0,90,0,1
197044,-102.729832302503,6,1,0,90,0,1
197161,-104.140622326346,6,1,0,90,0,1
197279,-105.558584570408,6,1,0,90,0,1
197396,-106.995853564138,6,1,0,90,0,1
197513,-83.3333333333333,6,1,0,90,0,1
197747,-111.439028209525,6,1,0,90,0,1
197864,-112.95636439387,6,1,0,90,0,1
197982,-114.494360387739,6,1,0,90,0,1
198099,-116.053297491832,6,1,0,90,0,1
198216,-99.9884417114429,6,1,0,90,0,1
198274,-100.672671823543,6,1,0,90,0,1
198333,-101.349868520907,6,1,0,90,0,1
198392,-102.043415002004,6,1,0,90,0,1
198450,-102.729832302503,6,1,0,90,0,1
198567,-104.140622326346,6,1,0,90,0,1
198685,-105.558584570408,6,1,0,90,0,1
198802,-106.995853564138,6,1,0,90,0,1
198919,-83.3333333333333,6,1,0,90,0,1
199153,-111.433028749721,6,1,0,90,0,1
199212,-112.185451571697,6,1,0,90,0,1
199270,-112.956060092624,6,1,0,90,0,1
199388,-114.494360387739,6,1,0,90,0,1
199505,-116.053297491832,6,1,0,90,0,1
199622,-99.9884417114429,6,1,0,90,0,1
199680,-100.672671823543,6,1,0,90,0,1
199739,-101.349868520907,6,1,0,90,0,1
199798,-102.043415002004,6,1,0,90,0,1
199856,-102.729832302503,6,1,0,90,0,1
199973,-104.140622326346,6,1,0,90,0,1
200091,-105.558584570408,6,1,0,90,0,1
200208,-106.995853564138,6,1,0,90,0,1
200325,-83.3333333333333,6,1,0,90,0,1
200559,-111.433028749721,6,1,0,90,0,1
200618,-112.185451571697,6,1,0,90,0,1
200676,-112.956060092624,6,1,0,90,0,1
200794,-114.494360387739,6,1,0,90,0,1
200911,-116.053297491832,6,1,0,90,0,1
201028,-99.9884417114429,6,1,0,90,0,1
201086,-100.672671823543,6,1,0,90,0,1
201145,-101.349868520907,6,1,0,90,0,1
201204,-102.043415002004,6,1,0,90,0,1
201262,-102.729832302503,6,1,0,90,0,1
201379,-104.140622326346,6,1,0,90,0,1
201497,-105.558584570408,6,1,0,90,0,1
201614,-106.995853564138,6,1,0,90,0,1
201731,-83.3333333333333,6,1,0,90,0,1
201965,-111.439028209525,6,1,0,90,0,1
202082,-112.95636439387,6,1,0,90,0,1
202200,-114.494360387739,6,1,0,90,0,1
202317,-116.053297491832,6,1,0,90,0,1
202435,-99.9884417114429,6,1,0,90,0,1
202493,-100.672671823543,6,1,0,90,0,1
202552,-101.349868520907,6,1,0,90,0,1
202611,-102.043415002004,6,1,0,90,0,1
202669,-102.729832302503,6,1,0,90,0,1
202786,-104.140622326346,6,1,0,90,0,1
202904,-105.558584570408,6,1,0,90,0,1
203021,-106.995853564138,6,1,0,90,0,1
203138,-83.3333333333333,6,1,0,90,0,1
203372,-111.439028209525,6,1,0,90,0,1
203489,-112.95636439387,6,1,0,90,0,1
203607,-114.494360387739,6,1,0,90,0,1
203724,-116.053297491832,6,1,0,90,0,1
203841,-99.9884417114429,6,1,0,90,0,1
203899,-100.672671823543,6,1,0,90,0,1
203958,-101.349868520907,6,1,0,90,0,1
204017,-102.043415002004,6,1,0,90,0,1
204075,-102.729832302503,6,1,0,90,0,1
204192,-104.140622326346,6,1,0,90,0,1
204310,-105.558584570408,6,1,0,90,0,1
204427,-106.995853564138,6,1,0,90,0,1
204544,-83.3333333333333,6,1,0,90,0,1
204778,-111.439028209525,6,1,0,90,0,1
204895,-112.95636439387,6,1,0,90,0,1
205013,-114.494360387739,6,1,0,90,0,1
205247,-99.9884417114429,6,1,0,90,0,1
205305,-100.672671823543,6,1,0,90,0,1
205364,-101.349868520907,6,1,0,90,0,1
205423,-102.043415002004,6,1,0,90,0,1
205481,-102.729832302503,6,1,0,90,0,1
205598,-104.140622326346,6,1,0,90,0,1
205833,-106.995853564138,6,1,0,90,0,1
205950,-83.3333333333333,6,1,0,90,0,1
206341,-113.454752775637,6,1,0,90,0,1
206419,-114.485293631029,6,1,0,90,0,1
206492,-115.538588387943,6,1,0,90,0,1
206575,-116.588057297752,6,1,0,90,0,1
206653,-117.647058823529,6,1,0,90,0,1
206888,-121.065375302663,6,1,0,90,0,1
206966,-122.249388753056,6,1,0,90,0,1
207356,-83.3333333333333,6,1,0,90,0,1
207591,-111.439028209525,6,1,0,90,0,1
207826,-114.494360387739,6,1,0,90,0,1
207943,-116.053297491832,6,1,0,90,0,1
208060,-100,6,1,0,90,0,1
208119,-100.672192130866,6,1,0,90,0,1
208178,-101.360609909979,6,1,0,90,0,1
208237,-102.05373523572,6,1,0,90,0,1
208295,-102.739732413228,6,1,0,90,0,1
208412,-104.137619393928,6,1,0,90,0,1
208530,-105.5667191978,6,1,0,90,0,1
208647,-107.003070440844,6,1,0,90,0,1
208764,-83.3333333333333,6,1,0,90,0,1
208998,-111.430450235504,6,1,0,90,0,1
209115,-112.946583984141,6,1,0,90,0,1
209233,-114.496570837683,6,1,0,90,0,1
209350,-116.054422527087,6,1,0,90,0,1
209467,-99.9884417114429,6,1,0,90,0,1
209525,-100.672671823543,6,1,0,90,0,1
209584,-101.349868520907,6,1,0,90,0,1
209643,-102.043415002004,6,1,0,90,0,1
209701,-102.729832302503,6,1,0,90,0,1
209818,-104.140622326346,6,1,0,90,0,1
209936,-105.558584570408,6,1,0,90,0,1
210053,-106.995853564138,6,1,0,90,0,1
210170,-83.3333333333333,6,1,0,90,0,1
210404,-111.439028209525,6,1,0,90,0,1
210521,-112.95636439387,6,1,0,90,0,1
210639,-114.494360387739,6,1,0,90,0,1
210756,-116.053297491832,6,1,0,90,0,1
210873,-99.9884417114429,6,1,0,90,0,1
210931,-100.672671823543,6,1,0,90,0,1
210990,-101.349868520907,6,1,0,90,0,1
211049,-102.043415002004,6,1,0,90,0,1
211107,-102.729832302503,6,1,0,90,0,1
211224,-104.140622326346,6,1,0,90,0,1
211342,-105.558584570408,6,1,0,90,0,1
211459,-106.995853564138,6,1,0,90,0,1
211576,-83.3333333333333,6,1,0,90,0,1
211810,-111.433028749721,6,1,0,90,0,1
211869,-112.185451571697,6,1,0,90,0,1
211927,-112.956060092624,6,1,0,90,0,1
212045,-114.494360387739,6,1,0,90,0,1
212162,-116.053297491832,6,1,0,90,0,1
212279,-99.9884417114429,6,1,0,90,0,1
212337,-100.672671823543,6,1,0,90,0,1
212396,-101.349868520907,6,1,0,90,0,1
212455,-102.043415002004,6,1,0,90,0,1
212513,-102.729832302503,6,1,0,90,0,1
212630,-104.140622326346,6,1,0,90,0,1
212748,-105.558584570408,6,1,0,90,0,1
212865,-106.995853564138,6,1,0,90,0,1
212982,-83.3333333333333,6,1,0,90,0,1
213216,-111.433028749721,6,1,0,90,0,1
213275,-112.185451571697,6,1,0,90,0,1
213333,-112.956060092624,6,1,0,90,0,1
213451,-114.494360387739,6,1,0,90,0,1
213568,-116.053297491832,6,1,0,90,0,1
213685,-99.9884417114429,6,1,0,90,0,1
213743,-100.672671823543,6,1,0,90,0,1
213802,-101.349868520907,6,1,0,90,0,1
213861,-102.043415002004,6,1,0,90,0,1
213919,-102.729832302503,6,1,0,90,0,1
214036,-104.140622326346,6,1,0,90,0,1
214154,-105.558584570408,6,1,0,90,0,1
214271,-106.995853564138,6,1,0,90,0,1
214388,-83.3333333333333,6,1,0,90,0,1
214622,-111.439028209525,6,1,0,90,0,1
214739,-112.95636439387,6,1,0,90,0,1
214857,-114.494360387739,6,1,0,90,0,1
214974,-116.053297491832,6,1,0,90,0,1
215092,-99.9884417114429,6,1,0,90,0,1
215150,-100.672671823543,6,1,0,90,0,1
215209,-101.349868520907,6,1,0,90,0,1
215268,-102.043415002004,6,1,0,90,0,1
215326,-102.729832302503,6,1,0,90,0,1
215443,-104.140622326346,6,1,0,90,0,1
215561,-105.558584570408,6,1,0,90,0,1
215678,-106.995853564138,6,1,0,90,0,1
215795,-83.3333333333333,6,1,0,90,0,1
216029,-111.439028209525,6,1,0,90,0,1
216146,-112.95636439387,6,1,0,90,0,1
216264,-114.494360387739,6,1,0,90,0,1
216381,-116.053297491832,6,1,0,90,0,1
216498,-99.9884417114429,6,1,0,90,0,1
216556,-100.672671823543,6,1,0,90,0,1
216615,-101.349868520907,6,1,0,90,0,1
216674,-102.043415002004,6,1,0,90,0,1
216732,-102.729832302503,6,1,0,90,0,1
216849,-104.140622326346,6,1,0,90,0,1
216967,-105.558584570408,6,1,0,90,0,1
217084,-106.995853564138,6,1,0,90,0,1
217201,-83.3333333333333,6,1,0,90,0,1
217435,-111.439028209525,6,1,0,90,0,1
217552,-112.95636439387,6,1,0,90,0,1
217670,-114.494360387739,6,1,0,90,0,1
217904,-99.9884417114429,6,1,0,90,0,1
217962,-100.672671823543,6,1,0,90,0,1
218021,-101.349868520907,6,1,0,90,0,1
218080,-102.043415002004,6,1,0,90,0,1
218138,-102.729832302503,6,1,0,90,0,1
218255,-104.140622326346,6,1,0,90,0,1
218490,-106.995853564138,6,1,0,90,0,1
218607,-83.3333333333333,6,1,0,90,0,1
218841,-111.439028209525,6,1,0,90,0,1
218900,-112.185451571697,6,1,0,90,0,1
218958,-112.95636439387,6,1,0,90,0,1
219076,-114.494360387739,6,1,0,90,0,1
219193,-116.053297491832,6,1,0,90,0,1
219310,-100,6,1,0,90,0,1
219369,-100.672192130866,6,1,0,90,0,1
219428,-101.360609909979,6,1,0,90,0,1
219487,-102.05373523572,6,1,0,90,0,1
219545,-102.739732413228,6,1,0,90,0,1
219662,-104.137619393928,6,1,0,90,0,1
219780,-105.5667191978,6,1,0,90,0,1
219897,-107.003070440844,6,1,0,90,0,1
220014,-83.3333333333333,6,1,0,90,0,1
220248,-111.430450235504,6,1,0,90,0,1
220365,-112.946583984141,6,1,0,90,0,1
220483,-114.496570837683,6,1,0,90,0,1
220600,-116.054422527087,6,1,0,90,0,1
220717,-99.9884417114429,6,1,0,90,0,1
220775,-100.672671823543,6,1,0,90,0,1
220834,-101.349868520907,6,1,0,90,0,1
220893,-102.043415002004,6,1,0,90,0,1
220951,-102.729832302503,6,1,0,90,0,1
221068,-104.140622326346,6,1,0,90,0,1
221186,-105.558584570408,6,1,0,90,0,1
221303,-106.995853564138,6,1,0,90,0,1
221420,-83.3333333333333,6,1,0,90,0,1
221654,-111.439028209525,6,1,0,90,0,1
221771,-112.95636439387,6,1,0,90,0,1
221889,-114.494360387739,6,1,0,90,0,1
222006,-116.053297491832,6,1,0,90,0,1
222123,-99.9884417114429,6,1,0,90,0,1
222181,-100.672671823543,6,1,0,90,0,1
222240,-101.349868520907,6,1,0,90,0,1
222299,-102.043415002004,6,1,0,90,0,1
222357,-102.729832302503,6,1,0,90,0,1
222474,-104.140622326346,6,1,0,90,0,1
222592,-105.558584570408,6,1,0,90,0,1
222709,-106.995853564138,6,1,0,90,0,1
222826,-83.3333333333333,6,1,0,90,0,1
223060,-111.433028749721,6,1,0,90,0,1
223119,-112.185451571697,6,1,0,90,0,1
223177,-112.956060092624,6,1,0,90,0,1
223295,-114.494360387739,6,1,0,90,0,1
223412,-116.053297491832,6,1,0,90,0,1
223529,-99.9884417114429,6,1,0,90,0,1
223587,-100.672671823543,6,1,0,90,0,1
223646,-101.349868520907,6,1,0,90,0,1
223705,-102.043415002004,6,1,0,90,0,1
223763,-102.729832302503,6,1,0,90,0,1
223880,-104.140622326346,6,1,0,90,0,1
223998,-105.558584570408,6,1,0,90,0,1
224115,-106.995853564138,6,1,0,90,0,1
224232,-83.3333333333333,6,1,0,90,0,1
224466,-111.433028749721,6,1,0,90,0,1
224525,-112.185451571697,6,1,0,90,0,1
224583,-112.956060092624,6,1,0,90,0,1
224701,-114.494360387739,6,1,0,90,0,1
224818,-116.053297491832,6,1,0,90,0,1
224935,-99.9884417114429,6,1,0,90,0,1
224993,-100.672671823543,6,1,0,90,0,1
225052,-101.349868520907,6,1,0,90,0,1
225111,-102.043415002004,6,1,0,90,0,1
225169,-102.729832302503,6,1,0,90,0,1
225286,-104.140622326346,6,1,0,90,0,1
225404,-105.558584570408,6,1,0,90,0,1
225521,-106.995853564138,6,1,0,90,0,1
225638,-83.3333333333333,6,1,0,90,0,1
225872,-111.439028209525,6,1,0,90,0,1
225989,-112.95636439387,6,1,0,90,0,1
226107,-114.494360387739,6,1,0,90,0,1
226224,-116.053297491832,6,1,0,90,0,1
226342,-99.9884417114429,6,1,0,90,0,1
226400,-100.672671823543,6,1,0,90,0,1
226459,-101.349868520907,6,1,0,90,0,1
226518,-102.043415002004,6,1,0,90,0,1
226576,-102.729832302503,6,1,0,90,0,1
226693,-104.140622326346,6,1,0,90,0,1
226811,-105.558584570408,6,1,0,90,0,1
226928,-106.995853564138,6,1,0,90,0,1
227045,-83.3333333333333,6,1,0,90,0,1
227279,-111.439028209525,6,1,0,90,0,1
227396,-112.95636439387,6,1,0,90,0,1
227514,-114.494360387739,6,1,0,90,0,1
227631,-116.053297491832,6,1,0,90,0,1
227748,-99.9884417114429,6,1,0,90,0,1
227806,-100.672671823543,6,1,0,90,0,1
227865,-101.349868520907,6,1,0,90,0,1
227924,-102.043415002004,6,1,0,90,0,1
227982,-102.729832302503,6,1,0,90,0,1
228099,-104.140622326346,6,1,0,90,0,1
228217,-105.558584570408,6,1,0,90,0,1
228334,-106.995853564138,6,1,0,90,0,1
228451,-83.3333333333333,6,1,0,90,0,1
228685,-111.439028209525,6,1,0,90,0,1
228802,-112.95636439387,6,1,0,90,0,1
228920,-114.494360387739,6,1,0,90,0,1
229154,-99.9884417114429,6,1,0,90,0,1
229212,-100.672671823543,6,1,0,90,0,1
229271,-101.349868520907,6,1,0,90,0,1
229330,-102.043415002004,6,1,0,90,0,1
229388,-102.729832302503,6,1,0,90,0,1
229505,-104.140622326346,6,1,0,90,0,1
229740,-106.995853564138,6,1,0,90,0,1
229857,-83.3333333333333,6,1,0,90,0,1
230091,-111.439028209525,6,1,0,90,0,1
230150,-112.185451571697,6,1,0,90,0,1
230208,-112.95636439387,6,1,0,90,0,1
230326,-114.494360387739,6,1,0,90,0,1
230443,-116.053297491832,6,1,0,90,0,1
230560,-117.647058823529,6,1,0,90,0,1
230564,-117.647058823529,6,1,0,90,0,0
230677,-90.9090909090909,6,1,0,90,0,0
231263,-83.3333333333333,6,1,0,90,0,0
231497,-117.647058823529,6,1,0,90,0,0
231614,-115.981417030868,6,1,0,90,0,0
231731,-114.339357320149,6,1,0,90,0,0
231848,-112.720545817312,6,1,0,90,0,0
231966,-111.111111111111,6,1,0,90,0,0
232317,-116.144793259796,6,1,0,90,0,0
232668,-121.406517012246,6,1,0,90,0,0
232903,-125.061890961065,6,1,0,90,0,0
233137,-128.811061992379,6,1,0,90,0,0
233372,-132.689376039385,6,1,0,90,0,0
233723,-138.700621330791,6,1,0,90,0,0
234075,-145.002497497434,6,1,0,90,0,0
234309,-149.349458501364,6,1,0,90,0,0
234543,-153.826734984653,6,1,0,90,0,0
234778,-100,6,1,0,90,0,0
234783,-100,6,1,0,90,0,1
234836,-100.594921583171,6,1,0,90,0,1
234894,-101.203731936013,6,1,0,90,0,1
234953,-101.81622686895,6,1,0,90,0,1
235011,-102.421953577764,6,1,0,90,0,1
235129,-103.654839342467,6,1,0,90,0,1
235246,-104.913294552663,6,1,0,90,0,1
235363,-106.176169384317,6,1,0,90,0,1
235480,-83.3333333333333,6,1,0,90,0,1
235716,-110.056737795299,6,1,0,90,0,1
235833,-111.381525895875,6,1,0,90,0,1
235951,-112.733789451271,6,1,0,90,0,1
236009,-113.404467096243,6,1,0,90,0,1
236068,-114.090802077573,6,1,0,90,0,1
236185,-115.475958479539,6,1,0,90,0,1
236341,-117.321029262295,6,1,0,90,0,1
236419,-118.260637598041,6,1,0,90,0,1
236498,-119.219962986999,6,1,0,90,0,1
236576,-120.174779627411,6,1,0,90,0,1
236654,-121.13724326581,6,1,0,90,0,1
236966,-125.064800055814,6,1,0,90,0,1
237123,-127.089072840434,6,1,0,90,0,1
237181,-127.845153164614,6,1,0,90,0,1
237240,-128.618884597398,6,1,0,90,0,1
237357,-130.16711118704,6,1,0,90,0,1
237591,-83.3333333333333,6,1,0,90,0,1
238529,-110.060488314357,6,1,0,90,0,1
238684,-111.831101560496,6,1,0,90,0,1
238840,-113.630199790804,6,1,0,90,0,1
238918,-114.540573693456,6,1,0,90,0,1
238997,-115.470053837925,6,1,0,90,0,1
239172,-117.555977322156,6,1,0,90,0,1
239231,-118.267691424425,6,1,0,90,0,1
239348,-119.691826700198,6,1,0,90,0,1
239407,-120.416471783581,6,1,0,90,0,1
239700,-83.3333333333333,6,1,0,90,0,1
240090,-129.131433179449,6,1,0,90,0,1
240168,-130.165998699839,6,1,0,90,0,1
240247,-131.222276902184,6,1,0,90,0,1
240403,-100,6,1,0,90,0,1
240461,-100.594921583171,6,1,0,90,0,1
240519,-101.203731936013,6,1,0,90,0,1
240578,-101.81622686895,6,1,0,90,0,1
240636,-102.421953577764,6,1,0,90,0,1
240754,-103.654839342467,6,1,0,90,0,1
240871,-104.913294552663,6,1,0,90,0,1
241105,-83.3333333333333,6,1,0,90,0,1
241341,-110.056737795299,6,1,0,90,0,1
241576,-112.733789451271,6,1,0,90,0,1
241810,-115.475958479539,6,1,0,90,0,1
241926,-116.85402834039,6,1,0,90,0,1
242103,-118.976362600559,6,1,0,90,0,1
242434,-123.085357002167,6,1,0,90,0,1
242512,-124.07113106309,6,1,0,90,0,1
242590,-125.064800055814,6,1,0,90,0,1
242668,-126.066427209784,6,1,0,90,0,1
242747,-127.089072840434,6,1,0,90,0,1
242981,-130.16711118704,6,1,0,90,0,1
243216,-99.9795410637907,6,1,0,90,0,1
243274,-101.193809395642,6,1,0,90,0,1
243332,-102.401870600015,6,1,0,90,0,1
243391,-103.645558531255,6,1,0,90,0,1
243449,-104.904351261472,6,1,0,90,0,1
243567,-107.446000341227,6,1,0,90,0,1
243684,-110.049229135903,6,1,0,90,0,1
243919,-83.3333333333333,6,1,0,90,0,1
244153,-121.133110879948,6,1,0,90,0,1
244207,-122.579209338866,6,1,0,90,0,1
244270,-124.067954440712,6,1,0,90,0,1
244329,-125.574780602064,6,1,0,90,0,1
244384,-127.073904131449,6,1,0,90,0,1
244505,-130.152682729408,6,1,0,90,0,1
244622,-133.333333333333,6,1,0,90,0,1
245091,-125.482317906129,6,1,0,90,0,1
245169,-124.219515688771,6,1,0,90,0,1
245248,-122.953476895998,6,1,0,90,0,1
245326,-121.716123890037,6,1,0,90,0,1
245560,-118.07827813509,6,1,0,90,0,1
245619,-117.178336301812,6,1,0,90,0,1
245677,-116.300333582463,6,1,0,90,0,1
245736,-115.413942477612,6,1,0,90,0,1
245794,-114.549160142035,6,1,0,90,0,1
246026,-111.111111111111,6,1,0,90,0,1
246146,-113.457567950373,6,1,0,90,0,1
246205,-114.659553383346,6,1,0,90,0,1
246263,-115.853577526922,6,1,0,90,0,1
246322,-117.080946622354,6,1,0,90,0,1
246380,-118.300186300991,6,1,0,90,0,1
246498,-120.820041444766,6,1,0,90,0,1
246615,-123.371532557878,6,1,0,90,0,1
246732,-83.3333333333333,6,1,0,90,0,1
246966,-131.353877572521,6,1,0,90,0,1
247436,-142.857142857143,6,1,0,90,0,1
247787,-134.169764180837,6,1,0,90,0,1
247865,-132.312141947249,6,1,0,90,0,1
247943,-130.480239072891,6,1,0,90,0,1
248021,-128.673699465212,6,1,0,90,0,1
248255,-123.402772861313,6,1,0,90,0,1
248373,-120.827240288819,6,1,0,90,0,1
248451,-119.154349460145,6,1,0,90,0,1
248529,-117.50462032678,6,1,0,90,0,1
248607,-115.877732207829,6,1,0,90,0,1
248841,-111.111111111111,6,1,0,90,0,1
248845,-111.111111111111,6,1,0,90,0,0
249075,-83.3333333333333,6,1,0,50,0,0
250247,-200,6,1,0,50,0,0
251653,-215.13755824916,6,1,0,50,0,0
253060,-231.432854067361,6,1,0,50,0,0
254466,-248.936577441765,6,1,0,50,0,0
255872,-267.791933068169,6,1,0,50,0,0
257278,-288.060512995543,6,1,0,50,0,0
258685,-309.879256830911,6,1,0,50,0,0
260091,-333.316036422522,6,1,0,50,0,0

[HitObjects]
256,192,1111,12,0,1932,0:0:0:0:
256,192,2049,5,12,0:0:0:0:
256,192,2752,1,4,0:0:0:0:
256,192,3103,1,0,0:0:0:0:
256,192,3455,1,8,0:0:0:0:
256,192,3689,1,0,0:0:0:0:
256,192,3806,1,8,0:0:0:0:
256,192,4158,1,0,0:0:0:0:
256,192,4216,1,0,0:0:0:0:
256,192,4275,1,8,0:0:0:0:
256,192,4392,1,0,0:0:0:0:
256,192,4509,1,8,0:0:0:0:
256,192,4568,1,8,0:0:0:0:
256,192,4627,1,0,0:0:0:0:
256,192,4744,1,0,0:0:0:0:
256,192,4861,1,8,0:0:0:0:
256,192,5095,1,0,0:0:0:0:
256,192,5173,1,8,0:0:0:0:
256,192,5252,1,8,0:0:0:0:
256,192,5330,1,0,0:0:0:0:
256,192,5564,1,0,0:0:0:0:
256,192,5623,1,0,0:0:0:0:
256,192,5681,1,0,0:0:0:0:
256,192,5798,1,0,0:0:0:0:
256,192,5916,1,8,0:0:0:0:
256,192,6150,1,0,0:0:0:0:
256,192,6267,1,8,0:0:0:0:
256,192,6345,1,0,0:0:0:0:
256,192,6423,1,0,0:0:0:0:
256,192,6502,1,8,0:0:0:0:
256,192,6619,1,0,0:0:0:0:
256,192,6736,1,8,0:0:0:0:
256,192,6970,1,0,0:0:0:0:
256,192,7029,1,0,0:0:0:0:
256,192,7087,1,8,0:0:0:0:
256,192,7205,1,0,0:0:0:0:
256,192,7322,1,8,0:0:0:0:
256,192,7556,1,0,0:0:0:0:
256,192,7673,1,8,0:0:0:0:
256,192,7908,1,0,0:0:0:0:
256,192,8025,1,0,0:0:0:0:
256,192,8142,1,8,0:0:0:0:
256,192,8377,1,0,0:0:0:0:
256,192,8435,1,0,0:0:0:0:
256,192,8494,1,8,0:0:0:0:
256,192,8552,1,8,0:0:0:0:
256,192,8611,1,0,0:0:0:0:
256,192,8728,1,0,0:0:0:0:
256,192,8845,1,8,0:0:0:0:
256,192,8962,1,0,0:0:0:0:
256,192,9080,1,8,0:0:0:0:
256,192,9314,1,0,0:0:0:0:
256,192,9431,1,0,0:0:0:0:
256,192,9548,1,8,0:0:0:0:
256,192,9783,1,0,0:0:0:0:
256,192,9861,1,8,0:0:0:0:
256,192,9939,1,8,0:0:0:0:
256,192,10017,1,0,0:0:0:0:
256,192,10252,1,8,0:0:0:0:
256,192,10369,1,0,0:0:0:0:
256,192,10486,1,8,0:0:0:0:
256,192,10544,1,8,0:0:0:0:
256,192,10603,1,8,0:0:0:0:
256,192,10720,1,0,0:0:0:0:
256,192,10837,1,8,0:0:0:0:
256,192,10896,1,8,0:0:0:0:
256,192,10955,1,0,0:0:0:0:
256,192,11072,1,0,0:0:0:0:
256,192,11189,1,8,0:0:0:0:
256,192,11306,12,0,13181,0:0:0:0:
256,192,13298,12,0,13884,0:0:0:0:
256,192,14002,12,0,15408,0:0:0:0:
256,192,16345,5,0,0:0:0:0:
256,192,16580,5,0,0:0:0:0:
256,192,16814,1,8,0:0:0:0:
256,192,17048,1,8,0:0:0:0:
256,192,17283,1,0,0:0:0:0:
256,192,18220,1,8,0:0:0:0:
256,192,18455,1,8,0:0:0:0:
256,192,18689,1,0,0:0:0:0:
256,192,19627,1,8,0:0:0:0:
256,192,20564,1,0,0:0:0:0:
256,192,20798,1,0,0:0:0:0:
256,192,21033,1,8,0:0:0:0:
256,192,22439,1,0,0:0:0:0:
256,192,22673,1,8,0:0:0:0:
256,192,22908,1,8,0:0:0:0:
256,192,23611,1,0,0:0:0:0:
256,192,23845,1,8,0:0:0:0:
256,192,24080,1,8,0:0:0:0:
256,192,24314,1,0,0:0:0:0:
256,192,25252,1,8,0:0:0:0:
256,192,25486,1,0,0:0:0:0:
256,192,25720,1,0,0:0:0:0:
256,192,25955,1,8,0:0:0:0:
256,192,26189,1,8,0:0:0:0:
256,192,26423,1,0,0:0:0:0:
256,192,26658,1,8,0:0:0:0:
256,192,27361,1,12,0:0:0:0:
256,192,28064,5,0,0:0:0:0:
256,192,28123,1,0,0:0:0:0:
256,192,28181,1,8,0:0:0:0:
256,192,28240,1,8,0:0:0:0:
256,192,28298,1,0,0:0:0:0:
256,192,28416,1,8,0:0:0:0:
256,192,28533,1,0,0:0:0:0:
256,192,28650,1,0,0:0:0:0:
256,192,28767,1,12,0:0:0:0:
256,192,29002,1,0,0:0:0:0:
256,192,29236,1,0,0:0:0:0:
256,192,29470,1,0,0:0:0:0:
256,192,29529,1,0,0:0:0:0:
256,192,29587,1,8,0:0:0:0:
256,192,29646,1,0,0:0:0:0:
256,192,29705,1,8,0:0:0:0:
256,192,29822,1,0,0:0:0:0:
256,192,29939,1,8,0:0:0:0:
256,192,30056,1,0,0:0:0:0:
256,192,30173,1,12,0:0:0:0:
256,192,30408,1,0,0:0:0:0:
256,192,30642,1,8,0:0:0:0:
256,192,30877,1,0,0:0:0:0:
256,192,30935,1,8,0:0:0:0:
256,192,30994,1,0,0:0:0:0:
256,192,31052,1,0,0:0:0:0:
256,192,31111,1,8,0:0:0:0:
256,192,31228,1,0,0:0:0:0:
256,192,31345,1,8,0:0:0:0:
256,192,31462,1,0,0:0:0:0:
256,192,31580,1,12,0:0:0:0:
256,192,31814,1,0,0:0:0:0:
256,192,31931,1,8,0:0:0:0:
256,192,32048,1,0,0:0:0:0:
256,192,32283,1,0,0:0:0:0:
256,192,32341,1,0,0:0:0:0:
256,192,32400,1,0,0:0:0:0:
256,192,32459,1,0,0:0:0:0:
256,192,32517,1,8,0:0:0:0:
256,192,32634,1,8,0:0:0:0:
256,192,32752,1,0,0:0:0:0:
256,192,32869,1,0,0:0:0:0:
256,192,32986,1,12,0:0:0:0:
256,192,33220,1,8,0:0:0:0:
256,192,33337,1,8,0:0:0:0:
256,192,33455,1,0,0:0:0:0:
256,192,33689,1,0,0:0:0:0:
256,192,33748,1,0,0:0:0:0:
256,192,33806,1,8,0:0:0:0:
256,192,33865,1,8,0:0:0:0:
256,192,33923,1,0,0:0:0:0:
256,192,34041,1,8,0:0:0:0:
256,192,34158,1,0,0:0:0:0:
256,192,34275,1,0,0:0:0:0:
256,192,34392,1,12,0:0:0:0:
256,192,34627,1,0,0:0:0:0:
256,192,34861,1,0,0:0:0:0:
256,192,35095,1,0,0:0:0:0:
256,192,35154,1,8,0:0:0:0:
256,192,35212,1,0,0:0:0:0:
256,192,35271,1,0,0:0:0:0:
256,192,35330,1,8,0:0:0:0:
256,192,35447,1,8,0:0:0:0:
256,192,35564,1,0,0:0:0:0:
256,192,35681,1,0,0:0:0:0:
256,192,35798,1,12,0:0:0:0:
256,192,36033,1,0,0:0:0:0:
256,192,36267,1,8,0:0:0:0:
256,192,36502,1,0,0:0:0:0:
256,192,36560,1,0,0:0:0:0:
256,192,36619,1,0,0:0:0:0:
256,192,36677,1,0,0:0:0:0:
256,192,36736,1,8,0:0:0:0:
256,192,36853,1,0,0:0:0:0:
256,192,36970,1,8,0:0:0:0:
256,192,37087,1,0,0:0:0:0:
256,192,37205,1,12,0:0:0:0:
256,192,37439,1,8,0:0:0:0:
256,192,37673,1,0,0:0:0:0:
256,192,37908,1,0,0:0:0:0:
256,192,37966,1,0,0:0:0:0:
256,192,38025,1,8,0:0:0:0:
256,192,38142,1,0,0:0:0:0:
256,192,38259,1,8,0:0:0:0:
256,192,38494,1,0,0:0:0:0:
256,192,38611,1,12,0:0:0:0:
256,192,38845,1,8,0:0:0:0:
256,192,38904,1,8,0:0:0:0:
256,192,38962,1,0,0:0:0:0:
256,192,39080,1,8,0:0:0:0:
256,192,39314,1,0,0:0:0:0:
256,192,40017,1,12,0:0:0:0:
256,192,40252,1,0,0:0:0:0:
256,192,40486,1,8,0:0:0:0:
256,192,40603,1,8,0:0:0:0:
256,192,40720,1,0,0:0:0:0:
256,192,40779,1,0,0:0:0:0:
256,192,40837,1,8,0:0:0:0:
256,192,40896,1,0,0:0:0:0:
256,192,40955,1,8,0:0:0:0:
256,192,41072,1,0,0:0:0:0:
256,192,41189,1,8,0:0:0:0:
256,192,41306,1,0,0:0:0:0:
256,192,41423,1,12,0:0:0:0:
256,192,41658,1,0,0:0:0:0:
256,192,41892,1,8,0:0:0:0:
256,192,42127,1,0,0:0:0:0:
256,192,42185,1,0,0:0:0:0:
256,192,42361,1,8,0:0:0:0:
256,192,42419,1,8,0:0:0:0:
256,192,42595,1,0,0:0:0:0:
256,192,42712,1,0,0:0:0:0:
256,192,42830,1,12,0:0:0:0:
256,192,43064,1,0,0:0:0:0:
256,192,43298,1,0,0:0:0:0:
256,192,43533,1,0,0:0:0:0:
256,192,43650,1,8,0:0:0:0:
256,192,43709,1,0,0:0:0:0:
256,192,43767,1,8,0:0:0:0:
256,192,43884,1,0,0:0:0:0:
256,192,44002,1,8,0:0:0:0:
256,192,44119,1,0,0:0:0:0:
256,192,44236,1,12,0:0:0:0:
256,192,44470,1,0,0:0:0:0:
256,192,44529,1,0,0:0:0:0:
256,192,44587,1,8,0:0:0:0:
256,192,44705,1,0,0:0:0:0:
256,192,44939,1,0,0:0:0:0:
256,192,44998,1,0,0:0:0:0:
256,192,45056,1,8,0:0:0:0:
256,192,45115,1,8,0:0:0:0:
256,192,45173,1,8,0:0:0:0:
256,192,45291,1,0,0:0:0:0:
256,192,45408,1,8,0:0:0:0:
256,192,45525,1,0,0:0:0:0:
256,192,45642,1,12,0:0:0:0:
256,192,45877,1,0,0:0:0:0:
256,192,46111,1,0,0:0:0:0:
256,192,46345,1,8,0:0:0:0:
256,192,46404,1,8,0:0:0:0:
256,192,46462,1,8,0:0:0:0:
256,192,46521,1,8,0:0:0:0:
256,192,46580,1,0,0:0:0:0:
256,192,46697,1,8,0:0:0:0:
256,192,46814,1,0,0:0:0:0:
256,192,46931,1,0,0:0:0:0:
256,192,47048,1,12,0:0:0:0:
256,192,47283,1,0,0:0:0:0:
256,192,47517,1,8,0:0:0:0:
256,192,47752,1,0,0:0:0:0:
256,192,47869,1,8,0:0:0:0:
256,192,48103,1,8,0:0:0:0:
256,192,48220,1,0,0:0:0:0:
256,192,48337,1,0,0:0:0:0:
256,192,48455,1,12,0:0:0:0:
256,192,48689,1,0,0:0:0:0:
256,192,48806,1,0,0:0:0:0:
256,192,48923,1,8,0:0:0:0:
256,192,49041,1,8,0:0:0:0:
256,192,49158,1,0,0:0:0:0:
256,192,49509,1,0,0:0:0:0:
256,192,49861,1,8,0:0:0:0:
256,192,50212,1,0,0:0:0:0:
256,192,50330,1,8,0:0:0:0:
256,192,50447,1,8,0:0:0:0:
256,192,50564,1,0,0:0:0:0:
256,192,50681,1,0,0:0:0:0:
256,192,50798,1,8,0:0:0:0:
256,192,50916,1,0,0:0:0:0:
256,192,51033,1,0,0:0:0:0:
256,192,51150,1,8,0:0:0:0:
256,192,51267,1,0,0:0:0:0:
256,192,51502,1,8,0:0:0:0:
256,192,51970,1,0,0:0:0:0:
256,192,52322,1,0,0:0:0:0:
256,192,52673,1,0,0:0:0:0:
256,192,53377,1,8,0:0:0:0:
256,192,53728,1,8,0:0:0:0:
256,192,54080,1,8,0:0:0:0:
256,192,54783,1,0,0:0:0:0:
256,192,55134,1,0,0:0:0:0:
256,192,55486,1,0,0:0:0:0:
256,192,55720,1,0,0:0:0:0:
256,192,55955,1,0,0:0:0:0:
256,192,56189,1,8,0:0:0:0:
256,192,56541,1,8,0:0:0:0:
256,192,56892,1,8,0:0:0:0:
256,192,57127,1,8,0:0:0:0:
256,192,57361,1,8,0:0:0:0:
256,192,57595,5,0,0:0:0:0:
256,192,57712,1,8,0:0:0:0:
256,192,57830,1,0,0:0:0:0:
256,192,57947,1,8,0:0:0:0:
256,192,58064,1,8,0:0:0:0:
256,192,58181,1,0,0:0:0:0:
256,192,58298,1,8,0:0:0:0:
256,192,58416,1,0,0:0:0:0:
256,192,58474,1,0,0:0:0:0:
256,192,58533,1,8,0:0:0:0:
256,192,58650,1,8,0:0:0:0:
256,192,58767,1,0,0:0:0:0:
256,192,58884,1,8,0:0:0:0:
256,192,59002,1,0,0:0:0:0:
256,192,59119,1,8,0:0:0:0:
256,192,59236,1,0,0:0:0:0:
256,192,59353,1,0,0:0:0:0:
256,192,59470,1,8,0:0:0:0:
256,192,59587,1,0,0:0:0:0:
256,192,59705,1,8,0:0:0:0:
256,192,59822,1,8,0:0:0:0:
256,192,59880,1,8,0:0:0:0:
256,192,59939,1,0,0:0:0:0:
256,192,60056,1,0,0:0:0:0:
256,192,60173,1,12,0:0:0:0:
256,192,60408,1,4,0:0:0:0:
256,192,60642,1,0,0:0:0:0:
256,192,60759,1,8,0:0:0:0:
256,192,60877,1,0,0:0:0:0:
256,192,60994,1,0,0:0:0:0:
256,192,61111,1,8,0:0:0:0:
256,192,61228,1,0,0:0:0:0:
256,192,61287,1,8,0:0:0:0:
256,192,61345,1,0,0:0:0:0:
256,192,61462,1,8,0:0:0:0:
256,192,61580,1,0,0:0:0:0:
256,192,61697,1,8,0:0:0:0:
256,192,61814,1,8,0:0:0:0:
256,192,61931,1,0,0:0:0:0:
256,192,62048,1,0,0:0:0:0:
256,192,62166,1,8,0:0:0:0:
256,192,62283,1,0,0:0:0:0:
256,192,62341,1,0,0:0:0:0:
256,192,62400,1,0,0:0:0:0:
256,192,62517,1,8,0:0:0:0:
256,192,62634,1,0,0:0:0:0:
256,192,62752,1,8,0:0:0:0:
256,192,62869,1,0,0:0:0:0:
256,192,62986,1,8,0:0:0:0:
256,192,63103,1,8,0:0:0:0:
256,192,63220,12,0,64627,0:0:0:0:
256,192,65505,5,0,0:0:0:0:
256,192,65769,1,8,0:0:0:0:
256,192,66033,1,0,0:0:0:0:
256,192,68318,5,0,0:0:0:0:
256,192,68582,1,8,0:0:0:0:
256,192,68845,1,0,0:0:0:0:
256,192,71394,1,8,0:0:0:0:
256,192,71658,1,0,0:0:0:0:
256,192,74470,1,4,0:0:0:0:
256,192,75173,1,0,0:0:0:0:
256,192,75408,1,0,0:0:0:0:
256,192,75642,1,8,0:0:0:0:
256,192,75877,1,8,0:0:0:0:
256,192,77791,1,0,0:0:0:0:
256,192,78064,1,8,0:0:0:0:
256,192,78337,1,8,0:0:0:0:
256,192,78611,1,0,0:0:0:0:
256,192,79627,1,0,0:0:0:0:
256,192,79861,1,8,0:0:0:0:
256,192,80095,1,0,0:0:0:0:
256,192,82908,1,8,0:0:0:0:
256,192,83142,1,8,0:0:0:0:
256,192,83377,1,0,0:0:0:0:
256,192,83611,1,0,0:0:0:0:
256,192,83845,1,8,0:0:0:0:
256,192,84197,1,0,0:0:0:0:
256,192,84314,1,8,0:0:0:0:
256,192,84548,1,0,0:0:0:0:
256,192,84783,1,8,0:0:0:0:
256,192,85017,1,8,0:0:0:0:
256,192,85252,1,0,0:0:0:0:
256,192,85330,1,8,0:0:0:0:
256,192,85408,1,8,0:0:0:0:
256,192,85486,1,0,0:0:0:0:
256,192,85720,1,12,0:0:0:0:
256,192,86072,1,0,0:0:0:0:
256,192,86189,1,8,0:0:0:0:
256,192,86423,1,0,0:0:0:0:
256,192,86541,1,0,0:0:0:0:
256,192,86658,1,0,0:0:0:0:
256,192,86775,1,8,0:0:0:0:
256,192,87009,1,8,0:0:0:0:
256,192,87127,1,0,0:0:0:0:
256,192,87361,1,0,0:0:0:0:
256,192,87478,1,0,0:0:0:0:
256,192,87595,1,8,0:0:0:0:
256,192,87830,1,0,0:0:0:0:
256,192,87947,1,8,0:0:0:0:
256,192,88005,1,8,0:0:0:0:
256,192,88064,1,0,0:0:0:0:
256,192,88181,1,0,0:0:0:0:
256,192,88298,1,12,0:0:0:0:
256,192,88533,1,4,0:0:0:0:
256,192,88884,1,0,0:0:0:0:
256,192,89002,1,8,0:0:0:0:
256,192,89236,1,0,0:0:0:0:
256,192,89353,1,8,0:0:0:0:
256,192,89412,1,0,0:0:0:0:
256,192,89470,1,8,0:0:0:0:
256,192,89587,1,0,0:0:0:0:
256,192,89705,1,8,0:0:0:0:
256,192,89822,1,8,0:0:0:0:
256,192,89939,1,0,0:0:0:0:
256,192,90173,1,8,0:0:0:0:
256,192,90291,1,0,0:0:0:0:
256,192,90408,1,8,0:0:0:0:
256,192,90642,1,0,0:0:0:0:
256,192,90759,1,0,0:0:0:0:
256,192,90818,1,0,0:0:0:0:
256,192,90877,1,8,0:0:0:0:
256,192,90994,1,0,0:0:0:0:
256,192,91111,1,8,0:0:0:0:
256,192,91228,1,8,0:0:0:0:
256,192,91345,1,0,0:0:0:0:
256,192,91814,1,0,0:0:0:0:
256,192,92283,1,0,0:0:0:0:
256,192,92752,1,0,0:0:0:0:
256,192,93220,1,0,0:0:0:0:
256,192,93455,1,12,0:0:0:0:
256,192,94158,5,0,0:0:0:0:
256,192,94216,1,0,0:0:0:0:
256,192,94275,1,8,0:0:0:0:
256,192,94392,1,0,0:0:0:0:
256,192,94509,1,8,0:0:0:0:
256,192,94568,1,8,0:0:0:0:
256,192,94627,1,0,0:0:0:0:
256,192,94861,1,8,0:0:0:0:
256,192,94939,1,0,0:0:0:0:
256,192,95017,1,0,0:0:0:0:
256,192,95095,1,8,0:0:0:0:
256,192,95212,1,0,0:0:0:0:
256,192,95330,1,8,0:0:0:0:
256,192,95564,1,0,0:0:0:0:
256,192,95681,1,8,0:0:0:0:
256,192,95798,1,0,0:0:0:0:
256,192,95916,1,8,0:0:0:0:
256,192,96033,1,0,0:0:0:0:
256,192,96267,1,12,0:0:0:0:
256,192,96502,1,0,0:0:0:0:
256,192,96736,1,8,0:0:0:0:
256,192,96970,1,0,0:0:0:0:
256,192,97029,1,0,0:0:0:0:
256,192,97087,1,8,0:0:0:0:
256,192,97146,1,8,0:0:0:0:
256,192,97205,1,0,0:0:0:0:
256,192,97322,1,8,0:0:0:0:
256,192,97439,1,8,0:0:0:0:
256,192,97556,1,0,0:0:0:0:
256,192,97673,1,12,0:0:0:0:
256,192,97908,1,0,0:0:0:0:
256,192,98025,1,8,0:0:0:0:
256,192,98142,1,0,0:0:0:0:
256,192,98377,1,0,0:0:0:0:
256,192,98435,1,0,0:0:0:0:
256,192,98494,1,8,0:0:0:0:
256,192,98552,1,0,0:0:0:0:
256,192,98611,1,8,0:0:0:0:
256,192,98728,1,8,0:0:0:0:
256,192,98845,1,0,0:0:0:0:
256,192,98962,1,0,0:0:0:0:
256,192,99080,1,12,0:0:0:0:
256,192,99314,1,0,0:0:0:0:
256,192,99431,1,0,0:0:0:0:
256,192,99548,1,8,0:0:0:0:
256,192,99783,1,0,0:0:0:0:
256,192,99841,1,8,0:0:0:0:
256,192,99900,1,8,0:0:0:0:
256,192,99959,1,0,0:0:0:0:
256,192,100017,1,8,0:0:0:0:
256,192,100134,1,0,0:0:0:0:
256,192,100252,1,8,0:0:0:0:
256,192,100369,1,0,0:0:0:0:
256,192,100486,1,12,0:0:0:0:
256,192,100720,1,0,0:0:0:0:
256,192,100779,1,8,0:0:0:0:
256,192,100837,1,8,0:0:0:0:
256,192,100955,1,0,0:0:0:0:
256,192,101189,1,0,0:0:0:0:
256,192,101248,1,0,0:0:0:0:
256,192,101306,1,0,0:0:0:0:
256,192,101365,1,0,0:0:0:0:
256,192,101423,1,8,0:0:0:0:
256,192,101541,1,8,0:0:0:0:
256,192,101658,1,0,0:0:0:0:
256,192,101775,1,0,0:0:0:0:
256,192,101892,1,12,0:0:0:0:
256,192,102127,1,8,0:0:0:0:
256,192,102185,1,8,0:0:0:0:
256,192,102244,1,8,0:0:0:0:
256,192,102361,1,0,0:0:0:0:
256,192,102595,1,0,0:0:0:0:
256,192,102654,1,0,0:0:0:0:
256,192,102712,1,8,0:0:0:0:
256,192,102771,1,8,0:0:0:0:
256,192,102830,1,0,0:0:0:0:
256,192,102947,1,0,0:0:0:0:
256,192,103064,1,8,0:0:0:0:
256,192,103181,1,0,0:0:0:0:
256,192,103298,1,12,0:0:0:0:
256,192,103533,1,0,0:0:0:0:
256,192,103650,1,0,0:0:0:0:
256,192,103767,1,8,0:0:0:0:
256,192,104002,1,0,0:0:0:0:
256,192,104060,1,8,0:0:0:0:
256,192,104119,1,0,0:0:0:0:
256,192,104177,1,0,0:0:0:0:
256,192,104236,1,8,0:0:0:0:
256,192,104353,1,8,0:0:0:0:
256,192,104470,1,0,0:0:0:0:
256,192,104587,1,0,0:0:0:0:
256,192,104705,1,12,0:0:0:0:
256,192,104939,1,0,0:0:0:0:
256,192,105056,1,0,0:0:0:0:
256,192,105173,1,8,0:0:0:0:
256,192,105291,1,8,0:0:0:0:
256,192,105408,1,0,0:0:0:0:
256,192,105466,1,0,0:0:0:0:
256,192,105525,1,0,0:0:0:0:
256,192,105584,1,0,0:0:0:0:
256,192,105642,1,8,0:0:0:0:
256,192,105759,1,0,0:0:0:0:
256,192,105877,1,8,0:0:0:0:
256,192,105994,1,0,0:0:0:0:
256,192,106111,1,12,0:0:0:0:
256,192,106345,1,8,0:0:0:0:
256,192,106462,1,8,0:0:0:0:
256,192,106580,1,0,0:0:0:0:
256,192,106814,1,0,0:0:0:0:
256,192,106873,1,0,0:0:0:0:
256,192,106931,1,8,0:0:0:0:
256,192,107048,1,0,0:0:0:0:
256,192,107166,1,8,0:0:0:0:
256,192,107400,1,0,0:0:0:0:
256,192,107517,1,12,0:0:0:0:
256,192,107752,1,8,0:0:0:0:
256,192,107810,1,8,0:0:0:0:
256,192,107869,1,0,0:0:0:0:
256,192,107986,1,8,0:0:0:0:
256,192,108220,1,0,0:0:0:0:
256,192,108279,1,8,0:0:0:0:
256,192,108337,1,8,0:0:0:0:
256,192,108396,1,8,0:0:0:0:
256,192,108455,1,0,0:0:0:0:
256,192,108572,1,0,0:0:0:0:
256,192,108689,1,8,0:0:0:0:
256,192,108806,1,0,0:0:0:0:
256,192,108923,1,12,0:0:0:0:
256,192,109158,1,0,0:0:0:0:
256,192,109275,1,8,0:0:0:0:
256,192,109392,1,0,0:0:0:0:
256,192,109627,1,0,0:0:0:0:
256,192,109685,1,0,0:0:0:0:
256,192,109744,1,8,0:0:0:0:
256,192,109802,1,0,0:0:0:0:
256,192,109861,1,8,0:0:0:0:
256,192,109978,1,0,0:0:0:0:
256,192,110095,1,0,0:0:0:0:
256,192,110212,1,0,0:0:0:0:
256,192,110330,1,12,0:0:0:0:
256,192,110564,1,0,0:0:0:0:
256,192,110681,1,0,0:0:0:0:
256,192,110798,1,8,0:0:0:0:
256,192,111033,1,0,0:0:0:0:
256,192,111091,1,8,0:0:0:0:
256,192,111150,1,0,0:0:0:0:
256,192,111209,1,0,0:0:0:0:
256,192,111267,1,8,0:0:0:0:
256,192,111384,1,0,0:0:0:0:
256,192,111502,1,8,0:0:0:0:
256,192,111619,1,0,0:0:0:0:
256,192,111736,1,12,0:0:0:0:
256,192,111970,1,0,0:0:0:0:
256,192,112029,1,8,0:0:0:0:
256,192,112087,1,8,0:0:0:0:
256,192,112205,1,0,0:0:0:0:
256,192,112439,1,0,0:0:0:0:
256,192,112498,1,0,0:0:0:0:
256,192,112556,1,0,0:0:0:0:
256,192,112615,1,0,0:0:0:0:
256,192,112673,1,8,0:0:0:0:
256,192,112791,1,0,0:0:0:0:
256,192,112908,1,0,0:0:0:0:
256,192,113025,1,0,0:0:0:0:
256,192,113142,1,12,0:0:0:0:
256,192,113377,1,8,0:0:0:0:
256,192,113435,1,8,0:0:0:0:
256,192,113494,1,8,0:0:0:0:
256,192,113611,1,0,0:0:0:0:
256,192,113845,1,0,0:0:0:0:
256,192,113904,1,8,0:0:0:0:
256,192,113962,1,8,0:0:0:0:
256,192,114021,1,0,0:0:0:0:
256,192,114080,1,0,0:0:0:0:
256,192,114197,1,0,0:0:0:0:
256,192,114314,1,8,0:0:0:0:
256,192,114431,1,0,0:0:0:0:
256,192,114548,1,12,0:0:0:0:
256,192,114783,1,0,0:0:0:0:
256,192,114900,1,0,0:0:0:0:
256,192,115017,1,8,0:0:0:0:
256,192,115252,1,0,0:0:0:0:
256,192,115310,1,8,0:0:0:0:
256,192,115369,1,0,0:0:0:0:
256,192,115427,1,0,0:0:0:0:
256,192,115486,1,8,0:0:0:0:
256,192,115603,1,8,0:0:0:0:
256,192,115720,1,0,0:0:0:0:
256,192,115837,1,0,0:0:0:0:
256,192,115955,1,12,0:0:0:0:
256,192,116189,1,0,0:0:0:0:
256,192,116306,1,0,0:0:0:0:
256,192,116423,1,8,0:0:0:0:
256,192,116541,1,8,0:0:0:0:
256,192,116658,1,0,0:0:0:0:
256,192,116716,1,0,0:0:0:0:
256,192,116775,1,0,0:0:0:0:
256,192,116834,1,0,0:0:0:0:
256,192,116892,1,8,0:0:0:0:
256,192,117009,1,0,0:0:0:0:
256,192,117127,1,8,0:0:0:0:
256,192,117244,1,0,0:0:0:0:
256,192,117361,1,12,0:0:0:0:
256,192,117595,1,8,0:0:0:0:
256,192,117712,1,8,0:0:0:0:
256,192,117830,1,0,0:0:0:0:
256,192,118064,1,0,0:0:0:0:
256,192,118123,1,0,0:0:0:0:
256,192,118181,1,8,0:0:0:0:
256,192,118298,1,0,0:0:0:0:
256,192,118416,1,8,0:0:0:0:
256,192,118650,1,0,0:0:0:0:
256,192,118767,1,12,0:0:0:0:
256,192,119002,1,8,0:0:0:0:
256,192,119060,1,8,0:0:0:0:
256,192,119119,1,0,0:0:0:0:
256,192,119236,1,8,0:0:0:0:
256,192,119470,1,0,0:0:0:0:
256,192,120173,1,12,0:0:0:0:
256,192,120408,1,0,0:0:0:0:
256,192,120642,1,8,0:0:0:0:
256,192,120759,1,8,0:0:0:0:
256,192,120877,1,0,0:0:0:0:
256,192,120935,1,0,0:0:0:0:
256,192,120994,1,8,0:0:0:0:
256,192,121052,1,0,0:0:0:0:
256,192,121111,1,8,0:0:0:0:
256,192,121228,1,8,0:0:0:0:
256,192,121345,1,0,0:0:0:0:
256,192,121462,1,0,0:0:0:0:
256,192,121580,1,12,0:0:0:0:
256,192,121814,1,8,0:0:0:0:
256,192,121873,1,8,0:0:0:0:
256,192,121931,1,0,0:0:0:0:
256,192,122048,1,8,0:0:0:0:
256,192,122283,1,8,0:0:0:0:
256,192,122400,1,0,0:0:0:0:
256,192,122459,1,8,0:0:0:0:
256,192,122517,1,8,0:0:0:0:
256,192,122576,1,0,0:0:0:0:
256,192,122634,1,8,0:0:0:0:
256,192,122752,1,0,0:0:0:0:
256,192,122869,1,0,0:0:0:0:
256,192,122986,1,12,0:0:0:0:
256,192,123220,1,0,0:0:0:0:
256,192,123298,1,8,0:0:0:0:
256,192,123377,1,8,0:0:0:0:
256,192,123455,1,0,0:0:0:0:
256,192,123689,1,0,0:0:0:0:
256,192,123806,1,8,0:0:0:0:
256,192,123865,1,8,0:0:0:0:
256,192,123923,1,0,0:0:0:0:
256,192,124041,1,0,0:0:0:0:
256,192,124158,1,8,0:0:0:0:
256,192,124275,1,0,0:0:0:0:
256,192,124392,1,12,0:0:0:0:
256,192,124627,1,0,0:0:0:0:
256,192,124685,1,0,0:0:0:0:
256,192,124744,1,8,0:0:0:0:
256,192,124861,1,0,0:0:0:0:
256,192,125095,1,0,0:0:0:0:
256,192,125154,1,8,0:0:0:0:
256,192,125212,1,0,0:0:0:0:
256,192,125271,1,0,0:0:0:0:
256,192,125330,1,8,0:0:0:0:
256,192,125447,1,0,0:0:0:0:
256,192,125564,1,8,0:0:0:0:
256,192,125681,1,0,0:0:0:0:
256,192,125798,1,12,0:0:0:0:
256,192,126033,1,0,0:0:0:0:
256,192,126150,1,8,0:0:0:0:
256,192,126267,1,0,0:0:0:0:
256,192,126502,1,8,0:0:0:0:
256,192,126560,1,0,0:0:0:0:
256,192,126619,1,8,0:0:0:0:
256,192,126677,1,0,0:0:0:0:
256,192,126736,1,8,0:0:0:0:
256,192,126853,1,0,0:0:0:0:
256,192,126970,1,0,0:0:0:0:
256,192,127087,1,0,0:0:0:0:
256,192,127205,1,12,0:0:0:0:
256,192,127439,1,0,0:0:0:0:
256,192,127556,1,0,0:0:0:0:
256,192,127673,1,8,0:0:0:0:
256,192,127908,1,0,0:0:0:0:
256,192,128025,1,8,0:0:0:0:
256,192,128259,1,8,0:0:0:0:
256,192,128377,1,0,0:0:0:0:
256,192,128494,1,0,0:0:0:0:
256,192,128611,1,12,0:0:0:0:
256,192,128845,1,0,0:0:0:0:
256,192,128962,1,0,0:0:0:0:
256,192,129080,1,8,0:0:0:0:
256,192,129197,1,8,0:0:0:0:
256,192,129314,1,0,0:0:0:0:
256,192,129431,12,8,132009,0:0:0:0:
256,192,132127,12,0,134353,0:0:0:0:
256,192,134470,5,0,0:0:0:0:
256,192,134939,1,0,0:0:0:0:
256,192,135017,1,8,0:0:0:0:
256,192,135877,1,8,0:0:0:0:
256,192,135994,1,0,0:0:0:0:
256,192,136111,1,8,0:0:0:0:
256,192,136228,1,0,0:0:0:0:
256,192,136345,1,8,0:0:0:0:
256,192,136462,1,0,0:0:0:0:
256,192,136814,1,8,0:0:0:0:
256,192,136931,1,8,0:0:0:0:
256,192,137048,1,0,0:0:0:0:
256,192,137283,1,8,0:0:0:0:
256,192,137517,1,8,0:0:0:0:
256,192,137654,1,0,0:0:0:0:
256,192,137712,1,0,0:0:0:0:
256,192,137771,1,0,0:0:0:0:
256,192,138103,1,8,0:0:0:0:
256,192,138220,1,0,0:0:0:0:
256,192,138455,1,8,0:0:0:0:
256,192,138630,1,8,0:0:0:0:
256,192,138748,1,0,0:0:0:0:
256,192,138865,1,8,0:0:0:0:
256,192,138982,1,0,0:0:0:0:
256,192,139099,1,8,0:0:0:0:
256,192,139744,1,0,0:0:0:0:
256,192,139861,1,8,0:0:0:0:
256,192,139978,1,0,0:0:0:0:
256,192,140096,1,8,0:0:0:0:
256,192,140213,1,8,0:0:0:0:
256,192,140330,1,0,0:0:0:0:
256,192,140447,1,0,0:0:0:0:
256,192,140564,1,8,0:0:0:0:
256,192,141033,1,0,0:0:0:0:
256,192,141677,1,8,0:0:0:0:
256,192,141751,1,8,0:0:0:0:
256,192,141824,1,0,0:0:0:0:
256,192,141897,1,0,0:0:0:0:
256,192,141970,1,8,0:0:0:0:
256,192,142439,1,8,0:0:0:0:
256,192,142498,1,8,0:0:0:0:
256,192,142556,1,0,0:0:0:0:
256,192,142673,1,8,0:0:0:0:
256,192,142908,1,0,0:0:0:0:
256,192,143025,1,8,0:0:0:0:
256,192,143259,1,0,0:0:0:0:
256,192,143377,1,8,0:0:0:0:
256,192,143420,1,8,0:0:0:0:
256,192,143728,1,0,0:0:0:0:
256,192,144080,1,8,0:0:0:0:
256,192,144314,1,0,0:0:0:0:
256,192,144666,1,0,0:0:0:0:
256,192,144783,1,8,0:0:0:0:
256,192,144861,1,8,0:0:0:0:
256,192,145252,1,8,0:0:0:0:
256,192,145310,1,0,0:0:0:0:
256,192,145369,1,8,0:0:0:0:
256,192,145427,1,0,0:0:0:0:
256,192,145486,1,8,0:0:0:0:
256,192,145603,1,0,0:0:0:0:
256,192,145720,1,8,0:0:0:0:
256,192,145837,1,8,0:0:0:0:
256,192,145955,1,0,0:0:0:0:
256,192,146072,1,0,0:0:0:0:
256,192,146189,1,8,0:0:0:0:
256,192,146306,1,0,0:0:0:0:
256,192,146423,1,8,0:0:0:0:
256,192,146541,1,0,0:0:0:0:
256,192,146658,1,8,0:0:0:0:
256,192,146775,1,0,0:0:0:0:
256,192,146892,1,8,0:0:0:0:
256,192,147009,1,8,0:0:0:0:
256,192,147127,1,0,0:0:0:0:
256,192,147244,1,0,0:0:0:0:
256,192,147361,1,8,0:0:0:0:
256,192,147478,1,0,0:0:0:0:
256,192,147595,1,8,0:0:0:0:
256,192,147712,1,8,0:0:0:0:
256,192,147830,1,0,0:0:0:0:
256,192,147947,1,8,0:0:0:0:
256,192,148064,1,0,0:0:0:0:
256,192,148181,1,0,0:0:0:0:
256,192,148298,1,8,0:0:0:0:
256,192,148416,1,0,0:0:0:0:
256,192,148474,1,0,0:0:0:0:
256,192,148533,1,8,0:0:0:0:
256,192,148650,1,0,0:0:0:0:
256,192,148767,1,8,0:0:0:0:
256,192,149002,1,0,0:0:0:0:
256,192,149119,1,0,0:0:0:0:
256,192,149236,1,8,0:0:0:0:
256,192,149353,1,8,0:0:0:0:
256,192,149470,1,0,0:0:0:0:
256,192,149587,1,0,0:0:0:0:
256,192,149705,1,8,0:0:0:0:
256,192,149822,1,8,0:0:0:0:
256,192,149939,1,0,0:0:0:0:
256,192,150056,1,0,0:0:0:0:
256,192,150173,1,8,0:0:0:0:
256,192,150291,1,8,0:0:0:0:
256,192,150408,1,0,0:0:0:0:
256,192,150525,1,8,0:0:0:0:
256,192,150642,1,8,0:0:0:0:
256,192,150759,1,8,0:0:0:0:
256,192,150877,1,0,0:0:0:0:
256,192,150994,1,8,0:0:0:0:
256,192,151111,1,8,0:0:0:0:
256,192,151228,1,8,0:0:0:0:
256,192,151345,1,0,0:0:0:0:
256,192,151462,1,8,0:0:0:0:
256,192,151580,1,0,0:0:0:0:
256,192,151697,1,8,0:0:0:0:
256,192,151814,1,0,0:0:0:0:
256,192,152048,1,0,0:0:0:0:
256,192,152166,1,8,0:0:0:0:
256,192,152400,1,0,0:0:0:0:
256,192,152517,1,8,0:0:0:0:
256,192,152634,1,0,0:0:0:0:
256,192,152869,1,8,0:0:0:0:
256,192,153103,1,0,0:0:0:0:
256,192,153220,1,8,0:0:0:0:
256,192,153337,1,0,0:0:0:0:
256,192,153572,1,8,0:0:0:0:
256,192,153806,1,0,0:0:0:0:
256,192,153923,1,8,0:0:0:0:
256,192,154041,1,0,0:0:0:0:
256,192,154099,1,0,0:0:0:0:
256,192,154158,1,8,0:0:0:0:
256,192,154392,1,8,0:0:0:0:
256,192,154509,1,8,0:0:0:0:
256,192,154568,1,8,0:0:0:0:
256,192,154627,1,0,0:0:0:0:
256,192,154861,1,8,0:0:0:0:
256,192,154978,1,0,0:0:0:0:
256,192,155095,1,8,0:0:0:0:
256,192,155212,1,0,0:0:0:0:
256,192,155271,1,0,0:0:0:0:
256,192,155330,1,8,0:0:0:0:
256,192,155447,1,0,0:0:0:0:
256,192,155564,1,8,0:0:0:0:
256,192,155681,1,8,0:0:0:0:
256,192,155798,1,0,0:0:0:0:
256,192,155916,1,0,0:0:0:0:
256,192,156033,1,8,0:0:0:0:
256,192,156150,1,8,0:0:0:0:
256,192,156384,1,8,0:0:0:0:
256,192,156736,1,0,0:0:0:0:
256,192,156853,1,8,0:0:0:0:
256,192,156912,1,8,0:0:0:0:
256,192,156970,1,0,0:0:0:0:
256,192,157205,1,0,0:0:0:0:
256,192,157439,1,12,0:0:0:0:
256,192,157615,1,0,0:0:0:0:
256,192,157791,1,8,0:0:0:0:
256,192,158025,1,8,0:0:0:0:
256,192,158142,1,0,0:0:0:0:
256,192,158259,1,8,0:0:0:0:
256,192,158377,1,0,0:0:0:0:
256,192,158494,1,0,0:0:0:0:
256,192,158611,1,8,0:0:0:0:
256,192,158845,1,12,0:0:0:0:
256,192,159080,1,0,0:0:0:0:
256,192,159197,1,0,0:0:0:0:
256,192,159314,1,8,0:0:0:0:
256,192,159548,1,0,0:0:0:0:
256,192,159783,1,8,0:0:0:0:
256,192,159900,1,0,0:0:0:0:
256,192,160017,1,8,0:0:0:0:
256,192,160134,1,8,0:0:0:0:
256,192,160252,1,0,0:0:0:0:
256,192,160486,1,8,0:0:0:0:
256,192,160603,1,8,0:0:0:0:
256,192,160720,1,0,0:0:0:0:
256,192,160837,1,8,0:0:0:0:
256,192,160955,1,0,0:0:0:0:
256,192,161072,1,0,0:0:0:0:
256,192,161130,1,0,0:0:0:0:
256,192,161189,1,8,0:0:0:0:
256,192,161306,1,0,0:0:0:0:
256,192,161423,1,12,0:0:0:0:
256,192,161658,1,4,0:0:0:0:
256,192,161892,1,0,0:0:0:0:
256,192,162009,1,0,0:0:0:0:
256,192,162127,1,8,0:0:0:0:
256,192,162361,1,0,0:0:0:0:
256,192,162478,1,8,0:0:0:0:
256,192,162537,1,8,0:0:0:0:
256,192,162595,1,0,0:0:0:0:
256,192,162712,1,0,0:0:0:0:
256,192,162830,1,8,0:0:0:0:
256,192,162947,1,8,0:0:0:0:
256,192,163064,1,0,0:0:0:0:
256,192,163298,1,8,0:0:0:0:
256,192,163416,1,0,0:0:0:0:
256,192,163533,1,8,0:0:0:0:
256,192,163591,1,8,0:0:0:0:
256,192,163650,1,8,0:0:0:0:
256,192,163767,1,0,0:0:0:0:
256,192,163884,1,0,0:0:0:0:
256,192,163943,1,0,0:0:0:0:
256,192,164002,1,8,0:0:0:0:
256,192,164119,1,0,0:0:0:0:
256,192,164236,1,8,0:0:0:0:
256,192,164470,1,4,0:0:0:0:
256,192,164822,1,0,0:0:0:0:
256,192,164939,1,8,0:0:0:0:
256,192,165173,1,0,0:0:0:0:
256,192,165291,1,8,0:0:0:0:
256,192,165349,1,0,0:0:0:0:
256,192,165408,1,8,0:0:0:0:
256,192,165525,1,0,0:0:0:0:
256,192,165642,1,8,0:0:0:0:
256,192,165877,1,4,0:0:0:0:
256,192,166228,1,0,0:0:0:0:
256,192,166345,1,8,0:0:0:0:
256,192,166580,1,0,0:0:0:0:
256,192,166697,1,0,0:0:0:0:
256,192,166814,1,8,0:0:0:0:
256,192,166931,1,0,0:0:0:0:
256,192,167048,1,8,0:0:0:0:
256,192,167166,1,8,0:0:0:0:
256,192,167283,1,4,0:0:0:0:
256,192,167634,1,0,0:0:0:0:
256,192,167752,1,8,0:0:0:0:
256,192,167986,1,0,0:0:0:0:
256,192,168220,1,8,0:0:0:0:
256,192,168337,1,0,0:0:0:0:
256,192,168455,1,8,0:0:0:0:
256,192,168689,1,4,0:0:0:0:
256,192,168923,1,0,0:0:0:0:
256,192,169041,1,0,0:0:0:0:
256,192,169158,1,8,0:0:0:0:
256,192,169392,1,8,0:0:0:0:
256,192,169509,1,8,0:0:0:0:
256,192,169627,1,0,0:0:0:0:
256,192,169744,1,8,0:0:0:0:
256,192,169861,1,8,0:0:0:0:
256,192,169978,1,8,0:0:0:0:
256,192,170095,1,0,0:0:0:0:
256,192,170564,1,8,0:0:0:0:
256,192,170798,1,0,0:0:0:0:
256,192,171267,1,8,0:0:0:0:
256,192,171502,1,0,0:0:0:0:
256,192,171970,1,8,0:0:0:0:
256,192,172205,1,0,0:0:0:0:
256,192,172439,1,8,0:0:0:0:
256,192,172908,1,0,0:0:0:0:
256,192,173845,1,0,0:0:0:0:
256,192,174080,1,0,0:0:0:0:
256,192,174314,1,8,0:0:0:0:
256,192,175720,1,0,0:0:0:0:
256,192,176658,1,0,0:0:0:0:
256,192,176892,1,8,0:0:0:0:
256,192,177127,1,0,0:0:0:0:
256,192,177830,1,12,0:0:0:0:
256,192,178533,5,4,0:0:0:0:
256,192,178884,1,8,0:0:0:0:
256,192,179236,1,8,0:0:0:0:
256,192,179353,1,8,0:0:0:0:
256,192,179470,1,0,0:0:0:0:
256,192,179587,1,0,0:0:0:0:
256,192,179705,1,8,0:0:0:0:
256,192,179939,1,0,0:0:0:0:
256,192,179998,1,0,0:0:0:0:
256,192,180056,1,8,0:0:0:0:
256,192,180173,1,0,0:0:0:0:
256,192,180291,1,0,0:0:0:0:
256,192,180408,1,8,0:0:0:0:
256,192,180525,1,8,0:0:0:0:
256,192,180642,1,0,0:0:0:0:
256,192,180701,1,8,0:0:0:0:
256,192,180935,1,0,0:0:0:0:
256,192,180994,1,8,0:0:0:0:
256,192,181111,1,0,0:0:0:0:
256,192,181169,1,8,0:0:0:0:
256,192,181345,1,4,0:0:0:0:
256,192,181697,1,8,0:0:0:0:
256,192,181755,1,8,0:0:0:0:
256,192,181873,1,0,0:0:0:0:
256,192,181931,1,0,0:0:0:0:
256,192,182048,1,8,0:0:0:0:
256,192,182166,1,0,0:0:0:0:
256,192,182283,1,8,0:0:0:0:
256,192,182400,1,0,0:0:0:0:
256,192,182517,1,8,0:0:0:0:
256,192,182752,1,0,0:0:0:0:
256,192,182869,1,8,0:0:0:0:
256,192,182986,1,0,0:0:0:0:
256,192,183103,1,8,0:0:0:0:
256,192,183220,1,0,0:0:0:0:
256,192,183455,1,12,0:0:0:0:
256,192,183689,1,0,0:0:0:0:
256,192,183923,1,8,0:0:0:0:
256,192,184158,1,0,0:0:0:0:
256,192,184216,1,0,0:0:0:0:
256,192,184275,1,8,0:0:0:0:
256,192,184334,1,8,0:0:0:0:
256,192,184392,1,0,0:0:0:0:
256,192,184509,1,8,0:0:0:0:
256,192,184627,1,0,0:0:0:0:
256,192,184744,1,0,0:0:0:0:
256,192,184861,1,12,0:0:0:0:
256,192,185095,1,0,0:0:0:0:
256,192,185212,1,8,0:0:0:0:
256,192,185330,1,0,0:0:0:0:
256,192,185447,1,8,0:0:0:0:
256,192,185564,1,0,0:0:0:0:
256,192,185623,1,0,0:0:0:0:
256,192,185681,1,8,0:0:0:0:
256,192,185740,1,0,0:0:0:0:
256,192,185798,1,8,0:0:0:0:
256,192,185916,1,0,0:0:0:0:
256,192,186033,1,0,0:0:0:0:
256,192,186150,1,0,0:0:0:0:
256,192,186267,1,12,0:0:0:0:
256,192,186502,1,0,0:0:0:0:
256,192,186619,1,0,0:0:0:0:
256,192,186736,1,8,0:0:0:0:
256,192,186853,1,8,0:0:0:0:
256,192,186970,1,0,0:0:0:0:
256,192,187029,1,8,0:0:0:0:
256,192,187087,1,0,0:0:0:0:
256,192,187146,1,0,0:0:0:0:
256,192,187205,1,8,0:0:0:0:
256,192,187322,1,0,0:0:0:0:
256,192,187439,1,8,0:0:0:0:
256,192,187556,1,0,0:0:0:0:
256,192,187673,1,12,0:0:0:0:
256,192,187908,1,0,0:0:0:0:
256,192,187966,1,8,0:0:0:0:
256,192,188025,1,8,0:0:0:0:
256,192,188142,1,0,0:0:0:0:
256,192,188259,1,8,0:0:0:0:
256,192,188377,1,0,0:0:0:0:
256,192,188435,1,0,0:0:0:0:
256,192,188494,1,0,0:0:0:0:
256,192,188552,1,0,0:0:0:0:
256,192,188611,1,8,0:0:0:0:
256,192,188728,1,8,0:0:0:0:
256,192,188845,1,0,0:0:0:0:
256,192,188962,1,0,0:0:0:0:
256,192,189080,1,12,0:0:0:0:
256,192,189314,1,8,0:0:0:0:
256,192,189373,1,8,0:0:0:0:
256,192,189431,1,8,0:0:0:0:
256,192,189548,1,0,0:0:0:0:
256,192,189666,1,8,0:0:0:0:
256,192,189783,1,0,0:0:0:0:
256,192,189841,1,0,0:0:0:0:
256,192,189900,1,8,0:0:0:0:
256,192,189959,1,8,0:0:0:0:
256,192,190017,1,0,0:0:0:0:
256,192,190134,1,8,0:0:0:0:
256,192,190252,1,8,0:0:0:0:
256,192,190369,1,0,0:0:0:0:
256,192,190486,1,12,0:0:0:0:
256,192,190720,1,0,0:0:0:0:
256,192,190837,1,0,0:0:0:0:
256,192,190955,1,8,0:0:0:0:
256,192,191072,1,8,0:0:0:0:
256,192,191189,1,0,0:0:0:0:
256,192,191248,1,8,0:0:0:0:
256,192,191306,1,0,0:0:0:0:
256,192,191365,1,0,0:0:0:0:
256,192,191423,1,8,0:0:0:0:
256,192,191541,1,8,0:0:0:0:
256,192,191658,1,0,0:0:0:0:
256,192,191775,1,0,0:0:0:0:
256,192,191892,1,12,0:0:0:0:
256,192,192127,1,0,0:0:0:0:
256,192,192244,1,8,0:0:0:0:
256,192,192361,1,8,0:0:0:0:
256,192,192478,1,8,0:0:0:0:
256,192,192595,1,0,0:0:0:0:
256,192,192654,1,0,0:0:0:0:
256,192,192712,1,0,0:0:0:0:
256,192,192771,1,0,0:0:0:0:
256,192,192830,1,8,0:0:0:0:
256,192,192947,1,0,0:0:0:0:
256,192,193064,1,8,0:0:0:0:
256,192,193181,1,0,0:0:0:0:
256,192,193298,1,12,0:0:0:0:
256,192,193533,1,8,0:0:0:0:
256,192,193650,1,8,0:0:0:0:
256,192,193767,1,0,0:0:0:0:
256,192,194002,1,0,0:0:0:0:
256,192,194060,1,0,0:0:0:0:
256,192,194119,1,8,0:0:0:0:
256,192,194177,1,8,0:0:0:0:
256,192,194236,1,0,0:0:0:0:
256,192,194353,1,8,0:0:0:0:
256,192,194587,1,0,0:0:0:0:
256,192,194705,1,12,0:0:0:0:
256,192,194939,1,8,0:0:0:0:
256,192,194998,1,8,0:0:0:0:
256,192,195056,1,0,0:0:0:0:
256,192,195173,1,8,0:0:0:0:
256,192,195291,1,8,0:0:0:0:
256,192,195408,1,0,0:0:0:0:
256,192,195466,1,0,0:0:0:0:
256,192,195525,1,8,0:0:0:0:
256,192,195584,1,8,0:0:0:0:
256,192,195642,1,0,0:0:0:0:
256,192,195759,1,8,0:0:0:0:
256,192,195877,1,8,0:0:0:0:
256,192,195994,1,0,0:0:0:0:
256,192,196111,1,12,0:0:0:0:
256,192,196345,1,0,0:0:0:0:
256,192,196462,1,8,0:0:0:0:
256,192,196580,1,0,0:0:0:0:
256,192,196697,1,8,0:0:0:0:
256,192,196814,1,0,0:0:0:0:
256,192,196873,1,0,0:0:0:0:
256,192,196931,1,8,0:0:0:0:
256,192,196990,1,0,0:0:0:0:
256,192,197048,1,8,0:0:0:0:
256,192,197166,1,8,0:0:0:0:
256,192,197283,1,8,0:0:0:0:
256,192,197400,1,0,0:0:0:0:
256,192,197517,1,12,0:0:0:0:
256,192,197752,1,0,0:0:0:0:
256,192,197869,1,0,0:0:0:0:
256,192,197986,1,8,0:0:0:0:
256,192,198103,1,0,0:0:0:0:
256,192,198220,1,0,0:0:0:0:
256,192,198279,1,8,0:0:0:0:
256,192,198337,1,8,0:0:0:0:
256,192,198396,1,0,0:0:0:0:
256,192,198455,1,8,0:0:0:0:
256,192,198572,1,0,0:0:0:0:
256,192,198689,1,8,0:0:0:0:
256,192,198806,1,0,0:0:0:0:
256,192,198923,1,12,0:0:0:0:
256,192,199158,1,0,0:0:0:0:
256,192,199216,1,8,0:0:0:0:
256,192,199275,1,8,0:0:0:0:
256,192,199392,1,0,0:0:0:0:
256,192,199509,1,8,0:0:0:0:
256,192,199627,1,0,0:0:0:0:
256,192,199685,1,0,0:0:0:0:
256,192,199744,1,0,0:0:0:0:
256,192,199802,1,0,0:0:0:0:
256,192,199861,1,8,0:0:0:0:
256,192,199978,1,8,0:0:0:0:
256,192,200095,1,0,0:0:0:0:
256,192,200212,1,0,0:0:0:0:
256,192,200330,1,12,0:0:0:0:
256,192,200564,1,8,0:0:0:0:
256,192,200623,1,8,0:0:0:0:
256,192,200681,1,8,0:0:0:0:
256,192,200798,1,0,0:0:0:0:
256,192,200916,1,8,0:0:0:0:
256,192,201033,1,0,0:0:0:0:
256,192,201091,1,0,0:0:0:0:
256,192,201150,1,8,0:0:0:0:
256,192,201209,1,8,0:0:0:0:
256,192,201267,1,0,0:0:0:0:
256,192,201384,1,0,0:0:0:0:
256,192,201502,1,8,0:0:0:0:
256,192,201619,1,0,0:0:0:0:
256,192,201736,1,12,0:0:0:0:
256,192,201970,1,0,0:0:0:0:
256,192,202087,1,0,0:0:0:0:
256,192,202205,1,8,0:0:0:0:
256,192,202322,1,8,0:0:0:0:
256,192,202439,1,0,0:0:0:0:
256,192,202498,1,8,0:0:0:0:
256,192,202556,1,8,0:0:0:0:
256,192,202615,1,0,0:0:0:0:
256,192,202673,1,0,0:0:0:0:
256,192,202791,1,8,0:0:0:0:
256,192,202908,1,0,0:0:0:0:
256,192,203025,1,0,0:0:0:0:
256,192,203142,1,12,0:0:0:0:
256,192,203377,1,0,0:0:0:0:
256,192,203494,1,0,0:0:0:0:
256,192,203611,1,8,0:0:0:0:
256,192,203728,1,8,0:0:0:0:
256,192,203845,1,0,0:0:0:0:
256,192,203904,1,0,0:0:0:0:
256,192,203962,1,0,0:0:0:0:
256,192,204021,1,0,0:0:0:0:
256,192,204080,1,8,0:0:0:0:
256,192,204197,1,0,0:0:0:0:
256,192,204314,1,8,0:0:0:0:
256,192,204431,1,0,0:0:0:0:
256,192,204548,1,12,0:0:0:0:
256,192,204783,1,8,0:0:0:0:
256,192,204900,1,8,0:0:0:0:
256,192,205017,1,0,0:0:0:0:
256,192,205252,1,0,0:0:0:0:
256,192,205310,1,0,0:0:0:0:
256,192,205369,1,8,0:0:0:0:
256,192,205427,1,8,0:0:0:0:
256,192,205486,1,0,0:0:0:0:
256,192,205603,1,8,0:0:0:0:
256,192,205837,1,0,0:0:0:0:
256,192,205955,1,12,0:0:0:0:
256,192,206345,1,8,0:0:0:0:
256,192,206423,1,0,0:0:0:0:
256,192,206502,1,8,0:0:0:0:
256,192,206580,1,0,0:0:0:0:
256,192,206658,1,8,0:0:0:0:
256,192,206892,1,0,0:0:0:0:
256,192,206970,1,8,0:0:0:0:
256,192,207361,1,12,0:0:0:0:
256,192,207595,1,0,0:0:0:0:
256,192,207830,1,8,0:0:0:0:
256,192,207947,1,8,0:0:0:0:
256,192,208064,1,0,0:0:0:0:
256,192,208123,1,0,0:0:0:0:
256,192,208181,1,8,0:0:0:0:
256,192,208240,1,8,0:0:0:0:
256,192,208298,1,0,0:0:0:0:
256,192,208416,1,8,0:0:0:0:
256,192,208533,1,0,0:0:0:0:
256,192,208650,1,0,0:0:0:0:
256,192,208767,1,12,0:0:0:0:
256,192,209002,1,0,0:0:0:0:
256,192,209119,1,8,0:0:0:0:
256,192,209177,1,8,0:0:0:0:
256,192,209236,1,0,0:0:0:0:
256,192,209353,1,8,0:0:0:0:
256,192,209470,1,0,0:0:0:0:
256,192,209529,1,0,0:0:0:0:
256,192,209587,1,8,0:0:0:0:
256,192,209646,1,0,0:0:0:0:
256,192,209705,1,8,0:0:0:0:
256,192,209822,1,0,0:0:0:0:
256,192,209939,1,0,0:0:0:0:
256,192,210056,1,0,0:0:0:0:
256,192,210173,1,12,0:0:0:0:
256,192,210408,1,0,0:0:0:0:
256,192,210525,1,0,0:0:0:0:
256,192,210584,1,0,0:0:0:0:
256,192,210642,1,8,0:0:0:0:
256,192,210759,1,0,0:0:0:0:
256,192,210877,1,0,0:0:0:0:
256,192,210935,1,8,0:0:0:0:
256,192,210994,1,0,0:0:0:0:
256,192,211052,1,0,0:0:0:0:
256,192,211111,1,8,0:0:0:0:
256,192,211228,1,8,0:0:0:0:
256,192,211345,1,8,0:0:0:0:
256,192,211462,1,0,0:0:0:0:
256,192,211580,1,12,0:0:0:0:
256,192,211814,1,0,0:0:0:0:
256,192,211873,1,8,0:0:0:0:
256,192,211931,1,8,0:0:0:0:
256,192,212048,1,0,0:0:0:0:
256,192,212166,1,8,0:0:0:0:
256,192,212283,1,0,0:0:0:0:
256,192,212341,1,0,0:0:0:0:
256,192,212400,1,0,0:0:0:0:
256,192,212459,1,0,0:0:0:0:
256,192,212517,1,8,0:0:0:0:
256,192,212634,1,8,0:0:0:0:
256,192,212752,1,0,0:0:0:0:
256,192,212869,1,0,0:0:0:0:
256,192,212986,1,12,0:0:0:0:
256,192,213220,1,8,0:0:0:0:
256,192,213279,1,8,0:0:0:0:
256,192,213337,1,8,0:0:0:0:
256,192,213455,1,0,0:0:0:0:
256,192,213572,1,8,0:0:0:0:
256,192,213689,1,0,0:0:0:0:
256,192,213748,1,0,0:0:0:0:
256,192,213806,1,8,0:0:0:0:
256,192,213865,1,8,0:0:0:0:
256,192,213923,1,0,0:0:0:0:
256,192,214041,1,0,0:0:0:0:
256,192,214158,1,8,0:0:0:0:
256,192,214275,1,0,0:0:0:0:
256,192,214392,1,12,0:0:0:0:
256,192,214627,1,0,0:0:0:0:
256,192,214744,1,0,0:0:0:0:
256,192,214802,1,0,0:0:0:0:
256,192,214861,1,8,0:0:0:0:
256,192,214978,1,8,0:0:0:0:
256,192,215095,1,0,0:0:0:0:
256,192,215154,1,8,0:0:0:0:
256,192,215212,1,8,0:0:0:0:
256,192,215271,1,0,0:0:0:0:
256,192,215330,1,8,0:0:0:0:
256,192,215447,1,8,0:0:0:0:
256,192,215564,1,0,0:0:0:0:
256,192,215681,1,0,0:0:0:0:
256,192,215798,1,12,0:0:0:0:
256,192,216033,1,0,0:0:0:0:
256,192,216150,1,8,0:0:0:0:
256,192,216209,1,8,0:0:0:0:
256,192,216267,1,0,0:0:0:0:
256,192,216384,1,8,0:0:0:0:
256,192,216502,1,0,0:0:0:0:
256,192,216560,1,0,0:0:0:0:
256,192,216619,1,0,0:0:0:0:
256,192,216677,1,0,0:0:0:0:
256,192,216736,1,8,0:0:0:0:
256,192,216853,1,0,0:0:0:0:
256,192,216970,1,8,0:0:0:0:
256,192,217087,1,0,0:0:0:0:
256,192,217205,1,12,0:0:0:0:
256,192,217439,1,8,0:0:0:0:
256,192,217556,1,8,0:0:0:0:
256,192,217673,1,0,0:0:0:0:
256,192,217908,1,0,0:0:0:0:
256,192,217966,1,0,0:0:0:0:
256,192,218025,1,8,0:0:0:0:
256,192,218084,1,8,0:0:0:0:
256,192,218142,1,0,0:0:0:0:
256,192,218259,1,8,0:0:0:0:
256,192,218494,1,0,0:0:0:0:
256,192,218611,1,12,0:0:0:0:
256,192,218845,1,8,0:0:0:0:
256,192,218904,1,8,0:0:0:0:
256,192,218962,1,0,0:0:0:0:
256,192,219080,1,8,0:0:0:0:
256,192,219197,1,8,0:0:0:0:
256,192,219314,1,0,0:0:0:0:
256,192,219373,1,0,0:0:0:0:
256,192,219431,1,8,0:0:0:0:
256,192,219490,1,8,0:0:0:0:
256,192,219548,1,0,0:0:0:0:
256,192,219666,1,0,0:0:0:0:
256,192,219783,1,8,0:0:0:0:
256,192,219900,1,0,0:0:0:0:
256,192,220017,1,12,0:0:0:0:
256,192,220252,1,0,0:0:0:0:
256,192,220369,1,8,0:0:0:0:
256,192,220427,1,0,0:0:0:0:
256,192,220486,1,0,0:0:0:0:
256,192,220603,1,8,0:0:0:0:
256,192,220720,1,0,0:0:0:0:
256,192,220779,1,0,0:0:0:0:
256,192,220837,1,8,0:0:0:0:
256,192,220896,1,0,0:0:0:0:
256,192,220955,1,8,0:0:0:0:
256,192,221072,1,8,0:0:0:0:
256,192,221189,1,0,0:0:0:0:
256,192,221306,1,0,0:0:0:0:
256,192,221423,1,12,0:0:0:0:
256,192,221658,1,0,0:0:0:0:
256,192,221775,1,0,0:0:0:0:
256,192,221834,1,0,0:0:0:0:
256,192,221892,1,8,0:0:0:0:
256,192,222009,1,8,0:0:0:0:
256,192,222127,1,0,0:0:0:0:
256,192,222185,1,8,0:0:0:0:
256,192,222244,1,0,0:0:0:0:
256,192,222302,1,0,0:0:0:0:
256,192,222361,1,8,0:0:0:0:
256,192,222478,1,8,0:0:0:0:
256,192,222595,1,8,0:0:0:0:
256,192,222712,1,0,0:0:0:0:
256,192,222830,1,12,0:0:0:0:
256,192,223064,1,0,0:0:0:0:
256,192,223123,1,8,0:0:0:0:
256,192,223181,1,8,0:0:0:0:
256,192,223298,1,0,0:0:0:0:
256,192,223416,1,8,0:0:0:0:
256,192,223533,1,0,0:0:0:0:
256,192,223591,1,0,0:0:0:0:
256,192,223650,1,0,0:0:0:0:
256,192,223709,1,0,0:0:0:0:
256,192,223767,1,8,0:0:0:0:
256,192,223884,1,8,0:0:0:0:
256,192,224002,1,0,0:0:0:0:
256,192,224119,1,0,0:0:0:0:
256,192,224236,1,12,0:0:0:0:
256,192,224470,1,8,0:0:0:0:
256,192,224529,1,8,0:0:0:0:
256,192,224587,1,8,0:0:0:0:
256,192,224705,1,0,0:0:0:0:
256,192,224822,1,8,0:0:0:0:
256,192,224939,1,0,0:0:0:0:
256,192,224998,1,0,0:0:0:0:
256,192,225056,1,8,0:0:0:0:
256,192,225115,1,8,0:0:0:0:
256,192,225173,1,0,0:0:0:0:
256,192,225291,1,0,0:0:0:0:
256,192,225408,1,8,0:0:0:0:
256,192,225525,1,0,0:0:0:0:
256,192,225642,1,12,0:0:0:0:
256,192,225877,1,0,0:0:0:0:
256,192,225994,1,0,0:0:0:0:
256,192,226052,1,0,0:0:0:0:
256,192,226111,1,8,0:0:0:0:
256,192,226228,1,8,0:0:0:0:
256,192,226345,1,0,0:0:0:0:
256,192,226404,1,8,0:0:0:0:
256,192,226462,1,8,0:0:0:0:
256,192,226521,1,0,0:0:0:0:
256,192,226580,1,8,0:0:0:0:
256,192,226697,1,0,0:0:0:0:
256,192,226814,1,0,0:0:0:0:
256,192,226931,1,0,0:0:0:0:
256,192,227048,1,12,0:0:0:0:
256,192,227283,1,0,0:0:0:0:
256,192,227400,1,8,0:0:0:0:
256,192,227459,1,0,0:0:0:0:
256,192,227517,1,8,0:0:0:0:
256,192,227634,1,8,0:0:0:0:
256,192,227752,1,0,0:0:0:0:
256,192,227810,1,0,0:0:0:0:
256,192,227869,1,0,0:0:0:0:
256,192,227927,1,0,0:0:0:0:
256,192,227986,1,8,0:0:0:0:
256,192,228103,1,0,0:0:0:0:
256,192,228220,1,8,0:0:0:0:
256,192,228337,1,0,0:0:0:0:
256,192,228455,1,12,0:0:0:0:
256,192,228689,1,8,0:0:0:0:
256,192,228806,1,8,0:0:0:0:
256,192,228923,1,0,0:0:0:0:
256,192,229158,1,0,0:0:0:0:
256,192,229216,1,0,0:0:0:0:
256,192,229275,1,8,0:0:0:0:
256,192,229334,1,8,0:0:0:0:
256,192,229392,1,0,0:0:0:0:
256,192,229509,1,8,0:0:0:0:
256,192,229744,1,0,0:0:0:0:
256,192,229861,1,12,0:0:0:0:
256,192,230095,1,8,0:0:0:0:
256,192,230154,1,8,0:0:0:0:
256,192,230212,1,0,0:0:0:0:
256,192,230330,1,8,0:0:0:0:
256,192,230447,1,8,0:0:0:0:
256,192,230564,1,0,0:0:0:0:
256,192,230681,12,0,231150,0:0:0:0:
256,192,231267,5,12,0:0:0:0:
256,192,231502,1,0,0:0:0:0:
256,192,231619,1,0,0:0:0:0:
256,192,231736,1,8,0:0:0:0:
256,192,231853,1,8,0:0:0:0:
256,192,231970,1,0,0:0:0:0:
256,192,232322,1,8,0:0:0:0:
256,192,232673,1,8,0:0:0:0:
256,192,232908,1,0,0:0:0:0:
256,192,233142,1,8,0:0:0:0:
256,192,233377,1,0,0:0:0:0:
256,192,233728,1,8,0:0:0:0:
256,192,234080,1,8,0:0:0:0:
256,192,234314,1,0,0:0:0:0:
256,192,234548,1,8,0:0:0:0:
256,192,234783,1,0,0:0:0:0:
256,192,234841,1,0,0:0:0:0:
256,192,234900,1,8,0:0:0:0:
256,192,234959,1,8,0:0:0:0:
256,192,235017,1,0,0:0:0:0:
256,192,235134,1,0,0:0:0:0:
256,192,235252,1,8,0:0:0:0:
256,192,235369,1,0,0:0:0:0:
256,192,235486,1,12,0:0:0:0:
256,192,235720,1,0,0:0:0:0:
256,192,235837,1,8,0:0:0:0:
256,192,235955,1,0,0:0:0:0:
256,192,236013,1,0,0:0:0:0:
256,192,236072,1,8,0:0:0:0:
256,192,236189,1,0,0:0:0:0:
256,192,236345,1,8,0:0:0:0:
256,192,236423,1,0,0:0:0:0:
256,192,236502,1,8,0:0:0:0:
256,192,236580,1,0,0:0:0:0:
256,192,236658,1,8,0:0:0:0:
256,192,236970,1,8,0:0:0:0:
256,192,237127,1,0,0:0:0:0:
256,192,237185,1,8,0:0:0:0:
256,192,237244,1,8,0:0:0:0:
256,192,237361,1,0,0:0:0:0:
256,192,237595,1,4,0:0:0:0:
256,192,237888,1,4,0:0:0:0:
256,192,238298,1,12,0:0:0:0:
256,192,238533,1,0,0:0:0:0:
256,192,238689,1,0,0:0:0:0:
256,192,238845,1,8,0:0:0:0:
256,192,238923,1,0,0:0:0:0:
256,192,239002,1,8,0:0:0:0:
256,192,239177,1,0,0:0:0:0:
256,192,239236,1,0,0:0:0:0:
256,192,239353,1,0,0:0:0:0:
256,192,239412,1,0,0:0:0:0:
256,192,239705,1,12,0:0:0:0:
256,192,240095,1,0,0:0:0:0:
256,192,240173,1,8,0:0:0:0:
256,192,240252,1,0,0:0:0:0:
256,192,240408,1,8,0:0:0:0:
256,192,240466,1,8,0:0:0:0:
256,192,240525,1,8,0:0:0:0:
256,192,240584,1,8,0:0:0:0:
256,192,240642,1,0,0:0:0:0:
256,192,240759,1,8,0:0:0:0:
256,192,240877,1,0,0:0:0:0:
256,192,241111,1,12,0:0:0:0:
256,192,241345,1,0,0:0:0:0:
256,192,241580,1,8,0:0:0:0:
256,192,241814,1,0,0:0:0:0:
256,192,241931,1,8,0:0:0:0:
256,192,242107,1,0,0:0:0:0:
256,192,242439,1,8,0:0:0:0:
256,192,242517,1,0,0:0:0:0:
256,192,242595,1,8,0:0:0:0:
256,192,242673,1,0,0:0:0:0:
256,192,242752,1,8,0:0:0:0:
256,192,242986,1,0,0:0:0:0:
256,192,243220,1,0,0:0:0:0:
256,192,243279,1,0,0:0:0:0:
256,192,243337,1,8,0:0:0:0:
256,192,243396,1,0,0:0:0:0:
256,192,243455,1,8,0:0:0:0:
256,192,243572,1,8,0:0:0:0:
256,192,243689,1,0,0:0:0:0:
256,192,243923,1,12,0:0:0:0:
256,192,244158,1,0,0:0:0:0:
256,192,244216,1,8,0:0:0:0:
256,192,244275,1,0,0:0:0:0:
256,192,244334,1,8,0:0:0:0:
256,192,244392,1,0,0:0:0:0:
256,192,244509,1,8,0:0:0:0:
256,192,245095,1,0,0:0:0:0:
256,192,245173,1,0,0:0:0:0:
256,192,245252,1,0,0:0:0:0:
256,192,245330,1,8,0:0:0:0:
256,192,245564,1,8,0:0:0:0:
256,192,245623,1,8,0:0:0:0:
256,192,245681,1,0,0:0:0:0:
256,192,245740,1,0,0:0:0:0:
256,192,245798,1,8,0:0:0:0:
256,192,246033,1,0,0:0:0:0:
256,192,246150,1,8,0:0:0:0:
256,192,246209,1,8,0:0:0:0:
256,192,246267,1,8,0:0:0:0:
256,192,246326,1,8,0:0:0:0:
256,192,246384,1,0,0:0:0:0:
256,192,246502,1,8,0:0:0:0:
256,192,246619,1,0,0:0:0:0:
256,192,246736,1,12,0:0:0:0:
256,192,246970,1,0,0:0:0:0:
256,192,247791,1,8,0:0:0:0:
256,192,247869,1,8,0:0:0:0:
256,192,247947,1,8,0:0:0:0:
256,192,248025,1,0,0:0:0:0:
256,192,248259,1,0,0:0:0:0:
256,192,248377,1,8,0:0:0:0:
256,192,248455,1,0,0:0:0:0:
256,192,248533,1,0,0:0:0:0:
256,192,248611,1,8,0:0:0:0:
256,192,248845,1,0,0:0:0:0:
256,192,249080,12,0,250252,0:0:0:0:
256,192,251658,5,0,0:0:0:0:
256,192,254470,1,0,0:0:0:0:
256,192,257283,1,0,0:0:0:0:
256,192,260095,1,0,0:0:0:0:
