osu file format v14

[General]
AudioFilename: audio.mp3
AudioLeadIn: 0
PreviewTime: 175055
Countdown: 0
SampleSet: Soft
StackLeniency: 0.4
Mode: 0
LetterboxInBreaks: 0
WidescreenStoryboard: 0

[Editor]
DistanceSpacing: 1.4
BeatDivisor: 4
GridSize: 32
TimelineZoom: 1.699998

[Metadata]
Title:Hikari yo
TitleUnicode:光よ
Artist:KikuoHana
ArtistUnicode:きくおはな
Creator:SMOKELIND
Version:EX
Source:
Tags:O Light Hanatan 花たん YURiCa ユリカ 第一幕 1 First Act Daiichi Maku Japanese JRock J-Rock Rock Hey lululu Nymphe Kiyoshi Guarden
BeatmapID:3119298
BeatmapSetID:1524556

[Difficulty]
HPDrainRate:5.7
CircleSize:4
OverallDifficulty:8.7
ApproachRate:9.5
SliderMultiplier:2.27
SliderTickRate:1

[Events]
//Background and Video events
0,0,"89023151_p0.jpg",0,0
Video,-710,"vid.mp4"
//Break Periods
2,251190,253278
//Storyboard Layer 0 (Background)
//Storyboard Layer 1 (Fail)
//Storyboard Layer 2 (Pass)
//Storyboard Layer 3 (Foreground)
//Storyboard Layer 4 (Overlay)
//Storyboard Sound Samples

[TimingPoints]
680,234.375,6,2,77,77,1,0
1383,-588.235294117647,6,2,77,77,0,0
1969,-588.235294117647,6,2,77,5,0,0
2086,-103.092783505155,6,2,77,77,0,0
2320,-103.092783505155,6,2,77,5,0,0
2437,-212.76595744681,6,2,77,77,0,0
2789,-103.092783505155,6,2,77,77,0,0
2964,-103.092783505155,6,2,77,5,0,0
3023,-103.092783505155,6,2,77,77,0,0
3140,-212.76595744681,6,2,77,77,0,0
3375,-212.76595744681,6,2,77,5,0,0
3492,-212.76595744681,6,2,77,77,0,0
3551,-103.092783505155,6,2,77,77,0,0
3668,-103.092783505155,6,2,77,5,0,0
3726,-103.092783505155,6,2,77,77,0,0
3902,-212.76595744681,6,2,77,77,0,0
4195,-103.092783505155,6,2,77,77,0,0
4430,-212.76595744681,6,2,77,77,0,0
4898,-103.092783505155,6,2,77,77,0,0
6070,-212.76595744681,6,2,77,77,0,0
6305,-103.092783505155,6,2,77,77,0,0
6656,-212.76595744681,6,2,77,77,0,0
6948,-212.76595744681,6,2,77,5,0,0
7008,-212.76595744681,6,2,77,77,0,0
7711,-103.092783505155,6,2,77,77,0,0
7886,-103.092783505155,6,2,77,5,0,0
7945,-212.76595744681,6,2,77,77,0,0
8414,-103.092783505155,6,2,77,77,0,0
8531,-103.092783505155,6,2,77,5,0,0
8648,-212.76595744681,6,2,77,77,0,0
9820,-103.092783505155,6,2,77,77,0,0
10289,-212.76595744681,6,2,77,77,0,0
10464,-212.76595744681,6,2,77,5,0,0
10523,-175.438596491229,6,2,77,77,0,0
14741,-175.438596491229,6,2,77,47,0,0
24820,-212.76595744681,6,2,77,47,0,0
25992,-588.235294117657,6,2,77,47,0,0
26695,-588.235294117657,6,2,77,77,0,0
27339,-588.235294117657,6,2,77,5,0,0
27398,-93.4579439252336,6,2,77,87,0,0
27573,-93.4579439252336,6,2,77,5,0,0
27633,-93.4579439252336,6,2,77,87,0,0
28042,-93.4579439252336,6,2,77,5,0,0
28101,-93.4579439252336,6,2,77,87,0,0
28453,-175.438596491228,6,2,77,87,0,0
28687,-175.438596491228,6,2,77,5,0,0
28805,-93.4579439252336,6,2,77,87,0,0
28922,-93.4579439252336,6,2,77,5,0,0
29039,-93.4579439252336,6,2,77,87,0,0
29976,-175.438596491228,6,2,77,87,0,0
30094,-175.438596491228,6,2,77,5,0,0
30211,-93.4579439252336,6,2,77,87,0,0
32437,-93.4579439252336,6,2,77,5,0,0
32555,-175.438596491228,6,2,77,87,0,0
33023,-93.4579439252336,6,2,77,87,0,0
33140,-93.4579439252336,6,2,77,5,0,0
33258,-93.4579439252336,6,2,77,87,0,0
33961,-175.438596491228,6,2,77,87,0,0
34312,-175.438596491228,6,2,77,5,0,0
34430,-175.438596491228,6,2,77,87,0,0
34547,-93.4579439252336,6,2,77,87,0,0
35367,-175.438596491228,6,2,77,87,0,0
35719,-175.438596491228,6,2,77,5,0,0
35836,-93.4579439252336,6,2,77,87,0,0
35953,-93.4579439252336,6,2,77,5,0,0
36070,-93.4579439252336,6,2,77,87,0,0
36773,-175.438596491228,6,2,77,87,0,0
36890,-175.438596491228,6,2,77,5,0,0
37008,-175.438596491228,6,2,77,87,0,0
37945,-93.4579439252336,6,2,77,87,0,0
39351,-175.438596491228,6,2,77,87,0,0
39469,-175.438596491228,6,2,77,5,0,0
39586,-129.87012987013,6,2,77,87,0,0
39703,-129.87012987013,6,2,77,5,0,0
39820,-129.87012987013,6,2,77,87,0,0
40055,-93.4579439252336,6,2,77,87,0,0
40582,-175.438596491228,6,2,77,87,0,0
40758,-93.4579439252336,6,2,77,87,0,0
41051,-175.438596491228,6,2,77,87,0,0
41461,-129.87012987013,6,2,77,87,0,0
41578,-129.87012987013,6,2,77,5,0,0
41695,-129.87012987013,6,2,77,87,0,0
42398,-175.438596491228,6,2,77,87,0,0
42750,-175.438596491228,6,2,77,5,0,0
42867,-93.4579439252336,6,2,77,87,0,0
43687,-93.4579439252336,6,2,77,5,0,0
43805,-175.438596491228,6,2,77,87,0,0
44273,-129.87012987013,6,2,77,87,0,0
44976,-93.4579439252336,6,2,77,87,0,0
45094,-93.4579439252336,6,2,77,5,0,0
45211,-175.438596491228,6,2,77,87,0,0
45328,-175.438596491228,6,2,77,5,0,0
45445,-175.438596491228,6,2,77,87,0,0
45797,-93.4579439252336,6,2,77,87,0,0
45914,-93.4579439252336,6,2,77,5,0,0
46031,-175.438596491228,6,2,77,87,0,0
46148,-175.438596491228,6,2,77,5,0,0
46265,-175.438596491228,6,2,77,87,0,0
46383,-93.4579439252336,6,2,77,87,0,0
46500,-93.4579439252336,6,2,77,5,0,0
46617,-175.438596491228,6,2,77,87,0,0
47086,-129.87012987013,6,2,77,87,0,0
48023,-175.438596491228,6,2,77,87,0,0
48375,-175.438596491228,6,2,77,5,0,0
48492,-175.438596491228,6,2,77,87,0,0
51305,-175.438596491228,6,2,77,47,0,0
54117,-212.76595744681,6,2,77,47,0,0
56695,-588.235294117657,6,2,77,47,0,0
56930,-588.235294117657,6,2,77,77,0,0
57047,-103.092783505155,6,2,77,77,0,0
57164,-103.092783505155,6,2,77,5,0,0
57281,-103.092783505155,6,2,77,77,0,0
58101,-103.092783505155,6,2,77,5,0,0
58219,-103.092783505155,6,2,77,77,0,0
58570,-103.092783505155,6,2,77,5,0,0
58687,-103.092783505155,6,2,77,77,0,0
60211,-103.092783505155,6,2,77,5,0,0
60328,-103.092783505155,6,2,77,77,0,0
61617,-175.438596491229,6,2,77,77,0,0
62555,-175.438596491229,6,2,77,57,0,0
63961,-175.438596491229,6,2,77,47,0,0
67711,-270.270270270272,6,2,77,47,0,0
70758,-370.370370370373,6,2,77,47,0,0
73805,-588.235294117657,6,2,77,47,0,0
83648,-588.235294117657,6,2,77,57,0,0
84586,-588.235294117657,6,2,77,67,0,0
85055,-114.942528735633,6,2,77,77,0,0
86578,-114.942528735633,6,2,77,5,0,0
86695,-114.942528735633,6,2,77,77,0,0
90680,-370.370370370379,6,2,77,77,0,0
90914,-370.370370370379,6,2,77,47,0,0
92789,-588.235294117657,6,2,77,77,0,0
93258,-588.235294117657,6,2,77,5,0,0
93492,-93.4579439252336,6,2,77,77,0,0
93844,-212.76595744681,6,2,77,77,0,0
94898,-93.4579439252336,6,2,77,77,0,0
95250,-129.87012987013,6,2,77,77,0,0
96305,-93.4579439252336,6,2,77,87,0,0
96422,-93.4579439252336,6,2,77,5,0,0
96539,-93.4579439252336,6,2,77,87,0,0
96890,-93.4579439252336,6,2,77,5,0,0
97008,-93.4579439252336,6,2,77,87,0,0
97359,-175.438596491228,6,2,77,87,0,0
97594,-175.438596491228,6,2,77,5,0,0
97711,-93.4579439252336,6,2,77,87,0,0
97828,-93.4579439252336,6,2,77,5,0,0
97945,-93.4579439252336,6,2,77,87,0,0
98883,-175.438596491228,6,2,77,87,0,0
99000,-175.438596491228,6,2,77,5,0,0
99117,-93.4579439252336,6,2,77,87,0,0
101344,-93.4579439252336,6,2,77,5,0,0
101461,-175.438596491228,6,2,77,87,0,0
101930,-93.4579439252336,6,2,77,87,0,0
102047,-93.4579439252336,6,2,77,5,0,0
102164,-93.4579439252336,6,2,77,87,0,0
102750,-93.4579439252336,6,2,77,5,0,0
102867,-175.438596491228,6,2,77,87,0,0
103219,-175.438596491228,6,2,77,5,0,0
103336,-175.438596491228,6,2,77,87,0,0
103453,-93.4579439252336,6,2,77,87,0,0
104273,-175.438596491228,6,2,77,87,0,0
104625,-175.438596491228,6,2,77,5,0,0
104742,-93.4579439252336,6,2,77,87,0,0
105680,-175.438596491228,6,2,77,87,0,0
105797,-175.438596491228,6,2,77,5,0,0
105914,-175.438596491228,6,2,77,87,0,0
106851,-93.4579439252336,6,2,77,87,0,0
107672,-93.4579439252336,6,2,77,5,0,0
107789,-93.4579439252336,6,2,77,87,0,0
108140,-93.4579439252336,6,2,77,5,0,0
108258,-93.4579439252336,6,2,77,87,0,0
108609,-175.438596491228,6,2,77,87,0,0
108844,-175.438596491228,6,2,77,5,0,0
108961,-93.4579439252336,6,2,77,87,0,0
109078,-93.4579439252336,6,2,77,5,0,0
109195,-93.4579439252336,6,2,77,87,0,0
110133,-175.438596491228,6,2,77,87,0,0
110250,-175.438596491228,6,2,77,5,0,0
110367,-93.4579439252336,6,2,77,87,0,0
111422,-93.4579439252336,6,2,77,5,0,0
111539,-93.4579439252336,6,2,77,87,0,0
112594,-93.4579439252336,6,2,77,5,0,0
112711,-175.438596491228,6,2,77,87,0,0
113180,-93.4579439252336,6,2,77,87,0,0
113297,-93.4579439252336,6,2,77,5,0,0
113414,-93.4579439252336,6,2,77,87,0,0
114000,-93.4579439252336,6,2,77,5,0,0
114117,-175.438596491228,6,2,77,87,0,0
114234,-175.438596491228,6,2,77,5,0,0
114351,-175.438596491228,6,2,77,87,0,0
114469,-175.438596491228,6,2,77,5,0,0
114586,-93.4579439252336,6,2,77,87,0,0
115523,-175.438596491228,6,2,77,87,0,0
115875,-175.438596491228,6,2,77,5,0,0
115992,-93.4579439252336,6,2,77,87,0,0
116109,-93.4579439252336,6,2,77,5,0,0
116226,-93.4579439252336,6,2,77,87,0,0
116930,-175.438596491228,6,2,77,87,0,0
117047,-175.438596491228,6,2,77,5,0,0
117164,-175.438596491228,6,2,77,87,0,0
118101,-93.4579439252336,6,2,77,87,0,0
118219,-93.4579439252336,6,2,77,5,0,0
118336,-93.4579439252336,6,2,77,87,0,0
119508,-175.438596491228,6,2,77,87,0,0
119625,-175.438596491228,6,2,77,5,0,0
119742,-129.87012987013,6,2,77,87,0,0
119859,-129.87012987013,6,2,77,5,0,0
119976,-129.87012987013,6,2,77,87,0,0
120211,-93.4579439252336,6,2,77,87,0,0
120738,-175.438596491228,6,2,77,87,0,0
120914,-93.4579439252336,6,2,77,87,0,0
121207,-175.438596491228,6,2,77,87,0,0
121617,-129.87012987013,6,2,77,87,0,0
122555,-175.438596491228,6,2,77,87,0,0
123023,-93.4579439252336,6,2,77,87,0,0
123433,-175.438596491228,6,2,77,87,0,0
123726,-93.4579439252336,6,2,77,87,0,0
124019,-175.438596491228,6,2,77,87,0,0
124430,-129.87012987013,6,2,77,87,0,0
125133,-93.4579439252336,6,2,77,87,0,0
125250,-93.4579439252336,6,2,77,5,0,0
125367,-175.438596491228,6,2,77,87,0,0
125484,-175.438596491228,6,2,77,5,0,0
125601,-175.438596491228,6,2,77,87,0,0
125836,-93.4579439252336,6,2,77,87,0,0
125953,-93.4579439252336,6,2,77,5,0,0
126070,-175.438596491228,6,2,77,87,0,0
126539,-93.4579439252336,6,2,77,87,0,0
126773,-175.438596491228,6,2,77,87,0,0
127242,-129.87012987013,6,2,77,87,0,0
127535,-175.438596491228,6,2,77,87,0,0
134273,-175.438596491228,6,2,77,47,0,0
135211,227.272727272727,6,2,77,47,1,0
135892,256.410256410256,6,2,77,47,1,0
136148,234.375,6,2,77,47,1,0
136148,-175.438596491228,6,2,77,47,0,0
136226,-175.438596491228,6,2,77,5,0,0
136304,-175.438596491228,6,2,77,47,0,0
136773,-175.438596491228,6,2,77,5,0,0
136851,-175.438596491228,6,2,77,47,0,0
137554,256.410256410256,6,2,77,47,1,0
137895,-100,6,2,77,5,0,0
137981,227.272727272727,6,2,77,47,1,0
138511,242.914979757085,6,2,77,47,1,0
139078,234.375,6,2,77,47,1,0
139078,-175.438596491228,6,2,77,47,0,0
139195,-175.438596491228,6,2,77,5,0,0
139234,-175.438596491228,6,2,77,47,0,0
139429,-175.438596491228,6,2,77,5,0,0
139468,-175.438596491228,6,2,77,47,0,0
139663,-175.438596491228,6,2,77,5,0,0
139703,-175.438596491228,6,2,77,47,0,0
139898,234.375,6,2,77,47,1,0
139898,-175.438596491228,6,2,77,47,0,0
140601,-175.438596491228,6,2,77,5,0,0
140718,-175.438596491228,6,2,77,47,0,0
141042,254.237288135593,6,2,77,47,1,0
141772,234.375,6,2,77,47,1,0
141772,-175.438596491228,6,2,77,47,0,0
142084,212.765957446809,6,2,77,47,1,0
142084,-175.438596491228,6,2,77,47,0,0
142464,230.769230769231,6,2,77,47,1,0
142464,-175.438596491228,6,2,77,47,0,0
142540,-175.438596491228,6,2,77,5,0,0
142617,-175.438596491228,6,2,77,47,0,0
142771,200,6,2,77,47,1,0
143071,234.375,6,2,77,47,1,0
143071,-175.438596491228,6,2,77,47,0,0
144036,280.373831775701,6,2,77,47,1,0
144131,234.375,6,2,77,47,1,0
144209,-175.438596491228,6,2,77,47,0,0
144599,230.769230769231,6,2,77,47,1,0
144637,-175.438596491228,6,2,77,47,0,0
145291,231.660231660232,6,2,77,47,1,0
145291,-175.438596491228,6,2,77,47,0,0
145522,234.375,6,2,77,57,1,0
145522,-129.87012987013,6,2,77,57,0,0
145639,-129.87012987013,6,2,77,5,0,0
145678,-129.87012987013,6,2,77,57,0,0
145873,-129.87012987013,6,2,77,5,0,0
145912,-129.87012987013,6,2,77,57,0,0
146342,-129.87012987013,6,2,77,5,0,0
146381,-129.87012987013,6,2,77,57,0,0
146576,-129.87012987013,6,2,77,5,0,0
146615,-129.87012987013,6,2,77,57,0,0
147045,-129.87012987013,6,2,77,5,0,0
147084,-129.87012987013,6,2,77,57,0,0
152084,-129.87012987013,6,2,77,5,0,0
152201,-129.87012987013,6,2,77,57,0,0
152435,-129.87012987013,6,2,77,5,0,0
152553,-129.87012987013,6,2,77,57,0,0
153021,-129.87012987013,6,2,77,5,0,0
153139,-129.87012987013,6,2,77,57,0,0
156772,-588.23529411765,6,2,77,57,0,0
157240,-588.23529411765,6,2,77,5,0,0
157357,-588.23529411765,6,2,77,57,0,0
158178,-114.942528735633,6,2,77,77,0,0
159701,-114.942528735633,6,2,77,5,0,0
159818,-114.942528735633,6,2,77,77,0,0
164388,-114.942528735633,6,2,77,5,0,0
164506,-114.942528735633,6,2,77,77,0,0
165795,-114.942528735633,6,2,77,5,0,0
165912,-114.942528735633,6,2,77,77,0,0
166498,-114.942528735633,6,2,77,5,0,0
166615,-175.438596491228,6,2,77,77,0,0
166967,-175.438596491228,6,2,77,5,0,0
167084,-175.438596491228,6,2,77,77,0,0
170365,-270.270270270271,6,2,77,47,0,0
171537,-370.370370370372,6,2,77,47,0,0
173178,-588.23529411765,6,2,77,47,0,0
175053,-588.235294117647,6,2,77,27,0,0
177162,-588.235294117657,6,2,77,77,0,0
177865,-93.4579439252336,6,2,77,77,0,0
178217,-212.76595744681,6,2,77,77,0,0
178334,-212.76595744681,6,2,77,5,0,0
178568,-212.76595744681,6,2,77,77,0,0
179272,-93.4579439252336,6,2,77,77,0,0
179623,-129.87012987013,6,2,77,77,0,0
180678,-93.4579439252336,6,2,77,77,0,0
181381,-212.765957446809,6,2,77,77,0,0
182084,-93.4579439252336,6,2,77,77,0,0
183490,-93.4579439252336,6,2,77,87,0,0
183607,-93.4579439252336,6,2,77,5,0,0
183725,-93.4579439252336,6,2,77,87,0,0
184545,-212.765957446809,6,2,77,87,0,0
184662,-212.765957446809,6,2,77,5,0,0
184897,-93.4579439252336,6,2,77,87,0,0
185013,-93.4579439252336,6,2,77,5,0,0
185131,-93.4579439252336,6,2,77,87,0,0
186068,-212.765957446809,6,2,77,87,0,0
186185,-212.765957446809,6,2,77,5,0,0
186303,-93.4579439252336,6,2,77,87,0,0
186420,-93.4579439252336,6,2,77,5,0,0
186537,-93.4579439252336,6,2,77,87,0,0
187123,-93.4579439252336,6,2,77,5,0,0
187240,-93.4579439252336,6,2,77,87,0,0
187826,-93.4579439252336,6,2,77,5,0,0
187943,-93.4579439252336,6,2,77,87,0,0
188529,-93.4579439252336,6,2,77,5,0,0
188647,-212.765957446809,6,2,77,87,0,0
189115,-93.4579439252336,6,2,77,87,0,0
189232,-93.4579439252336,6,2,77,5,0,0
189350,-93.4579439252336,6,2,77,87,0,0
189935,-93.4579439252336,6,2,77,5,0,0
190053,-212.765957446809,6,2,77,87,0,0
190170,-212.765957446809,6,2,77,5,0,0
190287,-212.765957446809,6,2,77,87,0,0
190404,-212.765957446809,6,2,77,5,0,0
190522,-93.4579439252336,6,2,77,87,0,0
191459,-212.765957446809,6,2,77,87,0,0
191928,-93.4579439252336,6,2,77,87,0,0
192045,-93.4579439252336,6,2,77,5,0,0
192162,-93.4579439252336,6,2,77,87,0,0
194857,-93.4579439252336,6,2,77,5,0,0
194975,-93.4579439252336,6,2,77,87,0,0
195326,-93.4579439252336,6,2,77,5,0,0
195443,-93.4579439252336,6,2,77,87,0,0
195678,-212.765957446809,6,2,77,87,0,0
196029,-212.765957446809,6,2,77,5,0,0
196147,-93.4579439252336,6,2,77,87,0,0
197084,-212.765957446809,6,2,77,87,0,0
197318,-212.765957446809,6,2,77,5,0,0
197553,-93.4579439252336,6,2,77,87,0,0
198607,-93.4579439252336,6,2,77,5,0,0
198725,-93.4579439252336,6,2,77,87,0,0
199897,-212.765957446809,6,2,77,87,0,0
200365,-93.4579439252336,6,2,77,87,0,0
201303,-212.765957446809,6,2,77,87,0,0
201537,-212.765957446809,6,2,77,5,0,0
201772,-93.4579439252336,6,2,77,87,0,0
202592,-93.4579439252336,6,2,77,5,0,0
202709,-212.765957446809,6,2,77,87,0,0
203178,-93.4579439252336,6,2,77,87,0,0
203295,-93.4579439252336,6,2,77,5,0,0
203412,-93.4579439252336,6,2,77,87,0,0
204115,-175.438596491228,6,2,77,87,0,0
205365,-93.4579439252336,6,2,77,87,0,0
206693,-212.765957446809,6,2,77,87,0,0
206810,-212.765957446809,6,2,77,5,0,0
206928,-212.765957446809,6,2,77,87,0,0
207397,-93.4579439252336,6,2,77,87,0,0
207513,-93.4579439252336,6,2,77,5,0,0
207631,-93.4579439252336,6,2,77,87,0,0
208334,-212.765957446809,6,2,77,87,0,0
208803,-93.4579439252336,6,2,77,87,0,0
208970,-93.4579439252336,6,2,77,5,0,0
209037,-93.4579439252336,6,2,77,87,0,0
209623,-93.4579439252336,6,2,77,5,0,0
209740,-212.765957446809,6,2,77,87,0,0
210048,-212.765957446809,6,2,77,5,0,0
210209,-93.4579439252336,6,2,77,87,0,0
211263,-93.4579439252336,6,2,77,5,0,0
211381,-212.765957446809,6,2,77,87,0,0
211498,-212.765957446809,6,2,77,5,0,0
211615,-93.4579439252336,6,2,77,87,0,0
212452,-93.4579439252336,6,2,77,5,0,0
212553,-212.765957446809,6,2,77,87,0,0
213022,-93.4579439252336,6,2,77,87,0,0
213138,-93.4579439252336,6,2,77,5,0,0
213256,-93.4579439252336,6,2,77,87,0,0
213607,-93.4579439252336,6,2,77,5,0,0
213725,-93.4579439252336,6,2,77,87,0,0
213842,-93.4579439252336,6,2,77,5,0,0
213959,-212.765957446809,6,2,77,87,0,0
214076,-212.765957446809,6,2,77,5,0,0
214193,-212.765957446809,6,2,77,87,0,0
214310,-212.765957446809,6,2,77,5,0,0
214428,-212.765957446809,6,2,77,87,0,0
214662,-93.4579439252336,6,2,77,87,0,0
214779,-93.4579439252336,6,2,77,5,0,0
214897,-93.4579439252336,6,2,77,87,0,0
215013,-93.4579439252336,6,2,77,5,0,0
215131,-93.4579439252336,6,2,77,87,0,0
215248,-93.4579439252336,6,2,77,5,0,0
215365,-212.765957446809,6,2,77,87,0,0
215834,-93.4579439252336,6,2,77,87,0,0
215951,-93.4579439252336,6,2,77,5,0,0
216068,-93.4579439252336,6,2,77,87,0,0
218178,-212.765957446809,6,2,77,87,0,0
218647,-93.4579439252336,6,2,77,87,0,0
219232,-93.4579439252336,6,2,77,5,0,0
219350,-93.4579439252336,6,2,77,87,0,0
219584,-212.765957446809,6,2,77,87,0,0
219818,-212.765957446809,6,2,77,5,0,0
220053,-78.7401574803149,6,2,77,87,0,0
220170,-78.7401574803149,6,2,77,5,0,0
220287,-78.7401574803149,6,2,77,87,0,0
220404,-78.7401574803149,6,2,77,5,0,0
220522,-78.7401574803149,6,2,77,87,0,0
220638,-78.7401574803149,6,2,77,5,0,0
220756,-78.7401574803149,6,2,77,87,0,0
220990,-212.765957446809,6,2,77,87,0,0
221107,-212.765957446809,6,2,77,5,0,0
221225,-212.765957446809,6,2,77,87,0,0
221342,-212.765957446809,6,2,77,5,0,0
221459,-93.4579439252336,6,2,77,87,0,0
222513,-93.4579439252336,6,2,77,5,0,0
222631,-93.4579439252336,6,2,77,87,0,0
222748,-93.4579439252336,6,2,77,5,0,0
222865,-93.4579439252336,6,2,77,87,0,0
223685,-93.4579439252336,6,2,77,5,0,0
223803,-212.765957446809,6,2,77,87,0,0
224272,-93.4579439252336,6,2,77,87,0,0
224388,-93.4579439252336,6,2,77,5,0,0
224506,-93.4579439252336,6,2,77,87,0,0
225092,-93.4579439252336,6,2,77,5,0,0
225209,-212.765957446809,6,2,77,87,0,0
225326,-212.765957446809,6,2,77,5,0,0
225443,-212.765957446809,6,2,77,87,0,0
225560,-212.765957446809,6,2,77,5,0,0
225678,-93.4579439252336,6,2,77,87,0,0
226615,-212.765957446809,6,2,77,87,0,0
226849,-212.765957446809,6,2,77,5,0,0
227084,-93.4579439252336,6,2,77,87,0,0
227201,-93.4579439252336,6,2,77,5,0,0
227318,-93.4579439252336,6,2,77,87,0,0
228022,-212.765957446809,6,2,77,87,0,0
228256,-212.765957446809,6,2,77,5,0,0
228490,-103.092783505155,6,2,77,77,0,0
229897,-129.87012987013,6,2,77,87,0,0
231303,-175.438596491228,6,2,77,87,0,0
232240,-212.765957446809,6,2,77,87,0,0
234115,-93.4579439252336,6,2,77,87,0,0
234643,-175.438596491228,6,2,77,87,0,0
234818,-93.4579439252336,6,2,77,87,0,0
234935,-93.4579439252336,6,2,77,5,0,0
235111,-175.438596491228,6,2,77,87,0,0
235522,-129.87012987013,6,2,77,87,0,0
236459,-175.438596491228,6,2,77,87,0,0
236928,-93.4579439252336,6,2,77,87,0,0
237865,-175.438596491228,6,2,77,87,0,0
238334,-129.87012987013,6,2,77,87,0,0
239037,-93.4579439252336,6,2,77,87,0,0
239272,-175.438596491228,6,2,77,87,0,0
239857,-93.4579439252336,6,2,77,87,0,0
240092,-175.438596491228,6,2,77,87,0,0
240443,-93.4579439252336,6,2,77,87,0,0
240678,-175.438596491228,6,2,77,87,0,0
241147,-129.87012987013,6,2,77,87,0,0
242084,-175.438596491228,6,2,77,87,0,0
248412,-1000,6,2,77,27,0,0
253803,-588.235294117647,6,2,77,27,0,0
256381,-588.235294117647,6,2,77,5,0,0
256615,-588.235294117647,6,2,77,27,0,0
259193,-588.235294117647,6,2,77,5,0,0
259428,-588.235294117647,6,2,77,27,0,0
259545,-588.235294117647,6,2,77,5,0,0

[Colours]
Combo1 : 255,121,138
Combo2 : 234,234,234

[HitObjects]
335,81,1383,6,0,B|392:89|392:89|390:84|390:84|344:76,1,106.1225,8|0,2:1|2:0,2:0:0:0:
259,93,2086,6,0,B|252:55|280:26|280:26|216:47|248:146|114:109,1,275.237499999999,6|0,1:0|2:0,2:0:0:0:
71,55,2437,2,0,P|94:31|168:43,1,106.689999999999,0|0,2:0|2:0,2:0:0:0:
386,266,2789,6,0,P|334:211|401:133,1,165.142499999999,8|0,2:1|2:0,2:0:0:0:
447,134,3023,1,0,2:0:0:0:
330,357,3140,2,0,P|260:345|185:330,1,133.362499999999,0|0,2:0|2:0,2:0:0:0:
115,360,3492,5,0,1:0:0:0:
125,364,3551,2,0,P|160:326|127:267,1,110.095,0|0,2:0|2:0,2:0:0:0:
73,140,3726,1,0,2:0:0:0:
84,141,3785,1,0,2:0:0:0:
95,143,3844,1,0,2:0:0:0:
106,145,3902,2,0,L|35:155,1,53.3449999999996,0|0,2:0|2:0,2:0:0:0:
21,222,4078,1,0,2:0:0:0:
302,115,4195,6,0,B|327:72|286:25|286:25|305:71|280:113,1,165.142499999999,10|0,2:1|2:0,2:0:0:0:
229,140,4430,2,0,P|205:128|171:124,2,53.3449999999996,8|8|8,2:3|2:3|2:3,2:0:0:0:
229,140,4781,1,0,2:0:0:0:
430,304,4898,6,0,B|488:296|477:209|386:191|339:285,1,220.189999999999,4|0,1:0|2:0,2:0:0:0:
192,302,5250,5,0,1:0:0:0:
141,184,5367,1,0,1:0:0:0:
214,225,5484,5,8,2:3:0:0:
14,342,5601,1,8,2:1:0:0:
77,300,5719,5,0,3:0:0:0:
78,289,5777,1,0,3:0:0:0:
80,278,5836,1,0,3:0:0:0:
16,177,5953,1,0,3:0:0:0:
169,25,6070,2,0,P|174:66|182:109,1,80.0174999999994,0|0,3:0|2:0,2:0:0:0:
269,155,6305,6,0,P|258:100|252:46,1,110.095,2|0,1:0|2:0,2:0:0:0:
252,46,6480,1,0,2:0:0:0:
252,46,6539,1,0,2:0:0:0:
149,252,6656,2,0,P|218:267|292:291,1,133.362499999999,0|0,2:0|2:0,2:0:0:0:
331,342,7008,6,0,P|358:326|372:307,1,53.3449999999996,8|0,2:1|2:0,2:0:0:0:
433,264,7183,1,0,2:0:0:0:
439,257,7242,2,0,P|429:227|414:209,1,53.3449999999996,0|0,2:0|2:0,2:0:0:0:
260,39,7476,6,0,P|289:43|332:54,1,53.3449999999996,8|0,2:1|2:0,2:0:0:0:
400,61,7652,5,0,2:0:0:0:
393,51,7711,2,0,B|300:20|331:143|239:112,1,165.142499999999,6|0,1:0|2:0,2:0:0:0:
191,74,7945,6,0,P|182:45|186:14,2,53.3449999999996,0|0|0,2:0|2:0|1:0,2:0:0:0:
191,74,8297,1,0,2:0:0:0:
28,247,8414,2,0,B|65:229|72:175|72:175|90:212|130:221,1,165.142499999999,10|0,2:1|2:0,2:0:0:0:
145,145,8648,6,0,B|235:156|235:156|238:163|238:163|172:155,1,160.034999999999,0|0,1:0|2:0,2:0:0:0:
266,364,9117,2,0,P|295:269|400:280,1,213.379999999998,2|0,1:0|1:0,2:0:0:0:
395,275,9703,5,0,2:0:0:0:
456,154,9820,2,0,B|482:93|435:76|435:76|384:201|558:170|506:295,1,330.284999999999,10|0,2:1|2:0,2:0:0:0:
224,15,10289,6,0,L|144:-1,1,80.0174999999994,8|0,2:1|2:0,2:0:0:0:
83,47,10523,6,0,B|147:175|20:237|19:303|19:303|-13:271|-13:271|51:207|153:222|153:222|271:236|268:343|268:343|154:358|153:222|153:222|188:76|333:15|333:15|331:19|331:19|335:21|335:21|332:25|332:25|336:27|336:27|336:44|336:44|340:47|340:47|343:69|343:69|340:75|340:75|344:99|344:99|349:103|349:103|353:126|353:126|351:132|351:132|357:162|357:162|361:166|361:166|309:284|399:380|399:380|580:262|455:11|455:11|470:107|470:107|466:111|466:111|467:119|467:119|463:123|463:123|467:131|467:131|459:131|459:131|463:139|463:139|455:143|455:143|459:147|459:147|455:155|455:155|459:159|459:159|451:163|451:163|447:179|443:179|443:179|447:171|447:171|443:175|443:175|447:171|443:171|443:171|447:167|447:167|443:167|443:167|447:163|443:163|443:163|447:155|447:155|443:159|443:159|447:151|447:151|443:155|443:155|443:147|443:147|439:151|439:151|443:143|443:143|439:147|439:147|439:139|439:139|435:143|435:143|435:135|435:135|431:139|431:139|434:130|434:130|427:132|427:132|432:124|432:124|426:122|426:122|430:117|430:117|426:109,1,2329.01999999999,2|0,1:0|2:0,2:0:0:0:
459,49,15680,5,2,2:0:0:0:
459,49,15914,1,2,2:0:0:0:
459,49,16148,5,2,2:0:0:0:
423,120,16383,1,2,2:0:0:0:
464,188,16617,1,2,2:0:0:0:
430,328,17555,5,2,2:0:0:0:
354,353,17789,1,2,2:0:0:0:
278,326,18023,1,2,2:0:0:0:
86,74,18961,5,2,2:0:0:0:
86,74,19898,5,2,2:0:0:0:
154,115,20133,1,2,2:0:0:0:
92,165,20367,1,2,2:0:0:0:
92,165,21773,5,2,2:0:0:0:
79,244,22008,1,2,2:0:0:0:
66,322,22242,1,2,2:0:0:0:
302,179,22945,5,2,2:0:0:0:
302,179,23180,5,2,2:0:0:0:
287,100,23414,1,2,2:0:0:0:
210,76,23648,1,2,2:0:0:0:
379,257,24586,5,2,2:0:0:0:
379,257,24820,6,0,P|406:249|434:243,1,53.3449999999996,2|0,2:0|2:0,2:0:0:0:
269,173,25055,2,0,P|248:153|229:132,1,53.3449999999996,2|0,2:0|2:0,2:0:0:0:
261,311,25289,2,0,P|254:338|245:365,1,53.3449999999996,2|0,2:0|2:0,2:0:0:0:
384,257,25523,6,0,P|413:249|443:242,1,53.3449999999996,2|0,2:0|2:0,2:0:0:0:
266,167,25758,2,0,P|244:146|223:123,1,53.3449999999996,2|0,2:0|2:0,2:0:0:0:
257,315,25992,2,0,P|250:345|241:374,1,57.884999999999,2|0,2:0|2:0,2:0:0:0:
203,33,26578,5,0,2:0:0:0:
201,26,26637,1,0,2:0:0:0:
198,17,26695,2,0,P|147:10|99:37,1,106.122499999998,8|0,2:1|2:0,2:0:0:0:
27,63,27398,6,0,B|5:17|73:-11|128:43|81:120,1,182.1675,6|0,1:0|2:0,2:0:0:0:
96,203,27633,2,0,B|61:210|39:173|39:173|65:195|99:188,1,121.445,2|0,2:0|2:0,2:0:0:0:
362,41,27867,6,0,B|309:57|297:123|297:123|285:86|248:74,1,182.1675,2|0,1:0|2:0,2:0:0:0:
191,148,28101,2,0,B|160:129|170:86|170:86|174:121|203:139,1,121.445,8|0,2:1|2:0,2:0:0:0:
191,129,28336,1,4,2:3:0:0:
502,264,28453,6,0,B|453:239|411:260|411:260|413:253|413:253|442:237|448:203,1,161.7375,0|0,2:0|2:0,2:0:0:0:
375,188,28805,6,0,B|350:164|303:164|280:210|280:210|256:256|209:256|186:233,1,182.1675,2|0,1:0|2:0,2:0:0:0:
125,193,29039,2,0,B|194:176|194:176|198:180|198:180|173:187|154:227,1,121.445,2|0,2:0|2:0,2:0:0:0:
220,102,29273,5,2,1:0:0:0:
156,291,29390,1,0,2:0:0:0:
220,102,29508,6,0,B|264:75|307:97|307:97|311:93|311:93|282:76,1,121.445,8|0,2:1|2:0,2:0:0:0:
290,80,29742,1,4,2:3:0:0:
67,12,29859,5,0,2:0:0:0:
68,18,29918,1,0,2:0:0:0:
69,24,29976,2,0,P|65:72|54:130,1,97.0425,0|0,2:0|2:0,2:0:0:0:
0,171,30211,6,0,P|74:144|368:108,1,364.335,6|0,1:0|2:0,2:0:0:0:
354,108,30621,1,0,2:0:0:0:
354,108,30680,1,0,1:0:0:0:
406,182,30797,1,0,2:0:0:0:
345,357,30914,1,8,2:1:0:0:
345,357,31148,6,0,P|388:312|364:256,1,121.445,6|0,2:3|2:0,2:0:0:0:
163,160,31383,2,0,P|189:216|250:213,1,121.445,10|0,2:3|2:0,2:0:0:0:
405,23,31617,5,8,2:1:0:0:
403,35,31676,1,8,2:1:0:0:
402,47,31734,1,8,2:1:0:0:
401,59,31793,1,8,2:1:0:0:
400,71,31851,1,8,2:1:0:0:
506,236,31969,5,0,3:0:0:0:
432,197,32086,1,0,3:0:0:0:
512,235,32203,1,0,3:0:0:0:
265,356,32320,6,0,B|214:346|201:279|201:279|209:323|172:347,1,182.1675,8|0,2:1|2:0,2:0:0:0:
94,317,32555,6,0,P|80:280|92:244,1,64.695,4|0,1:3|3:0,1:0:0:0:
151,210,32730,1,0,3:0:0:0:
159,207,32789,2,0,P|173:170|161:134,1,64.695,0|0,3:0|3:0,2:0:0:0:
121,86,32965,5,0,3:0:0:0:
115,78,33023,2,0,B|102:27|25:46|19:128|108:160,1,182.1675,6|0,1:0|2:0,2:0:0:0:
168,146,33258,2,0,P|231:135|299:127,1,121.445,2|0,2:0|2:0,2:0:0:0:
470,238,33492,5,2,1:0:0:0:
404,179,33609,1,0,2:0:0:0:
404,179,33668,1,0,2:0:0:0:
404,179,33726,2,0,B|425:150|466:163|466:163|432:164|411:192,1,121.445,10|0,2:1|2:0,2:0:0:0:
241,333,33961,6,0,B|117:317|117:317|110:308|110:308|200:319,1,226.4325,4|0,2:3|2:0,2:0:0:0:
244,253,34430,5,6,1:0:0:0:
29,96,34547,2,0,B|93:73|173:128|173:128|150:131|133:144|133:144|130:120|109:104,1,242.89,2|0,2:0|2:0,2:0:0:0:
62,169,34840,5,0,2:0:0:0:
62,169,34898,1,2,1:0:0:0:
120,224,35015,1,0,3:0:0:0:
287,36,35133,1,8,2:1:0:0:
287,36,35367,6,0,B|248:151|402:112|363:228,1,226.4325,4|0,2:3|2:0,2:0:0:0:
288,239,35836,6,0,B|274:134|366:186|352:81,1,182.1675,0|0,1:0|2:0,2:0:0:0:
287,36,36070,2,0,P|228:46|164:63,1,121.445,2|0,2:0|2:0,2:0:0:0:
340,309,36305,2,0,P|398:293|458:283,1,121.445,10|0,2:1|2:0,2:0:0:0:
296,379,36539,1,10,2:1:0:0:
233,332,36656,5,0,2:0:0:0:
233,325,36715,1,0,2:0:0:0:
232,318,36773,2,0,P|192:295|141:314,1,97.0425,4|0,2:3|2:0,2:0:0:0:
94,360,37008,2,0,P|128:344|140:308,1,64.695,6|0,2:3|2:0,2:0:0:0:
14,65,37242,5,10,2:1:0:0:
15,78,37301,1,8,2:1:0:0:
17,90,37359,1,8,2:1:0:0:
18,102,37418,1,8,2:1:0:0:
20,114,37476,1,8,2:1:0:0:
192,154,37594,5,0,1:0:0:0:
119,175,37711,1,0,1:0:0:0:
200,1,37828,5,8,2:3:0:0:
429,152,37945,6,0,B|466:160|492:118|492:118|462:143|424:135,1,121.445,8|0,2:1|2:0,2:0:0:0:
320,264,38180,2,0,B|293:292|317:335|317:335|310:297|336:268,1,121.445,4|0,2:3|2:0,2:0:0:0:
284,116,38414,2,0,B|272:78|223:78|223:78|259:90|271:128,1,121.445,4|0,2:3|2:0,2:0:0:0:
340,182,38648,5,0,3:0:0:0:
36,362,39234,5,0,3:0:0:0:
34,349,39293,1,0,3:0:0:0:
32,339,39351,2,0,L|48:214,1,97.0425,8|0,2:1|2:0,2:0:0:0:
63,167,39586,6,0,P|116:131|173:169,1,131.0925,2|0,2:0|2:0,2:0:0:0:
240,196,39820,2,0,P|224:247|179:267,1,87.3949999999999,2|0,2:0|2:0,2:0:0:0:
265,68,40055,6,0,P|380:90|513:111,1,242.89,6|0,1:0|2:0,2:0:0:0:
505,110,40406,1,0,3:0:0:0:
329,197,40523,1,0,3:0:0:0:
322,199,40582,2,0,P|308:237|327:274,1,64.695,0|0,3:0|2:0,2:0:0:0:
336,357,40758,6,0,B|399:364|411:269|319:226|244:313,1,242.89,8|0,2:1|2:0,2:0:0:0:
188,361,41051,2,0,L|152:352,2,32.3475,0|0|0,2:0|2:0|2:0,2:0:0:0:
245,312,41226,5,0,1:0:0:0:
295,191,41344,1,0,1:0:0:0:
155,51,41461,6,0,P|88:64|21:86,1,131.0925,8|0,2:1|2:0,2:0:0:0:
40,163,41695,2,0,P|87:136|93:100,1,87.3949999999999,0|0,1:0|2:0,2:0:0:0:
269,21,41930,5,0,1:0:0:0:
178,163,42047,1,0,1:0:0:0:
267,200,42164,5,8,2:1:0:0:
227,93,42281,1,8,2:1:0:0:
126,295,42398,6,0,P|89:303|48:315,1,64.695,2|0,3:0|3:0,2:0:0:0:
18,253,42574,1,0,2:0:0:0:
21,247,42633,2,0,P|52:238|118:224,1,97.0425,2|0,3:0|3:0,2:0:0:0:
193,247,42867,6,0,B|232:280|222:330|222:330|273:256|348:265,1,242.89,6|0,1:0|2:0,2:0:0:0:
391,344,43219,1,0,2:0:0:0:
392,338,43277,1,0,2:0:0:0:
393,332,43336,1,0,2:0:0:0:
347,265,43453,1,0,2:0:0:0:
491,103,43570,6,0,B|521:195|398:164|429:257,1,182.1675,8|0,2:1|2:0,2:0:0:0:
476,311,43805,2,0,L|513:303,4,32.3475,0|0|0|0|0,2:0|2:0|2:0|2:0|1:0,2:0:0:0:
288,151,44156,5,0,2:0:0:0:
294,149,44215,1,0,2:0:0:0:
300,147,44273,2,0,P|309:185|315:236,1,87.3949999999999,0|0,3:0|3:0,2:0:0:0:
248,296,44449,1,0,3:0:0:0:
240,299,44508,2,0,P|240:255|235:211,1,87.3949999999999,0|0,3:0|3:0,2:0:0:0:
126,88,44742,2,0,P|162:131|241:122,1,116.526666666667,8|8,2:3|2:3,2:0:0:0:
370,103,44976,6,0,B|424:88|403:7|314:1|281:95,1,182.1675,8|0,2:1|2:0,2:0:0:0:
304,151,45211,6,0,P|345:170|391:205,1,97.0425,2|0,3:0|2:0,2:0:0:0:
338,258,45445,2,0,P|312:238|283:224,1,64.695,2|0,3:0|2:0,2:0:0:0:
183,357,45680,5,2,3:0:0:0:
198,360,45738,1,0,3:0:0:0:
209,363,45797,2,0,B|264:249|127:280|193:158,1,182.1675,0|0,3:0|2:0,2:0:0:0:
145,128,46031,2,0,P|105:136|45:151,1,97.0425,0|0,2:0|2:0,2:0:0:0:
15,217,46265,5,0,2:0:0:0:
359,124,46383,2,0,B|376:74|324:33|324:33|353:77|335:126,1,182.1675,8|0,2:1|2:0,2:0:0:0:
266,88,46617,6,0,P|248:143|291:199,1,129.39,0|0,2:0|2:0,2:0:0:0:
364,228,46910,1,0,1:0:0:0:
368,223,46969,2,0,L|420:212,1,32.3475,0|0,3:0|2:0,2:0:0:0:
393,373,47086,6,0,P|264:349|115:325,1,262.185,0|0,1:0|2:0,2:0:0:0:
134,327,47555,5,0,1:0:0:0:
79,223,47672,1,0,1:0:0:0:
129,163,47789,5,8,2:1:0:0:
62,303,47906,1,8,2:1:0:0:
129,163,48023,6,0,P|122:129|116:90,1,64.695,6|0,2:3|3:0,2:0:0:0:
194,58,48199,1,0,3:0:0:0:
190,63,48258,2,0,P|195:94|208:160,1,97.0425,2|0,3:0|2:0,2:0:0:0:
178,234,48492,5,6,1:0:0:0:
256,192,48551,12,0,51246,2:0:0:0:
256,192,51305,5,2,2:0:0:0:
256,192,51656,1,2,2:0:0:0:
256,192,52008,1,2,2:0:0:0:
465,44,52711,5,2,2:0:0:0:
465,44,53062,1,2,2:0:0:0:
465,44,53414,1,2,2:0:0:0:
40,348,54117,6,0,B|91:306|64:237|64:237|101:262,2,160.034999999999,2|2|2,2:0|2:0|2:0,2:0:0:0:
312,352,55055,5,2,2:0:0:0:
255,235,55289,1,2,2:0:0:0:
375,58,55523,6,0,B|481:70|481:70|487:80|487:80|433:74,2,160.034999999999,2|2|2,2:0|2:0|2:0,2:0:0:0:
375,58,56461,5,2,2:0:0:0:
43,27,56695,6,0,L|47:58,1,28.9424999999995,8|0,2:3|2:0,2:0:0:0:
10,126,56930,5,6,1:0:0:0:
124,337,57047,2,0,B|171:347|203:294|203:294|166:326|118:315,1,165.142499999999,8|0,2:0|2:0,2:0:0:0:
79,271,57281,5,2,1:0:0:0:
265,113,57398,1,8,2:0:0:0:
193,87,57515,1,8,2:0:0:0:
329,277,57633,6,0,L|437:255,1,110.095,2|8,1:0|2:0,2:0:0:0:
436,255,57808,1,8,2:0:0:0:
436,255,57867,1,8,2:0:0:0:
447,58,57984,2,0,B|434:9|361:27|355:106|440:137,1,165.142499999999,2|0,1:0|2:0,2:0:0:0:
496,120,58219,1,8,2:0:0:0:
253,240,58336,5,2,1:0:0:0:
184,204,58453,2,0,P|201:134|218:32,1,165.142499999999,8|0,2:0|2:0,2:0:0:0:
153,5,58687,5,2,1:0:0:0:
302,140,58805,1,8,2:0:0:0:
375,118,58922,1,8,2:0:0:0:
130,269,59039,6,0,P|80:250|16:234,1,110.095,2|8,1:0|2:0,2:0:0:0:
25,235,59215,1,8,2:0:0:0:
25,235,59273,1,8,2:0:0:0:
157,185,59390,1,8,2:0:0:0:
80,164,59508,5,14,2:0:0:0:
195,347,59625,1,8,2:3:0:0:
376,228,59742,6,0,B|413:116|264:153|301:42,1,220.189999999999,2|0,1:0|2:0,2:0:0:0:
469,298,60094,2,0,P|406:261|336:327,1,165.142499999999,2|0,1:0|2:0,2:0:0:0:
384,372,60328,5,8,2:0:0:0:
142,152,60445,2,0,P|196:167|255:189,1,110.095,2|8,1:0|2:0,2:0:0:0:
246,185,60621,1,8,2:0:0:0:
246,185,60680,1,8,2:0:0:0:
117,71,60797,5,2,1:0:0:0:
0,190,60914,1,8,2:0:0:0:
67,153,61031,1,8,2:0:0:0:
224,329,61148,5,2,1:0:0:0:
155,170,61265,1,8,2:0:0:0:
228,319,61383,1,8,2:0:0:0:
364,120,61500,5,2,1:0:0:0:
426,172,61617,2,0,L|479:163,2,32.3474999999998,8|8|8,2:0|2:0|2:0,2:0:0:0:
349,325,61851,1,2,1:0:0:0:
236,215,61969,1,8,2:0:0:0:
295,167,62086,5,10,2:0:0:0:
276,282,62203,1,8,2:0:0:0:
350,317,62320,5,8,2:0:0:0:
418,283,62437,1,8,2:0:0:0:
197,341,62555,5,6,3:2:0:0:
86,304,62672,1,0,2:0:0:0:
191,339,62789,5,0,2:0:0:0:
91,305,62906,1,0,2:0:0:0:
186,337,63023,5,0,2:0:0:0:
96,307,63140,1,0,2:0:0:0:
181,335,63258,5,0,2:0:0:0:
101,309,63375,1,0,2:0:0:0:
177,334,63492,5,0,2:0:0:0:
105,310,63609,1,0,2:0:0:0:
174,333,63726,5,0,2:0:0:0:
108,311,63844,1,0,2:0:0:0:
170,332,63961,5,0,2:0:0:0:
112,312,64078,1,0,2:0:0:0:
167,331,64195,5,0,2:0:0:0:
115,313,64312,1,0,2:0:0:0:
164,330,64430,5,0,2:0:0:0:
118,314,64547,1,0,2:0:0:0:
162,329,64664,5,0,2:0:0:0:
120,315,64781,1,0,2:0:0:0:
141,321,64898,5,2,2:0:0:0:
224,199,65133,5,2,2:0:0:0:
150,80,65367,5,2,2:0:0:0:
439,168,67711,6,0,P|428:131|417:87,2,83.9899999999995,2|2|2,2:0|2:0|2:0,2:0:0:0:
58,131,70758,6,0,P|65:104|74:71,1,61.2899999999996,2|2,2:0|2:0,2:0:0:0:
150,254,73805,6,0,B|159:195|201:230|209:137|209:137|205:191|262:207,1,231.539999999996,10|2,2:3|2:0,2:0:0:0:
409,60,77203,6,0,L|448:53,3,38.5899999999994,2|2|2|2,2:0|2:0|2:0|2:0,2:0:0:0:
403,128,78961,5,2,2:0:0:0:
394,203,79195,1,2,2:0:0:0:
385,278,79430,1,2,2:0:0:0:
45,28,82242,5,0,2:0:0:0:
53,45,82476,5,0,2:0:0:0:
35,79,82711,5,0,2:0:0:0:
75,144,82945,5,0,2:0:0:0:
28,228,83180,5,0,2:0:0:0:
102,307,83531,5,0,2:0:0:0:
99,285,83648,1,2,1:0:0:0:
28,228,83883,5,0,3:0:0:0:
75,144,84117,5,0,3:0:0:0:
35,79,84351,5,0,3:0:0:0:
207,202,84586,5,8,2:0:0:0:
212,200,84644,1,0,3:0:0:0:
306,140,84762,5,0,3:0:0:0:
301,138,84820,1,8,2:0:0:0:
435,335,85055,6,0,B|500:263|454:192|376:211|389:263,1,197.489999999999,6|0,1:0|2:0,2:0:0:0:
247,336,85406,1,0,1:0:0:0:
245,346,85465,1,0,2:0:0:0:
243,356,85523,2,0,P|300:342|359:331,1,98.7449999999993,8|0,2:0|2:0,2:0:0:0:
208,185,85758,2,0,P|153:195|100:208,1,98.7449999999993,0|0,1:0|2:0,2:0:0:0:
111,205,85933,1,0,2:0:0:0:
111,205,85992,1,2,2:0:0:0:
200,90,86109,1,8,2:0:0:0:
108,25,86226,5,2,2:0:0:0:
36,56,86344,1,8,2:0:0:0:
207,101,86461,6,0,P|255:86|358:72,1,148.117499999999,2|0,1:0|2:0,2:0:0:0:
402,132,86695,1,8,2:0:0:0:
476,0,86812,2,0,P|425:25|438:75,1,98.7449999999993,0|8,1:0|2:0,2:0:0:0:
426,60,87047,1,8,2:0:0:0:
507,239,87164,2,0,P|471:207|416:225,1,98.7449999999993,0|8,1:0|2:0,2:0:0:0:
424,216,87340,1,8,2:0:0:0:
424,216,87398,1,10,2:0:0:0:
337,287,87515,1,8,2:0:0:0:
266,208,87633,5,4,3:2:0:0:
419,303,87750,1,8,2:0:0:0:
266,208,87867,6,0,B|239:155|292:102|292:102|266:155|292:208,1,197.489999999999,6|0,1:0|2:0,2:0:0:0:
282,180,88219,1,0,1:0:0:0:
127,325,88336,2,0,P|79:311|31:299,1,98.7449999999993,8|8,2:0|2:0,2:0:0:0:
176,164,88570,1,0,1:0:0:0:
119,111,88687,1,0,2:0:0:0:
112,118,88746,1,0,2:0:0:0:
108,126,88805,1,2,2:0:0:0:
234,52,88922,1,8,2:0:0:0:
304,95,89039,5,8,2:0:0:0:
161,47,89156,1,8,2:0:0:0:
109,228,89273,6,0,B|109:292|205:292|237:196|141:132,1,197.489999999999,10|0,2:0|2:0,2:0:0:0:
175,163,89625,1,8,2:0:0:0:
362,345,89742,5,0,2:0:0:0:
380,340,89801,1,0,2:0:0:0:
398,335,89859,1,0,2:0:0:0:
479,189,89976,1,0,1:0:0:0:
408,158,90094,5,0,2:0:0:0:
407,167,90152,1,0,2:0:0:0:
406,176,90211,1,0,2:0:0:0:
288,236,90328,1,8,2:0:0:0:
229,182,90445,5,8,2:0:0:0:
372,257,90562,1,8,2:0:0:0:
478,64,90680,6,0,L|487:2,8,61.2899999999986,0|0|0|0|0|0|0|0|0,1:0|2:0|2:0|2:0|2:0|2:0|2:0|2:0|2:0,2:0:0:0:
388,298,92789,6,0,B|418:278|451:290|451:290|429:300|410:294,1,106.122499999998,0|0,3:0|2:0,2:0:0:0:
334,239,93492,6,0,B|293:116|456:157|415:35,1,242.89,6|0,1:0|2:0,2:0:0:0:
125,32,93844,6,0,P|135:45|145:67,1,26.6724999999998,8|0,2:1|3:0,2:0:0:0:
214,60,93961,2,0,P|212:76|204:99,1,26.6724999999998,0|0,3:0|3:0,2:0:0:0:
263,140,94078,2,0,P|250:150|228:161,1,26.6724999999998,0|0,3:0|3:0,2:0:0:0:
151,149,94195,5,0,3:0:0:0:
151,149,94254,1,0,3:0:0:0:
151,149,94312,1,0,3:0:0:0:
151,149,94371,1,0,3:0:0:0:
151,149,94430,1,0,3:0:0:0:
130,245,94547,5,0,3:0:0:0:
76,305,94664,1,0,3:0:0:0:
27,205,94781,5,0,3:0:0:0:
216,369,94898,2,0,B|339:410|298:245|421:286,1,242.89,10|0,2:1|2:0,2:0:0:0:
487,91,95250,6,0,P|446:107|384:135,1,87.3949999999999,0|0,2:0|2:0,2:0:0:0:
406,124,95484,1,0,2:0:0:0:
124,31,95601,1,8,2:1:0:0:
162,95,95836,5,2,3:0:0:0:
126,162,96070,5,2,3:0:0:0:
424,266,96305,6,0,B|419:198|487:181|487:181|490:176|490:176|448:186|417:147,1,182.1675,6|0,1:0|2:0,2:0:0:0:
383,85,96539,2,0,P|448:67|477:105,1,121.445,2|0,2:0|2:0,2:0:0:0:
313,306,96773,6,0,B|221:336|252:214|161:245,1,182.1675,2|0,1:0|2:0,2:0:0:0:
107,317,97008,2,0,B|76:298|86:255|86:255|90:290|119:308,1,121.445,8|0,2:1|2:0,2:0:0:0:
107,299,97242,1,4,2:3:0:0:
304,222,97359,6,0,B|310:116|310:116|301:127|301:127|298:179,1,161.7375,0|0,2:0|2:0,2:0:0:0:
384,224,97711,6,0,B|456:215|456:215|478:187|475:163|448:142|448:142|399:148,1,182.1675,6|0,1:0|2:0,2:0:0:0:
374,78,97945,2,0,L|502:63,1,121.445,2|0,2:0|2:0,2:0:0:0:
341,294,98180,5,2,1:0:0:0:
217,160,98297,1,0,2:0:0:0:
341,294,98414,6,0,L|461:308,1,121.445,8|0,2:1|2:0,2:0:0:0:
461,308,98648,1,4,2:3:0:0:
142,332,98765,5,0,2:0:0:0:
146,327,98824,1,0,2:0:0:0:
150,322,98883,2,0,P|119:304|80:347,1,97.0425,0|0,2:0|2:0,2:0:0:0:
71,380,99117,6,0,B|43:352|43:296|98:268|98:268|154:240|168:198|126:156|126:156|84:198|121:230,1,364.335,6|0,1:0|2:0,2:0:0:0:
218,276,99586,1,0,2:0:0:0:
218,276,99644,2,0,P|272:263|306:205,1,121.445,0|0,1:0|2:0,2:0:0:0:
193,35,99820,1,8,2:1:0:0:
193,35,100055,6,0,P|184:91|171:162,1,121.445,6|0,2:3|2:0,2:0:0:0:
408,295,100289,2,0,P|419:235|428:175,1,121.445,6|0,2:3|2:0,2:0:0:0:
223,278,100523,5,10,2:1:0:0:
234,278,100582,1,8,2:1:0:0:
245,282,100640,1,8,2:1:0:0:
255,290,100699,1,8,2:1:0:0:
263,300,100758,1,8,2:1:0:0:
128,329,100875,5,0,3:0:0:0:
81,241,100992,1,0,3:0:0:0:
123,336,101109,1,0,3:0:0:0:
341,243,101226,6,0,L|312:46,1,182.1675,8|0,2:1|2:0,2:0:0:0:
393,65,101461,6,0,P|389:96|369:121,1,64.695,0|0,2:0|3:0,2:0:0:0:
305,168,101637,1,0,3:0:0:0:
301,173,101695,2,0,P|269:176|240:162,1,64.695,0|0,3:0|3:0,2:0:0:0:
164,127,101871,5,0,3:0:0:0:
174,126,101930,2,0,B|212:134|222:174|222:174|230:110|286:94,1,182.1675,6|0,1:0|2:0,2:0:0:0:
146,196,102164,2,0,P|83:179|19:166,1,121.445,2|0,2:0|2:0,2:0:0:0:
103,381,102398,5,2,1:0:0:0:
161,331,102515,1,0,2:0:0:0:
161,331,102574,1,0,2:0:0:0:
161,331,102633,2,0,B|221:307|287:307|287:307|253:306|231:277,1,182.1675,10|0,2:1|2:0,2:0:0:0:
292,229,102867,6,0,P|388:246|511:295,1,226.4325,4|0,2:3|2:0,2:0:0:0:
512,362,103336,5,6,1:0:0:0:
384,218,103453,2,0,P|368:125|347:30,1,182.1675,2|0,2:0|2:0,2:0:0:0:
274,14,103687,5,0,2:0:0:0:
262,18,103746,1,0,2:0:0:0:
252,25,103805,1,2,1:0:0:0:
329,96,103922,1,0,3:0:0:0:
110,197,104039,1,10,2:1:0:0:
110,197,104273,6,0,P|89:132|183:176,1,226.4325,4|0,2:3|2:0,2:0:0:0:
177,239,104742,6,0,P|243:244|281:291,1,121.445,4|0,1:0|2:0,2:0:0:0:
415,64,104976,2,0,P|367:103|319:148,1,121.445,2|0,2:0|2:0,2:0:0:0:
449,358,105211,2,0,P|438:297|423:233,1,121.445,2|0,1:0|2:0,2:0:0:0:
232,362,105445,5,10,2:1:0:0:
161,334,105562,1,0,2:0:0:0:
160,327,105621,1,0,2:0:0:0:
159,320,105680,2,0,L|176:210,1,97.0425,6|0,2:3|2:0,2:0:0:0:
168,220,105914,2,0,L|157:286,1,64.695,6|0,2:3|2:0,2:0:0:0:
94,55,106148,5,10,2:1:0:0:
81,53,106207,1,8,2:1:0:0:
70,50,106265,1,8,2:1:0:0:
57,47,106324,1,8,2:1:0:0:
46,45,106383,1,8,2:1:0:0:
158,147,106500,5,0,1:0:0:0:
258,116,106617,1,0,1:0:0:0:
115,293,106734,5,8,2:3:0:0:
181,64,106851,6,0,B|199:33|248:41|248:41|223:44|208:59,1,121.445,8|0,2:1|2:0,2:0:0:0:
355,254,107086,2,0,B|317:254|300:207|300:207|324:238|363:238,1,121.445,4|0,2:3|2:0,2:0:0:0:
423,13,107320,2,0,B|442:45|410:83|410:83|424:47|405:13,1,121.445,4|0,2:3|2:0,2:0:0:0:
496,321,107555,6,0,B|528:225|400:257|432:161,1,182.1675,6|0,1:0|2:0,2:0:0:0:
496,115,107789,2,0,P|485:172|432:162,1,121.445,2|0,2:0|2:0,2:0:0:0:
272,27,108023,6,0,P|195:52|99:89,1,182.1675,2|0,1:0|2:0,2:0:0:0:
17,73,108258,2,0,P|70:49|92:98,1,121.445,8|0,2:1|2:0,2:0:0:0:
92,95,108492,1,4,2:3:0:0:
200,316,108609,6,0,B|156:313|135:272|135:272|137:318|99:340,1,161.7375,0|0,2:0|2:0,2:0:0:0:
207,236,108961,6,0,B|284:190|340:246|307:313|262:291,1,182.1675,2|0,1:0|2:0,2:0:0:0:
199,231,109195,2,0,L|212:94,1,121.445,2|0,2:0|2:0,2:0:0:0:
384,71,109430,5,2,1:0:0:0:
200,7,109547,1,0,2:0:0:0:
384,71,109664,6,0,B|456:54|456:54|462:59|462:59|420:69,1,121.445,8|0,2:1|2:0,2:0:0:0:
423,68,109898,1,4,2:3:0:0:
359,319,110015,5,0,2:0:0:0:
358,325,110074,1,0,2:0:0:0:
357,331,110133,2,0,P|407:323|416:278,1,97.0425,2|0,2:0|2:0,2:0:0:0:
374,218,110367,6,0,B|336:180|267:167|224:255|224:255|181:341|111:330|73:293,1,364.335,2|0,1:0|2:0,2:0:0:0:
80,298,110777,1,0,2:0:0:0:
80,298,110836,1,0,1:0:0:0:
128,239,110953,1,0,2:0:0:0:
30,45,111070,1,8,2:1:0:0:
30,45,111305,6,0,B|90:17|126:77|126:77|118:25|174:-3,1,182.1675,6|0,2:3|2:0,2:0:0:0:
237,7,111539,2,0,B|244:41|206:64|206:64|229:37|221:3,1,121.445,6|0,2:3|2:0,2:0:0:0:
123,197,111773,5,10,2:1:0:0:
133,190,111832,1,8,2:1:0:0:
144,185,111890,1,8,2:1:0:0:
156,183,111949,1,8,2:1:0:0:
168,184,112008,1,8,2:1:0:0:
300,256,112125,5,0,1:0:0:0:
251,167,112242,1,0,1:0:0:0:
307,255,112359,1,8,2:3:0:0:
508,76,112476,6,0,B|448:48|412:108|412:108|420:56|364:28,1,182.1675,8|0,2:1|2:0,2:0:0:0:
339,102,112711,6,0,L|345:175,1,64.695,0|0,1:0|3:0,2:0:0:0:
395,224,112887,1,0,3:0:0:0:
399,228,112945,2,0,L|393:301,1,64.695,0|0,3:0|3:0,2:0:0:0:
338,347,113121,5,0,3:0:0:0:
326,352,113180,2,0,P|255:329|140:312,1,182.1675,6|0,1:0|2:0,2:0:0:0:
61,293,113414,2,0,B|48:330|88:359|88:359|65:327|78:290,1,121.445,2|0,2:0|2:0,2:0:0:0:
164,137,113648,5,2,1:0:0:0:
96,166,113765,1,0,2:0:0:0:
95,178,113824,1,0,2:0:0:0:
93,190,113883,2,0,P|167:160|222:248,1,182.1675,10|0,2:1|2:0,2:0:0:0:
290,263,114117,6,0,P|330:257|346:205,1,97.0425,4|0,2:3|2:0,2:0:0:0:
291,152,114351,2,0,P|302:107|348:97,1,97.0425,6|0,2:3|2:0,2:0:0:0:
438,149,114586,6,0,P|428:205|418:276,1,121.445,6|0,1:0|2:0,2:0:0:0:
168,120,114820,2,0,P|176:59|187:0,1,121.445,2|0,2:0|2:0,2:0:0:0:
187,0,114996,5,0,2:0:0:0:
187,0,115055,1,2,1:0:0:0:
83,65,115172,1,0,3:0:0:0:
271,179,115289,1,8,2:1:0:0:
271,179,115523,6,0,B|275:211|299:230|299:230|211:187|139:252,1,226.4325,4|0,2:3|2:0,2:0:0:0:
80,291,115992,6,0,P|160:304|294:348,1,182.1675,0|0,1:0|2:0,2:0:0:0:
338,345,116226,2,0,P|363:284|390:228,1,121.445,2|0,2:0|2:0,2:0:0:0:
296,59,116461,2,0,P|335:111|371:162,1,121.445,2|0,1:0|2:0,2:0:0:0:
95,264,116695,1,10,2:1:0:0:
46,204,116812,5,0,2:0:0:0:
46,197,116871,1,0,2:0:0:0:
46,190,116930,2,0,L|32:79,1,97.0425,4|0,2:3|2:0,2:0:0:0:
38,88,117164,2,0,L|48:155,1,64.695,6|0,2:3|2:0,2:0:0:0:
199,223,117398,5,10,2:1:0:0:
210,226,117457,1,8,2:1:0:0:
222,228,117515,1,8,2:1:0:0:
234,232,117574,1,8,2:1:0:0:
247,235,117633,1,8,2:1:0:0:
368,216,117750,5,0,1:0:0:0:
439,158,117867,1,0,1:0:0:0:
312,46,117984,5,8,2:3:0:0:
498,317,118101,2,0,B|455:296|451:235|451:235|441:288|379:302,1,182.1675,8|0,2:1|2:0,2:0:0:0:
362,360,118336,2,0,P|316:326|235:320,1,121.445,4|0,2:3|3:0,2:0:0:0:
173,358,118512,1,0,3:0:0:0:
182,365,118570,2,0,P|215:341|162:301,1,121.445,4|0,2:3|3:0,2:0:0:0:
94,315,118746,5,0,3:0:0:0:
91,327,118805,1,0,3:0:0:0:
42,128,119390,5,0,3:0:0:0:
39,139,119449,1,0,3:0:0:0:
37,149,119508,2,0,L|23:47,1,97.0425,8|0,2:1|2:0,2:0:0:0:
82,15,119742,6,0,P|139:40|220:54,1,131.0925,2|0,2:0|2:0,2:0:0:0:
244,122,119976,2,0,P|290:110|332:83,1,87.3949999999999,2|0,2:0|2:0,2:0:0:0:
483,28,120211,6,0,B|451:60|403:28|403:28|404:36|404:36|483:87|467:172,1,242.89,6|0,1:0|2:0,2:0:0:0:
468,158,120562,1,0,3:0:0:0:
323,275,120680,5,0,3:0:0:0:
324,268,120738,2,0,P|355:246|394:243,1,64.695,0|0,3:0|2:0,2:0:0:0:
383,322,120914,6,0,P|260:303|117:284,1,242.89,8|0,2:1|2:0,2:0:0:0:
76,318,121207,2,0,P|69:339|61:360,2,32.3475,0|0|0,2:0|2:0|2:0,2:0:0:0:
81,242,121383,6,0,P|65:233|31:223,1,32.3475,0|0,1:0|2:0,2:0:0:0:
42,150,121500,2,0,P|24:154|-7:171,1,32.3475,0|0,1:0|2:0,2:0:0:0:
132,174,121617,6,0,P|203:125|309:137,2,174.79,8|0|0,2:1|1:0|1:0,2:0:0:0:
132,174,122203,1,0,1:0:0:0:
242,269,122320,5,8,2:1:0:0:
265,197,122437,1,8,2:1:0:0:
459,307,122555,6,0,P|426:294|392:298,1,64.695,2|0,3:0|3:0,2:0:0:0:
387,220,122730,1,0,2:0:0:0:
380,214,122789,2,0,P|347:227|325:254,1,64.695,2|0,3:0|2:0,2:0:0:0:
489,204,123023,6,0,B|529:81|366:122|407:0,1,242.89,6|0,1:0|2:0,2:0:0:0:
358,52,123316,1,0,3:0:0:0:
351,53,123375,1,0,3:0:0:0:
344,54,123433,2,0,L|226:17,1,97.0425,0|0,3:0|2:0,2:0:0:0:
55,129,123726,6,0,B|10:175|79:241|169:194|144:82,1,242.89,8|0,2:1|2:0,2:0:0:0:
99,23,124019,2,0,P|85:36|73:56,3,32.3475,0|0|0|0,2:0|2:0|2:0|1:0,2:0:0:0:
271,187,124312,5,0,2:0:0:0:
270,193,124371,1,0,2:0:0:0:
268,201,124430,2,0,P|227:214|110:300,1,174.79,0|0,1:0|3:0,2:0:0:0:
132,367,124742,2,0,P|193:326|191:274,1,116.526666666667,0|8,2:0|2:3,2:0:0:0:
291,350,124976,5,8,2:3:0:0:
308,347,125055,5,8,2:3:0:0:
374,316,125133,6,0,B|356:267|378:232|378:232|348:278|295:272,1,182.1675,8|0,2:1|2:0,2:0:0:0:
307,189,125367,6,0,L|327:79,1,97.0425,2|0,3:0|2:0,2:0:0:0:
318,84,125601,2,0,L|305:151,1,64.695,2|0,3:0|2:0,2:0:0:0:
200,301,125836,6,0,B|96:266|131:369|27:335,1,182.1675,2|0,3:0|2:0,2:0:0:0:
17,266,126070,2,0,L|11:214,4,32.3475,0|0|0|0|0,3:0|2:0|2:0|2:0|2:0,2:0:0:0:
284,28,126539,6,0,P|345:37|382:82,1,121.445,8|0,2:1|2:0,2:0:0:0:
443,119,126715,1,0,2:0:0:0:
447,127,126773,2,0,P|419:163|332:170,1,129.39,0|0,2:0|2:0,2:0:0:0:
285,114,127066,1,0,1:0:0:0:
294,116,127125,2,0,L|312:142,1,32.3475,0|0,3:0|2:0,2:0:0:0:
152,280,127242,6,0,P|166:179|180:69,1,174.79,0|0,1:0|2:0,2:0:0:0:
111,60,127535,2,0,P|89:65|63:72,2,32.3475,0|0|0,2:0|2:0|2:0,2:0:0:0:
190,33,127711,5,0,1:0:0:0:
78,153,127828,1,0,1:0:0:0:
152,137,127945,5,8,2:1:0:0:
231,259,128062,1,8,2:1:0:0:
152,280,128180,6,0,P|119:271|71:260,1,64.695,6|0,2:3|3:0,2:0:0:0:
29,315,128355,1,0,3:0:0:0:
30,324,128414,2,0,P|61:331|92:340,1,64.695,2|0,3:0|2:0,2:0:0:0:
92,340,128590,5,0,2:0:0:0:
92,340,128648,1,6,1:0:0:0:
256,192,128707,12,0,133805,2:0:0:0:
461,46,134273,5,2,2:0:0:0:
460,55,134351,1,2,2:0:0:0:
31,165,135211,5,2,2:0:0:0:
43,162,135286,1,0,2:0:0:0:
74,96,135362,5,2,2:0:0:0:
84,102,135438,1,0,2:0:0:0:
154,75,135514,5,2,2:0:0:0:
157,86,135589,1,0,2:0:0:0:
224,122,135665,5,2,2:0:0:0:
218,131,135741,1,0,2:0:0:0:
245,203,135817,5,2,2:0:0:0:
234,205,135892,1,2,2:0:0:0:
454,121,136148,6,0,L|464:47,1,64.695,2|0,2:0|2:0,2:0:0:0:
457,49,136304,2,0,L|445:130,1,64.695,2|2,2:0|2:0,2:0:0:0:
489,323,136616,6,0,P|466:278|399:273,1,107.825,2|0,2:0|2:0,2:0:0:0:
406,279,136851,2,0,P|434:273|463:288,1,43.13,2|0,2:0|2:0,2:0:0:0:
368,353,137007,5,2,2:0:0:0:
355,350,137085,1,2,2:0:0:0:
287,294,137163,6,0,B|228:269|166:346|166:346|164:340|164:340|199:294|205:225|112:200|112:200|160:187|194:214,1,404.169995261597,2|0,2:0|2:0,2:0:0:0:
264,203,137981,5,2,2:0:0:0:
262,190,138056,1,0,2:0:0:0:
325,145,138132,5,2,2:0:0:0:
327,132,138208,1,0,2:0:0:0:
269,84,138284,5,2,2:0:0:0:
267,71,138359,1,0,2:0:0:0:
341,38,138435,5,2,2:0:0:0:
343,25,138511,1,2,2:0:0:0:
241,157,139078,6,0,P|208:143|165:127,1,64.695,2|0,2:0|2:0,2:0:0:0:
172,137,139234,1,2,2:0:0:0:
126,15,139351,6,0,P|128:39|134:70,1,43.13,2|0,2:0|2:0,2:0:0:0:
141,66,139468,1,2,2:0:0:0:
52,162,139585,6,0,P|71:147|96:127,1,43.13,2|0,2:0|2:0,2:0:0:0:
88,124,139703,1,2,2:0:0:0:
208,253,139820,5,2,2:0:0:0:
161,314,139898,2,0,B|60:347|93:213|-7:246,1,194.085,2|0,2:0|2:0,2:0:0:0:
235,118,140366,6,0,P|336:144|396:163,1,161.7375,2|0,2:0|2:0,2:0:0:0:
456,117,140718,2,0,P|443:82|434:48,2,64.695,0|0|0,2:0|2:0|2:0,2:0:0:0:
463,198,141042,5,2,2:0:0:0:
458,213,141105,1,2,2:0:0:0:
453,228,141169,1,2,2:0:0:0:
448,244,141232,1,2,2:0:0:0:
442,259,141296,1,2,2:0:0:0:
273,331,141772,6,0,P|249:321|220:312,2,43.13,2|0|0,2:0|2:0|2:0,2:0:0:0:
212,245,142006,1,2,2:0:0:0:
159,300,142084,2,0,P|112:270|121:209,1,107.825,2|2,2:0|2:0,2:0:0:0:
239,101,142403,5,2,2:0:0:0:
179,144,142464,2,0,P|157:133|136:124,1,43.13,2|0,2:0|2:0,2:0:0:0:
28,183,142617,2,0,P|47:170|66:155,1,43.13,2|0,2:0|2:0,2:0:0:0:
64,149,142733,1,2,2:0:0:0:
64,149,142771,1,2,2:0:0:0:
450,72,143071,5,0,0:0:0:0:
450,72,143422,6,0,P|441:95|439:70,3,64.695,2|0|0|0,2:0|2:0|2:0|2:0,2:0:0:0:
391,188,144036,5,2,2:0:0:0:
395,200,144131,1,2,2:0:0:0:
459,247,144209,6,0,P|374:231|236:208,1,215.649997367554,2|0,2:0|2:0,2:0:0:0:
239,217,144637,2,0,L|295:229,1,43.13,0|0,2:0|2:0,2:0:0:0:
159,275,144791,2,0,L|141:220,1,43.13,0|0,2:0|2:0,2:0:0:0:
245,316,144983,2,0,L|206:358,1,43.13,0|0,2:0|2:0,2:0:0:0:
207,346,145099,2,0,L|242:309,1,43.13,0|0,2:0|2:0,2:0:0:0:
34,361,145252,5,0,2:0:0:0:
39,356,145291,2,0,L|58:275,1,64.695,8|0,2:0|2:0,2:0:0:0:
228,112,145522,6,0,P|192:132|134:157,1,87.3949999999999,2|0,1:0|2:0,2:0:0:0:
140,146,145678,1,0,2:0:0:0:
60,188,145756,6,0,P|60:146|68:84,1,87.3949999999999,10|0,2:0|2:0,2:0:0:0:
74,94,145912,1,0,2:0:0:0:
137,47,145990,5,10,2:0:0:0:
291,158,146147,1,2,2:0:0:0:
309,80,146225,6,0,P|350:59|403:46,1,87.3949999999999,2|0,1:0|2:0,2:0:0:0:
401,55,146381,1,0,2:0:0:0:
373,149,146459,6,0,P|417:162|464:189,1,87.3949999999999,10|0,2:0|2:0,2:0:0:0:
455,193,146615,1,0,2:0:0:0:
389,240,146693,5,10,2:0:0:0:
422,383,146850,1,2,2:0:0:0:
368,325,146928,6,0,P|326:330|275:343,1,87.3949999999999,0|0,1:0|2:0,2:0:0:0:
275,335,147084,1,2,2:0:0:0:
187,232,147162,5,10,2:0:0:0:
65,336,147318,1,2,2:0:0:0:
24,271,147397,5,10,2:0:0:0:
79,64,147553,1,2,2:0:0:0:
25,117,147631,6,0,P|33:135|42:161,1,43.6975,0|0,1:0|2:0,2:0:0:0:
149,21,147748,5,0,2:0:0:0:
148,33,147807,1,0,2:0:0:0:
147,46,147865,2,0,L|265:75,1,87.3949999999999,0|0,2:0|1:0,2:0:0:0:
302,89,148041,1,0,2:0:0:0:
310,86,148100,2,0,B|322:61|297:36|297:36|310:61|297:86,1,87.3949999999999,0|0,1:0|2:0,2:0:0:0:
225,177,148334,5,0,1:0:0:0:
277,234,148412,2,0,P|331:214|388:199,1,116.526666666667,2|8,2:0|2:0,2:0:0:0:
396,205,148607,6,0,L|340:220,2,58.2633333333333,2|0|0,2:0|2:0|2:0,2:0:0:0:
454,318,148842,2,0,L|398:303,2,58.2633333333333,2|0|0,2:0|2:0|2:0,2:0:0:0:
272,367,149076,6,0,L|328:352,2,58.2633333333333,2|0|0,2:0|2:0|2:0,2:0:0:0:
210,304,149311,2,0,L|154:289,2,58.2633333333333,2|0|0,2:0|2:0|2:0,2:0:0:0:
45,357,149545,6,0,L|64:288,1,58.2633333333333,2|0,2:0|2:0,2:0:0:0:
101,216,149701,2,0,L|82:147,1,58.2633333333333,2|0,2:0|2:0,2:0:0:0:
0,94,149857,1,10,2:0:0:0:
160,21,149936,6,0,P|190:33|224:43,1,58.2633333333333,2|0,2:0|2:0,2:0:0:0:
229,137,150092,2,0,P|258:124|290:108,1,58.2633333333333,10|0,2:0|2:0,2:0:0:0:
423,14,150248,6,0,P|407:39|396:73,2,58.2633333333333,2|0|0,2:0|2:0|2:0,2:0:0:0:
496,132,150482,2,0,P|484:105|479:77,1,58.2633333333333,2|8,2:0|2:0,2:0:0:0:
478,76,150619,1,8,2:0:0:0:
478,76,150678,1,8,2:0:0:0:
406,151,150795,1,0,1:0:0:0:
483,281,150912,6,0,P|426:296|347:320,1,87.3949982663956,0|0,1:0|2:0,2:0:0:0:
321,248,151147,6,0,B|417:216|385:344|481:312,1,174.79,8|0,2:0|2:0,2:0:0:0:
291,370,151498,2,0,B|241:354|229:293|229:293|222:339|168:354,1,174.79,8|0,2:0|2:0,2:0:0:0:
187,347,151850,5,0,1:0:0:0:
26,233,151967,2,0,B|7:196|44:159|44:159|26:196|44:233,1,131.0925,8|0,2:0|2:0,2:0:0:0:
36,207,152201,5,8,2:0:0:0:
179,272,152318,2,0,P|178:212|97:212,1,131.0925,8|0,2:0|2:0,2:0:0:0:
117,195,152553,5,0,1:0:0:0:
329,37,152709,2,0,P|370:61|401:57,1,58.2633333333333,0|0,2:0|2:0,2:0:0:0:
482,17,152904,2,0,P|431:56|377:121,1,131.0925,8|0,2:0|2:0,2:0:0:0:
387,106,153139,5,0,2:0:0:0:
478,305,153256,2,0,P|503:260|481:227,1,87.3949999999999,0|8,1:0|2:0,2:0:0:0:
488,231,153432,1,8,2:0:0:0:
488,231,153490,1,8,2:0:0:0:
366,334,153607,1,0,1:0:0:0:
317,274,153725,2,0,L|172:250,1,145.658333333333,0|0,1:0|2:0,2:0:0:0:
173,250,153959,1,0,2:0:0:0:
37,72,154193,5,8,2:0:0:0:
56,144,154311,1,0,2:0:0:0:
130,129,154428,1,8,2:0:0:0:
114,56,154545,1,0,2:0:0:0:
114,56,154604,1,0,2:0:0:0:
114,56,154662,1,0,1:0:0:0:
252,161,154779,5,8,2:0:0:0:
360,132,154897,1,8,2:0:0:0:
293,89,155014,5,0,2:0:0:0:
335,245,155131,2,0,P|400:268|477:293,1,116.526664355194,8|0,2:0|2:0,2:0:0:0:
494,226,155365,5,0,1:0:0:0:
185,351,155482,2,0,P|199:308|212:254,1,87.3949999999999,8|0,2:0|2:0,2:0:0:0:
69,68,155717,2,0,P|58:110|44:151,1,87.3949999999999,8|0,2:0|2:0,2:0:0:0:
44,151,155951,1,0,2:0:0:0:
257,41,156068,2,0,P|298:54|340:65,1,87.3949999999999,8|8,2:0|2:0,2:0:0:0:
340,65,156244,1,8,2:0:0:0:
340,65,156303,1,8,2:0:0:0:
460,311,156537,5,0,3:0:0:0:
505,253,156654,1,0,3:0:0:0:
455,318,156772,6,0,L|446:224,1,86.8274999999996,0|0,1:0|2:0,2:0:0:0:
398,177,157357,5,8,2:1:0:0:
342,230,157475,1,0,1:0:0:0:
266,222,157592,1,8,2:1:0:0:
99,195,157709,5,2,1:0:0:0:
138,127,157826,1,0,1:0:0:0:
36,51,157943,5,10,2:1:0:0:
62,125,158061,1,0,3:0:0:0:
347,50,158178,6,0,B|275:-15|204:31|223:109|275:96,1,197.489999999999,6|0,1:0|2:0,2:0:0:0:
437,16,158529,1,0,1:0:0:0:
427,17,158588,1,0,2:0:0:0:
417,18,158647,2,0,P|390:65|422:116,1,98.7449999999993,8|0,2:0|2:0,2:0:0:0:
500,279,158881,2,0,P|453:252|402:284,1,98.7449999999993,0|0,1:0|2:0,2:0:0:0:
414,266,159057,1,0,2:0:0:0:
414,266,159115,1,2,2:0:0:0:
398,349,159232,1,8,2:0:0:0:
271,203,159350,5,2,2:0:0:0:
334,298,159467,1,8,2:0:0:0:
92,330,159584,6,0,P|138:288|236:311,1,148.117499999999,2|0,1:0|2:0,2:0:0:0:
261,361,159818,1,8,2:0:0:0:
141,258,159936,2,0,P|132:208|128:154,1,98.7449999999993,0|8,1:0|2:0,2:0:0:0:
128,160,160170,1,8,2:0:0:0:
414,266,160287,2,0,P|418:315|426:363,1,98.7449999999993,0|8,1:0|2:0,2:0:0:0:
426,363,160463,1,8,2:0:0:0:
426,363,160522,1,8,2:0:0:0:
331,312,160639,1,8,2:0:0:0:
482,203,160756,5,6,3:2:0:0:
349,144,160873,1,8,2:0:0:0:
510,271,160990,6,0,B|546:161|437:198|473:88,1,197.489999999999,6|0,1:0|2:0,2:0:0:0:
472,91,161342,1,0,1:0:0:0:
229,30,161459,1,8,2:0:0:0:
214,104,161576,1,8,2:0:0:0:
286,128,161693,1,0,1:0:0:0:
314,56,161811,1,0,2:0:0:0:
314,56,161869,1,0,2:0:0:0:
314,56,161928,1,0,2:0:0:0:
207,110,162045,1,8,2:0:0:0:
283,288,162162,5,10,2:0:0:0:
128,211,162279,1,8,2:0:0:0:
26,287,162397,6,0,P|76:272|222:242,1,197.489999999999,10|0,2:0|2:0,2:0:0:0:
218,242,162748,1,8,2:0:0:0:
392,357,162865,5,0,2:0:0:0:
381,346,162924,1,0,2:0:0:0:
374,333,162982,1,0,2:0:0:0:
494,217,163100,5,0,1:0:0:0:
429,173,163217,1,0,2:0:0:0:
422,186,163275,1,0,2:0:0:0:
419,201,163334,1,2,2:0:0:0:
500,142,163451,1,8,2:0:0:0:
339,244,163568,5,10,2:0:0:0:
262,109,163686,1,8,2:0:0:0:
128,218,163803,6,0,B|175:228|204:165|204:165|260:207|297:175,1,197.489999999999,6|0,1:0|2:0,2:0:0:0:
292,179,164154,1,0,1:0:0:0:
123,137,164272,6,0,P|107:212|85:304,1,148.117499999999,8|0,2:0|2:0,2:0:0:0:
150,332,164506,2,0,P|198:344|252:363,1,98.7449999999993,0|8,1:0|2:0,2:0:0:0:
244,360,164682,1,8,2:0:0:0:
244,360,164740,1,10,2:0:0:0:
308,313,164857,1,8,2:0:0:0:
304,191,164975,5,2,2:0:0:0:
396,257,165092,1,8,2:0:0:0:
510,49,165209,6,0,P|421:71|302:106,1,197.489999999999,2|0,1:0|2:0,2:0:0:0:
319,100,165561,1,0,1:0:0:0:
88,51,165678,2,0,B|99:6|165:23|171:95|93:123,1,148.117499999999,8|0,2:0|2:0,2:0:0:0:
43,111,165912,6,0,P|39:139|32:170,1,49.3724999999997,0|0,1:0|2:0,2:0:0:0:
152,219,166029,2,0,P|129:201|106:179,1,49.3724999999997,0|0,2:0|2:0,2:0:0:0:
3,257,166147,2,0,P|29:246|59:237,1,49.3724999999997,0|0,2:0|2:0,2:0:0:0:
118,290,166264,5,8,2:0:0:0:
352,164,166381,2,0,B|390:144|429:183|429:183|390:164|352:183,1,148.117499999999,10|0,2:0|2:0,2:0:0:0:
279,184,166615,6,0,B|394:145|355:299|471:260,1,226.4325,6|0,1:0|2:0,2:0:0:0:
467,262,167084,1,8,2:1:0:0:
230,102,167318,6,0,B|183:130|184:188|184:188|159:136|104:133,1,194.085,10|0,2:1|2:0,2:0:0:0:
115,134,167787,1,0,1:0:0:0:
10,276,167904,5,0,2:0:0:0:
11,285,167963,1,0,2:0:0:0:
13,294,168022,2,0,P|85:315|199:361,1,194.085,6|8,1:0|2:0,2:0:0:0:
73,209,168490,5,10,2:0:0:0:
63,134,168607,1,8,2:0:0:0:
139,160,168725,5,2,3:0:0:0:
148,162,168783,1,0,3:0:0:0:
157,164,168842,1,0,3:0:0:0:
220,118,168959,1,0,3:0:0:0:
179,53,169076,1,0,3:0:0:0:
290,161,169193,5,10,2:1:0:0:
365,135,169311,1,0,3:0:0:0:
244,256,169428,5,2,1:0:0:0:
468,76,170365,6,0,L|384:64,2,83.9899999999998,2|2|2,2:0|2:0|2:0,2:0:0:0:
468,76,171537,6,0,L|384:64,3,61.2899999999997,2|2|2|2,2:0|2:0|2:0|2:0,2:0:0:0:
468,76,173178,6,0,L|425:70,2,38.5899999999998,2|2|2,2:0|2:0|2:0,2:0:0:0:
49,128,175053,6,0,B|27:95|57:56|57:56|44:93|66:125,1,135.065,2|0,2:0|2:0,2:0:0:0:
129,82,175990,2,0,L|178:89,2,38.59,2|2|2,2:0|2:0|2:0,2:0:0:0:
129,82,177162,6,0,L|178:89,2,38.5899999999994,2|2|2,2:0|2:0|2:0,2:0:0:0:
47,101,177865,6,0,B|32:77|43:46|43:46|22:63|17:102|53:126|53:126|87:151|80:187|62:207,1,242.89,4|0,1:0|2:0,2:0:0:0:
1,334,178217,2,0,B|-35:342|-48:288|1:257|50:302,1,133.362499999999,0|0,1:0|2:0,2:0:0:0:
72,367,178568,6,0,P|87:358|97:345,1,26.6724999999998,8|0,2:1|3:0,2:0:0:0:
168,371,178686,2,0,P|172:354|170:337,1,26.6724999999998,0|0,3:0|3:0,2:0:0:0:
244,318,178803,2,0,P|235:302|222:292,1,26.6724999999998,0|0,3:0|3:0,2:0:0:0:
148,258,178920,5,8,2:1:0:0:
257,209,179037,1,0,3:0:0:0:
180,183,179154,5,0,3:0:0:0:
374,303,179272,6,0,P|389:272|389:245,1,60.7225,8|0,2:1|3:0,2:0:0:0:
257,209,179389,2,0,P|276:237|299:250,1,60.7225,0|0,3:0|3:0,2:0:0:0:
393,154,179506,2,0,P|358:156|335:170,1,60.7225,0|0,3:0|3:0,2:0:0:0:
471,243,179623,6,0,B|439:147|535:179|503:83,1,174.79,0|0,3:0|3:0,2:0:0:0:
496,80,179916,1,0,3:0:0:0:
496,80,179975,2,0,L|404:73,2,87.3949999999999,8|0|0,2:1|3:0|3:0,2:0:0:0:
360,10,180268,2,0,L|273:18,2,87.3949999999999,8|0|0,2:1|3:0|2:0,2:0:0:0:
267,99,180561,5,0,3:0:0:0:
265,112,180619,1,0,3:0:0:0:
263,124,180678,2,0,B|140:164|181:1|58:42,1,242.89,4|0,1:0|1:0,2:0:0:0:
17,277,181029,2,0,B|49:245|33:173|33:173|41:165|41:165|41:213|81:237,1,182.1675,0|0,1:0|2:0,2:0:0:0:
117,169,181264,5,0,3:0:0:0:
123,173,181322,1,0,3:0:0:0:
131,173,181381,2,0,P|148:165|167:160,1,26.6724999999999,8|0,2:1|3:0,2:0:0:0:
224,84,181498,2,0,P|221:102|217:121,1,26.6724999999999,0|0,3:0|3:0,2:0:0:0:
252,208,181615,2,0,P|236:196|222:183,1,26.6724999999999,0|0,3:0|3:0,2:0:0:0:
304,132,181732,5,8,2:1:0:0:
367,232,181850,1,0,3:0:0:0:
378,154,181967,5,0,3:0:0:0:
283,338,182084,6,0,P|293:304|299:274,1,60.7225,8|0,2:1|2:0,2:0:0:0:
458,258,182201,2,0,P|448:224|442:194,1,60.7225,8|0,2:1|2:0,2:0:0:0:
304,132,182318,2,0,P|314:98|320:68,1,60.7225,8|0,2:1|2:0,2:0:0:0:
477,116,182436,6,0,P|403:129|233:196,1,242.89,8|4,2:3|3:0,2:0:0:0:
246,189,182729,1,0,3:0:0:0:
246,189,182787,1,8,2:1:0:0:
224,271,182904,1,0,3:0:0:0:
157,315,183022,5,2,3:0:0:0:
15,260,183256,5,2,3:0:0:0:
63,330,183373,5,0,2:0:0:0:
63,330,183432,1,0,2:0:0:0:
63,330,183490,2,0,B|98:224|-7:259|27:154,1,182.1675,6|0,1:0|2:0,2:0:0:0:
67,102,183725,2,0,P|126:88|186:78,1,121.445,2|0,2:0|2:0,2:0:0:0:
437,281,183959,2,0,P|377:291|317:304,1,121.445,2|0,1:0|2:0,2:0:0:0:
317,304,184135,1,0,2:0:0:0:
317,304,184193,1,8,2:1:0:0:
382,212,184311,1,0,2:0:0:0:
270,117,184428,1,4,2:3:0:0:
338,86,184545,6,0,B|354:118|338:150|338:150|370:118|354:86,1,133.3625,0|0,2:0|2:0,2:0:0:0:
270,117,184897,6,0,B|208:117|143:106|143:106|133:136|112:167,1,182.1675,2|0,1:0|2:0,2:0:0:0:
110,235,185131,2,0,P|186:217|184:174,1,121.445,2|0,2:0|2:0,2:0:0:0:
43,132,185365,5,2,1:0:0:0:
112,228,185482,1,0,2:0:0:0:
6,357,185600,6,0,P|135:334|258:316,1,242.89,8|4,2:1|2:3,2:0:0:0:
449,230,185951,1,0,2:0:0:0:
416,162,186068,6,0,P|384:185|372:236,1,80.0174999999998,0|0,2:0|2:0,2:0:0:0:
449,230,186303,6,0,B|483:126|380:161|414:57,1,182.1675,6|0,1:0|2:0,2:0:0:0:
470,16,186537,2,0,P|408:27|337:43,1,121.445,0|0,2:0|2:0,2:0:0:0:
351,40,186713,1,0,2:0:0:0:
351,40,186772,1,0,1:0:0:0:
331,122,186889,1,0,2:0:0:0:
126,85,187006,6,0,B|74:85|74:7|151:-18|203:59,1,182.1675,8|0,2:1|2:0,2:0:0:0:
261,74,187240,2,0,B|258:96|229:111|229:111|273:102|277:66,1,121.445,6|0,2:3|2:0,2:0:0:0:
327,245,187475,2,0,B|324:222|295:207|295:207|339:216|343:252,1,121.445,10|0,2:3|2:0,2:0:0:0:
103,340,187709,6,0,B|199:372|167:244|263:276,1,182.1675,10|8,2:1|2:1,2:0:0:0:
318,322,187943,2,0,P|272:372|242:342,1,121.445,8|0,2:1|3:0,2:0:0:0:
243,346,188178,5,0,3:0:0:0:
170,254,188295,1,0,3:0:0:0:
306,100,188412,6,0,P|392:122|493:147,1,182.1675,8|0,2:1|2:0,2:0:0:0:
469,59,188647,6,0,P|435:74|413:100,1,53.3449999999999,4|0,1:3|3:0,1:0:0:0:
368,146,188822,1,0,3:0:0:0:
372,152,188881,2,0,P|357:186|360:220,1,53.3449999999999,0|0,3:0|3:0,2:0:0:0:
382,298,189057,5,0,3:0:0:0:
391,303,189115,2,0,B|442:303|442:226|365:200|314:277,1,182.1675,6|0,1:0|2:0,2:0:0:0:
325,342,189350,2,0,P|265:368|215:324,1,121.445,2|0,2:0|2:0,2:0:0:0:
222,340,189584,5,2,1:0:0:0:
273,177,189701,1,0,2:0:0:0:
28,284,189818,6,0,P|104:307|152:211,1,182.1675,8|0,2:1|2:0,2:0:0:0:
112,165,190053,6,0,L|19:157,1,80.0174999999998,4|0,2:3|2:0,2:0:0:0:
26,150,190287,2,0,L|105:156,1,80.0174999999998,2|0,2:0|2:0,2:0:0:0:
190,163,190522,6,0,P|247:128|231:57,1,121.445,6|2,1:0|2:0,2:0:0:0:
172,39,190697,1,0,2:0:0:0:
180,47,190756,2,0,L|304:62,1,121.445,2|0,2:0|2:0,2:0:0:0:
389,122,190932,1,0,2:0:0:0:
381,130,190990,2,0,L|256:145,1,121.445,2|0,1:0|3:0,2:0:0:0:
453,289,191225,5,8,2:1:0:0:
454,276,191283,1,0,2:0:0:0:
456,264,191342,1,0,2:0:0:0:
458,252,191400,1,0,2:0:0:0:
458,246,191459,2,0,L|452:209,7,26.6724999999999,4|0|0|0|0|0|0|0,2:3|2:0|2:0|2:0|2:0|2:0|2:0|2:0,2:0:0:0:
435,141,191928,6,0,B|378:153|371:217|371:217|359:173|306:157,1,182.1675,0|0,1:0|2:0,2:0:0:0:
255,205,192162,2,0,P|219:249|137:249,1,121.445,2|0,2:0|2:0,2:0:0:0:
82,33,192397,2,0,P|102:88|155:115,1,121.445,2|0,1:0|2:0,2:0:0:0:
398,7,192631,6,0,P|380:57|361:125,1,121.445,10|0,2:1|2:0,2:0:0:0:
494,288,192865,2,0,P|459:247|409:196,1,121.445,6|0,2:3|2:0,2:0:0:0:
186,241,193100,2,0,P|238:231|306:213,1,121.445,6|0,2:3|2:0,2:0:0:0:
178,345,193334,5,10,2:1:0:0:
167,338,193393,1,8,2:1:0:0:
157,332,193451,1,8,2:1:0:0:
146,327,193510,1,8,2:1:0:0:
134,323,193568,1,8,2:1:0:0:
45,151,193686,5,0,1:0:0:0:
80,231,193803,1,0,1:0:0:0:
214,48,193920,5,8,2:3:0:0:
384,140,194037,6,0,P|410:108|392:142,1,121.445,8|0,2:1|2:0,2:0:0:0:
414,217,194213,1,0,2:0:0:0:
414,217,194272,2,0,P|427:256|407:223,1,121.445,4|0,2:3|2:0,2:0:0:0:
326,204,194447,1,8,2:1:0:0:
326,204,194506,2,0,P|285:196|323:195,1,121.445,4|0,2:3|2:0,2:0:0:0:
220,303,194740,6,0,B|200:322|162:322|143:283|143:283|124:245|85:245|66:264,1,182.1675,6|0,1:0|2:0,2:0:0:0:
9,338,194975,2,0,B|-21:313|-3:266|-3:266|-5:305|38:324,1,121.445,2|0,2:0|2:0,2:0:0:0:
204,213,195209,6,0,P|215:120|236:24,1,182.1675,2|0,1:0|2:0,2:0:0:0:
229,24,195443,2,0,P|215:86|204:149,1,121.445,8|0,2:1|2:0,2:0:0:0:
373,325,195678,6,0,B|427:337|463:276|463:276|433:309|391:294,1,186.7075,4|0,2:3|2:0,2:0:0:0:
331,256,196147,6,0,P|340:184|349:131,1,121.445,2|0,1:0|2:0,2:0:0:0:
53,215,196381,2,0,P|43:274|35:335,1,121.445,2|0,2:0|2:0,2:0:0:0:
198,168,196615,6,0,B|230:152|262:168|262:168|230:136|198:152,1,121.445,2|0,1:0|2:0,2:0:0:0:
140,114,196791,1,0,2:0:0:0:
140,114,196850,2,0,B|151:80|186:69|186:69|140:68|128:102,1,121.445,8|0,2:1|2:0,2:0:0:0:
351,16,197084,6,0,B|407:55|460:21|460:21|459:26|459:26|431:47|432:82,1,186.7075,4|0,2:3|2:0,2:0:0:0:
369,203,197553,6,0,B|353:265|260:241|252:140|361:102,2,242.89,6|0|0,1:0|2:0|1:0,2:0:0:0:
452,286,198139,1,0,2:0:0:0:
449,297,198197,1,0,2:0:0:0:
446,308,198256,2,0,P|394:320|325:340,1,121.445,8|0,2:1|2:0,2:0:0:0:
145,223,198490,6,0,P|209:264|155:349,1,182.1675,6|0,2:3|2:0,2:0:0:0:
177,353,198725,2,0,P|218:309|213:252,1,121.445,10|0,2:3|2:0,2:0:0:0:
41,92,198959,5,10,2:1:0:0:
49,100,199018,1,8,2:1:0:0:
60,106,199076,1,8,2:1:0:0:
71,111,199135,1,8,2:1:0:0:
83,114,199193,1,8,2:1:0:0:
151,69,199311,6,0,P|215:82|299:101,1,121.445,0|0,3:0|3:0,2:0:0:0:
341,38,199486,1,0,2:0:0:0:
348,47,199545,2,0,P|284:60|200:79,1,121.445,0|8,3:0|2:1,2:0:0:0:
454,321,199897,6,0,L|450:348,6,26.6724999999999,4|0|0|0|0|0|0,1:3|2:0|3:0|3:0|3:0|2:0|3:0,1:0:0:0:
391,263,200307,5,0,3:0:0:0:
391,263,200365,2,0,B|416:294|465:276|465:276|424:277|398:246,1,121.445,6|0,1:0|2:0,2:0:0:0:
212,180,200600,2,0,B|171:186|163:237|163:237|182:201|222:194,1,121.445,2|0,2:0|2:0,2:0:0:0:
364,85,200834,2,0,B|378:46|338:14|338:14|360:48|345:86,1,121.445,2|0,1:0|2:0,2:0:0:0:
351,51,201010,1,0,2:0:0:0:
351,51,201068,1,10,2:1:0:0:
241,62,201303,6,0,P|149:45|57:25,1,186.7075,4|0,2:3|2:0,2:0:0:0:
45,108,201772,6,0,P|109:94|168:84,1,121.445,6|2,1:0|2:0,2:0:0:0:
313,329,202006,2,0,P|269:279|230:234,1,121.445,2|0,2:0|2:0,2:0:0:0:
338,6,202240,5,2,1:0:0:0:
271,50,202357,1,0,3:0:0:0:
375,188,202475,6,0,B|422:160|417:109|417:109|437:156|492:158,1,182.1675,10|0,2:1|2:0,2:0:0:0:
340,117,202709,2,0,L|336:83,7,26.6724999999999,4|0|0|0|0|0|0|0,2:3|2:0|2:0|2:0|2:0|2:0|2:0|2:0,2:0:0:0:
430,174,203178,6,0,P|415:260|398:366,1,182.1675,0|0,1:0|2:0,2:0:0:0:
324,361,203412,2,0,B|288:358|277:314|277:314|296:344|332:347,1,121.445,2|0,2:0|2:0,2:0:0:0:
160,338,203647,2,0,B|141:307|171:273|171:273|157:306|175:336,1,121.445,2|0,1:0|2:0,2:0:0:0:
94,173,203881,1,10,2:1:0:0:
170,197,203998,5,0,2:0:0:0:
176,195,204057,1,0,2:0:0:0:
182,194,204115,2,0,L|191:119,1,64.695,4|0,2:3|2:0,2:0:0:0:
168,58,204291,1,0,2:0:0:0:
173,55,204350,2,0,L|180:119,1,64.695,6|0,2:3|2:0,2:0:0:0:
334,256,204584,5,10,2:1:0:0:
344,249,204643,1,8,2:1:0:0:
355,243,204701,1,8,2:1:0:0:
366,238,204760,1,8,2:1:0:0:
377,234,204818,1,8,2:1:0:0:
446,62,204936,5,0,1:0:0:0:
411,146,205053,1,0,1:0:0:0:
297,29,205170,5,8,2:3:0:0:
494,135,205287,1,8,2:1:0:0:
485,156,205365,2,0,L|498:244,1,80.9633333333334,8|8,2:3|2:3,2:0:0:0:
328,285,205522,6,0,P|369:272|414:263,1,80.9633333333334,8|8,2:3|2:3,2:0:0:0:
256,370,205678,6,0,P|247:330|235:291,1,80.9633333333334,8|8,2:3|2:3,2:0:0:0:
89,252,205834,6,0,P|97:212|109:173,1,80.9633333333334,8|8,2:3|2:3,2:0:0:0:
270,62,205990,1,8,2:3:0:0:
228,123,206107,1,0,2:0:0:0:
64,23,206225,5,8,2:3:0:0:
112,78,206303,2,0,P|152:65|203:55,1,80.9633333333334,8|8,2:3|2:3,2:0:0:0:
304,135,206459,5,8,2:3:0:0:
257,197,206537,2,0,P|269:237|280:288,1,80.9633333333334,8|8,2:3|2:3,2:0:0:0:
468,355,206693,6,0,L|479:264,1,80.0174999999998,12|0,2:1|2:0,2:0:0:0:
425,221,206928,5,2,3:0:0:0:
177,278,207162,5,2,3:0:0:0:
91,248,207279,5,0,2:0:0:0:
88,256,207338,1,0,2:0:0:0:
84,265,207397,2,0,B|180:297|148:169|244:201,1,182.1675,6|0,1:0|2:0,2:0:0:0:
259,126,207631,6,0,P|268:65|276:5,1,121.445,2|0,2:0|2:0,2:0:0:0:
474,165,207865,2,0,P|465:225|456:285,1,121.445,2|0,1:0|2:0,2:0:0:0:
320,308,208100,6,0,B|274:324|249:256|309:208|379:260,1,182.1675,8|0,2:1|2:0,2:0:0:0:
392,337,208334,2,0,L|387:376,7,26.6724999999999,4|0|0|0|0|0|0|0,2:3|2:0|2:0|2:0|2:0|2:0|2:0|2:0,2:0:0:0:
469,308,208803,6,0,B|452:267|419:258|419:258|485:246|501:193,1,182.1675,6|0,1:0|2:0,2:0:0:0:
394,134,209037,2,0,P|414:173|401:131,1,121.445,2|0,2:0|2:0,2:0:0:0:
143,287,209272,2,0,P|163:247|150:289,1,121.445,2|0,1:0|2:0,2:0:0:0:
68,347,209447,1,0,2:0:0:0:
79,343,209506,2,0,P|95:242|106:153,1,182.1675,8|0,2:1|2:0,2:0:0:0:
187,117,209740,6,0,B|167:83|113:70|80:90|80:90|112:77|148:100,1,186.7075,4|0,2:3|2:0,2:0:0:0:
104,162,210209,6,0,P|117:157|472:88,1,364.335,6|0,1:0|2:0,2:0:0:0:
459,88,210619,1,0,2:0:0:0:
459,88,210678,1,0,1:0:0:0:
377,64,210795,1,0,2:0:0:0:
304,282,210912,1,8,2:1:0:0:
304,282,211147,6,0,B|281:236|326:191|326:191|348:215|295:215|315:282,1,182.1675,6|0,2:3|2:0,2:0:0:0:
385,258,211381,2,0,P|390:294|357:328,1,80.0174999999998,10|0,2:3|2:0,2:0:0:0:
295,360,211615,6,0,B|173:400|213:238|92:278,1,242.89,10|8,2:1|2:1,2:0:0:0:
62,128,211967,5,0,3:0:0:0:
32,224,212084,1,0,3:0:0:0:
69,124,212201,1,0,3:0:0:0:
272,278,212318,6,0,P|368:254|453:230,1,182.1675,8|0,2:1|2:0,2:0:0:0:
394,168,212553,6,0,P|374:188|365:222,1,53.3449999999999,4|0,1:3|3:0,1:0:0:0:
329,290,212729,1,0,3:0:0:0:
322,286,212787,2,0,P|312:261|294:242,1,53.3449999999999,0|0,3:0|3:0,2:0:0:0:
230,158,212963,5,0,3:0:0:0:
237,148,213022,2,0,B|293:122|330:207|258:273|165:213,1,182.1675,6|0,1:0|2:0,2:0:0:0:
153,172,213256,6,0,P|142:111|133:47,1,121.445,2|0,2:0|2:0,2:0:0:0:
429,136,213490,2,0,P|437:196|463:316,1,182.1675,2|0,1:0|2:0,2:0:0:0:
390,348,213725,2,0,B|271:333|271:333|269:327|269:327|337:336,1,182.1675,8|0,2:1|2:0,2:0:0:0:
267,257,213959,6,0,P|243:293|188:295,1,80.0174999999998,4|0,2:3|2:0,2:0:0:0:
159,242,214193,2,0,P|183:206|238:204,1,80.0174999999998,2|0,2:0|2:0,2:0:0:0:
122,310,214428,5,6,1:0:0:0:
110,307,214486,1,0,2:0:0:0:
98,305,214545,1,0,2:0:0:0:
86,303,214604,1,0,2:0:0:0:
74,301,214662,6,0,P|57:200|27:108,1,182.1675,2|0,2:0|2:0,2:0:0:0:
62,40,214897,6,0,B|124:57|133:129|133:129|142:84|186:75,1,182.1675,2|0,1:0|2:0,2:0:0:0:
251,79,215131,2,0,P|243:1|154:6,1,182.1675,8|0,2:1|2:0,2:0:0:0:
207,147,215365,6,0,L|212:191,7,26.6724999999999,4|0|0|0|0|0|0|0,2:3|2:0|2:0|2:0|2:0|2:0|2:0|2:0,2:0:0:0:
154,223,215834,6,0,B|172:241|210:241|229:204|229:204|248:166|286:166|305:185,1,182.1675,0|0,1:0|2:0,2:0:0:0:
338,269,216068,2,0,B|373:256|372:208|372:208|361:244|325:257,1,121.445,2|0,2:0|2:0,2:0:0:0:
227,372,216303,2,0,B|191:359|192:311|192:311|203:347|239:360,1,121.445,2|0,1:0|2:0,2:0:0:0:
507,207,216537,6,0,P|394:229|380:102,2,242.89,10|4|6,2:1|2:3|2:3,2:0:0:0:
507,207,217123,1,0,2:0:0:0:
300,34,217240,6,0,P|203:61|62:98,1,242.89,10|8,2:1|2:1,2:0:0:0:
60,338,217592,2,0,P|88:278|122:215,1,121.445,0|0,1:0|1:0,2:0:0:0:
114,229,217826,1,8,2:3:0:0:
390,384,217943,2,0,P|361:324|328:261,1,121.445,8|0,2:1|2:0,2:0:0:0:
367,206,218119,5,0,3:0:0:0:
369,210,218178,2,0,P|363:242|356:268,1,53.3449999999999,4|0,2:3|2:0,2:0:0:0:
267,240,218354,1,8,2:1:0:0:
271,237,218412,2,0,P|277:211|282:184,1,53.3449999999999,4|0,2:3|2:0,2:0:0:0:
336,124,218588,5,0,3:0:0:0:
343,131,218647,2,0,P|406:115|483:90,1,121.445,6|0,1:0|2:0,2:0:0:0:
167,248,218881,2,0,P|121:201|61:147,1,121.445,2|0,2:0|2:0,2:0:0:0:
446,240,219115,2,0,B|428:302|413:369|413:369|410:335|368:303,1,182.1675,2|0,1:0|2:0,2:0:0:0:
263,363,219350,2,0,B|340:376|340:376|336:371|336:371|286:362,1,121.445,8|0,2:1|2:0,2:0:0:0:
55,293,219584,6,0,P|101:332|162:243,1,186.7075,4|0,2:3|2:0,2:0:0:0:
95,226,220053,6,0,P|209:194|319:162,1,216.2175,2|0,1:0|2:0,2:0:0:0:
434,245,220287,2,0,P|349:161|266:83,1,216.2175,2|0,2:0|2:0,2:0:0:0:
378,31,220522,2,0,P|347:145|321:256,1,216.2175,2|0,1:0|2:0,2:0:0:0:
367,309,220756,1,8,2:1:0:0:
114,133,220932,5,0,2:0:0:0:
111,137,220990,2,0,P|84:132|63:82,1,80.0174999999998,4|0,2:3|2:0,2:0:0:0:
123,33,221225,2,0,P|150:38|171:88,1,80.0174999999998,2|0,2:0|2:0,2:0:0:0:
184,157,221459,6,0,B|350:193|420:59|321:-44|252:22,1,364.335,6|0,1:0|2:0,2:0:0:0:
251,22,221869,1,0,2:0:0:0:
251,22,221928,1,0,1:0:0:0:
305,96,222045,1,0,2:0:0:0:
163,304,222162,1,8,2:1:0:0:
163,304,222397,6,0,B|199:272|251:304|251:304|204:293|168:324,1,182.1675,6|0,2:3|2:0,2:0:0:0:
170,328,222631,2,0,B|204:298|251:308|251:308|199:277|162:308,1,182.1675,10|0,2:3|2:0,2:0:0:0:
286,377,222865,5,10,2:1:0:0:
296,371,222924,1,8,2:1:0:0:
306,363,222982,1,8,2:1:0:0:
314,354,223041,1,8,2:1:0:0:
320,344,223100,1,8,2:1:0:0:
416,241,223217,5,0,3:0:0:0:
317,183,223334,1,0,3:0:0:0:
423,237,223451,1,0,3:0:0:0:
223,178,223568,6,0,P|316:153|424:124,1,182.1675,8|0,2:1|2:0,2:0:0:0:
471,128,223803,2,0,P|441:120|408:114,1,53.3449999999999,4|0,1:3|3:0,1:0:0:0:
376,53,223979,1,0,3:0:0:0:
370,51,224037,2,0,P|342:66|314:84,1,53.3449999999999,0|0,3:0|3:0,2:0:0:0:
220,84,224213,5,0,3:0:0:0:
227,74,224272,2,0,P|211:164|191:273,1,182.1675,6|0,1:0|2:0,2:0:0:0:
218,328,224506,2,0,P|280:305|261:259,1,121.445,2|0,2:0|2:0,2:0:0:0:
27,332,224740,5,2,1:0:0:0:
97,296,224857,1,0,2:0:0:0:
99,284,224916,1,0,2:0:0:0:
100,272,224975,2,0,P|88:178|75:81,1,182.1675,10|0,2:1|2:0,2:0:0:0:
122,23,225209,6,0,L|211:39,1,80.0174999999998,4|0,2:3|2:0,2:0:0:0:
209,29,225443,2,0,L|130:14,1,80.0174999999998,2|0,2:0|2:0,2:0:0:0:
213,135,225678,6,0,P|260:91|320:44,1,121.445,6|2,1:0|2:0,2:0:0:0:
326,313,225912,6,0,P|329:248|339:173,1,121.445,2|0,2:0|2:0,2:0:0:0:
336,192,226088,5,0,2:0:0:0:
336,192,226147,1,2,1:0:0:0:
239,248,226264,1,0,3:0:0:0:
456,149,226381,1,8,2:1:0:0:
456,149,226615,6,0,B|440:117|488:73|488:73|488:69|488:69|444:104|376:69,1,186.7075,4|0,2:3|2:0,2:0:0:0:
346,24,227084,6,0,B|287:40|208:51|208:51|208:77|185:102,1,182.1675,0|0,1:0|2:0,2:0:0:0:
143,144,227318,2,0,P|105:89|139:41,1,121.445,2|0,2:0|2:0,2:0:0:0:
346,187,227553,2,0,P|347:244|297:271,1,121.445,2|0,1:0|2:0,2:0:0:0:
45,318,227787,2,0,P|83:275|139:290,1,121.445,10|0,2:1|2:0,2:0:0:0:
178,363,227963,5,0,2:0:0:0:
185,358,228022,2,0,P|194:260|203:148,1,186.7075,4|0,2:3|2:0,2:0:0:0:
263,100,228490,6,0,B|339:72|366:149|334:108|298:104,1,110.095,10|0,2:1|2:0,2:0:0:0:
365,191,228666,1,0,3:0:0:0:
360,202,228725,2,0,B|283:229|256:152|288:193|324:197,2,110.095,0|0|0,3:0|3:0|3:0,2:0:0:0:
475,81,229076,1,0,3:0:0:0:
462,81,229135,1,0,3:0:0:0:
450,84,229193,2,0,L|498:319,1,220.189999999999,0|0,3:0|3:0,3:0:0:0:
430,363,229486,5,0,3:0:0:0:
422,353,229545,2,0,P|395:340|356:336,1,55.0474999999998,0|0,3:0|3:0,2:0:0:0:
360,256,229662,2,0,P|331:265|300:289,1,55.0474999999998,0|0,3:0|3:0,2:0:0:0:
245,229,229779,2,0,P|231:255|225:294,1,55.0474999999998,0|0,3:0|3:0,2:0:0:0:
165,152,229897,6,0,B|88:126|113:228|11:203,1,174.79,0|0,1:0|2:0,2:0:0:0:
31,126,230189,1,0,3:0:0:0:
36,132,230248,2,0,L|54:184,1,43.6975,0|0,3:0|3:0,3:0:0:0:
97,79,230365,2,0,L|111:37,1,43.6975,0|0,3:0|3:0,3:0:0:0:
180,140,230482,1,0,3:0:0:0:
180,140,230541,1,0,3:0:0:0:
180,140,230600,2,0,P|206:153|248:162,1,43.6975,0|0,3:0|3:0,3:0:0:0:
279,57,230717,2,0,P|283:79|284:101,1,43.6975,0|0,3:0|3:0,3:0:0:0:
423,227,230834,6,0,P|421:197|408:157,1,43.6975,0|0,3:0|3:0,3:0:0:0:
301,182,230951,2,0,P|317:167|336:156,1,43.6975,0|0,3:0|3:0,3:0:0:0:
278,277,231068,6,0,L|280:301,2,21.84875,0|0|0,3:0|3:0|3:0,3:0:0:0:
222,222,231186,2,0,L|200:211,2,21.84875,0|0|0,3:0|3:0|3:0,3:0:0:0:
183,318,231303,6,0,P|104:342|-7:369,2,194.085,2|0|0,1:0|1:0|1:0,2:0:0:0:
367,60,232240,6,0,P|418:68|475:81,2,106.69,0|0|0,2:0|2:0|2:0,2:0:0:0:
301,100,232768,5,0,3:0:0:0:
304,104,232826,2,0,L|318:140,1,26.6724999999999,0|0,3:0|3:0,3:0:0:0:
278,179,232943,2,0,L|302:148,1,26.6724999999999,0|0,3:0|3:0,3:0:0:0:
368,158,233061,2,0,L|329:152,1,26.6724999999999,0|0,3:0|3:0,3:0:0:0:
335,241,233178,6,0,L|321:277,1,35.5633333333332,0|0,3:0|3:0,3:0:0:0:
361,316,233334,2,0,L|336:285,1,35.5633333333332,0|0,3:0|3:0,3:0:0:0:
271,295,233490,2,0,L|309:289,1,35.5633333333332,0|0,3:0|3:0,3:0:0:0:
197,358,233647,5,2,3:0:0:0:
278,179,233881,5,2,2:0:0:0:
30,106,234115,6,0,B|152:146|111:-16|234:24,1,242.89,6|0,1:0|2:0,2:0:0:0:
232,23,234467,1,0,3:0:0:0:
235,157,234584,1,0,3:0:0:0:
228,154,234643,2,0,P|203:121|208:80,1,64.695,0|0,3:0|2:0,2:0:0:0:
288,95,234818,6,0,P|256:226|239:349,1,242.89,8|0,2:1|2:0,2:0:0:0:
317,365,235111,2,0,P|355:360|379:339,1,64.695,0|0,2:0|2:0,2:0:0:0:
321,292,235287,5,0,1:0:0:0:
231,191,235404,1,0,1:0:0:0:
365,51,235522,6,0,L|446:41,1,58.2633333333333,0|0,3:0|2:0,2:0:0:0:
498,159,235678,2,0,P|480:133|445:112,1,58.2633333333333,0|0,3:0|2:0,2:0:0:0:
394,242,235834,2,0,P|415:218|427:179,1,58.2633333333333,0|0,3:0|2:0,2:0:0:0:
304,113,235990,5,8,2:1:0:0:
341,295,236107,1,0,3:0:0:0:
301,229,236225,6,0,P|269:220|230:226,1,58.2633333333333,0|0,3:0|3:0,2:0:0:0:
129,371,236381,1,0,3:0:0:0:
192,326,236459,6,0,P|188:290|180:241,1,64.695,2|0,3:0|3:0,2:0:0:0:
159,191,236635,1,0,3:0:0:0:
154,186,236693,2,0,P|157:150|166:101,1,64.695,2|0,3:0|3:0,2:0:0:0:
229,72,236869,5,0,3:0:0:0:
224,83,236928,2,0,B|177:112|119:84|97:51|97:51|151:77|198:48,1,242.89,8|0,2:1|2:0,2:0:0:0:
315,15,237240,6,0,P|311:56|336:101,1,80.9633333333334,0|0,3:0|3:0,2:0:0:0:
445,128,237397,5,0,2:0:0:0:
404,62,237514,1,0,2:0:0:0:
285,267,237631,6,0,P|198:292|102:315,1,182.1675,8|0,2:1|2:0,2:0:0:0:
52,261,237865,2,0,L|58:218,4,32.3475,0|0|0|0|0,3:0|3:0|3:0|3:0|3:0,3:0:0:0:
122,38,238217,5,0,3:0:0:0:
120,44,238275,1,0,3:0:0:0:
118,52,238334,2,0,P|162:67|224:84,1,87.3949999999999,0|0,3:0|3:0,2:0:0:0:
199,151,238510,1,0,3:0:0:0:
190,155,238568,2,0,P|146:140|84:123,1,87.3949999999999,0|0,3:0|3:0,2:0:0:0:
75,206,238744,1,0,3:0:0:0:
84,202,238803,2,0,P|128:217|190:234,1,87.3949999999999,0|0,3:0|3:0,2:0:0:0:
201,302,238979,5,0,3:0:0:0:
207,312,239037,2,0,P|285:315|260:211,1,182.1675,8|0,2:1|2:0,2:0:0:0:
252,155,239272,6,0,L|365:130,1,97.0425,2|0,3:0|3:0,2:0:0:0:
385,68,239506,2,0,L|470:85,1,64.695,2|0,3:0|3:0,2:0:0:0:
500,271,239740,1,2,3:0:0:0:
496,259,239799,1,0,3:0:0:0:
493,247,239857,2,0,P|463:254|422:281,1,60.7225,0|0,3:0|2:0,2:0:0:0:
300,204,239975,2,0,P|321:226|364:248,1,60.7225,0|0,3:0|2:0,2:0:0:0:
369,378,240092,2,0,P|377:348|375:299,1,64.695,0|0,3:0|2:0,2:0:0:0:
378,314,240326,5,0,3:0:0:0:
180,202,240443,2,0,B|47:226|47:226|50:221|50:221|104:211,1,182.1675,8|0,2:1|2:0,2:0:0:0:
84,141,240678,6,0,B|111:116|74:74|20:98|30:164,1,129.39,0|0,3:0|3:0,2:0:0:0:
73,231,240971,1,0,1:0:0:0:
81,235,241029,2,0,L|128:228,1,32.3475,0|0,3:0|2:0,2:0:0:0:
209,301,241147,6,0,L|458:345,1,233.053333333333,0|0,1:0|3:0,2:0:0:0:
497,277,241537,1,0,3:0:0:0:
437,221,241615,2,0,L|423:96,1,116.526666666667,0|0,3:0|2:0,2:0:0:0:
284,32,241850,1,0,3:0:0:0:
247,99,241928,6,0,P|289:117|310:115,1,58.2633333333333,0|0,3:0|2:0,2:0:0:0:
206,33,242084,6,0,P|158:46|89:64,1,97.0425,6|0,2:3|2:0,2:0:0:0:
76,132,242318,1,2,3:0:0:0:
78,138,242377,2,0,P|124:151|155:161,1,64.695,0|0,3:0|2:0,2:0:0:0:
164,236,242553,5,2,1:0:0:0:
256,192,242611,12,0,248178,2:0:0:0:
432,252,248412,6,0,B|413:253|409:250|409:250|410:253|405:251|405:251|406:254|401:251|401:251|402:254|398:252|398:252|399:255|394:252|394:252|395:255|390:252|390:252|391:256|387:252|387:252|388:256|380:257|380:257|376:254|369:259|369:259|366:255|325:264|325:264|322:261|322:261|318:265|296:270|296:270|292:266|292:266|285:262|285:262|241:281|214:244,1,249.7,0|0,3:0|2:0,2:0:0:0:
61,123,253803,6,0,B|157:27|253:123|253:123|187:143|157:219|157:219|173:172|148:135,1,424.49,0|0,2:0|2:0,2:0:0:0:
431,247,256615,6,0,B|383:259|352:230|352:230|358:267|500:280|500:280|507:289|507:289|406:262|372:359,1,424.49,0|0,2:0|2:0,2:0:0:0:
55,44,259428,6,0,B|125:11|195:82|195:82|265:152|336:117|336:117|406:82|476:152|476:152|406:117|336:152|336:152|265:187|230:257|230:257|195:328|265:398|336:328|300:257|249:224|249:224|183:184|131:231|131:231|92:266|92:266|126:227|153:195|103:113|103:113|33:118|0:217|23:239|23:239|29:184|68:168,1,1620.78,2|0,2:0|2:0,2:0:0:0:
