osu file format v14

[General]
AudioFilename: audio.mp3
AudioLeadIn: 0
PreviewTime: 45071
Countdown: 0
SampleSet: Normal
StackLeniency: 0.3
Mode: 0
LetterboxInBreaks: 0
WidescreenStoryboard: 0

[Editor]
Bookmarks: 13163,32799,45889,50798,62252,64982,65525,81888,101524,124432,132613,136568,163703,227527,231346,233527,242255
DistanceSpacing: 1
BeatDivisor: 4
GridSize: 4
TimelineZoom: 2.000007

[Metadata]
Title:Hibi Darake no Me
TitleUnicode:ヒビダラケの眼
Artist:KikuoHana
ArtistUnicode:きくおはな
Creator:Amos
Version:Fragile
Source:
Tags:help me
BeatmapID:1293337
BeatmapSetID:612915

[Difficulty]
HPDrainRate:6
CircleSize:2
OverallDifficulty:8
ApproachRate:9.3
SliderMultiplier:2.00000000596047
SliderTickRate:1

[Events]
//Background and Video events
0,0,"hana.jpg",0,0
//Break Periods
2,65525,81337
2,132818,136019
//Storyboard Layer 0 (Background)
//Storyboard Layer 1 (Fail)
//Storyboard Layer 2 (Pass)
//Storyboard Layer 3 (Foreground)
//Storyboard Sound Samples

[TimingPoints]
1709.70967741935,272.727272727273,3,1,0,43,1,0
10811,-1000,3,1,0,43,0,0
11527,-100,3,1,0,43,0,0
13163,-333,3,1,0,43,0,0
15890,-66.6666666666667,3,1,0,43,0,0
16436,-333,3,1,0,43,0,0
19163,-66.6666666666667,3,1,0,43,0,0
19709,-200,3,1,0,43,0,0
22163,-100,3,1,0,43,0,0
22436,-58.8235294117647,3,1,0,43,0,0
22981,-100,3,1,0,43,0,0
25708,-58.8235294117647,3,1,0,43,0,0
26254,-100,3,1,0,43,0,0
28981,-58.8235294117647,3,1,0,43,0,0
29526,-100,3,1,0,43,0,0
32254,-58.8235294117647,3,1,0,43,0,0
32799,-200,3,1,0,43,0,0
45889,-10000,3,1,0,43,0,0
52435,-200,3,1,0,43,0,0
58980,-10000,3,1,0,43,0,0
62252,-100,3,1,0,43,0,0
101524,-700,3,1,0,43,0,0
136568,-100,3,1,0,43,0,1
139159,-90.9090909090909,3,1,0,43,0,1
139977,-100,3,1,0,43,0,1
140795,-83.3333333333333,3,1,0,43,0,1
141613,-100,3,1,0,43,0,1
142431,-76.9230769230769,3,1,0,43,0,1
143249,-100,3,1,0,43,0,1
144067,-71.4285714285714,3,1,0,43,0,1
144886,-100,3,1,0,43,0,1
145704,-66.6666666666667,3,1,0,43,0,1
146522,-100,3,1,0,43,0,1
147340,-62.5,3,1,0,43,0,1
148158,-100,3,1,0,43,0,1
148976,-58.8235294117647,3,1,0,43,0,1
149795,-100,3,1,0,43,0,1
150613,-1000,3,1,0,43,0,0
163703,-66.6666666666667,3,1,0,43,0,1
184157,-200,3,1,0,43,0,1
184361,-66.6666666666667,3,1,0,43,0,1
190709,-200,3,1,0,43,0,1
196436,-66.6666666666667,3,1,0,43,0,1
202709,-200,3,1,0,43,0,1
204482,-66.6666666666667,3,1,0,43,0,1
209936,-200,3,1,0,43,0,1
210891,-66.6666666666667,3,1,0,43,0,1
219618,-200,3,1,0,43,0,1
220982,-66.6666666666667,3,1,0,43,0,1
222073,-133.333333333333,3,1,0,43,0,1
224527,-200,3,1,0,43,0,1
231346,1090.90909090909,3,1,0,43,1,0
231346,-500,3,1,0,43,0,0
233527,272.727272727273,3,1,0,43,1,0

[HitObjects]
328,256,13164,6,0,L|288:212,1,60.0600602390532,0|0,2:0|2:0,2:0:0:0:
368,60,13709,1,0,2:0:0:0:
244,216,13982,6,0,L|204:172,1,60.0600602390532,0|0,2:0|2:0,2:0:0:0:
368,60,14527,1,0,2:0:0:0:
160,176,14800,6,0,L|120:132,1,60.0600602390532,0|0,2:0|2:0,2:0:0:0:
368,60,15346,1,0,2:0:0:0:
328,256,15618,1,0,2:0:0:0:
220,308,15891,6,0,L|148:288,1,75.0000030845407,0|0,2:0|2:0,2:0:0:0:
104,272,16027,2,0,L|176:248,1,75.0000030845407,0|0,2:0|2:0,2:0:0:0:
220,236,16164,2,0,L|148:212,1,75.0000030845407,0|0,2:0|2:0,2:0:0:0:
104,200,16300,2,0,L|176:176,1,75.0000030845407,0|0,2:0|2:0,2:0:0:0:
164,68,16436,5,0,2:0:0:0:
324,180,16709,1,0,2:0:0:0:
356,204,16982,1,0,2:0:0:0:
164,68,17255,5,0,2:0:0:0:
356,204,17527,1,0,2:0:0:0:
324,180,17800,1,0,2:0:0:0:
356,204,18073,5,0,2:0:0:0:
324,180,18346,1,0,2:0:0:0:
164,68,18618,1,0,2:0:0:0:
324,180,18891,1,0,2:0:0:0:
392,80,19164,6,2,L|428:156,1,75.0000030845407,2|2,2:0|2:0,2:0:0:0:
454,216,19300,2,2,L|422:144,1,75.0000030845407,2|2,2:0|2:0,2:0:0:0:
392,80,19436,2,2,L|360:148,1,75.0000030845407,2|2,2:0|2:0,2:0:0:0:
454,216,19573,2,2,L|480:144,1,75.0000030845407,2|2,2:0|2:0,2:0:0:0:
392,80,19709,5,0,2:0:0:0:
136,56,19982,2,0,P|112:116|112:164,1,100.000000298023,0|0,2:0|2:0,2:0:0:0:
392,80,20527,5,0,2:0:0:0:
110,150,20800,2,0,P|86:210|86:258,1,100.000000298023,0|0,2:0|2:0,2:0:0:0:
392,80,21346,5,0,2:0:0:0:
84,244,21618,2,0,P|60:304|60:352,1,100.000000298023,0|0,2:0|2:0,2:0:0:0:
256,276,22164,6,0,L|368:244,1,100.000000298023,0|0,2:0|2:0,2:0:0:0:
232,184,22436,6,0,L|136:228,1,85.0000018745663,0|0,2:0|2:0,2:0:0:0:
140,168,22573,2,0,L|48:208,1,85.0000018745663,0|0,2:0|2:0,2:0:0:0:
154,219,22709,6,0,L|232:184,1,85.0000018745663,0|0,2:0|2:0,2:0:0:0:
62,201,22846,2,0,L|140:168,1,85.0000018745663,0|0,2:0|2:0,2:0:0:0:
232,184,22982,5,0,2:0:0:0:
60,320,23255,1,0,2:0:0:0:
60,320,23527,1,0,2:0:0:0:
344,168,23800,2,0,P|320:116|280:88,1,100.000000298023,0|0,2:0|2:0,2:0:0:0:
60,320,24073,5,0,2:0:0:0:
60,320,24346,1,0,2:0:0:0:
401,245,24618,2,0,P|377:193|337:165,1,100.000000298023,0|0,2:0|2:0,2:0:0:0:
60,320,24891,5,0,2:0:0:0:
60,320,25164,1,0,2:0:0:0:
458,322,25436,2,0,P|434:270|394:242,1,100.000000298023,0|0,2:0|2:0,2:0:0:0:
205,138,25709,6,0,L|255:208,1,85.0000018745663,0|0,2:0|2:0,2:0:0:0:
309,142,25846,2,0,L|252:208,1,85.0000018745663,0|0,2:0|2:0,2:0:0:0:
205,138,25982,2,0,L|255:208,1,85.0000018745663,0|0,2:0|2:0,2:0:0:0:
309,142,26118,2,0,L|252:208,1,85.0000018745663,0|0,2:0|2:0,2:0:0:0:
256,304,26255,5,0,2:0:0:0:
256,304,26527,2,0,B|256:191|256:191|140:191,1,200.000000596047,0|0,2:0|2:0,2:0:0:0:
356,191,27073,2,0,L|256:191,1,100.000000298023,0|0,2:0|2:0,2:0:0:0:
256,191,27346,2,0,B|143:191|143:191|143:307,1,200.000000596047,0|0,2:0|2:0,2:0:0:0:
148,95,27891,2,0,L|148:195,1,100.000000298023,0|0,2:0|2:0,2:0:0:0:
148,195,28164,2,0,B|148:308|148:308|264:308,1,200.000000596047,0|0,2:0|2:0,2:0:0:0:
468,167,28709,2,0,L|400:240,1,100.000000298023,0|0,2:0|2:0,2:0:0:0:
247,171,28982,6,0,L|311:103,1,85.0000018745663,0|0,2:0|2:0,2:0:0:0:
364,48,29118,2,0,L|291:123,1,85.0000018745663,0|0,2:0|2:0,2:0:0:0:
247,171,29255,6,0,L|311:103,1,85.0000018745663,0|0,2:0|2:0,2:0:0:0:
364,48,29391,2,0,L|291:123,1,85.0000018745663,0|0,2:0|2:0,2:0:0:0:
247,171,29527,5,0,2:0:0:0:
200,320,29800,1,0,2:0:0:0:
108,232,30073,1,0,2:0:0:0:
184,172,30346,2,0,P|135:197|100:250,1,100.000000298023,0|0,2:0|2:0,2:0:0:0:
372,276,30618,5,0,2:0:0:0:
280,188,30891,1,0,2:0:0:0:
356,128,31164,2,0,P|307:153|272:206,1,100.000000298023,0|0,2:0|2:0,2:0:0:0:
200,320,31436,5,0,2:0:0:0:
108,232,31709,1,0,2:0:0:0:
184,172,31982,2,0,P|135:197|100:250,1,100.000000298023,0|0,2:0|2:0,2:0:0:0:
400,152,32255,6,0,L|352:232,1,85.0000018745663,0|0,2:0|2:0,2:0:0:0:
444,80,32391,2,0,L|391:165,1,85.0000018745663,0|0,2:0|2:0,2:0:0:0:
310,296,32527,6,0,L|358:220,1,85.0000018745663,0|0,2:0|2:0,2:0:0:0:
265,368,32664,2,0,L|309:296,1,85.0000018745663,0|0,2:0|2:0,2:0:0:0:
399,152,32800,6,0,L|455:64,2,100.000000298023,0|0|0,2:0|2:0|2:0,2:0:0:0:
232,236,33618,2,0,L|178:320,2,100.000000298023,0|0|0,2:0|2:0|2:0,2:0:0:0:
399,152,34436,2,0,L|455:64,3,100.000000298023,0|0|0|0,2:0|2:0|2:0|2:0,2:0:0:0:
113,152,36073,6,0,L|59:67,2,100.000000298023,0|0|0,2:0|2:0|2:0,2:0:0:0:
280,236,36891,2,0,L|333:320,2,100.000000298023,0|0|0,2:0|2:0|2:0,2:0:0:0:
113,152,37709,2,0,L|59:67,3,100.000000298023,0|0|0|0,2:0|2:0|2:0|2:0,2:0:0:0:
336,108,39346,5,0,2:0:0:0:
349,138,39618,1,0,2:0:0:0:
357,170,39891,1,0,2:0:0:0:
361,203,40164,1,0,2:0:0:0:
360,237,40436,1,0,2:0:0:0:
354,269,40709,1,0,2:0:0:0:
343,301,40982,1,0,2:0:0:0:
168,301,41800,5,0,2:0:0:0:
156,269,42073,1,0,2:0:0:0:
150,236,42346,1,0,2:0:0:0:
149,203,42618,1,0,2:0:0:0:
168,83,45073,5,0,2:0:0:0:
156,115,45346,1,0,2:0:0:0:
150,148,45618,1,0,2:0:0:0:
140,188,45891,2,0,B|216:284|216:284|352:88|216:284|360:280,1,360.000001072885,0|0,2:0|2:0,2:0:0:0:
200,52,51891,6,0,L|176:52,2,20.0000000596047,0|0|0,2:0|2:0|2:0,2:0:0:0:
464,172,52709,5,0,2:0:0:0:
437,192,52846,1,0,2:0:0:0:
409,210,52982,1,0,2:0:0:0:
379,225,53118,1,0,2:0:0:0:
256,144,53255,1,0,2:0:0:0:
437,192,53527,5,0,2:0:0:0:
410,212,53664,1,0,2:0:0:0:
382,230,53800,1,0,2:0:0:0:
352,245,53936,1,0,2:0:0:0:
256,144,54073,1,0,2:0:0:0:
410,212,54346,5,0,2:0:0:0:
383,232,54482,1,0,2:0:0:0:
355,250,54618,1,0,2:0:0:0:
325,265,54755,1,0,2:0:0:0:
256,144,54891,1,0,2:0:0:0:
383,232,55164,5,0,2:0:0:0:
356,252,55300,1,0,2:0:0:0:
328,270,55436,1,0,2:0:0:0:
298,285,55573,1,0,2:0:0:0:
267,296,55709,1,0,2:0:0:0:
120,216,55982,6,0,L|84:172,2,50.0000001490117,0|0|0,2:0|2:0|2:0,2:0:0:0:
247,352,56391,1,0,2:0:0:0:
222,329,56527,1,0,2:0:0:0:
95,193,56800,6,0,L|59:149,2,50.0000001490117,0|0|0,2:0|2:0|2:0,2:0:0:0:
222,329,57209,1,0,2:0:0:0:
197,306,57345,1,0,2:0:0:0:
70,170,57618,6,0,L|34:126,2,50.0000001490117,0|0|0,2:0|2:0|2:0,2:0:0:0:
197,306,58027,1,0,2:0:0:0:
172,283,58163,1,0,2:0:0:0:
172,283,58436,1,0,2:0:0:0:
172,283,58709,1,0,2:0:0:0:
172,283,58982,6,0,P|136:248|124:180,1,120.000000357628,0|0,2:0|2:0,2:0:0:0:
336,112,61436,2,0,L|364:140,1,40.0000001192094,0|0,2:0|2:0,2:0:0:0:
324,264,62255,1,0,2:0:0:0:
256,100,81891,6,0,P|352:128|392:228,1,200.000000596047,0|0,2:0|2:0,2:0:0:0:
392,213,82300,1,0,2:0:0:0:
298,187,82436,1,0,2:0:0:0:
256,100,82572,1,0,2:0:0:0:
256,99,82709,2,0,P|349:125|392:213,1,200.000000596047,0|0,2:0|2:0,2:0:0:0:
288,196,83118,1,0,2:0:0:0:
88,180,83255,5,0,2:0:0:0:
88,180,83527,2,0,P|124:260|220:312,1,200.000000596047,0|0,2:0|2:0,2:0:0:0:
196,128,83936,1,0,2:0:0:0:
217,190,84073,1,0,2:0:0:0:
267,232,84209,1,0,2:0:0:0:
88,180,84346,2,0,P|124:260|220:312,1,200.000000596047,0|0,2:0|2:0,2:0:0:0:
196,200,84755,1,0,2:0:0:0:
356,248,84891,1,0,2:0:0:0:
356,248,85164,6,0,B|456:216|456:216|492:108,1,200.000000596047,0|0,2:0|2:0,2:0:0:0:
360,252,85573,1,0,2:0:0:0:
452,216,85709,1,0,2:0:0:0:
490,130,85846,1,0,2:0:0:0:
360,252,85982,2,0,B|460:220|460:220|496:112,1,200.000000596047,0|0,2:0|2:0,2:0:0:0:
351,95,86527,5,0,2:0:0:0:
351,95,86800,2,0,P|261:48|155:67,1,200.000000596047,0|0,2:0|2:0,2:0:0:0:
131,191,87209,1,0,2:0:0:0:
149,126,87346,1,0,2:0:0:0:
167,62,87482,1,0,2:0:0:0:
351,95,87618,2,0,P|261:48|155:67,1,200.000000596047,0|0,2:0|2:0,2:0:0:0:
240,272,88164,5,0,2:0:0:0:
240,272,88436,2,0,B|344:292|344:292|432:256,1,200.000000596047,0|0,2:0|2:0,2:0:0:0:
256,176,88846,1,0,2:0:0:0:
340,288,88982,1,0,2:0:0:0:
256,176,89118,1,0,2:0:0:0:
240,272,89255,2,0,B|344:292|344:292|432:256,1,200.000000596047,0|0,2:0|2:0,2:0:0:0:
336,200,89664,1,0,2:0:0:0:
136,192,89800,5,0,2:0:0:0:
136,192,90073,2,0,B|204:148|204:148|184:96|184:96|252:56,1,200.000000596047,0|0,2:0|2:0,2:0:0:0:
92,96,90482,1,0,2:0:0:0:
238,64,90618,1,0,2:0:0:0:
92,96,90755,1,0,2:0:0:0:
136,192,90891,2,0,B|204:148|204:148|184:96|184:96|252:56,1,200.000000596047,0|0,2:0|2:0,2:0:0:0:
328,312,91300,1,0,2:0:0:0:
476,192,91436,5,0,2:0:0:0:
476,192,91709,2,0,L|268:192,1,200.000000596047,0|0,2:0|2:0,2:0:0:0:
182,189,92118,1,0,2:0:0:0:
115,189,92255,1,0,2:0:0:0:
48,189,92391,1,0,2:0:0:0:
276,192,92527,2,0,L|476:192,1,200.000000596047,0|0,2:0|2:0,2:0:0:0:
72,268,93073,1,0,2:0:0:0:
72,268,93346,6,0,P|96:160|72:60,1,200.000000596047,0|0,2:0|2:0,2:0:0:0:
216,56,93755,1,0,2:0:0:0:
216,123,93891,1,0,2:0:0:0:
216,189,94027,1,0,2:0:0:0:
78,73,94164,2,0,P|54:169|71:267,1,200.000000596047,0|0,2:0|2:0,2:0:0:0:
384,308,94709,1,0,2:0:0:0:
384,308,94982,6,0,P|276:332|176:308,1,200.000000596047,0|0,2:0|2:0,2:0:0:0:
155,257,95391,1,0,2:0:0:0:
222,257,95527,1,0,2:0:0:0:
189,314,95664,1,0,2:0:0:0:
155,257,95800,2,0,P|263:233|363:257,1,200.000000596047,0|0,2:0|2:0,2:0:0:0:
264,324,96209,1,0,2:0:0:0:
80,48,96346,5,0,2:0:0:0:
80,48,96618,2,0,B|181:54|181:54|249:138,1,200.000000596047,0|0,2:0|2:0,2:0:0:0:
243,257,97027,1,0,2:0:0:0:
243,130,97164,1,0,2:0:0:0:
352,193,97300,1,0,2:0:0:0:
80,48,97436,2,0,B|181:54|181:54|249:138,1,200.000000596047,0|0,2:0|2:0,2:0:0:0:
268,253,97982,1,0,2:0:0:0:
268,253,98255,6,0,B|331:330|331:330|432:336,1,200.000000596047,0|0,2:0|2:0,2:0:0:0:
160,191,98663,1,0,2:0:0:0:
269,254,98799,1,0,2:0:0:0:
269,127,98936,1,0,2:0:0:0:
268,253,99073,2,0,B|331:330|331:330|432:336,1,200.000000596047,0|0,2:0|2:0,2:0:0:0:
424,208,99618,1,0,2:0:0:0:
424,208,99891,6,0,B|416:104|352:72|272:64,1,200.000000596047,0|0,2:0|2:0,2:0:0:0:
316,184,100300,1,0,2:0:0:0:
253,208,100436,1,0,2:0:0:0:
191,232,100573,1,0,2:0:0:0:
424,208,100709,2,0,B|416:104|352:72|272:64,1,200.000000596047,0|0,2:0|2:0,2:0:0:0:
128,180,101255,1,0,2:0:0:0:
128,180,101527,6,0,L|104:204,1,28.5714286565781,0|0,2:0|2:0,2:0:0:0:
240,288,102346,2,0,L|264:308,1,28.5714286565781,0|0,2:0|2:0,2:0:0:0:
376,208,103164,2,0,L|404:220,1,28.5714286565781,0|0,2:0|2:0,2:0:0:0:
424,72,103982,2,0,L|456:84,1,28.5714286565781,0|0,2:0|2:0,2:0:0:0:
192,72,104800,6,0,L|168:92,3,28.5714286565781,0|0|0|0,2:0|2:0|2:0|2:0,2:0:0:0:
84,244,106164,1,0,2:0:0:0:
84,244,106436,2,0,P|112:260|164:264,1,85.7142859697344,0|0,2:0|2:0,2:0:0:0:
340,136,107800,5,0,2:0:0:0:
340,136,108073,2,0,P|276:116|180:152,1,171.428571939469,0|0,2:0|2:0,2:0:0:0:
76,212,111346,6,0,L|56:232,1,28.5714286565781,0|0,2:0|2:0,2:0:0:0:
204,264,112164,2,0,L|208:296,1,28.5714286565781,0|0,2:0|2:0,2:0:0:0:
296,104,112982,2,0,L|324:88,1,28.5714286565781,0|0,2:0|2:0,2:0:0:0:
396,216,113800,2,0,L|424:240,1,28.5714286565781,0|0,2:0|2:0,2:0:0:0:
128,88,114618,5,0,2:0:0:0:
128,88,114891,2,0,L|100:80,2,28.5714286565781,0|0|0,2:0|2:0|2:0,2:0:0:0:
236,212,115982,1,0,2:0:0:0:
236,212,116255,2,0,P|260:240|308:256,1,85.7142859697344,0|0,2:0|2:0,2:0:0:0:
408,160,117346,1,0,2:0:0:0:
408,160,117618,1,0,2:0:0:0:
408,160,117891,2,0,P|364:116|256:120,1,171.428571939469,0|0,2:0|2:0,2:0:0:0:
96,76,120618,2,0,L|64:64,2,28.5714286565781,0|0|0,2:0|2:0|2:0,2:0:0:0:
136,284,123891,5,0,2:0:0:0:
136,284,124164,1,0,2:0:0:0:
136,284,124436,1,0,2:0:0:0:
256,192,124573,12,0,132618,2:0:0:0:
356,92,136573,5,0,2:0:0:0:
307,330,136709,1,0,2:0:0:0:
384,132,136846,1,0,2:0:0:0:
257,339,136982,1,0,2:0:0:0:
396,179,137118,1,0,2:0:0:0:
207,331,137255,1,0,2:0:0:0:
392,228,137391,1,0,2:0:0:0:
48,344,137527,5,0,2:0:0:0:
48,277,137664,1,0,2:0:0:0:
48,210,137800,1,0,2:0:0:0:
48,344,137936,5,0,2:0:0:0:
48,277,138073,1,0,2:0:0:0:
48,210,138209,1,0,2:0:0:0:
264,284,138346,5,0,2:0:0:0:
460,156,138482,1,0,2:0:0:0:
256,48,138618,1,0,2:0:0:0:
388,240,138755,1,0,2:0:0:0:
192,116,138891,1,0,2:0:0:0:
424,116,139027,1,0,2:0:0:0:
48,344,139164,5,0,2:0:0:0:
48,270,139300,1,0,2:0:0:0:
48,197,139436,1,0,2:0:0:0:
48,344,139573,5,0,2:0:0:0:
48,270,139709,1,0,2:0:0:0:
48,197,139846,1,0,2:0:0:0:
348,208,139982,5,0,2:0:0:0:
406,240,140118,1,0,2:0:0:0:
289,175,140255,1,0,2:0:0:0:
347,207,140391,1,0,2:0:0:0:
230,142,140527,1,0,2:0:0:0:
288,174,140664,1,0,2:0:0:0:
48,344,140800,5,0,2:0:0:0:
48,264,140936,1,0,2:0:0:0:
48,184,141073,1,0,2:0:0:0:
48,344,141209,5,0,2:0:0:0:
48,264,141346,1,0,2:0:0:0:
48,184,141482,1,0,2:0:0:0:
240,320,141618,5,0,2:0:0:0:
424,176,141755,1,0,2:0:0:0:
188,180,141891,1,0,2:0:0:0:
396,72,142027,1,0,2:0:0:0:
396,304,142164,1,0,2:0:0:0:
292,96,142300,1,0,2:0:0:0:
48,344,142436,5,0,2:0:0:0:
48,257,142573,1,0,2:0:0:0:
48,170,142709,1,0,2:0:0:0:
48,344,142846,5,0,2:0:0:0:
48,257,142982,1,0,2:0:0:0:
48,170,143118,1,0,2:0:0:0:
260,76,143255,5,0,2:0:0:0:
260,76,143391,1,0,2:0:0:0:
400,260,143527,1,0,2:0:0:0:
400,260,143664,1,0,2:0:0:0:
180,176,143800,1,0,2:0:0:0:
180,176,143936,1,0,2:0:0:0:
48,344,144073,5,0,2:0:0:0:
48,250,144209,1,0,2:0:0:0:
48,157,144346,1,0,2:0:0:0:
48,344,144482,5,0,2:0:0:0:
48,250,144618,1,0,2:0:0:0:
48,157,144755,1,0,2:0:0:0:
340,72,144891,6,0,L|376:112,1,50.0000001490117,0|0,2:0|2:0,2:0:0:0:
320,204,145027,2,0,L|288:164,1,50.0000001490117,0|0,2:0|2:0,2:0:0:0:
401,179,145164,6,0,L|394:232,1,50.0000001490117,0|0,2:0|2:0,2:0:0:0:
287,248,145300,2,0,L|298:198,1,50.0000001490117,0|0,2:0|2:0,2:0:0:0:
359,295,145436,6,0,L|313:324,1,50.0000001490117,0|0,2:0|2:0,2:0:0:0:
233,252,145572,2,0,L|278:228,1,50.0000001490117,0|0,2:0|2:0,2:0:0:0:
48,344,145709,5,0,2:0:0:0:
48,244,145846,1,0,2:0:0:0:
48,143,145982,1,0,2:0:0:0:
48,344,146118,5,0,2:0:0:0:
48,244,146255,1,0,2:0:0:0:
48,143,146391,1,0,2:0:0:0:
252,88,146527,5,0,2:0:0:0:
444,216,146664,2,0,L|408:252,1,50.0000001490117,0|0,2:0|2:0,2:0:0:0:
252,88,146800,1,0,2:0:0:0:
416,293,146936,2,0,L|364:312,1,50.0000001490117,0|0,2:0|2:0,2:0:0:0:
252,88,147073,1,0,2:0:0:0:
358,351,147209,2,0,L|304:344,1,50.0000001490117,0|0,2:0|2:0,2:0:0:0:
48,344,147346,5,0,2:0:0:0:
48,237,147482,1,0,2:0:0:0:
48,130,147618,1,0,2:0:0:0:
48,344,147755,5,0,2:0:0:0:
48,237,147891,1,0,2:0:0:0:
48,130,148027,1,0,2:0:0:0:
280,84,148164,6,0,L|224:124,1,50.0000001490117,0|0,2:0|2:0,2:0:0:0:
348,172,148300,2,0,L|400:208,1,50.0000001490117,0|0,2:0|2:0,2:0:0:0:
264,220,148436,2,0,L|212:256,1,50.0000001490117,0|0,2:0|2:0,2:0:0:0:
332,308,148573,2,0,L|380:340,1,50.0000001490117,0|0,2:0|2:0,2:0:0:0:
348,172,148709,2,0,L|400:208,1,50.0000001490117,0|0,2:0|2:0,2:0:0:0:
280,84,148846,2,0,L|224:120,1,50.0000001490117,0|0,2:0|2:0,2:0:0:0:
48,344,148982,5,0,2:0:0:0:
48,230,149118,1,0,2:0:0:0:
48,117,149255,1,0,2:0:0:0:
48,344,149391,5,0,2:0:0:0:
48,230,149527,1,0,2:0:0:0:
48,117,149664,1,0,2:0:0:0:
272,44,149800,5,0,2:0:0:0:
112,216,149936,1,0,2:0:0:0:
360,116,150073,1,0,2:0:0:0:
200,288,150209,1,0,2:0:0:0:
452,176,150346,1,0,2:0:0:0:
292,348,150482,1,0,2:0:0:0:
360,116,150618,6,0,P|336:100|300:104,1,65.0000001937153,0|0,2:0|2:0,2:0:0:0:
68,100,151709,1,0,2:0:0:0:
68,100,151982,1,0,2:0:0:0:
68,100,152255,2,0,P|76:120|136:168,1,100.000000298023,0|0,2:0|2:0,2:0:0:0:
396,168,153891,6,0,P|376:196|360:216,1,60.0000001788141,0|0,2:0|2:0,2:0:0:0:
164,312,154982,1,0,2:0:0:0:
164,312,155255,1,0,2:0:0:0:
164,312,155527,2,0,P|152:296|144:216,1,100.000000298023,0|0,2:0|2:0,2:0:0:0:
304,88,157164,6,0,B|328:100|328:100|344:132,1,60.0000001788141,0|0,2:0|2:0,2:0:0:0:
296,284,158255,1,0,2:0:0:0:
252,272,158527,1,0,2:0:0:0:
208,260,158800,2,0,P|168:240|140:192,1,100.000000298023,0|0,2:0|2:0,2:0:0:0:
256,192,160436,12,0,162891,2:0:0:0:
340,88,163709,5,0,2:0:0:0:
200,264,163914,2,0,L|124:248,2,75.0000030845407,0|0|0,2:0|2:0|2:0,2:0:0:0:
340,264,164118,2,0,P|400:224|424:184,1,75.0000030845407,0|0,2:0|2:0,2:0:0:0:
200,264,164323,2,0,L|124:248,2,75.0000030845407,0|0|0,2:0|2:0|2:0,2:0:0:0:
359,230,164527,2,0,P|402:172|408:128,1,75.0000030845407,0|0,2:0|2:0,2:0:0:0:
200,264,164732,2,0,L|124:248,2,75.0000030845407,0|0|0,2:0|2:0|2:0,2:0:0:0:
366,193,164936,2,0,P|392:116|392:116,2,75.0000030845407,0|0|0,2:0|2:0|2:0,2:0:0:0:
268,300,165141,5,0,2:0:0:0:
221,317,165209,1,0,2:0:0:0:
172,321,165277,1,0,2:0:0:0:
122,312,165346,2,0,P|44:268|56:188,2,150.000006169081,0|0|0,2:0|2:0|2:0,2:0:0:0:
172,321,165686,1,0,2:0:0:0:
221,317,165755,1,0,2:0:0:0:
360,172,165891,2,0,P|324:120|272:88,1,75.0000030845407,0|0,2:0|2:0,2:0:0:0:
196,80,166096,1,0,2:0:0:0:
56,168,166300,5,0,2:0:0:0:
56,168,166368,2,0,P|68:236|88:256,1,75.0000030845407,0|0,2:0|2:0,2:0:0:0:
148,300,166573,1,0,2:0:0:0:
244,288,166709,1,0,2:0:0:0:
168,112,166982,6,0,L|104:72,2,75.0000030845407,0|0|0,2:0|2:0|2:0,2:0:0:0:
336,104,167186,2,0,L|376:96,5,37.5000015422703,0|0|0|0|0|0,2:0|2:0|2:0|2:0|2:0|2:0,2:0:0:0:
168,112,167391,6,0,L|104:72,2,75.0000030845407,0|0|0,2:0|2:0|2:0,2:0:0:0:
336,104,167596,2,0,L|368:100,6,25.0000010281802,0|0|0|0|0|0|0,2:0|2:0|2:0|2:0|2:0|2:0|2:0,2:0:0:0:
264,216,167800,2,0,L|168:196,1,75.0000030845407,0|0,2:0|2:0,2:0:0:0:
180,240,167936,2,0,L|84:220,1,75.0000030845407,0|0,2:0|2:0,2:0:0:0:
60,136,168073,2,0,L|40:104,4,37.5000015422703,0|0|0|0|0,2:0|2:0|2:0|2:0|2:0,2:0:0:0:
200,276,168277,6,0,L|280:260,1,75.0000030845407,0|0,2:0|2:0,2:0:0:0:
258,302,168414,2,0,L|338:286,1,75.0000030845407,0|0,2:0|2:0,2:0:0:0:
419,176,168550,6,0,L|448:144,6,37.5000015422703,0|0|0|0|0|0|0,2:0|2:0|2:0|2:0|2:0|2:0|2:0,2:0:0:0:
196,96,168823,2,0,L|252:160,1,75.0000030845407,0|0,2:0|2:0,2:0:0:0:
306,281,168959,1,0,2:0:0:0:
419,176,169027,6,0,L|448:144,4,37.5000015422703,0|0|0|0|0,2:0|2:0|2:0|2:0|2:0,2:0:0:0:
306,281,169232,2,0,P|224:296|152:268,1,150.000006169081,0|0,2:0|2:0,2:0:0:0:
163,275,169436,2,0,P|233:296|306:280,1,150.000006169081,0|0,2:0|2:0,2:0:0:0:
420,236,169709,1,0,2:0:0:0:
212,100,169846,1,0,2:0:0:0:
306,280,169982,1,0,2:0:0:0:
72,288,170118,1,0,2:0:0:0:
296,176,170255,6,0,P|344:236|360:312,1,150.000006169081,0|0,2:0|2:0,2:0:0:0:
170,323,170527,2,0,P|110:275|80:204,1,150.000006169081,0|0,2:0|2:0,2:0:0:0:
226,243,170800,2,0,P|286:195|320:120,1,150.000006169081,0|0,2:0|2:0,2:0:0:0:
248,88,171073,1,0,2:0:0:0:
226,243,171209,2,0,P|178:271|64:284,2,150.000006169081,0|0|0,2:0|2:0|2:0,2:0:0:0:
264,208,171550,1,0,2:0:0:0:
300,172,171618,1,0,2:0:0:0:
324,128,171686,2,0,L|384:176,1,75.0000030845407,0|0,2:0|2:0,2:0:0:0:
416,292,171823,2,0,L|492:264,4,75.0000030845407,0|0|0|0|0,2:0|2:0|2:0|2:0|2:0,2:0:0:0:
240,336,172164,6,0,P|180:332|104:288,1,150.000006169081,0|0,2:0|2:0,2:0:0:0:
80,136,172436,2,0,P|128:76|200:56,1,150.000006169081,0|0,2:0|2:0,2:0:0:0:
240,56,172641,1,0,2:0:0:0:
286,73,172709,1,0,2:0:0:0:
331,96,172777,1,0,2:0:0:0:
372,124,172846,1,0,2:0:0:0:
404,164,172914,2,0,P|428:236|408:320,1,150.000006169081,0|0,2:0|2:0,2:0:0:0:
298,289,173118,2,0,L|238:337,2,75.0000030845407,0|0|0,2:0|2:0|2:0,2:0:0:0:
416,216,173323,6,0,L|456:196,10,37.5000015422703,0|0|0|0|0|0|0|0|0|0|0,2:0|2:0|2:0|2:0|2:0|2:0|2:0|2:0|2:0|2:0|2:0,2:0:0:0:
316,304,173732,2,0,L|264:368,1,75.0000030845407,0|0,2:0|2:0,2:0:0:0:
192,232,173868,2,0,L|240:292,1,75.0000030845407,0|0,2:0|2:0,2:0:0:0:
324,160,174005,2,0,L|276:220,1,75.0000030845407,0|0,2:0|2:0,2:0:0:0:
184,88,174141,2,0,L|232:152,1,75.0000030845407,0|0,2:0|2:0,2:0:0:0:
359,126,174277,2,0,L|312:68,1,75.0000030845407,0|0,2:0|2:0,2:0:0:0:
149,198,174414,2,0,L|200:144,1,75.0000030845407,0|0,2:0|2:0,2:0:0:0:
367,270,174550,2,0,L|320:208,1,75.0000030845407,0|0,2:0|2:0,2:0:0:0:
141,342,174686,2,0,L|192:280,1,75.0000030845407,0|0,2:0|2:0,2:0:0:0:
367,270,174823,2,0,L|320:208,1,75.0000030845407,0|0,2:0|2:0,2:0:0:0:
149,198,174959,6,0,L|116:224,4,37.5000015422703,0|0|0|0|0,2:0|2:0|2:0|2:0|2:0,2:0:0:0:
188,164,175164,1,0,2:0:0:0:
228,132,175300,1,0,2:0:0:0:
276,96,175436,1,0,2:0:0:0:
188,164,175573,1,0,2:0:0:0:
228,132,175709,1,0,2:0:0:0:
276,96,175846,1,0,2:0:0:0:
404,228,175982,5,0,2:0:0:0:
228,132,176118,1,0,2:0:0:0:
408,48,176255,1,0,2:0:0:0:
320,228,176391,1,0,2:0:0:0:
256,36,176527,1,0,2:0:0:0:
416,152,176664,1,0,2:0:0:0:
208,296,176800,2,0,P|276:316|360:300,1,150.000006169081,0|0,2:0|2:0,2:0:0:0:
468,159,177073,1,0,2:0:0:0:
468,360,177209,5,0,2:0:0:0:
468,310,177277,1,0,2:0:0:0:
468,260,177346,1,0,2:0:0:0:
468,210,177414,1,0,2:0:0:0:
468,159,177482,1,0,2:0:0:0:
156,324,177618,1,0,2:0:0:0:
48,156,177891,1,0,2:0:0:0:
156,88,177959,5,0,2:0:0:0:
203,73,178027,1,0,2:0:0:0:
253,72,178096,1,0,2:0:0:0:
301,85,178164,2,0,P|368:120|420:180,2,150.000006169081,0|0|0,2:0|2:0|2:0,2:0:0:0:
48,156,178573,1,0,2:0:0:0:
156,324,178709,1,0,2:0:0:0:
132,76,178982,2,0,P|68:124|39:185,1,150.000006169081,0|0,2:0|2:0,2:0:0:0:
144,172,179255,2,0,P|208:124|237:63,1,150.000006169081,0|0,2:0|2:0,2:0:0:0:
237,292,179459,6,0,P|333:304|365:288,1,100.000004112721,0|0,2:0|2:0,2:0:0:0:
408,172,179664,1,0,2:0:0:0:
441,208,179732,1,0,2:0:0:0:
368,268,179800,1,0,2:0:0:0:
334,304,179868,1,0,2:0:0:0:
240,168,180073,2,0,P|184:200|156:256,1,100.000004112721,0|0,2:0|2:0,2:0:0:0:
340,308,180346,1,0,2:0:0:0:
340,308,180482,1,0,2:0:0:0:
468,216,180618,5,0,2:0:0:0:
348,160,180755,1,0,2:0:0:0:
299,146,180823,1,0,2:0:0:0:
250,143,180891,1,0,2:0:0:0:
200,149,180959,2,0,L|132:208,1,75.0000030845407,0|0,2:0|2:0,2:0:0:0:
80,296,181164,2,0,L|16:344,2,75.0000030845407,0|0|0,2:0|2:0|2:0,2:0:0:0:
143,198,181436,2,0,L|202:153,2,75.0000030845407,0|0|0,2:0|2:0|2:0,2:0:0:0:
88,268,181709,5,0,2:0:0:0:
62,311,181846,1,0,2:0:0:0:
37,354,181982,1,0,2:0:0:0:
88,268,182118,1,0,2:0:0:0:
62,311,182255,1,0,2:0:0:0:
37,354,182391,1,0,2:0:0:0:
156,184,182527,1,0,2:0:0:0:
248,324,182664,1,0,2:0:0:0:
248,324,182732,6,0,P|312:288|352:216,1,150.000006169081,0|0,2:0|2:0,2:0:0:0:
336,76,182936,1,0,2:0:0:0:
336,76,183073,2,0,L|360:64,12,18.7500007711352,0|0|0|0|0|0|0|0|0|0|0|0|0,2:0|2:0|2:0|2:0|2:0|2:0|2:0|2:0|2:0|2:0|2:0|2:0|2:0,2:0:0:0:
115,213,183346,6,0,L|87:289,1,75.0000030845407,0|0,2:0|2:0,2:0:0:0:
188,104,183482,1,0,2:0:0:0:
244,188,183618,1,0,2:0:0:0:
90,284,183755,2,0,P|162:308|244:296,1,150.000006169081,0|0,2:0|2:0,2:0:0:0:
376,256,184027,2,0,L|420:192,1,75.0000030845407,0|0,2:0|2:0,2:0:0:0:
172,88,184164,2,0,P|144:92|96:128,1,75.0000002235176,0|0,2:0|2:0,2:0:0:0:
56,336,184436,5,0,2:0:0:0:
320,192,184573,1,0,2:0:0:0:
44,72,184709,1,0,2:0:0:0:
344,72,184846,1,0,2:0:0:0:
148,300,184982,1,0,2:0:0:0:
412,160,185186,1,0,2:0:0:0:
116,262,185323,5,0,2:0:0:0:
148,300,185391,1,0,2:0:0:0:
380,204,185527,1,0,2:0:0:0:
144,112,185664,1,0,2:0:0:0:
294,255,185800,1,0,2:0:0:0:
337,229,185868,1,0,2:0:0:0:
380,204,185936,1,0,2:0:0:0:
420,84,186073,1,0,2:0:0:0:
144,112,186209,1,0,2:0:0:0:
56,224,186346,6,0,L|92:296,1,75.0000030845407,0|0,2:0|2:0,2:0:0:0:
184,336,186482,2,0,L|236:344,4,37.5000015422703,0|0|0|0|0,2:0|2:0|2:0|2:0|2:0,2:0:0:0:
392,60,186891,1,0,2:0:0:0:
200,68,187027,2,0,L|264:132,1,75.0000030845407,0|0,2:0|2:0,2:0:0:0:
44,196,187164,2,0,B|104:255|176:176|216:212|248:199|296:208|320:232|352:312,1,300.000012338163,0|0,2:0|2:0,2:0:0:0:
120,332,187573,1,0,2:0:0:0:
356,340,187709,1,0,2:0:0:0:
192,248,187846,2,0,L|156:220,3,37.5000015422703,0|0|0|0,2:0|2:0|2:0|2:0,2:0:0:0:
76,176,187982,6,0,P|40:104|48:88,1,75.0000030845407,0|0,2:0|2:0,2:0:0:0:
76,176,188118,2,0,P|46:153|37:117,1,75.0000030845407,0|0,2:0|2:0,2:0:0:0:
244,80,188255,2,0,L|320:132,1,75.0000030845407,0|0,2:0|2:0,2:0:0:0:
452,232,188391,2,0,L|376:284,1,75.0000030845407,0|0,2:0|2:0,2:0:0:0:
240,180,188527,2,0,L|316:232,1,75.0000030845407,0|0,2:0|2:0,2:0:0:0:
390,274,188664,2,0,L|314:326,1,75.0000030845407,0|0,2:0|2:0,2:0:0:0:
76,224,188800,2,0,L|56:216,16,18.7500007711352,0|0|0|0|0|0|0|0|0|0|0|0|0|0|0|0|0,2:0|2:0|2:0|2:0|2:0|2:0|2:0|2:0|2:0|2:0|2:0|2:0|2:0|2:0|2:0|2:0|2:0,2:0:0:0:
368,132,189209,6,0,L|388:124,8,18.7500007711352,0|0|0|0|0|0|0|0|0,2:0|2:0|2:0|2:0|2:0|2:0|2:0|2:0|2:0,2:0:0:0:
124,112,189482,6,0,L|108:100,20,18.7500007711352,0|0|0|0|0|0|0|0|0|0|0|0|0|0|0|0|0|0|0|0|0,2:0|2:0|2:0|2:0|2:0|2:0|2:0|2:0|2:0|2:0|2:0|2:0|2:0|2:0|2:0|2:0|2:0|2:0|2:0|2:0|2:0,2:0:0:0:
340,296,189891,5,0,2:0:0:0:
112,228,190164,2,0,L|56:292,2,75.0000030845407,0|0|0,2:0|2:0|2:0,2:0:0:0:
240,160,190368,2,0,P|328:176|392:228,1,150.000006169081,0|0,2:0|2:0,2:0:0:0:
62,284,190573,2,0,L|112:228,1,75.0000030845407,0|0,2:0|2:0,2:0:0:0:
240,160,190709,2,0,P|328:176|348:188,1,100.000000298023,0|0,2:0|2:0,2:0:0:0:
336,304,191118,1,0,2:0:0:0:
156,192,191255,1,0,2:0:0:0:
336,304,191391,1,0,2:0:0:0:
148,300,191527,5,0,2:0:0:0:
148,300,191664,2,0,P|60:284|40:272,1,100.000000298023,0|0,2:0|2:0,2:0:0:0:
136,184,192073,1,0,2:0:0:0:
356,304,192209,1,0,2:0:0:0:
252,76,192346,1,0,2:0:0:0:
192,320,192482,1,0,2:0:0:0:
404,188,192618,1,0,2:0:0:0:
172,88,192755,1,0,2:0:0:0:
420,100,192891,1,0,2:0:0:0:
236,268,193027,1,0,2:0:0:0:
80,160,193164,5,0,2:0:0:0:
94,139,193232,1,0,2:0:0:0:
111,121,193300,1,0,2:0:0:0:
130,105,193368,1,0,2:0:0:0:
151,91,193436,1,0,2:0:0:0:
173,80,193504,1,0,2:0:0:0:
196,69,193573,1,0,2:0:0:0:
219,59,193641,1,0,2:0:0:0:
240,52,193709,6,0,L|256:48,6,12.5000000372529,0|0|0|0|0|0|0,2:0|2:0|2:0|2:0|2:0|2:0|2:0,2:0:0:0:
152,152,193982,1,0,2:0:0:0:
165,172,194050,1,0,2:0:0:0:
168,272,194118,1,0,2:0:0:0:
149,288,194186,1,0,2:0:0:0:
131,305,194254,1,0,2:0:0:0:
152,152,194391,5,0,2:0:0:0:
165,172,194459,1,0,2:0:0:0:
168,272,194527,1,0,2:0:0:0:
149,288,194595,1,0,2:0:0:0:
112,312,194664,6,0,L|100:320,2,12.5000000372529,0|0|0,2:0|2:0|2:0,2:0:0:0:
149,288,194800,2,0,P|180:280|208:264,1,50.0000001490117,0|0,2:0|2:0,2:0:0:0:
196,272,195005,2,0,P|227:264|255:248,1,50.0000001490117,0|0,2:0|2:0,2:0:0:0:
243,256,195209,2,0,P|274:248|302:232,1,50.0000001490117,0|0,2:0|2:0,2:0:0:0:
384,108,195482,1,0,2:0:0:0:
384,108,195618,1,0,2:0:0:0:
384,108,195755,2,0,B|368:184|368:184|288:168,1,150.000000447035,0|0,2:0|2:0,2:0:0:0:
128,72,196368,5,0,2:0:0:0:
52,204,196505,1,0,2:0:0:0:
152,316,196641,1,0,2:0:0:0:
128,72,196777,5,0,2:0:0:0:
52,204,196914,1,0,2:0:0:0:
152,316,197050,1,0,2:0:0:0:
224,180,197186,1,0,2:0:0:0:
224,180,197255,2,0,P|304:152|316:140,1,75.0000030845407,0|0,2:0|2:0,2:0:0:0:
224,180,197391,2,0,P|304:152|316:140,1,75.0000030845407,0|0,2:0|2:0,2:0:0:0:
224,180,197527,2,0,B|316:176|340:104|400:100|476:120|504:160,1,300.000012338163,0|0,2:0|2:0,2:0:0:0:
448,284,197936,2,0,P|376:328|296:312,1,150.000006169081,0|0,2:0|2:0,2:0:0:0:
200,96,198141,5,0,2:0:0:0:
112,260,198277,1,0,2:0:0:0:
304,176,198414,1,0,2:0:0:0:
200,96,198618,2,0,L|128:44,1,75.0000030845407,0|0,2:0|2:0,2:0:0:0:
176,132,198755,2,0,L|90:107,1,75.0000030845407,0|0,2:0|2:0,2:0:0:0:
156,168,198891,2,0,L|67:174,1,75.0000030845407,0|0,2:0|2:0,2:0:0:0:
136,204,199027,2,0,L|54:240,1,75.0000030845407,0|0,2:0|2:0,2:0:0:0:
156,240,199164,2,0,B|80:280|50:340|50:340|132:380|220:360,1,300.000012338163,0|0,2:0|2:0,2:0:0:0:
328,272,199573,6,0,L|412:224,1,75.0000030845407,0|0,2:0|2:0,2:0:0:0:
404,180,199709,2,0,L|338:217,1,75.0000030845407,0|0,2:0|2:0,2:0:0:0:
328,272,199846,2,0,L|412:224,1,75.0000030845407,0|0,2:0|2:0,2:0:0:0:
404,180,199982,2,0,B|328:204|272:328|168:308|128:276,1,300.000012338163,0|0,2:0|2:0,2:0:0:0:
78,242,200323,2,0,L|162:298,1,75.0000030845407,0|0,2:0|2:0,2:0:0:0:
164,248,200459,2,0,L|101:206,1,75.0000030845407,0|0,2:0|2:0,2:0:0:0:
128,176,200596,2,0,L|212:232,1,75.0000030845407,0|0,2:0|2:0,2:0:0:0:
212,184,200732,2,0,L|149:142,2,75.0000030845407,0|0|0,2:0|2:0|2:0,2:0:0:0:
248,208,200936,6,0,B|296:276|380:284|380:284|344:184|368:96,1,300.000012338163,0|0,2:0|2:0,2:0:0:0:
432,64,201346,1,0,2:0:0:0:
456,136,201414,1,0,2:0:0:0:
376,280,201550,1,0,2:0:0:0:
240,184,201686,1,0,2:0:0:0:
92,256,201823,2,0,L|100:160,1,75.0000030845407,0|0,2:0|2:0,2:0:0:0:
176,116,201959,2,0,L|236:176,1,75.0000030845407,0|0,2:0|2:0,2:0:0:0:
208,296,202096,2,0,L|184:324,4,37.5000015422703,0|0|0|0|0,2:0|2:0|2:0|2:0|2:0,2:0:0:0:
412,156,202436,5,0,2:0:0:0:
172,80,202709,2,0,P|120:96|60:156,2,125.000000372529,0|0|0,2:0|2:0|2:0,2:0:0:0:
444,236,203868,1,0,2:0:0:0:
444,236,203936,2,0,P|440:280|348:352,1,150.000000447035,0|0,2:0|2:0,2:0:0:0:
208,288,204482,6,0,L|288:236,1,75.0000030845407,0|0,2:0|2:0,2:0:0:0:
340,176,204618,2,0,L|260:124,1,75.0000030845407,0|0,2:0|2:0,2:0:0:0:
160,92,204755,2,0,L|240:40,1,75.0000030845407,0|0,2:0|2:0,2:0:0:0:
424,72,204959,1,0,2:0:0:0:
428,148,205027,1,0,2:0:0:0:
356,280,205164,1,0,2:0:0:0:
208,260,205300,2,0,P|140:208|124:160,1,75.0000030845407,0|0,2:0|2:0,2:0:0:0:
80,128,205436,2,0,L|64:108,16,18.7500007711352,0|0|0|0|0|0|0|0|0|0|0|0|0|0|0|0|0,2:0|2:0|2:0|2:0|2:0|2:0|2:0|2:0|2:0|2:0|2:0|2:0|2:0|2:0|2:0|2:0|2:0,2:0:0:0:
360,220,205982,6,0,L|384:224,8,18.7500007711352,0|0|0|0|0|0|0|0|0,2:0|2:0|2:0|2:0|2:0|2:0|2:0|2:0|2:0,2:0:0:0:
64,292,206596,6,0,L|40:296,5,18.7500007711352,0|0|0|0|0|0,2:0|2:0|2:0|2:0|2:0|2:0,2:0:0:0:
216,264,206800,2,0,P|308:272|368:252,1,150.000006169081,0|0,2:0|2:0,2:0:0:0:
272,76,207073,2,0,L|204:108,1,75.0000030845407,0|0,2:0|2:0,2:0:0:0:
160,260,207209,2,0,L|228:228,1,75.0000030845407,0|0,2:0|2:0,2:0:0:0:
320,142,207346,2,0,L|249:117,1,75.0000030845407,0|0,2:0|2:0,2:0:0:0:
111,193,207482,2,0,L|182:218,1,75.0000030845407,0|0,2:0|2:0,2:0:0:0:
308,224,207618,2,0,L|276:156,1,75.0000030845407,0|0,2:0|2:0,2:0:0:0:
124,112,207754,2,0,L|156:180,1,75.0000030845407,0|0,2:0|2:0,2:0:0:0:
180,228,207891,6,0,L|188:244,8,18.7500007711352,0|0|0|0|0|0|0|0|0,2:0|2:0|2:0|2:0|2:0|2:0|2:0|2:0|2:0,2:0:0:0:
156,180,208164,2,0,B|120:112|120:112|120:216|16:224|24:288|136:304,1,300.000012338163,0|0,2:0|2:0,2:0:0:0:
192,312,208573,2,0,P|284:312|348:272,1,150.000006169081,0|0,2:0|2:0,2:0:0:0:
336,92,208846,1,0,2:0:0:0:
336,92,208914,2,0,L|248:64,1,75.0000030845407,0|0,2:0|2:0,2:0:0:0:
72,96,209050,1,0,2:0:0:0:
124,288,209118,2,0,L|156:216,1,75.0000030845407,0|0,2:0|2:0,2:0:0:0:
296,164,209255,2,0,L|328:92,2,75.0000030845407,0|0|0,2:0|2:0|2:0,2:0:0:0:
160,252,209527,6,0,P|200:320|308:328,1,150.000006169081,0|0,2:0|2:0,2:0:0:0:
304,340,209732,1,0,2:0:0:0:
428,256,209868,1,0,2:0:0:0:
280,76,209936,2,0,L|236:92,1,25.0000000745059,0|0,2:0|2:0,2:0:0:0:
128,120,210118,1,0,2:0:0:0:
121,152,210164,1,0,2:0:0:0:
48,256,210300,1,0,2:0:0:0:
168,312,210391,1,0,2:0:0:0:
328,288,210482,2,0,P|380:264|412:216,1,100.000000298023,0|0,2:0|2:0,2:0:0:0:
200,60,211027,6,0,P|96:48|40:72,1,150.000006169081,0|0,2:0|2:0,2:0:0:0:
48,100,211232,1,0,2:0:0:0:
44,136,211300,1,0,2:0:0:0:
56,172,211368,1,0,2:0:0:0:
76,204,211436,1,0,2:0:0:0:
104,228,211505,1,0,2:0:0:0:
136,252,211573,6,0,P|224:280|272:284,1,75.0000030845407,0|0,2:0|2:0,2:0:0:0:
316,248,211709,2,0,B|384:244|340:156|336:112|412:100|412:100|484:176|468:236,1,300.000012338163,0|0,2:0|2:0,2:0:0:0:
456,216,212050,1,0,2:0:0:0:
440,248,212118,1,0,2:0:0:0:
352,320,212255,1,0,2:0:0:0:
200,296,212391,2,0,L|120:240,1,75.0000030845407,0|0,2:0|2:0,2:0:0:0:
56,128,212527,2,0,L|40:108,4,18.7500007711352,0|0|0|0|0,2:0|2:0|2:0|2:0|2:0,2:0:0:0:
204,172,212664,2,0,B|264:236|408:268|408:268|384:116|264:68,1,450.000018507244,0|0,2:0|2:0,2:0:0:0:
92,52,213209,6,0,L|40:44,10,37.5000015422703,0|0|0|0|0|0|0|0|0|0|0,2:0|2:0|2:0|2:0|2:0|2:0|2:0|2:0|2:0|2:0|2:0,2:0:0:0:
184,60,213618,2,0,P|284:60|336:96,1,150.000006169081,0|0,2:0|2:0,2:0:0:0:
368,128,213891,1,0,2:0:0:0:
388,160,213959,1,0,2:0:0:0:
400,196,214027,1,0,2:0:0:0:
404,232,214096,1,0,2:0:0:0:
396,268,214164,2,0,P|336:332|248:336,1,150.000006169081,0|0,2:0|2:0,2:0:0:0:
136,192,214368,1,0,2:0:0:0:
320,72,214436,5,0,2:0:0:0:
420,184,214573,1,0,2:0:0:0:
273,214,214709,2,0,L|248:228,8,18.7500007711352,0|0|0|0|0|0|0|0|0,2:0|2:0|2:0|2:0|2:0|2:0|2:0|2:0|2:0,2:0:0:0:
424,112,214982,2,0,P|464:212|440:272,1,150.000006169081,0|0,2:0|2:0,2:0:0:0:
196,92,215391,1,0,2:0:0:0:
240,300,215800,1,0,2:0:0:0:
240,300,215868,2,0,P|344:332|464:312,2,225.000009253622,0|0|0,2:0|2:0|2:0,2:0:0:0:
128,196,216346,5,0,2:0:0:0:
136,160,216414,1,0,2:0:0:0:
156,128,216482,1,0,2:0:0:0:
188,108,216550,1,0,2:0:0:0:
188,108,216618,2,0,P|308:128|364:168,1,150.000006169081,0|0,2:0|2:0,2:0:0:0:
244,244,216891,2,0,L|220:280,6,37.5000015422703,0|0|0|0|0|0|0,2:0|2:0|2:0|2:0|2:0|2:0|2:0,2:0:0:0:
331,141,217164,2,0,P|395:197|403:221,1,75.0000030845407,0|0,2:0|2:0,2:0:0:0:
176,84,217300,2,0,P|112:140|104:164,2,75.0000030845407,0|0|0,2:0|2:0|2:0,2:0:0:0:
328,100,217664,5,0,2:0:0:0:
372,120,217755,1,0,2:0:0:0:
392,164,217846,1,0,2:0:0:0:
408,212,217936,1,0,2:0:0:0:
376,252,218027,1,0,2:0:0:0:
328,236,218118,1,0,2:0:0:0:
296,216,218186,2,0,B|212:168|228:100|228:100|148:48|112:180,1,300.000012338163,0|0,2:0|2:0,2:0:0:0:
124,220,218527,2,0,L|164:300,1,75.0000030845407,0|0,2:0|2:0,2:0:0:0:
329,283,218664,6,0,L|276:192,1,100.000004112721,0|0,2:0|2:0,2:0:0:0:
96,80,218846,1,0,2:0:0:0:
96,80,218936,2,0,L|204:148,1,100.000004112721,0|0,2:0|2:0,2:0:0:0:
336,112,219118,2,0,L|248:56,1,100.000004112721,0|0,2:0|2:0,2:0:0:0:
96,80,219300,2,0,P|144:136|248:172,1,150.000006169081,0|0,2:0|2:0,2:0:0:0:
260,184,219527,1,0,2:0:0:0:
436,148,219618,6,0,B|464:192|464:192|460:240,1,100.000000298023,0|0,2:0|2:0,2:0:0:0:
460,239,220027,6,0,B|432:195|432:195|436:147,1,100.000000298023,0|0,2:0|2:0,2:0:0:0:
436,148,220573,6,0,B|464:192|464:192|460:240,1,100.000000298023,0|0,2:0|2:0,2:0:0:0:
244,308,220982,6,0,L|200:284,1,50.0000020563605,0|0,2:0|2:0,2:0:0:0:
348,252,221073,2,0,L|392:228,1,50.0000020563605,0|0,2:0|2:0,2:0:0:0:
248,180,221164,2,0,L|204:156,1,50.0000020563605,0|0,2:0|2:0,2:0:0:0:
352,128,221255,2,0,L|396:104,1,50.0000020563605,0|0,2:0|2:0,2:0:0:0:
248,68,221346,2,0,L|204:44,1,50.0000020563605,0|0,2:0|2:0,2:0:0:0:
352,128,221436,2,0,L|396:152,1,50.0000020563605,0|0,2:0|2:0,2:0:0:0:
460,292,221527,6,0,B|416:352|332:188|144:280,1,300.000012338163,0|0,2:0|2:0,2:0:0:0:
104,140,221936,2,0,L|168:92,1,75.0000030845407,0|0,2:0|2:0,2:0:0:0:
292,68,222073,5,0,2:0:0:0:
336,90,222163,1,0,2:0:0:0:
375,121,222254,1,0,2:0:0:0:
408,159,222345,1,0,2:0:0:0:
433,202,222436,1,0,2:0:0:0:
451,249,222527,1,0,2:0:0:0:
461,298,222618,1,0,2:0:0:0:
416,324,222709,2,0,L|360:312,1,50.0000020563605,0|0,2:0|2:0,2:0:0:0:
172,168,222891,5,0,2:0:0:0:
218,150,222981,1,0,2:0:0:0:
265,132,223072,1,0,2:0:0:0:
172,168,223164,1,0,2:0:0:0:
218,150,223254,1,0,2:0:0:0:
265,132,223345,1,0,2:0:0:0:
412,104,223436,2,0,L|496:108,2,50.0000020563605,0|0|0,2:0|2:0|2:0,2:0:0:0:
265,132,223709,2,0,P|185:184|157:216,1,100.000004112721,0|0,2:0|2:0,2:0:0:0:
288,272,223982,6,0,P|364:248|404:180,1,150.000006169081,0|0,2:0|2:0,2:0:0:0:
288,60,224346,2,0,L|220:92,1,50.0000020563605,0|0,2:0|2:0,2:0:0:0:
96,156,224527,5,0,2:0:0:0:
82,186,224617,1,0,2:0:0:0:
74,218,224708,1,0,2:0:0:0:
71,251,224799,1,0,2:0:0:0:
77,284,224890,1,0,2:0:0:0:
91,314,224981,1,0,2:0:0:0:
123,319,225072,1,0,2:0:0:0:
155,311,225163,1,0,2:0:0:0:
185,296,225254,5,0,2:0:0:0:
212,277,225345,1,0,2:0:0:0:
237,254,225436,1,0,2:0:0:0:
257,228,225526,1,0,2:0:0:0:
275,200,225617,1,0,2:0:0:0:
289,170,225708,1,0,2:0:0:0:
303,139,225799,1,0,2:0:0:0:
320,111,225890,1,0,2:0:0:0:
346,90,225981,5,0,2:0:0:0:
376,76,226072,1,0,2:0:0:0:
404,92,226163,1,0,2:0:0:0:
428,115,226254,1,0,2:0:0:0:
446,143,226345,1,0,2:0:0:0:
459,174,226436,1,0,2:0:0:0:
462,207,226526,1,0,2:0:0:0:
457,240,226617,1,0,2:0:0:0:
443,270,226708,5,0,2:0:0:0:
422,296,226799,1,0,2:0:0:0:
397,318,226890,1,0,2:0:0:0:
369,320,226981,1,0,2:0:0:0:
347,295,227072,1,0,2:0:0:0:
327,268,227163,1,0,2:0:0:0:
309,241,227254,1,0,2:0:0:0:
290,213,227345,1,0,2:0:0:0:
270,186,227436,5,0,2:0:0:0:
249,160,227526,1,0,2:0:0:0:
226,136,227617,1,0,2:0:0:0:
198,119,227708,1,0,2:0:0:0:
167,123,227799,1,0,2:0:0:0:
145,148,227890,1,0,2:0:0:0:
131,178,227981,1,0,2:0:0:0:
131,211,228072,1,0,2:0:0:0:
142,243,228163,5,0,2:0:0:0:
164,267,228254,1,0,2:0:0:0:
194,280,228345,1,0,2:0:0:0:
227,283,228436,1,0,2:0:0:0:
260,277,228526,1,0,2:0:0:0:
291,265,228617,1,0,2:0:0:0:
319,247,228708,1,0,2:0:0:0:
345,227,228799,1,0,2:0:0:0:
369,203,228890,5,0,2:0:0:0:
369,174,228981,1,0,2:0:0:0:
345,151,229072,1,0,2:0:0:0:
317,132,229163,1,0,2:0:0:0:
288,117,229254,1,0,2:0:0:0:
257,104,229345,1,0,2:0:0:0:
225,94,229436,1,0,2:0:0:0:
193,87,229526,1,0,2:0:0:0:
159,83,229617,5,0,2:0:0:0:
126,82,229708,1,0,2:0:0:0:
93,85,229799,1,0,2:0:0:0:
61,94,229890,1,0,2:0:0:0:
36,115,229981,1,0,2:0:0:0:
36,148,230072,1,0,2:0:0:0:
45,180,230163,1,0,2:0:0:0:
66,206,230254,1,0,2:0:0:0:
98,213,230345,5,0,2:0:0:0:
130,206,230436,1,0,2:0:0:0:
159,190,230526,1,0,2:0:0:0:
186,170,230617,1,0,2:0:0:0:
210,146,230708,1,0,2:0:0:0:
231,121,230799,1,0,2:0:0:0:
250,93,230890,1,0,2:0:0:0:
265,64,230981,1,0,2:0:0:0:
282,53,231072,5,0,2:0:0:0:
315,58,231163,1,0,2:0:0:0:
348,67,231254,1,0,2:0:0:0:
380,80,231346,2,0,P|424:104|444:136,1,80.0000002384188,0|0,2:0|2:0,2:0:0:0:
256,192,233595,12,0,242254,2:0:0:0:
