osu file format v14

[General]
AudioFilename: audio.mp3
AudioLeadIn: 0
PreviewTime: 101518
Countdown: 0
SampleSet: Normal
StackLeniency: 0.5
Mode: 1
LetterboxInBreaks: 0
EpilepsyWarning: 1
WidescreenStoryboard: 1

[Editor]
Bookmarks: 65583,81950,101586,124492,150671,193217
DistanceSpacing: 2
BeatDivisor: 6
GridSize: 32
TimelineZoom: 1.7

[Metadata]
Title:Hibi Darake no Me
TitleUnicode:ヒビダラケの眼
Artist:KikuoHana
ArtistUnicode:きくおはな
Creator:Alchyr
Version:Oni
Source:
Tags:Kikuo 花たん YURiCa 第二幕 2nd act electronic japanese
BeatmapID:2106548
BeatmapSetID:1006568

[Difficulty]
HPDrainRate:5
CircleSize:6.7
OverallDifficulty:6
ApproachRate:7.7
SliderMultiplier:1.4
SliderTickRate:1

[Events]
//Background and Video events
0,0,"bright.jpg",0,0
//Break Periods
//Storyboard Layer 0 (Background)
//Storyboard Layer 1 (Fail)
//Storyboard Layer 2 (Pass)
//Storyboard Layer 3 (Foreground)
//Storyboard Layer 4 (Overlay)
//Storyboard Sound Samples

[TimingPoints]
1749,410.958904109589,4,1,0,20,1,0
1749,-132.727272728021,4,1,0,20,0,0
6680,545.454545454546,4,1,0,20,1,0
8452,-102.040816326531,4,1,0,20,0,0
8861,-103.092783505155,4,1,0,20,0,0
8998,-105.263157894737,4,1,0,20,0,0
9407,-106.382978723404,4,1,0,20,0,0
9498,-107.52688172043,4,1,0,20,0,0
9589,-108.695652173913,4,1,0,20,0,0
9680,-109.89010989011,4,1,0,20,0,0
10907,-113.636363636364,4,1,0,20,0,0
10975,-114.942528735632,4,1,0,20,0,0
11043,-116.279069767442,4,1,0,20,0,0
13221,272.727272727273,3,1,0,30,1,0
33675,-120.481927710843,3,1,0,25,0,0
35311,-100,3,1,0,20,0,0
36948,-120.481927710843,3,1,0,25,0,0
38584,-133.333333333333,3,1,0,20,0,0
40221,-120.481927710843,3,1,0,25,0,0
41857,285.714285714286,3,1,0,30,1,0
42714,258.620689655172,3,1,0,30,1,0
42714,-110.497237569061,3,1,0,30,0,0
43489,272.727272727273,3,1,0,30,1,0
43489,-120.481927710843,3,1,0,30,0,0
44307,-133.333333333333,3,1,0,30,0,0
45125,-151.515151515152,3,1,0,30,0,0
45941,-100,3,1,0,30,0,0
63123,-105.263157894737,3,1,0,30,0,0
63941,-111.111111111111,3,1,0,30,0,0
64759,-117.647058823529,3,1,0,30,0,0
65032,-120.481927710843,3,1,0,30,0,0
78670,-100,3,1,0,30,0,0
79489,-87.719298245614,3,1,0,30,0,0
80307,-66.6666666666667,3,1,0,30,0,0
81125,-100,3,1,0,30,0,0
81943,272.727272727273,6,1,0,20,1,0
81943,-133.333333333333,6,1,0,20,0,0
124483,272.727272727273,6,1,0,20,1,0
124483,-133.333333333333,6,1,0,20,0,0
124619,-120.481927710843,6,1,0,20,0,0
136617,-100,6,1,0,40,0,0
137573,272.727272727273,3,1,0,40,1,0
150664,-100,3,1,0,40,0,0
150800,-99.6279095032456,3,1,0,40,0,0
150936,-99.2585349955186,3,1,0,40,0,0
151072,-98.8891604877916,3,1,0,40,0,0
151209,-98.5170699910372,3,1,0,40,0,0
151345,-98.1476954833102,3,1,0,40,0,0
151482,-97.7756049865558,3,1,0,40,0,0
151618,-97.4062304788289,3,1,0,40,0,0
151754,-97.0368559711019,3,1,0,40,0,0
151891,-96.6647654743475,3,1,0,40,0,0
152027,-96.2953909666205,3,1,0,40,0,0
152163,-95.9260164588935,3,1,0,40,0,0
152300,-95.5539259621391,3,1,0,40,0,0
152436,-95.1845514544121,3,1,0,40,0,0
152572,-94.8151769466851,3,1,0,40,0,0
152709,-94.4430864499307,3,1,0,40,0,0
152845,-94.0737119422038,3,1,0,40,0,0
152982,-93.7016214454494,3,1,0,40,0,0
153118,-93.3322469377224,3,1,0,40,0,0
153254,-92.9628724299954,3,1,0,40,0,0
153391,-92.590781933241,3,1,0,40,0,0
153527,-92.221407425514,3,1,0,40,0,0
153663,-91.852032917787,3,1,0,40,0,0
153800,-91.4799424210326,3,1,0,40,0,0
153936,-91.1105679133056,3,1,0,40,0,0
154072,-90.7411934055786,3,1,0,40,0,0
154209,-90.3691029088242,3,1,0,40,0,0
154345,-89.9997284010973,3,1,0,40,0,0
154482,-89.6276379043429,3,1,0,40,0,0
154618,-89.2582633966159,3,1,0,40,0,0
154754,-88.8888888888889,3,1,0,40,0,0
154891,-88.5167983921345,3,1,0,40,0,0
155027,-88.1474238844075,3,1,0,40,0,0
155163,-87.7780493766805,3,1,0,40,0,0
155300,-87.4059588799261,3,1,0,40,0,0
155436,-87.0365843721991,3,1,0,40,0,0
155572,-86.6672098644721,3,1,0,40,0,0
155709,-86.2951193677178,3,1,0,40,0,0
155845,-85.9257448599908,3,1,0,40,0,0
155982,-85.5536543632364,3,1,0,40,0,0
156118,-85.1842798555094,3,1,0,40,0,0
156254,-84.8149053477824,3,1,0,40,0,0
156391,-84.442814851028,3,1,0,40,0,0
156527,-84.073440343301,3,1,0,40,0,0
156663,-83.704065835574,3,1,0,40,0,0
156800,-83.3319753388196,3,1,0,40,0,0
156936,-82.9626008310926,3,1,0,40,0,0
157072,-82.5932263233657,3,1,0,40,0,0
157209,-82.2211358266113,3,1,0,40,0,0
157345,-81.8517613188843,3,1,0,40,0,0
157482,-81.4796708221299,3,1,0,40,0,0
157618,-81.1102963144029,3,1,0,40,0,0
157754,-80.7409218066759,3,1,0,40,0,0
157891,-80.3688313099215,3,1,0,40,0,0
158027,-79.9994568021945,3,1,0,40,0,0
158163,-79.6300822944675,3,1,0,40,0,0
158300,-79.2579917977131,3,1,0,40,0,0
158436,-78.8886172899861,3,1,0,40,0,0
158572,-78.5192427822592,3,1,0,40,0,0
158709,-78.1471522855048,3,1,0,40,0,0
158845,-77.7777777777778,3,1,0,40,0,0
158982,-77.4056872810234,3,1,0,40,0,0
159118,-77.0363127732964,3,1,0,40,0,0
159254,-76.6669382655694,3,1,0,40,0,0
159391,-76.294847768815,3,1,0,40,0,0
159527,-75.925473261088,3,1,0,40,0,0
159663,-75.556098753361,3,1,0,40,0,0
159800,-75.1840082566066,3,1,0,40,0,0
159936,-74.8146337488797,3,1,0,40,0,0
160072,-74.4452592411527,3,1,0,40,0,0
160209,-74.0731687443983,3,1,0,40,0,0
160345,-73.7037942366713,3,1,0,40,0,0
160482,-73.3317037399169,3,1,0,40,0,0
160618,-72.9623292321899,3,1,0,40,0,0
160754,-72.5929547244629,3,1,0,40,0,0
160891,-72.2208642277085,3,1,0,40,0,0
161027,-71.8514897199815,3,1,0,40,0,0
161163,-71.4821152122545,3,1,0,40,0,0
161300,-71.1100247155001,3,1,0,40,0,0
161436,-70.7406502077732,3,1,0,40,0,0
161572,-70.3712757000462,3,1,0,40,0,0
161709,-69.9991852032918,3,1,0,40,0,0
161845,-69.6298106955648,3,1,0,40,0,0
161982,-69.2577201988104,3,1,0,40,0,0
162118,-68.8883456910834,3,1,0,40,0,0
162254,-68.5189711833564,3,1,0,40,0,0
162391,-68.146880686602,3,1,0,40,0,0
162527,-67.777506178875,3,1,0,40,0,0
162663,-67.4081316711481,3,1,0,40,0,0
162800,-67.0360411743937,3,1,0,40,0,0
162936,-66.6666666666667,3,1,0,40,0,0
163483,-100,3,1,0,80,0,0
163754,-87.719298245614,3,1,0,75,0,1
193209,271.493212669683,3,1,0,75,1,1
193209,-88.1057268722467,3,1,0,75,0,1
194023,270.27027027027,3,1,0,75,1,1
194023,-88.4955752212389,3,1,0,75,0,1
194833,266.666666666667,3,1,0,75,1,1
194833,-89.2857142857143,3,1,0,75,0,1
195630,263.157894736842,3,1,0,75,1,1
195630,-90.0900900900901,3,1,0,75,0,1
196419,260.869565217391,3,1,0,75,1,1
196419,-90.9090909090909,3,1,0,75,0,1
197201,258.620689655172,3,1,0,75,1,1
197201,-91.743119266055,3,1,0,75,0,1
197976,256.410256410256,3,1,0,75,1,1
197976,-92.5925925925926,3,1,0,75,0,1
198745,254.237288135593,3,1,0,75,1,1
198745,-93.4579439252336,3,1,0,75,0,1
199507,252.100840336134,3,1,0,75,1,1
199507,-94.3396226415094,3,1,0,75,0,1
200263,250,3,1,0,75,1,1
200263,-95.6937799043062,3,1,0,75,0,1
201013,247.933884297521,3,1,0,75,1,1
201013,-96.491228070514,3,1,0,75,0,1
201756,245.901639344262,3,1,0,75,1,1
201756,-97.2886762359516,3,1,0,75,0,1
202493,242.914979757085,3,1,0,75,1,1
202493,-98.4848484852961,3,1,0,75,0,1
203221,240,3,1,0,75,1,1
203221,-99.6810207336523,3,1,0,75,0,1
203941,237.154150197628,3,1,0,75,1,1
203941,-100.877192983076,3,1,0,75,0,1
204652,235.294117647059,3,1,0,75,1,1
204652,-101.674641148812,3,1,0,75,0,1
205357,233.463035019455,3,1,0,75,1,1
205357,-102.472089314333,3,1,0,75,0,1
206057,230.769230769231,3,1,0,75,1,1
206057,-103.668261563577,3,1,0,75,0,1
206749,228.136882129278,3,1,0,75,1,1
206749,-104.864433811844,3,1,0,75,0,1
207433,226.415094339623,3,1,0,75,1,1
207433,-105.661881977629,3,1,0,75,0,1
208112,224.719101123595,3,1,0,75,1,1
208112,-106.459330144292,3,1,0,75,0,1
208786,223.880597014925,3,1,0,75,1,1
208786,-106.858054226748,3,1,0,75,0,1
209457,222.222222222222,3,1,0,75,1,1
209457,-107.655502393375,3,1,0,75,0,1
210123,220.588235294118,3,1,0,75,1,1
210123,-108.452950559321,3,1,0,75,0,1
210784,218.978102189781,3,1,0,75,1,1
210784,-109.250398724475,3,1,0,75,0,1
211440,216.606498194946,3,1,0,75,1,1
211440,-110.446570973481,3,1,0,75,0,1
212089,214.285714285714,3,1,0,75,1,1
212089,-111.642743222225,3,1,0,75,0,1
212731,212.765957446809,3,1,0,75,1,1
212731,-112.440191388528,3,1,0,75,0,1
213369,211.267605633803,3,1,0,75,1,1
213369,-113.237639554621,3,1,0,75,0,1
214002,209.79020979021,3,1,0,75,1,1
214002,-114.035087719698,3,1,0,75,0,1
214631,208.333333333333,3,1,0,75,1,1
214631,-114.832535885607,3,1,0,75,0,1
215256,206.896551724138,3,1,0,75,1,1
215256,-115.629984051959,3,1,0,75,0,1
215876,205.479452054795,3,1,0,75,1,1
215876,-116.427432218131,3,1,0,75,0,1
216492,204.081632653061,3,1,0,75,1,1
216492,-117.224880382747,3,1,0,75,0,1
217104,202.020202020202,3,1,0,75,1,1
217104,-118.421052632202,3,1,0,75,0,1
217710,200,3,1,0,75,1,1
217710,-119.617224880383,3,1,0,75,0,1
218310,198.675496688742,3,1,0,75,1,1
218310,-120.414673047548,3,1,0,75,0,1
218906,196.72131147541,3,1,0,75,1,1
218906,-121.610845296123,3,1,0,75,0,1
219496,195.439739413681,3,1,0,75,1,1
219496,-122.408293462301,3,1,0,75,0,1
220082,193.548387096774,3,1,0,75,1,1
220082,-123.604465710419,3,1,0,75,0,1
220662,192.307692307692,3,1,0,75,1,1
220662,-124.40191387655,3,1,0,75,0,1
221238,190.47619047619,3,1,0,75,1,1
221238,-125.598086124477,3,1,0,75,0,1
221809,189.274447949527,3,1,0,75,1,1
221809,-126.395534291712,3,1,0,75,0,1
222376,187.5,3,1,0,75,1,1
222376,-127.591706539075,3,1,0,75,0,1
222938,186.915887850467,3,1,0,75,1,1
222938,-127.990430622821,3,1,0,75,0,1
223498,185.758513931889,3,1,0,75,1,1
223498,-128.787878788757,3,1,0,75,0,1
224055,185.185185185185,3,1,0,75,1,1
224055,-129.186602871493,3,1,0,75,0,1
224610,184.049079754601,3,1,0,75,1,1
224610,-129.984051037398,3,1,0,75,0,1
225162,182.370820668693,3,1,0,75,1,1
225162,-131.18022328637,3,1,0,75,0,1
225709,180.722891566265,3,1,0,75,1,1
225709,-132.376395535515,3,1,0,75,0,1
226251,179.640718562874,3,1,0,75,1,1
226251,-133.173843700659,3,1,0,75,0,1
226789,178.571428571429,3,1,0,75,1,1
226789,-133.971291867567,3,1,0,75,0,1
227324,177.514792899408,3,1,0,75,1,1
227324,-134.768740031812,3,1,0,75,0,1
227856,176.470588235294,3,1,0,75,1,1
227856,-135.566188198416,3,1,0,75,0,1
228385,175.438596491228,3,1,0,75,1,1
228385,-136.363636364256,3,1,0,75,0,1
228911,174.418604651163,3,1,0,75,1,1
228911,-137.161084529856,3,1,0,75,0,1
231527,-50,3,1,0,75,0,0
232050,-25,3,1,0,75,0,0
233576,-100,3,1,0,30,0,0
233620,-120.481927710843,3,1,0,30,0,0
234143,-133.333333333333,3,1,0,50,0,0
234666,-149.253731343284,3,1,0,40,0,0
235190,-172.413793103448,3,1,0,30,0,0
235713,348.837209302326,4,1,0,20,1,0
236759,-100,4,1,0,19,0,0
237108,-100,4,1,0,18,0,0
237457,-100,4,1,0,17,0,0
237806,-100,4,1,0,16,0,0
238154,-100,4,1,0,15,0,0
238503,-100,4,1,0,14,0,0
238852,-105.263157894737,4,1,0,13,0,0
239201,-105.263157894737,4,1,0,12,0,0
239550,-105.263157894737,4,1,0,11,0,0
239899,-105.263157894737,4,1,0,10,0,0
240247,-111.111111111111,4,1,0,9,0,0
240596,-111.111111111111,4,1,0,8,0,0
240945,-111.111111111111,4,1,0,7,0,0
241294,-117.647058823529,4,1,0,6,0,0
242689,-125,4,1,0,5,0,0
244085,-133.333333333333,4,1,0,5,0,0
245480,-142.857142857143,4,1,0,5,0,0
246527,526.315789473684,4,1,0,20,1,0
248632,571.428571428571,4,1,0,20,1,8
250343,645.161290322581,4,1,0,20,1,0
252923,800,4,1,0,20,1,8
255314,1000,4,1,0,7,1,0
256314,-100,4,1,0,6,0,0
257314,-100,4,1,0,5,0,0

[HitObjects]
288,288,1749,5,0,0:0:0:0:
224,292,2159,1,8,0:0:0:0:
255,297,2570,1,0,0:0:0:0:
425,191,2981,1,0,0:0:0:0:
186,108,3392,1,8,0:0:0:0:
252,92,3803,1,0,0:0:0:0:
83,190,4214,1,8,0:0:0:0:
221,96,4420,1,8,0:0:0:0:
453,292,4625,1,0,0:0:0:0:
294,94,5036,1,8,0:0:0:0:
331,107,5447,1,0,0:0:0:0:
360,130,5653,1,8,0:0:0:0:
255,88,5858,1,0,0:0:0:0:
323,275,6269,1,8,0:0:0:0:
194,282,6680,1,0,0:0:0:0:
166,262,6952,1,0,0:0:0:0:
134,235,7225,1,8,0:0:0:0:
267,176,7498,1,0,0:0:0:0:
248,178,7770,1,8,0:0:0:0:
243,197,8043,1,8,0:0:0:0:
266,195,8316,1,0,0:0:0:0:
237,168,8452,1,8,0:0:0:0:
259,164,8861,1,0,0:0:0:0:
276,191,8998,1,8,0:0:0:0:
255,201,9407,1,0,0:0:0:0:
248,192,9498,1,0,0:0:0:0:
292,180,9589,1,8,0:0:0:0:
243,175,9680,1,8,0:0:0:0:
241,178,10907,1,8,0:0:0:0:
252,191,10975,1,8,0:0:0:0:
229,184,11043,1,0,0:0:0:0:
380,144,13221,1,0,0:0:0:0:
104,154,13493,1,8,0:0:0:0:
104,154,13766,1,8,0:0:0:0:
380,144,14039,1,0,0:0:0:0:
104,154,14311,1,8,0:0:0:0:
104,154,14584,1,8,0:0:0:0:
352,260,14857,1,0,0:0:0:0:
118,219,15130,1,8,0:0:0:0:
128,54,15402,1,8,0:0:0:0:
365,77,15675,1,0,0:0:0:0:
121,31,15948,1,8,0:0:0:0:
253,37,16084,1,8,0:0:0:0:
309,53,16221,1,0,0:0:0:0:
190,45,16357,1,8,0:0:0:0:
384,59,16493,1,0,0:0:0:0:
187,30,16766,1,8,0:0:0:0:
184,16,17039,1,8,0:0:0:0:
311,40,17311,1,0,0:0:0:0:
250,33,17584,1,8,0:0:0:0:
251,19,17857,1,8,0:0:0:0:
317,24,18130,1,0,0:0:0:0:
91,174,18402,1,8,0:0:0:0:
383,246,18675,1,8,0:0:0:0:
264,183,18948,1,0,0:0:0:0:
256,192,19221,1,8,0:0:0:0:
256,192,19357,1,8,0:0:0:0:
431,194,19493,1,0,0:0:0:0:
256,192,19630,1,8,0:0:0:0:
408,186,19766,1,0,0:0:0:0:
256,192,20039,1,8,0:0:0:0:
119,130,20311,1,8,0:0:0:0:
320,95,20584,1,0,0:0:0:0:
185,96,20857,1,8,0:0:0:0:
213,89,21130,1,8,0:0:0:0:
276,95,21402,1,0,0:0:0:0:
176,103,21675,1,8,0:0:0:0:
186,104,21948,1,8,0:0:0:0:
339,115,22221,1,0,0:0:0:0:
201,100,22493,1,8,0:0:0:0:
163,113,22630,1,8,0:0:0:0:
361,129,22766,1,0,0:0:0:0:
333,110,22902,1,0,0:0:0:0:
176,103,23039,1,8,0:0:0:0:
348,117,23311,1,0,0:0:0:0:
278,92,23584,1,0,0:0:0:0:
214,94,23857,1,8,0:0:0:0:
249,91,24130,1,0,0:0:0:0:
262,175,24402,1,0,0:0:0:0:
260,196,24675,1,8,0:0:0:0:
249,180,24948,1,0,0:0:0:0:
255,185,25221,1,0,0:0:0:0:
182,273,25493,1,8,0:0:0:0:
189,281,25766,1,0,0:0:0:0:
167,264,25902,1,8,0:0:0:0:
150,251,26039,1,0,0:0:0:0:
274,294,26175,1,0,0:0:0:0:
150,251,26311,1,8,0:0:0:0:
310,278,26584,1,0,0:0:0:0:
234,291,26857,1,0,0:0:0:0:
177,274,27130,1,8,0:0:0:0:
202,285,27402,1,0,0:0:0:0:
392,157,27675,1,0,0:0:0:0:
103,205,27948,1,8,0:0:0:0:
384,149,28221,1,0,0:0:0:0:
418,209,28493,1,0,0:0:0:0:
427,178,28766,1,8,0:0:0:0:
444,192,29039,1,0,0:0:0:0:
483,188,29175,1,8,0:0:0:0:
436,119,29311,1,0,0:0:0:0:
462,184,29448,1,0,0:0:0:0:
444,110,29584,1,8,0:0:0:0:
461,101,29857,1,0,0:0:0:0:
376,66,30130,1,0,0:0:0:0:
135,79,30402,1,8,0:0:0:0:
387,53,30675,1,0,0:0:0:0:
402,44,30948,1,0,0:0:0:0:
126,65,31221,1,8,0:0:0:0:
413,32,31493,1,0,0:0:0:0:
125,52,31766,1,0,0:0:0:0:
359,254,32039,1,8,0:0:0:0:
382,238,32311,1,0,0:0:0:0:
398,228,32448,1,0,0:0:0:0:
334,265,32584,1,8,0:0:0:0:
348,258,32721,1,8,0:0:0:0:
143,120,33675,1,0,0:0:0:0:
155,113,34493,1,8,0:0:0:0:
62,196,35584,1,8,0:0:0:0:
113,140,35721,1,8,0:0:0:0:
91,197,35857,1,8,0:0:0:0:
100,167,35993,1,8,0:0:0:0:
87,171,36130,1,0,0:0:0:0:
67,179,36948,1,0,0:0:0:0:
80,175,37766,1,8,0:0:0:0:
268,187,38857,1,0,0:0:0:0:
250,179,38993,1,0,0:0:0:0:
268,187,39130,1,8,0:0:0:0:
264,175,39266,1,8,0:0:0:0:
255,191,39402,1,0,0:0:0:0:
262,194,40221,1,0,0:0:0:0:
245,182,41039,1,8,0:0:0:0:
256,192,42142,1,0,0:0:0:0:
256,192,42428,1,0,0:0:0:0:
256,192,42714,1,0,0:0:0:0:
256,192,45943,1,12,0:0:0:0:
276,192,46216,1,0,0:0:0:0:
276,192,46352,1,0,0:0:0:0:
244,192,46489,1,0,0:0:0:0:
276,192,46625,1,0,0:0:0:0:
260,178,46761,1,8,0:0:0:0:
276,192,47034,1,0,0:0:0:0:
276,192,47170,1,0,0:0:0:0:
254,211,47443,1,0,0:0:0:0:
244,192,47579,1,8,0:0:0:0:
254,211,47852,1,0,0:0:0:0:
254,211,47989,1,0,0:0:0:0:
266,207,48125,1,0,0:0:0:0:
266,207,48261,1,0,0:0:0:0:
262,187,48398,1,8,0:0:0:0:
246,202,48670,1,0,0:0:0:0:
242,202,48807,1,8,0:0:0:0:
246,202,48943,1,0,0:0:0:0:
243,182,49216,1,8,0:0:0:0:
246,202,49489,1,0,0:0:0:0:
246,202,49625,1,0,0:0:0:0:
263,199,49761,1,0,0:0:0:0:
266,196,49898,1,0,0:0:0:0:
260,190,50034,1,8,0:0:0:0:
250,191,50307,1,0,0:0:0:0:
250,191,50443,1,0,0:0:0:0:
266,196,50716,1,8,0:0:0:0:
261,189,50852,1,8,0:0:0:0:
254,201,51125,1,0,0:0:0:0:
254,201,51261,1,0,0:0:0:0:
254,201,51398,1,0,0:0:0:0:
254,201,51534,1,0,0:0:0:0:
240,196,51670,1,8,0:0:0:0:
258,197,51943,1,0,0:0:0:0:
250,191,52079,1,8,0:0:0:0:
237,202,52216,1,0,0:0:0:0:
240,196,52489,1,8,0:0:0:0:
238,191,52761,1,0,0:0:0:0:
254,199,52898,1,0,0:0:0:0:
254,199,53034,1,0,0:0:0:0:
254,199,53170,1,0,0:0:0:0:
245,204,53307,1,8,0:0:0:0:
254,199,53579,1,0,0:0:0:0:
265,197,53716,1,0,0:0:0:0:
265,197,53989,1,0,0:0:0:0:
255,187,54125,1,8,0:0:0:0:
281,193,54398,1,0,0:0:0:0:
281,193,54534,1,0,0:0:0:0:
281,193,54670,1,0,0:0:0:0:
281,193,54807,1,0,0:0:0:0:
235,197,54943,1,8,0:0:0:0:
255,174,55216,1,0,0:0:0:0:
255,174,55352,1,0,0:0:0:0:
255,174,55625,1,0,0:0:0:0:
260,203,55761,1,8,0:0:0:0:
240,182,55898,1,8,0:0:0:0:
273,183,56034,1,8,0:0:0:0:
236,190,56170,1,8,0:0:0:0:
283,196,56307,1,8,0:0:0:0:
233,189,56443,1,8,0:0:0:0:
256,192,56579,12,0,58761,0:0:0:0:
256,192,59034,5,8,0:0:0:0:
236,191,59307,1,0,0:0:0:0:
256,212,59443,1,8,0:0:0:0:
279,192,59579,1,0,0:0:0:0:
258,164,59852,1,0,0:0:0:0:
259,197,60125,1,0,0:0:0:0:
256,192,60398,1,0,0:0:0:0:
257,181,60670,1,8,0:0:0:0:
256,192,60943,1,0,0:0:0:0:
255,205,61079,1,8,0:0:0:0:
255,205,61216,1,0,0:0:0:0:
256,192,61489,1,8,0:0:0:0:
256,192,61557,1,8,0:0:0:0:
276,217,61625,1,0,0:0:0:0:
235,172,61693,1,0,0:0:0:0:
245,167,61761,1,8,0:0:0:0:
290,185,61898,1,0,0:0:0:0:
269,213,62034,1,8,0:0:0:0:
247,223,62102,1,8,0:0:0:0:
259,200,62170,1,8,0:0:0:0:
259,200,62239,1,8,0:0:0:0:
256,224,62307,1,0,0:0:0:0:
317,48,65170,1,0,0:0:0:0:
322,45,65307,1,0,0:0:0:0:
345,13,65443,1,0,0:0:0:0:
330,22,65579,1,8,0:0:0:0:
96,192,65989,1,8,0:0:0:0:
244,190,66398,1,0,0:0:0:0:
236,197,66807,1,0,0:0:0:0:
266,177,67216,1,8,0:0:0:0:
272,175,67898,1,8,0:0:0:0:
257,190,68034,1,0,0:0:0:0:
380,240,68307,1,0,0:0:0:0:
313,281,68579,1,0,0:0:0:0:
446,103,68852,1,8,0:0:0:0:
43,65,69125,1,0,0:0:0:0:
47,70,69398,1,8,0:0:0:0:
256,192,69670,1,0,0:0:0:0:
50,83,70216,1,8,0:0:0:0:
56,105,70489,1,0,0:0:0:0:
53,74,70761,1,8,0:0:0:0:
256,288,71170,1,0,0:0:0:0:
220,288,71307,1,8,0:0:0:0:
293,290,71443,1,8,0:0:0:0:
257,298,71579,1,0,0:0:0:0:
278,295,71716,1,0,0:0:0:0:
211,289,71852,1,8,0:0:0:0:
312,278,71989,1,8,0:0:0:0:
192,283,72125,1,0,0:0:0:0:
232,297,72398,1,0,0:0:0:0:
163,112,72943,1,8,0:0:0:0:
253,44,73625,1,0,0:0:0:0:
428,119,73761,1,8,0:0:0:0:
463,102,74034,1,8,0:0:0:0:
480,96,74307,1,0,0:0:0:0:
432,125,74579,1,0,0:0:0:0:
448,112,74852,1,8,0:0:0:0:
448,112,75125,1,0,0:0:0:0:
411,174,75398,1,8,0:0:0:0:
238,209,75670,1,0,0:0:0:0:
270,180,75943,1,0,0:0:0:0:
248,184,76216,1,8,0:0:0:0:
254,185,76489,1,8,0:0:0:0:
270,196,76761,1,8,0:0:0:0:
161,257,77034,1,0,0:0:0:0:
129,233,77443,1,8,0:0:0:0:
256,192,77852,12,0,80307,0:0:0:0:
289,184,81943,5,0,0:0:0:0:
278,173,82215,1,0,0:0:0:0:
225,184,82352,1,8,0:0:0:0:
289,184,82761,1,0,0:0:0:0:
289,184,83033,1,0,0:0:0:0:
289,184,83170,1,0,0:0:0:0:
225,184,83306,1,8,0:0:0:0:
225,184,83579,1,8,0:0:0:0:
289,184,83988,1,0,0:0:0:0:
225,184,84397,1,8,0:0:0:0:
289,184,84806,1,0,0:0:0:0:
289,184,85215,1,0,0:0:0:0:
289,184,85488,1,0,0:0:0:0:
225,184,85624,1,8,0:0:0:0:
289,184,86033,1,0,0:0:0:0:
289,184,86306,1,0,0:0:0:0:
289,184,86443,1,0,0:0:0:0:
225,184,86579,1,8,0:0:0:0:
225,184,86852,1,8,0:0:0:0:
289,184,87124,1,0,0:0:0:0:
225,184,87261,1,8,0:0:0:0:
225,184,87670,1,8,0:0:0:0:
281,172,87943,1,8,0:0:0:0:
289,184,88215,1,0,0:0:0:0:
225,184,88488,1,8,0:0:0:0:
289,184,88761,1,0,0:0:0:0:
225,184,88897,1,8,0:0:0:0:
289,184,89306,1,0,0:0:0:0:
289,184,89579,1,0,0:0:0:0:
225,184,89852,1,8,0:0:0:0:
289,184,90124,1,0,0:0:0:0:
289,184,90397,1,0,0:0:0:0:
225,184,90533,1,8,0:0:0:0:
289,184,90943,1,8,0:0:0:0:
225,184,91488,1,0,0:0:0:0:
289,184,91761,1,0,0:0:0:0:
289,184,92033,1,0,0:0:0:0:
225,184,92170,1,0,0:0:0:0:
225,184,92579,1,8,0:0:0:0:
289,184,92852,1,0,0:0:0:0:
225,184,93124,1,8,0:0:0:0:
289,184,93397,1,0,0:0:0:0:
289,184,93806,1,8,0:0:0:0:
225,184,94215,1,0,0:0:0:0:
225,184,94488,1,8,0:0:0:0:
225,184,94624,1,8,0:0:0:0:
289,184,94761,1,0,0:0:0:0:
243,181,95033,1,0,0:0:0:0:
289,184,95306,1,0,0:0:0:0:
225,184,95443,1,8,0:0:0:0:
289,184,95852,1,0,0:0:0:0:
258,176,96124,1,0,0:0:0:0:
225,184,96397,1,8,0:0:0:0:
225,184,96670,1,8,0:0:0:0:
289,184,96943,1,0,0:0:0:0:
225,184,97079,1,8,0:0:0:0:
225,184,97488,1,8,0:0:0:0:
289,184,98033,1,0,0:0:0:0:
225,184,98306,1,8,0:0:0:0:
289,184,98579,1,0,0:0:0:0:
225,184,98715,1,8,0:0:0:0:
225,184,99124,1,0,0:0:0:0:
225,184,99397,1,0,0:0:0:0:
289,184,99670,1,0,0:0:0:0:
289,184,99943,1,8,0:0:0:0:
289,184,100215,1,0,0:0:0:0:
289,184,100352,1,8,0:0:0:0:
289,184,100761,1,8,0:0:0:0:
225,184,101033,1,8,0:0:0:0:
289,184,101306,1,0,0:0:0:0:
256,192,101579,1,8,0:0:0:0:
268,191,101715,1,0,0:0:0:0:
250,196,101852,1,0,0:0:0:0:
246,173,102124,1,0,0:0:0:0:
240,186,102397,1,8,0:0:0:0:
264,180,102533,1,0,0:0:0:0:
254,174,102806,1,0,0:0:0:0:
259,188,102943,1,0,0:0:0:0:
260,175,103215,1,8,0:0:0:0:
289,184,103352,1,0,0:0:0:0:
282,179,103488,1,0,0:0:0:0:
225,184,103761,1,0,0:0:0:0:
289,184,104033,1,8,0:0:0:0:
234,185,104170,1,0,0:0:0:0:
289,184,104443,1,0,0:0:0:0:
260,186,104579,1,8,0:0:0:0:
289,184,104852,1,0,0:0:0:0:
254,186,104988,1,0,0:0:0:0:
225,184,105124,1,8,0:0:0:0:
225,184,105397,1,0,0:0:0:0:
289,184,105670,1,8,0:0:0:0:
254,186,105806,1,0,0:0:0:0:
254,186,106079,1,0,0:0:0:0:
252,193,106215,1,0,0:0:0:0:
254,191,106488,1,0,0:0:0:0:
269,195,106624,1,0,0:0:0:0:
225,184,106761,1,8,0:0:0:0:
247,184,107033,1,0,0:0:0:0:
289,184,107306,1,8,0:0:0:0:
266,181,107443,1,0,0:0:0:0:
245,188,107715,1,0,0:0:0:0:
240,186,107852,1,8,0:0:0:0:
225,184,108124,1,8,0:0:0:0:
226,179,108261,1,0,0:0:0:0:
225,184,108397,1,0,0:0:0:0:
245,188,108670,1,0,0:0:0:0:
254,163,108943,1,8,0:0:0:0:
225,184,109079,1,0,0:0:0:0:
245,178,109352,1,0,0:0:0:0:
232,180,109488,1,0,0:0:0:0:
225,184,109761,1,8,0:0:0:0:
241,181,109897,1,0,0:0:0:0:
241,181,110033,1,0,0:0:0:0:
231,188,110306,1,0,0:0:0:0:
289,184,110579,1,8,0:0:0:0:
260,187,110715,1,0,0:0:0:0:
289,184,110988,1,0,0:0:0:0:
254,182,111124,1,0,0:0:0:0:
225,184,111397,1,8,0:0:0:0:
260,187,111533,1,0,0:0:0:0:
247,184,111670,1,8,0:0:0:0:
245,186,111943,1,0,0:0:0:0:
225,184,112215,1,8,0:0:0:0:
259,191,112352,1,0,0:0:0:0:
246,184,112624,1,0,0:0:0:0:
263,180,112761,1,0,0:0:0:0:
240,183,113033,1,8,0:0:0:0:
225,184,113170,1,8,0:0:0:0:
242,184,113306,1,0,0:0:0:0:
289,184,113579,1,0,0:0:0:0:
225,184,113852,1,8,0:0:0:0:
289,184,113988,1,0,0:0:0:0:
254,195,114261,1,0,0:0:0:0:
266,190,114397,1,0,0:0:0:0:
225,184,114670,1,8,0:0:0:0:
252,180,114806,1,0,0:0:0:0:
228,179,114943,1,8,0:0:0:0:
248,185,115215,1,0,0:0:0:0:
279,186,115488,1,8,0:0:0:0:
267,196,115624,1,0,0:0:0:0:
254,192,115897,1,0,0:0:0:0:
249,196,116033,1,0,0:0:0:0:
225,184,116306,1,8,0:0:0:0:
289,184,116443,1,0,0:0:0:0:
225,184,116579,1,0,0:0:0:0:
258,188,116852,1,0,0:0:0:0:
225,184,117124,1,8,0:0:0:0:
289,184,117261,1,0,0:0:0:0:
289,184,117533,1,0,0:0:0:0:
241,180,117670,1,0,0:0:0:0:
261,169,117943,1,8,0:0:0:0:
241,180,118079,1,8,0:0:0:0:
225,184,118215,1,0,0:0:0:0:
289,184,118488,1,0,0:0:0:0:
280,187,118761,1,8,0:0:0:0:
246,191,118897,1,0,0:0:0:0:
225,184,119170,1,0,0:0:0:0:
245,186,119306,1,8,0:0:0:0:
225,184,119579,1,8,0:0:0:0:
289,184,119715,1,0,0:0:0:0:
262,186,119852,1,0,0:0:0:0:
250,188,120124,1,0,0:0:0:0:
235,188,120397,1,0,0:0:0:0:
255,186,120533,1,0,0:0:0:0:
262,186,120670,1,8,0:0:0:0:
279,183,120806,1,8,0:0:0:0:
289,184,120943,1,0,0:0:0:0:
247,186,121079,1,0,0:0:0:0:
226,192,121352,1,0,0:0:0:0:
289,184,121488,1,0,0:0:0:0:
289,184,121761,1,0,0:0:0:0:
289,184,121897,1,0,0:0:0:0:
289,184,122170,1,0,0:0:0:0:
289,184,122443,1,0,0:0:0:0:
289,184,122579,1,0,0:0:0:0:
289,184,122715,1,0,0:0:0:0:
289,184,122988,1,0,0:0:0:0:
289,184,123124,1,0,0:0:0:0:
289,184,123397,1,0,0:0:0:0:
289,184,123533,1,0,0:0:0:0:
289,184,123806,1,0,0:0:0:0:
289,184,124079,1,0,0:0:0:0:
289,184,124215,1,0,0:0:0:0:
289,184,124352,1,0,0:0:0:0:
225,184,124619,1,8,0:0:0:0:
225,184,124755,1,8,0:0:0:0:
225,184,125028,1,8,0:0:0:0:
225,184,125164,1,8,0:0:0:0:
225,184,125437,1,8,0:0:0:0:
249,182,125710,1,8,0:0:0:0:
249,182,125846,1,8,0:0:0:0:
289,184,125983,1,0,0:0:0:0:
225,184,126255,1,8,0:0:0:0:
225,184,126392,1,8,0:0:0:0:
225,184,126664,1,8,0:0:0:0:
225,184,126801,1,8,0:0:0:0:
225,184,127073,1,8,0:0:0:0:
225,184,127346,1,8,0:0:0:0:
289,184,127483,1,8,0:0:0:0:
289,184,127619,1,0,0:0:0:0:
225,184,127892,1,8,0:0:0:0:
225,184,128028,1,8,0:0:0:0:
225,184,128301,1,8,0:0:0:0:
225,184,128437,1,8,0:0:0:0:
225,184,128710,1,8,0:0:0:0:
289,184,128983,1,8,0:0:0:0:
289,184,129119,1,8,0:0:0:0:
289,184,129255,1,0,0:0:0:0:
225,184,129528,1,8,0:0:0:0:
225,184,129664,1,8,0:0:0:0:
225,184,129937,1,8,0:0:0:0:
225,184,130073,1,8,0:0:0:0:
225,184,130346,1,8,0:0:0:0:
225,184,130619,1,8,0:0:0:0:
289,184,130755,1,8,0:0:0:0:
289,184,130892,1,0,0:0:0:0:
225,184,131164,1,8,0:0:0:0:
225,184,131301,1,8,0:0:0:0:
225,184,131573,1,8,0:0:0:0:
225,184,131710,1,8,0:0:0:0:
225,184,131983,1,8,0:0:0:0:
225,184,132255,1,8,0:0:0:0:
225,184,132392,1,8,0:0:0:0:
289,184,132528,1,0,0:0:0:0:
225,184,132801,1,8,0:0:0:0:
225,184,132937,1,8,0:0:0:0:
225,184,133210,1,8,0:0:0:0:
225,184,133346,1,8,0:0:0:0:
225,184,133619,1,8,0:0:0:0:
225,184,133892,1,8,0:0:0:0:
289,184,134028,1,8,0:0:0:0:
289,184,134164,1,0,0:0:0:0:
225,184,134437,1,8,0:0:0:0:
225,184,134573,1,8,0:0:0:0:
225,184,134846,1,8,0:0:0:0:
225,184,134983,1,8,0:0:0:0:
225,184,135255,1,8,0:0:0:0:
289,184,135528,1,8,0:0:0:0:
289,184,135664,1,8,0:0:0:0:
289,184,135801,1,0,0:0:0:0:
225,184,136619,1,8,0:0:0:0:
225,184,136755,1,8,0:0:0:0:
289,184,136892,1,0,0:0:0:0:
225,184,137028,1,8,0:0:0:0:
289,184,137164,1,0,0:0:0:0:
225,184,137301,1,8,0:0:0:0:
225,184,137437,1,8,0:0:0:0:
289,184,137573,1,4,0:0:0:0:
225,184,137845,1,8,0:0:0:0:
289,184,137982,1,4,0:0:0:0:
225,184,138254,1,8,0:0:0:0:
289,184,138391,1,4,0:0:0:0:
289,184,138663,1,4,0:0:0:0:
289,184,138936,1,4,0:0:0:0:
289,184,139209,1,4,0:0:0:0:
225,184,139482,1,8,0:0:0:0:
289,184,139618,1,4,0:0:0:0:
225,184,139891,1,8,0:0:0:0:
289,184,140027,1,4,0:0:0:0:
289,184,140300,1,4,0:0:0:0:
289,184,140573,1,4,0:0:0:0:
289,184,140845,1,4,0:0:0:0:
225,184,141118,1,8,0:0:0:0:
289,184,141254,1,4,0:0:0:0:
225,184,141527,1,8,0:0:0:0:
289,184,141663,1,4,0:0:0:0:
289,184,141936,1,4,0:0:0:0:
289,184,142209,1,4,0:0:0:0:
289,184,142482,1,4,0:0:0:0:
225,184,142754,1,8,0:0:0:0:
289,184,142891,1,4,0:0:0:0:
225,184,143163,1,8,0:0:0:0:
289,184,143300,1,4,0:0:0:0:
289,184,143573,1,4,0:0:0:0:
225,184,143845,1,12,0:0:0:0:
289,184,144118,1,4,0:0:0:0:
225,184,144391,1,8,0:0:0:0:
289,184,144527,1,4,0:0:0:0:
225,184,144800,1,8,0:0:0:0:
289,184,144936,1,4,0:0:0:0:
289,184,145209,1,4,0:0:0:0:
289,184,145482,1,4,0:0:0:0:
289,184,145754,1,4,0:0:0:0:
225,184,146027,1,8,0:0:0:0:
289,184,146163,1,4,0:0:0:0:
225,184,146436,1,8,0:0:0:0:
289,184,146573,1,4,0:0:0:0:
289,184,146845,1,4,0:0:0:0:
289,184,147118,1,4,0:0:0:0:
289,184,147391,1,4,0:0:0:0:
225,184,147663,1,8,0:0:0:0:
289,184,147800,1,4,0:0:0:0:
225,184,148073,1,8,0:0:0:0:
289,184,148209,1,4,0:0:0:0:
289,184,148482,1,4,0:0:0:0:
289,184,148754,1,4,0:0:0:0:
289,184,149027,1,4,0:0:0:0:
225,184,149300,1,8,0:0:0:0:
289,184,149436,1,4,0:0:0:0:
225,184,149709,1,8,0:0:0:0:
289,184,149845,1,4,0:0:0:0:
289,184,150118,1,4,0:0:0:0:
225,184,150391,1,12,0:0:0:0:
289,184,150663,1,4,0:0:0:0:
225,184,150936,1,8,0:0:0:0:
289,184,151073,1,4,0:0:0:0:
225,184,151345,1,8,0:0:0:0:
289,184,151482,1,4,0:0:0:0:
289,184,151754,1,4,0:0:0:0:
289,184,152027,1,4,0:0:0:0:
289,184,152300,1,4,0:0:0:0:
225,184,152573,1,8,0:0:0:0:
289,184,152709,1,4,0:0:0:0:
225,184,152982,1,8,0:0:0:0:
289,184,153118,1,4,0:0:0:0:
289,184,153391,1,4,0:0:0:0:
289,184,153663,1,4,0:0:0:0:
289,184,153936,1,4,0:0:0:0:
225,184,154209,1,8,0:0:0:0:
289,184,154345,1,4,0:0:0:0:
225,184,154618,1,8,0:0:0:0:
289,184,154754,1,4,0:0:0:0:
289,184,155027,1,4,0:0:0:0:
289,184,155300,1,4,0:0:0:0:
289,184,155573,1,4,0:0:0:0:
225,184,155845,1,8,0:0:0:0:
289,184,155982,1,4,0:0:0:0:
225,184,156254,1,8,0:0:0:0:
289,184,156391,1,4,0:0:0:0:
289,184,156663,1,4,0:0:0:0:
225,184,156936,1,12,0:0:0:0:
289,184,157209,1,4,0:0:0:0:
225,184,157482,1,8,0:0:0:0:
289,184,157618,1,4,0:0:0:0:
225,184,157891,1,8,0:0:0:0:
289,184,158027,1,4,0:0:0:0:
289,184,158300,1,4,0:0:0:0:
289,184,158573,1,4,0:0:0:0:
289,184,158845,1,4,0:0:0:0:
225,184,159118,1,8,0:0:0:0:
289,184,159254,1,4,0:0:0:0:
225,184,159527,1,8,0:0:0:0:
289,184,159663,1,4,0:0:0:0:
289,184,159936,1,4,0:0:0:0:
289,184,160209,1,4,0:0:0:0:
289,184,160482,1,4,0:0:0:0:
225,184,160754,1,8,0:0:0:0:
289,184,160891,1,4,0:0:0:0:
225,184,161163,1,8,0:0:0:0:
289,184,161300,1,4,0:0:0:0:
289,184,161573,1,4,0:0:0:0:
289,184,161845,1,4,0:0:0:0:
289,184,162118,1,4,0:0:0:0:
248,179,162254,1,8,0:0:0:0:
225,184,162391,1,8,0:0:0:0:
289,184,162527,1,4,0:0:0:0:
288,192,162663,1,8,0:0:0:0:
225,184,162800,1,8,0:0:0:0:
225,184,163754,5,12,0:0:0:0:
225,184,164027,1,8,0:0:0:0:
225,184,164095,1,8,0:0:0:0:
289,184,164163,1,0,0:0:0:0:
289,184,164300,1,0,0:0:0:0:
225,184,164436,1,8,0:0:0:0:
289,184,164573,1,0,0:0:0:0:
289,184,164709,1,0,0:0:0:0:
225,184,164845,1,8,0:0:0:0:
225,184,164982,1,8,0:0:0:0:
289,184,165118,1,0,0:0:0:0:
289,184,165323,1,0,0:0:0:0:
225,184,165391,1,8,0:0:0:0:
289,184,165527,1,0,0:0:0:0:
225,184,165663,1,0,0:0:0:0:
225,184,165800,1,8,0:0:0:0:
225,184,165868,1,8,0:0:0:0:
289,184,165936,1,0,0:0:0:0:
289,184,166073,1,0,0:0:0:0:
225,184,166209,1,8,0:0:0:0:
225,184,166482,1,8,0:0:0:0:
225,184,166618,1,8,0:0:0:0:
439,299,166754,1,0,0:0:0:0:
289,184,166891,1,8,0:0:0:0:
225,184,166959,1,8,0:0:0:0:
289,184,167027,1,0,0:0:0:0:
225,184,167300,1,8,0:0:0:0:
225,184,167436,1,8,0:0:0:0:
224,192,167573,1,0,0:0:0:0:
289,184,167709,1,0,0:0:0:0:
289,184,167777,1,0,0:0:0:0:
225,184,167845,1,8,0:0:0:0:
225,184,167982,1,8,0:0:0:0:
225,184,168118,1,0,0:0:0:0:
224,192,168323,1,0,0:0:0:0:
225,184,168391,1,8,0:0:0:0:
225,184,168527,1,8,0:0:0:0:
289,184,168663,1,0,0:0:0:0:
225,184,168868,1,8,0:0:0:0:
289,184,168936,1,0,0:0:0:0:
258,178,169073,1,8,0:0:0:0:
263,172,169209,1,0,0:0:0:0:
253,180,169277,1,0,0:0:0:0:
225,184,169345,1,8,0:0:0:0:
289,184,169482,1,4,0:0:0:0:
225,184,169754,1,8,0:0:0:0:
225,184,169823,1,8,0:0:0:0:
289,184,169891,1,0,0:0:0:0:
289,184,170027,1,8,0:0:0:0:
225,184,170163,1,8,0:0:0:0:
289,184,170300,1,0,0:0:0:0:
289,184,170436,1,0,0:0:0:0:
225,184,170573,1,8,0:0:0:0:
225,184,170641,1,8,0:0:0:0:
289,184,170709,1,0,0:0:0:0:
289,184,170845,1,4,0:0:0:0:
225,184,171118,1,8,0:0:0:0:
289,184,171254,1,0,0:0:0:0:
225,184,171391,1,8,0:0:0:0:
225,184,171527,1,8,0:0:0:0:
289,184,171663,1,0,0:0:0:0:
225,184,171732,1,0,0:0:0:0:
225,184,171800,1,0,0:0:0:0:
225,184,171936,1,8,0:0:0:0:
289,184,172073,1,0,0:0:0:0:
225,184,172209,1,12,0:0:0:0:
289,184,172482,1,0,0:0:0:0:
225,184,172618,1,8,0:0:0:0:
289,184,172754,1,0,0:0:0:0:
289,184,172823,1,0,0:0:0:0:
225,184,172891,1,8,0:0:0:0:
262,182,172959,1,0,0:0:0:0:
225,184,173027,1,8,0:0:0:0:
265,178,173163,1,8,0:0:0:0:
264,178,173232,1,8,0:0:0:0:
289,184,173300,1,0,0:0:0:0:
250,178,173436,1,0,0:0:0:0:
261,176,173573,1,8,0:0:0:0:
256,177,173641,1,8,0:0:0:0:
252,175,173777,1,8,0:0:0:0:
289,184,173845,1,0,0:0:0:0:
225,184,173913,1,0,0:0:0:0:
225,184,173982,1,8,0:0:0:0:
263,158,174118,2,0,L|416:224,3,159.599998051758
263,182,175073,1,8,0:0:0:0:
267,186,175141,1,8,0:0:0:0:
289,184,175209,1,0,0:0:0:0:
225,184,175482,1,8,0:0:0:0:
289,184,175618,1,0,0:0:0:0:
225,184,175686,1,0,0:0:0:0:
289,184,175754,1,0,0:0:0:0:
289,184,175891,1,8,0:0:0:0:
225,184,176027,1,8,0:0:0:0:
225,184,176300,1,8,0:0:0:0:
289,184,176436,1,0,0:0:0:0:
225,184,176573,1,12,0:0:0:0:
285,169,176845,1,0,0:0:0:0:
236,184,176913,1,0,0:0:0:0:
225,184,176982,1,8,0:0:0:0:
270,181,177118,1,8,0:0:0:0:
225,184,177254,1,0,0:0:0:0:
225,184,177527,1,8,0:0:0:0:
225,184,177663,1,8,0:0:0:0:
289,184,177800,1,0,0:0:0:0:
256,160,177868,1,0,0:0:0:0:
225,184,177936,1,8,0:0:0:0:
225,184,178209,1,8,0:0:0:0:
231,173,178345,1,0,0:0:0:0:
265,168,178413,1,0,0:0:0:0:
289,184,178482,1,0,0:0:0:0:
225,184,178618,1,8,0:0:0:0:
225,184,178754,1,8,0:0:0:0:
289,184,179027,1,0,0:0:0:0:
225,184,179163,1,8,0:0:0:0:
289,184,179300,1,0,0:0:0:0:
252,189,179368,1,0,0:0:0:0:
271,184,179436,1,0,0:0:0:0:
242,171,179573,1,8,0:0:0:0:
289,184,179709,1,0,0:0:0:0:
268,172,179777,1,0,0:0:0:0:
249,183,179845,1,8,0:0:0:0:
289,184,179982,1,0,0:0:0:0:
225,184,180118,1,8,0:0:0:0:
225,184,180254,1,8,0:0:0:0:
244,171,180391,1,0,0:0:0:0:
289,184,180663,1,8,0:0:0:0:
289,184,180800,1,0,0:0:0:0:
269,175,180936,1,8,0:0:0:0:
225,184,181073,1,8,0:0:0:0:
289,184,181209,1,0,0:0:0:0:
289,184,181277,1,0,0:0:0:0:
225,184,181345,1,8,0:0:0:0:
289,184,181482,1,0,0:0:0:0:
289,184,181550,1,8,0:0:0:0:
266,184,181618,1,8,0:0:0:0:
244,182,181754,1,0,0:0:0:0:
225,184,182027,1,8,0:0:0:0:
225,184,182095,1,8,0:0:0:0:
248,195,182163,1,8,0:0:0:0:
289,184,182300,1,0,0:0:0:0:
225,184,182573,1,8,0:0:0:0:
289,184,182709,1,0,0:0:0:0:
225,184,182845,1,8,0:0:0:0:
253,184,182982,1,0,0:0:0:0:
225,184,183118,1,12,0:0:0:0:
289,184,183391,1,0,0:0:0:0:
225,184,183527,1,8,0:0:0:0:
225,184,183663,1,8,0:0:0:0:
289,184,183800,1,0,0:0:0:0:
289,184,183868,1,0,0:0:0:0:
247,176,183936,1,0,0:0:0:0:
289,184,184209,1,4,0:0:0:0:
289,184,184482,1,4,0:0:0:0:
289,184,184618,1,4,0:0:0:0:
289,184,184754,1,4,0:0:0:0:
289,184,184891,1,4,0:0:0:0:
289,184,185027,1,4,0:0:0:0:
263,181,185232,1,0,0:0:0:0:
275,182,185368,1,0,0:0:0:0:
289,184,185436,1,0,0:0:0:0:
289,184,185573,1,0,0:0:0:0:
289,184,185709,1,0,0:0:0:0:
225,184,185845,1,8,0:0:0:0:
247,184,185913,1,8,0:0:0:0:
289,184,185982,1,0,0:0:0:0:
289,184,186118,1,0,0:0:0:0:
289,184,186254,1,0,0:0:0:0:
225,184,186391,1,8,0:0:0:0:
225,184,186459,1,8,0:0:0:0:
289,184,186527,1,0,0:0:0:0:
225,184,186663,1,0,0:0:0:0:
225,184,186936,1,8,0:0:0:0:
225,184,187073,1,8,0:0:0:0:
225,184,187141,1,8,0:0:0:0:
289,184,187209,1,0,0:0:0:0:
289,184,187345,1,0,0:0:0:0:
225,184,187482,1,8,0:0:0:0:
289,184,187618,1,0,0:0:0:0:
225,184,187754,1,8,0:0:0:0:
289,184,187891,1,0,0:0:0:0:
225,184,188027,1,12,0:0:0:0:
289,184,188300,1,0,0:0:0:0:
289,184,188436,1,0,0:0:0:0:
289,184,188504,1,0,0:0:0:0:
225,184,188573,1,8,0:0:0:0:
289,184,188709,1,8,0:0:0:0:
225,184,188777,1,8,0:0:0:0:
289,184,188845,1,0,0:0:0:0:
272,178,188982,1,0,0:0:0:0:
225,184,189118,1,8,0:0:0:0:
289,184,189391,1,0,0:0:0:0:
289,184,189459,1,0,0:0:0:0:
225,184,189527,1,8,0:0:0:0:
225,184,189595,1,8,0:0:0:0:
289,184,189663,1,0,0:0:0:0:
225,184,189800,1,8,0:0:0:0:
289,184,189936,1,0,0:0:0:0:
225,184,190209,1,8,0:0:0:0:
257,207,190277,1,8,0:0:0:0:
289,184,190345,1,0,0:0:0:0:
225,184,190482,1,0,0:0:0:0:
225,184,190618,1,8,0:0:0:0:
289,184,190754,1,0,0:0:0:0:
225,184,191027,1,8,0:0:0:0:
257,179,191095,1,8,0:0:0:0:
289,184,191163,1,0,0:0:0:0:
301,172,191300,1,8,0:0:0:0:
256,160,191436,1,8,0:0:0:0:
289,184,191573,1,0,0:0:0:0:
256,160,191709,1,8,0:0:0:0:
289,184,191982,1,0,0:0:0:0:
289,184,192050,1,0,0:0:0:0:
289,184,192118,1,0,0:0:0:0:
225,184,192391,1,8,0:0:0:0:
289,184,192527,1,0,0:0:0:0:
225,184,192663,1,8,0:0:0:0:
289,184,192800,1,0,0:0:0:0:
225,184,192936,1,8,0:0:0:0:
256,192,193073,1,8,0:0:0:0:
289,184,193209,1,0,0:0:0:0:
225,184,193480,1,8,0:0:0:0:
289,184,193548,1,0,0:0:0:0:
225,184,193616,1,8,0:0:0:0:
225,184,193751,1,8,0:0:0:0:
289,184,193887,1,0,0:0:0:0:
225,184,194023,1,8,0:0:0:0:
225,184,194090,1,8,0:0:0:0:
289,184,194158,1,0,0:0:0:0:
225,184,194293,1,8,0:0:0:0:
289,184,194428,1,0,0:0:0:0:
289,184,194495,1,0,0:0:0:0:
225,184,194563,1,8,0:0:0:0:
289,184,194698,1,0,0:0:0:0:
225,184,194833,1,8,0:0:0:0:
225,184,194966,1,8,0:0:0:0:
258,180,195233,1,8,0:0:0:0:
258,180,195299,1,8,0:0:0:0:
225,184,195366,1,8,0:0:0:0:
225,184,195499,1,8,0:0:0:0:
289,184,195630,1,0,0:0:0:0:
289,184,195893,1,0,0:0:0:0:
271,170,195958,1,0,0:0:0:0:
268,178,196024,1,8,0:0:0:0:
286,172,196156,1,0,0:0:0:0:
256,192,196287,1,8,0:0:0:0:
289,184,196419,1,0,0:0:0:0:
225,184,196679,1,8,0:0:0:0:
225,184,196745,1,8,0:0:0:0:
289,184,196810,1,0,0:0:0:0:
289,184,196940,1,0,0:0:0:0:
249,201,197201,1,0,0:0:0:0:
245,176,197330,1,8,0:0:0:0:
225,184,197459,1,8,0:0:0:0:
225,184,197588,1,8,0:0:0:0:
289,184,197847,1,0,0:0:0:0:
289,184,197912,1,0,0:0:0:0:
225,184,197976,1,8,0:0:0:0:
289,184,198104,1,0,0:0:0:0:
289,184,198232,1,0,0:0:0:0:
292,184,198488,1,8,0:0:0:0:
225,184,198617,1,8,0:0:0:0:
289,184,198745,1,0,0:0:0:0:
289,184,198808,1,0,0:0:0:0:
225,184,198872,1,8,0:0:0:0:
225,184,198999,1,8,0:0:0:0:
247,182,199126,1,0,0:0:0:0:
289,184,199253,1,0,0:0:0:0:
276,183,199317,1,8,0:0:0:0:
247,182,199507,1,0,0:0:0:0:
225,184,199759,1,8,0:0:0:0:
225,184,199822,1,8,0:0:0:0:
289,184,199885,1,0,0:0:0:0:
289,184,199948,1,0,0:0:0:0:
225,184,200011,1,8,0:0:0:0:
248,188,200137,1,8,0:0:0:0:
254,186,200263,1,0,0:0:0:0:
228,185,200388,1,0,0:0:0:0:
261,187,200513,1,8,0:0:0:0:
251,198,200638,1,0,0:0:0:0:
234,194,200700,1,0,0:0:0:0:
256,192,200763,1,8,0:0:0:0:
224,192,200888,1,8,0:0:0:0:
222,211,201013,1,0,0:0:0:0:
289,184,201384,1,0,0:0:0:0:
289,184,201446,1,0,0:0:0:0:
225,184,201508,1,8,0:0:0:0:
225,184,201632,1,8,0:0:0:0:
289,184,201756,1,0,0:0:0:0:
225,184,201878,1,0,0:0:0:0:
225,184,202001,1,8,0:0:0:0:
289,184,202124,1,0,0:0:0:0:
225,184,202247,1,8,0:0:0:0:
289,184,202493,1,0,0:0:0:0:
225,184,202735,1,8,0:0:0:0:
281,179,202857,1,8,0:0:0:0:
289,184,202978,1,0,0:0:0:0:
256,175,203039,1,0,0:0:0:0:
288,192,203100,1,8,0:0:0:0:
289,184,203221,1,0,0:0:0:0:
225,184,203461,1,8,0:0:0:0:
289,184,203581,1,0,0:0:0:0:
259,161,203701,1,8,0:0:0:0:
244,165,203821,1,0,0:0:0:0:
225,184,203941,1,8,0:0:0:0:
295,180,204059,1,8,0:0:0:0:
289,184,204296,1,0,0:0:0:0:
225,184,204415,1,8,0:0:0:0:
269,182,204474,1,8,0:0:0:0:
289,184,204533,1,0,0:0:0:0:
225,184,204652,1,8,0:0:0:0:
238,159,204769,1,0,0:0:0:0:
289,184,204887,1,8,0:0:0:0:
225,184,205004,1,8,0:0:0:0:
289,184,205122,1,0,0:0:0:0:
224,160,205181,1,0,0:0:0:0:
266,182,205240,1,8,0:0:0:0:
245,184,205357,1,0,0:0:0:0:
289,184,205707,1,0,0:0:0:0:
289,184,205765,1,0,0:0:0:0:
225,184,205823,1,8,0:0:0:0:
225,184,205940,1,8,0:0:0:0:
289,184,206057,1,0,0:0:0:0:
256,192,206172,1,8,0:0:0:0:
225,184,206287,1,8,0:0:0:0:
225,184,206403,1,8,0:0:0:0:
289,184,206518,1,0,0:0:0:0:
289,184,206749,1,0,0:0:0:0:
225,184,207091,1,8,0:0:0:0:
289,184,207205,1,0,0:0:0:0:
289,184,207262,1,0,0:0:0:0:
289,184,207319,1,0,0:0:0:0:
225,184,207433,1,8,0:0:0:0:
289,184,207546,1,0,0:0:0:0:
225,184,207659,1,8,0:0:0:0:
225,184,207885,1,12,0:0:0:0:
289,184,208112,1,0,0:0:0:0:
225,184,208224,1,8,0:0:0:0:
225,184,208336,1,8,0:0:0:0:
289,184,208449,1,0,0:0:0:0:
289,184,208673,1,0,0:0:0:0:
225,184,208786,1,8,0:0:0:0:
289,184,209009,1,0,0:0:0:0:
289,184,209121,1,0,0:0:0:0:
289,184,209233,1,0,0:0:0:0:
289,184,209345,1,0,0:0:0:0:
289,184,209457,1,0,0:0:0:0:
289,184,209790,1,0,0:0:0:0:
289,184,209901,1,0,0:0:0:0:
289,184,210123,1,0,0:0:0:0:
256,192,210233,1,0,0:0:0:0:
289,184,210343,1,0,0:0:0:0:
289,184,210453,1,0,0:0:0:0:
289,184,210564,1,8,0:0:0:0:
289,184,210784,1,8,0:0:0:0:
225,184,211002,1,8,0:0:0:0:
225,184,211057,1,8,0:0:0:0:
289,184,211112,1,0,0:0:0:0:
224,192,211221,1,0,0:0:0:0:
251,165,211440,1,8,0:0:0:0:
288,160,211548,1,8,0:0:0:0:
256,192,211656,1,0,0:0:0:0:
256,192,211764,1,0,0:0:0:0:
225,184,211873,1,12,0:0:0:0:
289,184,212089,1,0,0:0:0:0:
289,184,212142,1,0,0:0:0:0:
289,184,212196,1,0,0:0:0:0:
225,184,212303,1,8,0:0:0:0:
289,184,212410,1,0,0:0:0:0:
259,163,212517,1,8,0:0:0:0:
289,184,212731,1,8,0:0:0:0:
257,191,212837,1,8,0:0:0:0:
225,184,213050,1,8,0:0:0:0:
289,184,213156,1,0,0:0:0:0:
289,184,213369,1,0,0:0:0:0:
289,184,213580,1,0,0:0:0:0:
245,173,213685,1,8,0:0:0:0:
281,162,213897,1,8,0:0:0:0:
254,174,214002,1,0,0:0:0:0:
225,184,214211,1,8,0:0:0:0:
225,184,214316,1,8,0:0:0:0:
289,184,214421,1,0,0:0:0:0:
289,184,214631,1,0,0:0:0:0:
231,188,214735,1,0,0:0:0:0:
289,184,214839,1,8,0:0:0:0:
254,174,214891,1,8,0:0:0:0:
287,180,214943,1,0,0:0:0:0:
289,184,215047,1,8,0:0:0:0:
225,184,215256,1,0,0:0:0:0:
264,184,215359,1,0,0:0:0:0:
225,184,215462,1,8,0:0:0:0:
225,184,215566,1,8,0:0:0:0:
289,184,215669,1,0,0:0:0:0:
225,184,215876,1,8,0:0:0:0:
245,194,216081,1,0,0:0:0:0:
225,184,216286,1,8,0:0:0:0:
289,184,216492,1,0,0:0:0:0:
289,184,216543,1,0,0:0:0:0:
225,184,216594,1,8,0:0:0:0:
263,191,216696,1,0,0:0:0:0:
253,177,216900,1,8,0:0:0:0:
289,184,217104,1,0,0:0:0:0:
289,184,217205,1,0,0:0:0:0:
225,184,217306,1,8,0:0:0:0:
225,184,217407,1,0,0:0:0:0:
289,184,217508,1,8,0:0:0:0:
289,184,217710,1,4,0:0:0:0:
289,184,218010,1,4,0:0:0:0:
289,184,218310,1,0,0:0:0:0:
289,184,218409,1,0,0:0:0:0:
225,184,218508,1,8,0:0:0:0:
289,184,218608,1,8,0:0:0:0:
249,180,218806,1,8,0:0:0:0:
244,174,218906,1,0,0:0:0:0:
245,194,219004,1,0,0:0:0:0:
242,206,219102,1,8,0:0:0:0:
232,182,219299,1,0,0:0:0:0:
252,202,219397,1,8,0:0:0:0:
225,184,219496,1,0,0:0:0:0:
251,184,219593,1,0,0:0:0:0:
244,174,219691,1,0,0:0:0:0:
264,190,219789,1,8,0:0:0:0:
259,188,219984,1,8,0:0:0:0:
248,175,220082,1,0,0:0:0:0:
225,184,220178,1,8,0:0:0:0:
289,184,220372,1,8,0:0:0:0:
251,184,220565,1,0,0:0:0:0:
263,182,220662,1,8,0:0:0:0:
248,184,221046,1,0,0:0:0:0:
251,184,221142,1,0,0:0:0:0:
225,184,221238,1,8,0:0:0:0:
289,184,221428,1,0,0:0:0:0:
266,189,221523,1,8,0:0:0:0:
289,184,221809,1,0,0:0:0:0:
225,184,221998,1,8,0:0:0:0:
239,188,222092,1,8,0:0:0:0:
246,182,222187,1,0,0:0:0:0:
225,184,222376,1,8,0:0:0:0:
255,174,222469,1,0,0:0:0:0:
275,174,222563,1,8,0:0:0:0:
266,177,222657,1,8,0:0:0:0:
249,184,222751,1,0,0:0:0:0:
244,172,222938,1,8,0:0:0:0:
289,184,223124,1,0,0:0:0:0:
225,184,223218,1,8,0:0:0:0:
289,184,223311,1,0,0:0:0:0:
225,184,223498,1,8,0:0:0:0:
225,184,223590,1,8,0:0:0:0:
289,184,223683,1,0,0:0:0:0:
225,184,223869,1,8,0:0:0:0:
251,173,224055,1,0,0:0:0:0:
249,179,224147,1,0,0:0:0:0:
225,184,224240,1,8,0:0:0:0:
225,184,224332,1,8,0:0:0:0:
289,184,224425,1,0,0:0:0:0:
266,191,224610,1,8,0:0:0:0:
251,173,224794,1,0,0:0:0:0:
289,184,224978,1,8,0:0:0:0:
289,184,225162,1,0,0:0:0:0:
244,179,225253,1,0,0:0:0:0:
225,184,225344,1,8,0:0:0:0:
225,184,225435,1,8,0:0:0:0:
289,184,225526,1,0,0:0:0:0:
289,184,225709,1,8,0:0:0:0:
248,182,225889,1,8,0:0:0:0:
225,184,226070,1,8,0:0:0:0:
289,184,226251,1,0,0:0:0:0:
289,184,226520,1,0,0:0:0:0:
289,184,226789,1,0,0:0:0:0:
225,184,226878,1,8,0:0:0:0:
289,184,226967,1,0,0:0:0:0:
289,184,227056,1,0,0:0:0:0:
225,184,227146,1,8,0:0:0:0:
289,184,227324,1,0,0:0:0:0:
289,184,227590,1,8,0:0:0:0:
225,184,227856,1,8,0:0:0:0:
225,184,227944,1,8,0:0:0:0:
289,184,228032,1,0,0:0:0:0:
289,184,228120,1,0,0:0:0:0:
225,184,228208,1,8,0:0:0:0:
289,184,228385,1,0,0:0:0:0:
237,192,228648,1,8,0:0:0:0:
225,184,228911,1,0,0:0:0:0:
289,184,228998,1,8,0:0:0:0:
225,184,229085,1,0,0:0:0:0:
289,184,229172,1,0,0:0:0:0:
289,184,229259,1,8,0:0:0:0:
281,182,229434,1,0,0:0:0:0:
267,185,229695,1,8,0:0:0:0:
289,184,229957,1,8,0:0:0:0:
248,181,230044,1,8,0:0:0:0:
289,184,230131,1,0,0:0:0:0:
289,184,230219,1,0,0:0:0:0:
225,184,230306,1,8,0:0:0:0:
255,194,230480,1,0,0:0:0:0:
225,184,230742,1,8,0:0:0:0:
260,176,231004,1,0,0:0:0:0:
289,184,231091,1,8,0:0:0:0:
242,173,231178,1,0,0:0:0:0:
289,184,231265,1,0,0:0:0:0:
254,183,231352,1,8,0:0:0:0:
248,191,231440,1,4,0:0:0:0:
256,192,231527,12,0,233097,0:0:0:0:
256,192,233576,12,0,233707,0:0:0:0:
256,192,235713,12,8,246178,0:0:0:0:
440,248,246527,5,0,0:0:0:0:
450,270,247053,1,8,0:0:0:0:
431,269,250343,5,0,0:0:0:0:
429,291,250988,1,8,0:0:0:0:
256,192,255314,12,0,259314,0:0:0:0:
