osu file format v14

[General]
AudioFilename: audio.mp3
AudioLeadIn: 0
PreviewTime: 101518
Countdown: 0
SampleSet: Normal
StackLeniency: 0.5
Mode: 1
LetterboxInBreaks: 0
EpilepsyWarning: 1
WidescreenStoryboard: 1

[Editor]
Bookmarks: 65583,81950,101586,124492,150671,193217
DistanceSpacing: 2
BeatDivisor: 4
GridSize: 32
TimelineZoom: 1.7

[Metadata]
Title:Hibi Darake no Me
TitleUnicode:ヒビダラケの眼
Artist:KikuoHana
ArtistUnicode:きくおはな
Creator:Alchyr
Version:Inner Oni
Source:
Tags:Kikuo 花たん YURiCa 第二幕 2nd act electronic japanese
BeatmapID:2189903
BeatmapSetID:1006568

[Difficulty]
HPDrainRate:4.7
CircleSize:6.7
OverallDifficulty:6.5
ApproachRate:7.7
SliderMultiplier:1.4
SliderTickRate:1

[Events]
//Background and Video events
0,0,"bright.jpg",0,0
//Break Periods
//Storyboard Layer 0 (Background)
//Storyboard Layer 1 (Fail)
//Storyboard Layer 2 (Pass)
//Storyboard Layer 3 (Foreground)
//Storyboard Layer 4 (Overlay)
//Storyboard Sound Samples

[TimingPoints]
1749,410.958904109589,4,1,0,20,1,0
1749,-132.727272728021,4,1,0,20,0,0
6680,545.454545454546,4,1,0,20,1,0
8384,-101.010101010101,4,1,0,20,0,0
8452,-102.040816326531,4,1,0,20,0,0
8861,-103.092783505155,4,1,0,20,0,0
8930,-104.166666666667,4,1,0,20,0,0
8998,-105.263157894737,4,1,0,20,0,0
9407,-106.382978723404,4,1,0,20,0,0
9498,-107.52688172043,4,1,0,20,0,0
9589,-108.695652173913,4,1,0,20,0,0
9680,-109.89010989011,4,1,0,20,0,0
10907,-113.636363636364,4,1,0,20,0,0
10975,-114.942528735632,4,1,0,20,0,0
11043,-116.279069767442,4,1,0,20,0,0
13221,272.727272727273,3,1,0,30,1,0
33675,-120.481927710843,3,1,0,25,0,0
35311,-100,3,1,0,20,0,0
36948,-120.481927710843,3,1,0,25,0,0
38584,-133.333333333333,3,1,0,20,0,0
40221,-120.481927710843,3,1,0,25,0,0
41857,285.714285714286,3,1,0,30,1,0
42714,258.620689655172,3,1,0,30,1,0
42714,-110.497237569061,3,1,0,30,0,0
43489,272.727272727273,3,1,0,30,1,0
43489,-120.481927710843,3,1,0,30,0,0
44307,-133.333333333333,3,1,0,30,0,0
45125,-151.515151515152,3,1,0,30,0,0
45941,-100,3,1,0,30,0,0
63123,-105.263157894737,3,1,0,30,0,0
63941,-111.111111111111,3,1,0,30,0,0
64759,-117.647058823529,3,1,0,30,0,0
65032,-120.481927710843,3,1,0,30,0,0
78670,-100,3,1,0,30,0,0
79489,-87.719298245614,3,1,0,30,0,0
80307,-66.6666666666667,3,1,0,30,0,0
81125,-100,3,1,0,30,0,0
81943,272.727272727273,6,1,0,20,1,0
81943,-133.333333333333,6,1,0,20,0,0
124483,272.727272727273,6,1,0,20,1,0
124483,-133.333333333333,6,1,0,20,0,0
124619,-120.481927710843,6,1,0,20,0,0
136617,-100,6,1,0,40,0,0
137573,272.727272727273,3,1,0,40,1,0
150662,-100,3,1,0,40,0,0
150799,-99.6279095032456,3,1,0,40,0,0
150935,-99.2585349955186,3,1,0,40,0,0
151071,-98.8891604877916,3,1,0,40,0,0
151208,-98.5170699910372,3,1,0,40,0,0
151344,-98.1476954833102,3,1,0,40,0,0
151481,-97.7756049865558,3,1,0,40,0,0
151617,-97.4062304788289,3,1,0,40,0,0
151753,-97.0368559711019,3,1,0,40,0,0
151890,-96.6647654743475,3,1,0,40,0,0
152026,-96.2953909666205,3,1,0,40,0,0
152162,-95.9260164588935,3,1,0,40,0,0
152299,-95.5539259621391,3,1,0,40,0,0
152435,-95.1845514544121,3,1,0,40,0,0
152571,-94.8151769466851,3,1,0,40,0,0
152708,-94.4430864499307,3,1,0,40,0,0
152844,-94.0737119422038,3,1,0,40,0,0
152981,-93.7016214454494,3,1,0,40,0,0
153117,-93.3322469377224,3,1,0,40,0,0
153253,-92.9628724299954,3,1,0,40,0,0
153390,-92.590781933241,3,1,0,40,0,0
153526,-92.221407425514,3,1,0,40,0,0
153662,-91.852032917787,3,1,0,40,0,0
153799,-91.4799424210326,3,1,0,40,0,0
153935,-91.1105679133056,3,1,0,40,0,0
154071,-90.7411934055786,3,1,0,40,0,0
154208,-90.3691029088242,3,1,0,40,0,0
154344,-89.9997284010973,3,1,0,40,0,0
154481,-89.6276379043429,3,1,0,40,0,0
154617,-89.2582633966159,3,1,0,40,0,0
154753,-88.8888888888889,3,1,0,40,0,0
154890,-88.5167983921345,3,1,0,40,0,0
155026,-88.1474238844075,3,1,0,40,0,0
155162,-87.7780493766805,3,1,0,40,0,0
155299,-87.4059588799261,3,1,0,40,0,0
155435,-87.0365843721991,3,1,0,40,0,0
155571,-86.6672098644721,3,1,0,40,0,0
155708,-86.2951193677178,3,1,0,40,0,0
155844,-85.9257448599908,3,1,0,40,0,0
155981,-85.5536543632364,3,1,0,40,0,0
156117,-85.1842798555094,3,1,0,40,0,0
156253,-84.8149053477824,3,1,0,40,0,0
156390,-84.442814851028,3,1,0,40,0,0
156526,-84.073440343301,3,1,0,40,0,0
156662,-83.704065835574,3,1,0,40,0,0
156799,-83.3319753388196,3,1,0,40,0,0
156935,-82.9626008310926,3,1,0,40,0,0
157071,-82.5932263233657,3,1,0,40,0,0
157208,-82.2211358266113,3,1,0,40,0,0
157344,-81.8517613188843,3,1,0,40,0,0
157481,-81.4796708221299,3,1,0,40,0,0
157617,-81.1102963144029,3,1,0,40,0,0
157753,-80.7409218066759,3,1,0,40,0,0
157890,-80.3688313099215,3,1,0,40,0,0
158026,-79.9994568021945,3,1,0,40,0,0
158162,-79.6300822944675,3,1,0,40,0,0
158299,-79.2579917977131,3,1,0,40,0,0
158435,-78.8886172899861,3,1,0,40,0,0
158571,-78.5192427822592,3,1,0,40,0,0
158708,-78.1471522855048,3,1,0,40,0,0
158844,-77.7777777777778,3,1,0,40,0,0
158981,-77.4056872810234,3,1,0,40,0,0
159117,-77.0363127732964,3,1,0,40,0,0
159253,-76.6669382655694,3,1,0,40,0,0
159390,-76.294847768815,3,1,0,40,0,0
159526,-75.925473261088,3,1,0,40,0,0
159662,-75.556098753361,3,1,0,40,0,0
159799,-75.1840082566066,3,1,0,40,0,0
159935,-74.8146337488797,3,1,0,40,0,0
160071,-74.4452592411527,3,1,0,40,0,0
160208,-74.0731687443983,3,1,0,40,0,0
160344,-73.7037942366713,3,1,0,40,0,0
160481,-73.3317037399169,3,1,0,40,0,0
160617,-72.9623292321899,3,1,0,40,0,0
160753,-72.5929547244629,3,1,0,40,0,0
160890,-72.2208642277085,3,1,0,40,0,0
161025,-71.8514897199815,3,1,0,40,0,0
161164,-71.4821152122545,3,1,0,40,0,0
161301,-71.1100247155001,3,1,0,40,0,0
161436,-70.7406502077732,3,1,0,40,0,0
161573,-70.3712757000462,3,1,0,40,0,0
161709,-69.9991852032918,3,1,0,40,0,0
161846,-69.6298106955648,3,1,0,40,0,0
161983,-69.2577201988104,3,1,0,40,0,0
162119,-68.8883456910834,3,1,0,40,0,0
162255,-68.5189711833564,3,1,0,40,0,0
162392,-68.146880686602,3,1,0,40,0,0
162528,-67.777506178875,3,1,0,40,0,0
162664,-67.4081316711481,3,1,0,40,0,0
162801,-67.0360411743937,3,1,0,40,0,0
162937,-66.6666666666667,3,1,0,40,0,0
163482,-100,3,1,0,80,0,0
163754,-87.719298245614,3,1,0,75,0,1
193209,271.493212669683,3,1,0,75,1,1
193209,-87.719298245614,3,1,0,75,0,1
194023,270.27027027027,3,1,0,75,1,1
194023,-88.4664484777174,3,1,0,75,0,1
194833,266.666666666667,3,1,0,75,1,1
194833,-89.2035020850626,3,1,0,75,0,1
195630,263.157894736842,3,1,0,75,1,1
195630,-89.9341305675617,3,1,0,75,0,1
196419,260.869565217391,3,1,0,75,1,1
196419,-90.6583339252147,3,1,0,75,0,1
197201,258.620689655172,3,1,0,75,1,1
197201,-91.3761121580216,3,1,0,75,0,1
197976,256.410256410256,3,1,0,75,1,1
197976,-92.0874652659823,3,1,0,75,0,1
198745,254.237288135593,3,1,0,75,1,1
198745,-92.7933111240751,3,1,0,75,0,1
199507,252.100840336134,3,1,0,75,1,1
199507,-93.4927318573217,3,1,0,75,0,1
200263,250,3,1,0,75,1,1
200263,-94.1866453407002,3,1,0,75,0,1
201013,247.933884297521,3,1,0,75,1,1
201013,-94.8750515742107,3,1,0,75,0,1
201756,245.901639344262,3,1,0,75,1,1
201756,-95.557032682875,3,1,0,75,0,1
202493,242.914979757085,3,1,0,75,1,1
202493,-96.2335065416713,3,1,0,75,0,1
203221,240,3,1,0,75,1,1
203221,-96.9017195256654,3,1,0,75,0,1
203941,237.154150197628,3,1,0,75,1,1
203941,-97.5625895098355,3,1,0,75,0,1
204652,235.294117647059,3,1,0,75,1,1
204652,-98.2151986192034,3,1,0,75,0,1
205357,233.463035019455,3,1,0,75,1,1
205357,-98.8623004787032,3,1,0,75,0,1
206057,230.769230769231,3,1,0,75,1,1
206057,-99.5048129633129,3,1,0,75,0,1
206749,228.136882129278,3,1,0,75,1,1
206749,-100.139982448099,3,1,0,75,0,1
207433,226.415094339623,3,1,0,75,1,1
207433,-100.76780893306,3,1,0,75,0,1
208112,224.719101123595,3,1,0,75,1,1
208112,-101.391046043132,3,1,0,75,0,1
208786,223.880597014925,3,1,0,75,1,1
208786,-102.009693778313,3,1,0,75,0,1
209457,222.222222222222,3,1,0,75,1,1
209457,-102.62558788856,3,1,0,75,0,1
210123,220.588235294118,3,1,0,75,1,1
210123,-103.236892623918,3,1,0,75,0,1
210784,218.978102189781,3,1,0,75,1,1
210784,-103.843607984385,3,1,0,75,0,1
211440,216.606498194946,3,1,0,75,1,1
211440,-104.445733969962,3,1,0,75,0,1
212089,214.285714285714,3,1,0,75,1,1
212089,-105.041434830693,3,1,0,75,0,1
212731,212.765957446809,3,1,0,75,1,1
212731,-105.630710566578,3,1,0,75,0,1
213369,211.267605633803,3,1,0,75,1,1
213369,-106.216314802551,3,1,0,75,0,1
214002,209.79020979021,3,1,0,75,1,1
214002,-106.797329663634,3,1,0,75,0,1
214631,208.333333333333,3,1,0,75,1,1
214631,-107.374673024804,3,1,0,75,0,1
215256,206.896551724138,3,1,0,75,1,1
215256,-107.948344886063,3,1,0,75,0,1
215876,205.479452054795,3,1,0,75,1,1
215876,-108.517427372432,3,1,0,75,0,1
216492,204.081632653061,3,1,0,75,1,1
216492,-109.082838358888,3,1,0,75,0,1
217104,202.020202020202,3,1,0,75,1,1
217104,-109.644577845433,3,1,0,75,0,1
217710,200,3,1,0,75,1,1
217710,-110.200810082109,3,1,0,75,0,1
218310,198.675496688742,3,1,0,75,1,1
218310,-110.751535068918,3,1,0,75,0,1
218906,196.72131147541,3,1,0,75,1,1
218906,-111.298588555814,3,1,0,75,0,1
219496,195.439739413681,3,1,0,75,1,1
219496,-111.840134792842,3,1,0,75,0,1
220082,193.548387096774,3,1,0,75,1,1
220082,-112.378009529958,3,1,0,75,0,1
220662,192.307692307692,3,1,0,75,1,1
220662,-112.910377017206,3,1,0,75,0,1
221238,190.47619047619,3,1,0,75,1,1
221238,-113.439073004542,3,1,0,75,0,1
221809,189.274447949527,3,1,0,75,1,1
221809,-113.963179616988,3,1,0,75,0,1
222376,187.5,3,1,0,75,1,1
222376,-114.483614729522,3,1,0,75,0,1
222938,186.915887850467,3,1,0,75,1,1
222938,-114.999460467166,3,1,0,75,0,1
223498,185.758513931889,3,1,0,75,1,1
223498,-115.513470454854,3,1,0,75,0,1
224055,185.185185185185,3,1,0,75,1,1
224055,-116.024726817608,3,1,0,75,0,1
224610,184.049079754601,3,1,0,75,1,1
224610,-116.534147430405,3,1,0,75,0,1
225162,182.370820668693,3,1,0,75,1,1
225162,-117.040814418269,3,1,0,75,0,1
225709,180.722891566265,3,1,0,75,1,1
225709,-117.542892031243,3,1,0,75,0,1
226251,179.640718562874,3,1,0,75,1,1
226251,-118.040380269326,3,1,0,75,0,1
226789,178.571428571429,3,1,0,75,1,1
226789,-118.534197007498,3,1,0,75,0,1
227324,177.514792899408,3,1,0,75,1,1
227324,-119.025260120735,3,1,0,75,0,1
227856,176.470588235294,3,1,0,75,1,1
227856,-119.513569609039,3,1,0,75,0,1
228385,175.438596491228,3,1,0,75,1,1
228385,-119.999125472408,3,1,0,75,0,1
228911,174.418604651163,3,1,0,75,1,1
228911,-120.481927710843,3,1,0,75,0,1
231527,-50,3,1,0,75,0,0
232050,-25,3,1,0,75,0,0
233576,-66.6666666666667,3,1,0,30,0,0
233620,-120.481927710843,3,1,0,30,0,0
234143,-133.333333333333,3,1,0,50,0,0
234666,-149.253731343284,3,1,0,40,0,0
235190,-172.413793103448,3,1,0,30,0,0
235713,348.837209302326,4,1,0,20,1,0
236759,-100,4,1,0,19,0,0
237108,-100,4,1,0,18,0,0
237457,-100,4,1,0,17,0,0
237806,-100,4,1,0,16,0,0
238154,-100,4,1,0,15,0,0
238503,-100,4,1,0,14,0,0
238852,-105.263157894737,4,1,0,13,0,0
239201,-105.263157894737,4,1,0,12,0,0
239550,-105.263157894737,4,1,0,11,0,0
239899,-105.263157894737,4,1,0,10,0,0
240247,-111.111111111111,4,1,0,9,0,0
240596,-111.111111111111,4,1,0,8,0,0
240945,-111.111111111111,4,1,0,7,0,0
241294,-117.647058823529,4,1,0,6,0,0
242689,-125,4,1,0,5,0,0
244085,-133.333333333333,4,1,0,5,0,0
245480,-142.857142857143,4,1,0,5,0,0
246527,526.315789473684,4,1,0,20,1,0
248632,571.428571428571,4,1,0,20,1,8
250343,645.161290322581,4,1,0,20,1,0
252923,800,4,1,0,20,1,8
255314,1000,4,1,0,7,1,0
256314,-100,4,1,0,6,0,0
257314,-100,4,1,0,5,0,0

[HitObjects]
288,288,1749,5,0,0:0:0:0:
224,292,2159,1,8,0:0:0:0:
255,297,2570,1,0,0:0:0:0:
425,191,2981,1,0,0:0:0:0:
186,108,3392,1,8,0:0:0:0:
252,92,3803,1,0,0:0:0:0:
83,190,4214,1,8,0:0:0:0:
221,96,4420,1,8,0:0:0:0:
453,292,4625,1,0,0:0:0:0:
294,94,5036,1,8,0:0:0:0:
331,107,5447,1,0,0:0:0:0:
360,130,5653,1,8,0:0:0:0:
255,88,5858,1,0,0:0:0:0:
323,275,6269,1,8,0:0:0:0:
194,282,6680,1,0,0:0:0:0:
166,262,6952,1,0,0:0:0:0:
134,235,7225,1,8,0:0:0:0:
267,176,7498,1,0,0:0:0:0:
248,178,7770,1,8,0:0:0:0:
243,197,8043,1,8,0:0:0:0:
266,195,8316,1,0,0:0:0:0:
256,192,8384,1,0,0:0:0:0:
237,168,8452,1,8,0:0:0:0:
259,164,8861,1,0,0:0:0:0:
256,192,8930,1,0,0:0:0:0:
276,191,8998,1,8,0:0:0:0:
255,201,9407,1,0,0:0:0:0:
248,192,9498,1,0,0:0:0:0:
292,180,9589,1,8,0:0:0:0:
243,175,9680,1,8,0:0:0:0:
241,178,10907,1,8,0:0:0:0:
252,191,10975,1,8,0:0:0:0:
229,184,11043,1,0,0:0:0:0:
380,144,13221,1,0,0:0:0:0:
104,154,13493,1,8,0:0:0:0:
104,154,13766,1,8,0:0:0:0:
380,144,14039,1,0,0:0:0:0:
104,154,14311,1,8,0:0:0:0:
104,154,14584,1,8,0:0:0:0:
352,260,14857,1,0,0:0:0:0:
118,219,15130,1,8,0:0:0:0:
128,54,15402,1,8,0:0:0:0:
365,77,15675,1,0,0:0:0:0:
121,31,15948,1,8,0:0:0:0:
253,37,16084,1,8,0:0:0:0:
309,53,16221,1,0,0:0:0:0:
190,45,16357,1,8,0:0:0:0:
384,59,16493,1,0,0:0:0:0:
187,30,16766,1,8,0:0:0:0:
184,16,17039,1,8,0:0:0:0:
311,40,17311,1,0,0:0:0:0:
250,33,17584,1,8,0:0:0:0:
251,19,17857,1,8,0:0:0:0:
317,24,18130,1,0,0:0:0:0:
91,174,18402,1,8,0:0:0:0:
383,246,18675,1,8,0:0:0:0:
264,183,18948,1,0,0:0:0:0:
256,192,19221,1,8,0:0:0:0:
431,194,19357,1,0,0:0:0:0:
256,192,19493,1,8,0:0:0:0:
256,192,19630,1,8,0:0:0:0:
408,186,19766,1,0,0:0:0:0:
256,192,20039,1,8,0:0:0:0:
119,130,20311,1,8,0:0:0:0:
320,95,20584,1,0,0:0:0:0:
185,96,20857,1,8,0:0:0:0:
213,89,21130,1,8,0:0:0:0:
276,95,21402,1,0,0:0:0:0:
176,103,21675,1,8,0:0:0:0:
186,104,21948,1,8,0:0:0:0:
339,115,22221,1,0,0:0:0:0:
201,100,22493,1,8,0:0:0:0:
163,113,22630,1,8,0:0:0:0:
361,129,22766,1,0,0:0:0:0:
333,110,22902,1,0,0:0:0:0:
176,103,23039,1,8,0:0:0:0:
348,117,23311,1,0,0:0:0:0:
278,92,23584,1,0,0:0:0:0:
214,94,23857,1,8,0:0:0:0:
249,91,24130,1,0,0:0:0:0:
262,175,24402,1,0,0:0:0:0:
260,196,24675,1,8,0:0:0:0:
249,180,24948,1,0,0:0:0:0:
255,185,25221,1,0,0:0:0:0:
182,273,25493,1,8,0:0:0:0:
189,281,25766,1,0,0:0:0:0:
167,264,25902,1,8,0:0:0:0:
150,251,26039,1,8,0:0:0:0:
274,294,26175,1,0,0:0:0:0:
150,251,26311,1,8,0:0:0:0:
310,278,26584,1,0,0:0:0:0:
234,291,26857,1,0,0:0:0:0:
177,274,27130,1,8,0:0:0:0:
202,285,27402,1,0,0:0:0:0:
392,157,27675,1,0,0:0:0:0:
103,205,27948,1,8,0:0:0:0:
384,149,28221,1,0,0:0:0:0:
418,209,28493,1,0,0:0:0:0:
427,178,28766,1,8,0:0:0:0:
444,192,29039,1,0,0:0:0:0:
483,188,29175,1,8,0:0:0:0:
436,119,29311,1,0,0:0:0:0:
462,184,29448,1,0,0:0:0:0:
444,110,29584,1,8,0:0:0:0:
461,101,29857,1,0,0:0:0:0:
376,66,30130,1,0,0:0:0:0:
135,79,30402,1,8,0:0:0:0:
387,53,30675,1,0,0:0:0:0:
402,44,30948,1,0,0:0:0:0:
126,65,31221,1,8,0:0:0:0:
413,32,31493,1,0,0:0:0:0:
125,52,31766,1,0,0:0:0:0:
359,254,32039,1,8,0:0:0:0:
382,238,32311,1,0,0:0:0:0:
398,228,32448,1,0,0:0:0:0:
334,265,32584,1,8,0:0:0:0:
348,258,32721,1,8,0:0:0:0:
143,120,33675,1,0,0:0:0:0:
155,113,34493,1,8,0:0:0:0:
62,196,35584,1,8,0:0:0:0:
113,140,35721,1,8,0:0:0:0:
91,197,35857,1,0,0:0:0:0:
100,167,35993,1,8,0:0:0:0:
87,171,36130,1,0,0:0:0:0:
67,179,36948,1,0,0:0:0:0:
80,175,37766,1,8,0:0:0:0:
268,187,38857,1,0,0:0:0:0:
250,179,38993,1,0,0:0:0:0:
268,187,39130,1,8,0:0:0:0:
264,175,39266,1,8,0:0:0:0:
255,191,39402,1,0,0:0:0:0:
262,194,40221,1,0,0:0:0:0:
245,182,41039,1,8,0:0:0:0:
256,192,42142,1,0,0:0:0:0:
256,192,42428,1,0,0:0:0:0:
256,192,42714,1,0,0:0:0:0:
256,192,45943,1,12,0:0:0:0:
276,192,46216,1,0,0:0:0:0:
276,192,46352,1,0,0:0:0:0:
244,192,46489,1,0,0:0:0:0:
276,192,46625,1,0,0:0:0:0:
260,178,46761,1,8,0:0:0:0:
276,192,47034,1,0,0:0:0:0:
276,192,47170,1,0,0:0:0:0:
254,211,47443,1,0,0:0:0:0:
244,192,47579,1,8,0:0:0:0:
254,211,47852,1,0,0:0:0:0:
254,211,47989,1,0,0:0:0:0:
266,207,48125,1,0,0:0:0:0:
266,207,48261,1,0,0:0:0:0:
262,187,48398,1,8,0:0:0:0:
246,202,48670,1,0,0:0:0:0:
242,202,48807,1,8,0:0:0:0:
256,192,48943,1,8,0:0:0:0:
256,192,49079,1,0,0:0:0:0:
243,182,49216,1,8,0:0:0:0:
246,202,49489,1,0,0:0:0:0:
246,202,49625,1,0,0:0:0:0:
263,199,49761,1,0,0:0:0:0:
266,196,49898,1,0,0:0:0:0:
260,190,50034,1,8,0:0:0:0:
250,191,50307,1,0,0:0:0:0:
250,191,50443,1,0,0:0:0:0:
266,196,50716,1,8,0:0:0:0:
261,189,50852,1,8,0:0:0:0:
254,201,51125,1,0,0:0:0:0:
254,201,51261,1,0,0:0:0:0:
254,201,51398,1,0,0:0:0:0:
254,201,51534,1,0,0:0:0:0:
240,196,51670,1,8,0:0:0:0:
258,197,51943,1,0,0:0:0:0:
250,191,52079,1,8,0:0:0:0:
237,202,52216,1,0,0:0:0:0:
256,192,52352,1,0,0:0:0:0:
240,196,52489,1,8,0:0:0:0:
238,191,52761,1,0,0:0:0:0:
254,199,52898,1,0,0:0:0:0:
254,199,53034,1,0,0:0:0:0:
254,199,53170,1,0,0:0:0:0:
245,204,53307,1,8,0:0:0:0:
254,199,53579,1,0,0:0:0:0:
265,197,53716,1,0,0:0:0:0:
265,197,53989,1,0,0:0:0:0:
255,187,54125,1,8,0:0:0:0:
281,193,54398,1,0,0:0:0:0:
281,193,54534,1,0,0:0:0:0:
281,193,54670,1,0,0:0:0:0:
281,193,54807,1,0,0:0:0:0:
235,197,54943,1,8,0:0:0:0:
255,174,55216,1,0,0:0:0:0:
255,174,55352,1,0,0:0:0:0:
255,174,55625,1,0,0:0:0:0:
260,203,55761,1,8,0:0:0:0:
240,182,55898,1,8,0:0:0:0:
273,183,56034,1,8,0:0:0:0:
236,190,56170,1,8,0:0:0:0:
283,196,56307,1,8,0:0:0:0:
233,189,56443,1,8,0:0:0:0:
256,192,56579,1,8,0:0:0:0:
256,192,56716,1,0,0:0:0:0:
256,192,56784,1,0,0:0:0:0:
256,192,56852,1,8,0:0:0:0:
256,192,56920,1,0,0:0:0:0:
256,192,56989,1,0,0:0:0:0:
256,192,57057,1,0,0:0:0:0:
256,192,57125,1,8,0:0:0:0:
256,192,57193,1,0,0:0:0:0:
256,192,57261,1,0,0:0:0:0:
256,192,57329,1,0,0:0:0:0:
256,192,57398,1,8,0:0:0:0:
256,192,57534,1,0,0:0:0:0:
256,192,57602,1,0,0:0:0:0:
256,192,57670,1,8,0:0:0:0:
256,192,57739,1,0,0:0:0:0:
256,192,57807,1,0,0:0:0:0:
256,192,57875,1,0,0:0:0:0:
256,192,57943,1,8,0:0:0:0:
256,192,58011,1,0,0:0:0:0:
256,192,58079,1,0,0:0:0:0:
256,192,58148,1,0,0:0:0:0:
256,192,58216,1,8,0:0:0:0:
256,192,58284,1,8,0:0:0:0:
256,192,58352,1,0,0:0:0:0:
256,192,58420,1,0,0:0:0:0:
256,192,58489,1,8,0:0:0:0:
256,192,58557,1,8,0:0:0:0:
256,192,58625,1,0,0:0:0:0:
256,192,58693,1,0,0:0:0:0:
256,192,58761,1,8,0:0:0:0:
256,192,58829,1,8,0:0:0:0:
256,192,58898,1,0,0:0:0:0:
256,192,58966,1,0,0:0:0:0:
256,192,59034,1,8,0:0:0:0:
236,191,59307,1,0,0:0:0:0:
256,212,59443,1,8,0:0:0:0:
279,192,59579,1,0,0:0:0:0:
258,164,59852,1,0,0:0:0:0:
259,197,60125,1,0,0:0:0:0:
256,192,60398,1,0,0:0:0:0:
257,181,60670,1,8,0:0:0:0:
256,192,60943,1,0,0:0:0:0:
255,205,61079,1,8,0:0:0:0:
255,205,61216,1,0,0:0:0:0:
256,192,61284,1,0,0:0:0:0:
256,192,61352,1,0,0:0:0:0:
256,192,61420,1,0,0:0:0:0:
256,192,61489,1,8,0:0:0:0:
256,192,61557,1,8,0:0:0:0:
276,217,61625,1,0,0:0:0:0:
235,172,61693,1,0,0:0:0:0:
245,167,61761,1,8,0:0:0:0:
271,165,61829,1,8,0:0:0:0:
290,185,61898,1,0,0:0:0:0:
225,197,61966,1,0,0:0:0:0:
269,213,62034,1,8,0:0:0:0:
247,223,62102,1,8,0:0:0:0:
259,200,62170,1,8,0:0:0:0:
259,200,62239,1,8,0:0:0:0:
256,224,62307,1,0,0:0:0:0:
317,48,65170,1,0,0:0:0:0:
322,45,65307,1,0,0:0:0:0:
345,13,65443,1,0,0:0:0:0:
330,22,65579,1,8,0:0:0:0:
96,192,65989,1,8,0:0:0:0:
244,190,66398,1,0,0:0:0:0:
236,197,66807,1,0,0:0:0:0:
266,177,67216,1,8,0:0:0:0:
252,198,67489,1,0,0:0:0:0:
272,175,67898,1,8,0:0:0:0:
257,190,68034,1,0,0:0:0:0:
380,240,68307,1,0,0:0:0:0:
313,281,68579,1,0,0:0:0:0:
446,103,68852,1,8,0:0:0:0:
43,65,69125,1,0,0:0:0:0:
47,70,69398,1,8,0:0:0:0:
256,192,69602,1,8,0:0:0:0:
256,192,69670,1,0,0:0:0:0:
256,192,69943,1,0,0:0:0:0:
50,83,70216,1,8,0:0:0:0:
56,105,70489,1,0,0:0:0:0:
53,74,70761,1,8,0:0:0:0:
256,288,71170,1,0,0:0:0:0:
220,288,71307,1,8,0:0:0:0:
293,290,71443,1,8,0:0:0:0:
257,298,71579,1,0,0:0:0:0:
278,295,71716,1,0,0:0:0:0:
211,289,71852,1,8,0:0:0:0:
312,278,71989,1,8,0:0:0:0:
192,283,72125,1,0,0:0:0:0:
232,297,72398,1,0,0:0:0:0:
163,112,72943,1,8,0:0:0:0:
253,44,73625,1,0,0:0:0:0:
428,119,73761,1,8,0:0:0:0:
463,102,74034,1,8,0:0:0:0:
480,96,74307,1,0,0:0:0:0:
432,125,74579,1,0,0:0:0:0:
448,112,74852,1,8,0:0:0:0:
448,112,75125,1,0,0:0:0:0:
411,174,75398,1,8,0:0:0:0:
238,209,75670,1,0,0:0:0:0:
270,180,75943,1,0,0:0:0:0:
256,192,76079,1,0,0:0:0:0:
248,184,76216,1,8,0:0:0:0:
254,185,76489,1,8,0:0:0:0:
270,196,76761,1,8,0:0:0:0:
161,257,77034,1,0,0:0:0:0:
129,233,77443,1,8,0:0:0:0:
256,192,77852,12,0,80307,0:0:0:0:
289,184,81943,5,0,0:0:0:0:
278,173,82216,1,0,0:0:0:0:
225,184,82352,1,8,0:0:0:0:
278,180,82624,1,0,0:0:0:0:
289,184,82761,1,0,0:0:0:0:
289,184,83034,1,0,0:0:0:0:
289,184,83170,1,0,0:0:0:0:
225,184,83307,1,8,0:0:0:0:
225,184,83579,1,8,0:0:0:0:
245,184,83852,1,0,0:0:0:0:
289,184,83989,1,0,0:0:0:0:
245,184,84261,1,0,0:0:0:0:
225,184,84398,1,8,0:0:0:0:
245,184,84670,1,0,0:0:0:0:
289,184,84943,1,8,0:0:0:0:
289,184,85216,1,0,0:0:0:0:
289,184,85489,1,0,0:0:0:0:
225,184,85625,1,8,0:0:0:0:
289,184,85897,1,0,0:0:0:0:
289,184,86034,1,0,0:0:0:0:
289,184,86307,1,0,0:0:0:0:
289,184,86443,1,0,0:0:0:0:
225,184,86579,1,8,0:0:0:0:
225,184,86852,1,8,0:0:0:0:
289,184,87125,1,0,0:0:0:0:
225,184,87261,1,8,0:0:0:0:
270,191,87670,1,0,0:0:0:0:
225,184,87943,1,8,0:0:0:0:
224,188,88215,1,0,0:0:0:0:
225,184,88488,1,0,0:0:0:0:
289,184,88761,1,0,0:0:0:0:
289,184,88897,1,0,0:0:0:0:
225,184,89170,1,8,0:0:0:0:
289,184,89307,1,0,0:0:0:0:
289,184,89579,1,0,0:0:0:0:
225,184,89852,1,8,0:0:0:0:
289,184,90125,1,0,0:0:0:0:
289,184,90397,1,0,0:0:0:0:
225,184,90533,1,8,0:0:0:0:
289,184,90806,1,0,0:0:0:0:
289,184,90943,1,8,0:0:0:0:
225,184,91215,1,0,0:0:0:0:
289,184,91488,1,8,0:0:0:0:
289,184,91761,1,0,0:0:0:0:
289,184,92033,1,0,0:0:0:0:
225,184,92170,1,0,0:0:0:0:
230,184,92443,1,0,0:0:0:0:
225,184,92579,1,8,0:0:0:0:
289,184,92852,1,0,0:0:0:0:
225,184,93124,1,8,0:0:0:0:
289,184,93397,1,0,0:0:0:0:
230,184,93670,1,0,0:0:0:0:
289,184,93806,1,8,0:0:0:0:
266,173,94079,1,8,0:0:0:0:
225,184,94215,1,0,0:0:0:0:
225,184,94488,1,8,0:0:0:0:
225,184,94624,1,8,0:0:0:0:
289,184,94761,1,0,0:0:0:0:
243,181,95033,1,0,0:0:0:0:
289,184,95306,1,0,0:0:0:0:
225,184,95443,1,8,0:0:0:0:
226,187,95715,1,0,0:0:0:0:
289,184,95852,1,0,0:0:0:0:
258,176,96124,1,0,0:0:0:0:
225,184,96397,1,8,0:0:0:0:
225,184,96670,1,8,0:0:0:0:
289,184,96943,1,0,0:0:0:0:
225,184,97079,1,8,0:0:0:0:
232,183,97352,1,0,0:0:0:0:
225,184,97488,1,0,0:0:0:0:
225,184,97761,1,0,0:0:0:0:
289,184,97897,1,0,0:0:0:0:
279,182,98033,1,8,0:0:0:0:
225,184,98306,1,8,0:0:0:0:
289,184,98579,1,0,0:0:0:0:
225,184,98715,1,8,0:0:0:0:
220,184,98988,1,0,0:0:0:0:
225,184,99124,1,0,0:0:0:0:
225,184,99397,1,0,0:0:0:0:
289,184,99670,1,0,0:0:0:0:
289,184,99943,1,8,0:0:0:0:
289,184,100215,1,0,0:0:0:0:
289,184,100352,1,8,0:0:0:0:
216,189,100761,1,0,0:0:0:0:
225,184,101033,1,8,0:0:0:0:
289,184,101306,1,0,0:0:0:0:
256,192,101579,1,8,0:0:0:0:
268,191,101715,1,0,0:0:0:0:
250,196,101852,1,0,0:0:0:0:
246,173,102125,1,0,0:0:0:0:
241,187,102261,1,0,0:0:0:0:
240,186,102397,1,8,0:0:0:0:
264,180,102533,1,0,0:0:0:0:
254,174,102806,1,0,0:0:0:0:
259,188,102943,1,0,0:0:0:0:
260,175,103215,1,8,0:0:0:0:
289,184,103352,1,0,0:0:0:0:
282,179,103488,1,8,0:0:0:0:
289,184,103761,1,0,0:0:0:0:
304,106,103897,1,0,0:0:0:0:
225,184,104034,1,8,0:0:0:0:
234,185,104170,1,0,0:0:0:0:
289,184,104443,1,0,0:0:0:0:
260,186,104579,1,8,0:0:0:0:
261,178,104715,1,8,0:0:0:0:
289,184,104852,1,0,0:0:0:0:
254,186,104988,1,0,0:0:0:0:
225,184,105124,1,8,0:0:0:0:
225,184,105397,1,0,0:0:0:0:
241,173,105533,1,0,0:0:0:0:
289,184,105670,1,8,0:0:0:0:
254,186,105806,1,0,0:0:0:0:
254,186,106079,1,0,0:0:0:0:
252,193,106215,1,0,0:0:0:0:
254,191,106488,1,0,0:0:0:0:
269,195,106624,1,0,0:0:0:0:
225,184,106761,1,8,0:0:0:0:
247,184,107033,1,0,0:0:0:0:
241,173,107170,1,0,0:0:0:0:
261,184,107306,1,8,0:0:0:0:
266,181,107443,1,0,0:0:0:0:
245,188,107715,1,0,0:0:0:0:
240,186,107852,1,8,0:0:0:0:
247,184,107988,1,8,0:0:0:0:
225,184,108125,1,0,0:0:0:0:
226,179,108261,1,0,0:0:0:0:
225,184,108397,1,8,0:0:0:0:
245,188,108670,1,0,0:0:0:0:
219,191,108806,1,0,0:0:0:0:
254,163,108943,1,8,0:0:0:0:
225,184,109079,1,0,0:0:0:0:
245,178,109352,1,0,0:0:0:0:
232,180,109488,1,0,0:0:0:0:
225,184,109761,1,8,0:0:0:0:
241,181,109897,1,0,0:0:0:0:
241,181,110033,1,0,0:0:0:0:
231,188,110307,1,0,0:0:0:0:
259,193,110443,1,0,0:0:0:0:
289,184,110579,1,8,0:0:0:0:
260,187,110715,1,0,0:0:0:0:
289,184,110988,1,0,0:0:0:0:
254,182,111124,1,0,0:0:0:0:
248,187,111261,1,0,0:0:0:0:
225,184,111398,1,8,0:0:0:0:
260,187,111533,1,0,0:0:0:0:
247,184,111670,1,8,0:0:0:0:
245,186,111943,1,0,0:0:0:0:
254,182,112079,1,0,0:0:0:0:
225,184,112216,1,8,0:0:0:0:
259,191,112352,1,0,0:0:0:0:
246,184,112624,1,0,0:0:0:0:
263,180,112761,1,0,0:0:0:0:
240,183,113033,1,8,0:0:0:0:
225,184,113170,1,8,0:0:0:0:
242,184,113306,1,0,0:0:0:0:
289,184,113579,1,0,0:0:0:0:
251,182,113715,1,0,0:0:0:0:
225,184,113852,1,8,0:0:0:0:
289,184,113988,1,0,0:0:0:0:
254,195,114261,1,0,0:0:0:0:
266,190,114397,1,0,0:0:0:0:
255,186,114533,1,0,0:0:0:0:
225,184,114670,1,8,0:0:0:0:
252,180,114806,1,0,0:0:0:0:
228,179,114943,1,8,0:0:0:0:
248,185,115215,1,0,0:0:0:0:
251,182,115352,1,0,0:0:0:0:
279,186,115489,1,8,0:0:0:0:
267,196,115624,1,0,0:0:0:0:
254,192,115897,1,0,0:0:0:0:
249,196,116033,1,0,0:0:0:0:
225,184,116306,1,8,0:0:0:0:
289,184,116443,1,0,0:0:0:0:
225,184,116580,1,0,0:0:0:0:
258,188,116852,1,0,0:0:0:0:
259,184,116988,1,0,0:0:0:0:
225,184,117125,1,8,0:0:0:0:
289,184,117261,1,0,0:0:0:0:
289,184,117533,1,0,0:0:0:0:
241,180,117670,1,0,0:0:0:0:
241,180,117806,1,0,0:0:0:0:
261,169,117943,1,8,0:0:0:0:
241,180,118079,1,0,0:0:0:0:
225,184,118216,1,8,0:0:0:0:
289,184,118489,1,0,0:0:0:0:
257,165,118624,1,0,0:0:0:0:
280,187,118761,1,8,0:0:0:0:
246,191,118897,1,0,0:0:0:0:
225,184,119170,1,0,0:0:0:0:
245,186,119306,1,0,0:0:0:0:
225,184,119579,1,8,0:0:0:0:
289,184,119715,1,0,0:0:0:0:
262,186,119852,1,0,0:0:0:0:
250,188,120124,1,0,0:0:0:0:
237,190,120261,1,0,0:0:0:0:
256,192,120397,1,8,0:0:0:0:
255,186,120533,1,0,0:0:0:0:
262,186,120670,1,8,0:0:0:0:
279,183,120806,1,8,0:0:0:0:
289,184,120943,1,0,0:0:0:0:
247,186,121079,1,0,0:0:0:0:
226,192,121352,1,0,0:0:0:0:
289,184,121489,1,0,0:0:0:0:
289,184,121761,1,0,0:0:0:0:
289,184,121898,1,0,0:0:0:0:
289,184,122170,1,0,0:0:0:0:
289,184,122443,1,0,0:0:0:0:
289,184,122579,1,0,0:0:0:0:
289,184,122716,1,0,0:0:0:0:
289,184,122989,1,0,0:0:0:0:
289,184,123125,1,0,0:0:0:0:
289,184,123398,1,0,0:0:0:0:
289,184,123534,1,0,0:0:0:0:
289,184,123807,1,0,0:0:0:0:
289,184,124079,1,0,0:0:0:0:
289,184,124216,1,0,0:0:0:0:
289,184,124352,1,0,0:0:0:0:
225,184,124619,1,8,0:0:0:0:
225,184,124755,1,8,0:0:0:0:
225,184,125028,1,8,0:0:0:0:
225,184,125164,1,8,0:0:0:0:
225,184,125437,1,8,0:0:0:0:
249,182,125710,1,8,0:0:0:0:
249,182,125846,1,8,0:0:0:0:
289,184,125983,1,0,0:0:0:0:
225,184,126255,1,8,0:0:0:0:
225,184,126392,1,8,0:0:0:0:
225,184,126664,1,8,0:0:0:0:
225,184,126801,1,8,0:0:0:0:
225,184,127073,1,8,0:0:0:0:
225,184,127346,1,8,0:0:0:0:
289,184,127483,1,0,0:0:0:0:
289,184,127619,1,0,0:0:0:0:
225,184,127892,1,8,0:0:0:0:
225,184,128028,1,8,0:0:0:0:
225,184,128301,1,8,0:0:0:0:
225,184,128437,1,8,0:0:0:0:
225,184,128710,1,8,0:0:0:0:
289,184,128983,1,8,0:0:0:0:
289,184,129119,1,8,0:0:0:0:
289,184,129255,1,0,0:0:0:0:
225,184,129528,1,8,0:0:0:0:
225,184,129664,1,8,0:0:0:0:
225,184,129937,1,8,0:0:0:0:
225,184,130073,1,8,0:0:0:0:
225,184,130346,1,8,0:0:0:0:
225,184,130619,1,8,0:0:0:0:
289,184,130755,1,0,0:0:0:0:
289,184,130892,1,0,0:0:0:0:
225,184,131164,1,8,0:0:0:0:
225,184,131301,1,8,0:0:0:0:
225,184,131573,1,8,0:0:0:0:
225,184,131710,1,8,0:0:0:0:
225,184,131983,1,8,0:0:0:0:
225,184,132255,1,8,0:0:0:0:
225,184,132392,1,8,0:0:0:0:
289,184,132528,1,0,0:0:0:0:
225,184,132801,1,8,0:0:0:0:
225,184,132937,1,8,0:0:0:0:
225,184,133210,1,8,0:0:0:0:
225,184,133346,1,8,0:0:0:0:
225,184,133619,1,8,0:0:0:0:
225,184,133892,1,8,0:0:0:0:
289,184,134028,1,0,0:0:0:0:
289,184,134164,1,0,0:0:0:0:
225,184,134437,1,8,0:0:0:0:
225,184,134573,1,8,0:0:0:0:
225,184,134846,1,8,0:0:0:0:
225,184,134983,1,8,0:0:0:0:
225,184,135255,1,8,0:0:0:0:
289,184,135528,1,8,0:0:0:0:
289,184,135664,1,8,0:0:0:0:
289,184,135801,1,0,0:0:0:0:
225,184,136619,1,8,0:0:0:0:
225,184,136755,1,8,0:0:0:0:
289,184,136892,1,0,0:0:0:0:
225,184,137028,1,8,0:0:0:0:
289,184,137164,1,0,0:0:0:0:
225,184,137301,1,8,0:0:0:0:
225,184,137437,1,8,0:0:0:0:
289,184,137573,1,4,0:0:0:0:
232,186,137709,1,8,0:0:0:0:
225,184,137846,1,8,0:0:0:0:
289,184,137983,1,4,0:0:0:0:
232,186,138118,1,8,0:0:0:0:
225,184,138255,1,8,0:0:0:0:
289,184,138392,1,4,0:0:0:0:
232,186,138527,1,8,0:0:0:0:
289,184,138664,1,4,0:0:0:0:
232,186,138800,1,8,0:0:0:0:
289,184,138937,1,4,0:0:0:0:
289,184,139210,1,4,0:0:0:0:
232,186,139345,1,8,0:0:0:0:
225,184,139483,1,8,0:0:0:0:
289,184,139619,1,4,0:0:0:0:
232,186,139754,1,8,0:0:0:0:
225,184,139892,1,8,0:0:0:0:
289,184,140028,1,4,0:0:0:0:
232,186,140163,1,8,0:0:0:0:
289,184,140301,1,4,0:0:0:0:
221,186,140436,1,8,0:0:0:0:
289,184,140573,1,4,0:0:0:0:
289,184,140846,1,4,0:0:0:0:
221,186,140982,1,8,0:0:0:0:
225,184,141119,1,8,0:0:0:0:
289,184,141255,1,4,0:0:0:0:
221,186,141391,1,8,0:0:0:0:
225,184,141528,1,8,0:0:0:0:
289,184,141664,1,4,0:0:0:0:
221,186,141800,1,8,0:0:0:0:
289,184,141937,1,4,0:0:0:0:
221,185,142073,1,8,0:0:0:0:
289,184,142210,1,4,0:0:0:0:
289,184,142483,1,4,0:0:0:0:
236,190,142618,1,8,0:0:0:0:
225,184,142755,1,8,0:0:0:0:
289,184,142892,1,4,0:0:0:0:
235,189,143027,1,8,0:0:0:0:
225,184,143164,1,8,0:0:0:0:
289,184,143301,1,4,0:0:0:0:
236,190,143436,1,8,0:0:0:0:
289,184,143573,1,4,0:0:0:0:
235,189,143709,1,8,0:0:0:0:
225,184,143846,1,12,0:0:0:0:
289,184,144119,1,4,0:0:0:0:
236,190,144254,1,8,0:0:0:0:
225,184,144392,1,8,0:0:0:0:
289,184,144528,1,4,0:0:0:0:
235,189,144663,1,8,0:0:0:0:
225,184,144801,1,8,0:0:0:0:
289,184,144937,1,4,0:0:0:0:
236,190,145073,1,8,0:0:0:0:
289,184,145210,1,4,0:0:0:0:
235,189,145345,1,8,0:0:0:0:
289,184,145483,1,4,0:0:0:0:
289,184,145755,1,4,0:0:0:0:
236,190,145891,1,8,0:0:0:0:
225,184,146028,1,8,0:0:0:0:
289,184,146164,1,4,0:0:0:0:
235,189,146300,1,8,0:0:0:0:
225,184,146437,1,8,0:0:0:0:
289,184,146573,1,4,0:0:0:0:
236,190,146709,1,8,0:0:0:0:
289,184,146846,1,4,0:0:0:0:
235,189,146982,1,8,0:0:0:0:
289,184,147119,1,4,0:0:0:0:
289,184,147392,1,4,0:0:0:0:
236,190,147527,1,8,0:0:0:0:
225,184,147664,1,8,0:0:0:0:
289,184,147801,1,4,0:0:0:0:
235,189,147936,1,8,0:0:0:0:
225,184,148073,1,8,0:0:0:0:
289,184,148210,1,4,0:0:0:0:
236,190,148345,1,8,0:0:0:0:
289,184,148483,1,4,0:0:0:0:
235,189,148618,1,8,0:0:0:0:
289,184,148755,1,4,0:0:0:0:
289,184,149028,1,4,0:0:0:0:
236,190,149163,1,8,0:0:0:0:
225,184,149301,1,8,0:0:0:0:
289,184,149437,1,4,0:0:0:0:
235,189,149573,1,8,0:0:0:0:
225,184,149710,1,8,0:0:0:0:
289,184,149846,1,4,0:0:0:0:
236,190,149982,1,8,0:0:0:0:
289,184,150119,1,4,0:0:0:0:
235,189,150254,1,8,0:0:0:0:
225,184,150392,1,12,0:0:0:0:
289,184,150664,1,4,0:0:0:0:
236,190,150800,1,8,0:0:0:0:
225,184,150937,1,8,0:0:0:0:
289,184,151073,1,4,0:0:0:0:
235,189,151209,1,8,0:0:0:0:
225,184,151346,1,8,0:0:0:0:
289,184,151483,1,4,0:0:0:0:
236,190,151618,1,8,0:0:0:0:
289,184,151755,1,4,0:0:0:0:
235,189,151891,1,8,0:0:0:0:
289,184,152028,1,4,0:0:0:0:
289,184,152301,1,4,0:0:0:0:
236,190,152436,1,8,0:0:0:0:
225,184,152573,1,8,0:0:0:0:
289,184,152710,1,4,0:0:0:0:
235,189,152845,1,8,0:0:0:0:
225,184,152983,1,8,0:0:0:0:
289,184,153119,1,4,0:0:0:0:
236,190,153254,1,8,0:0:0:0:
289,184,153392,1,4,0:0:0:0:
235,189,153527,1,8,0:0:0:0:
289,184,153664,1,4,0:0:0:0:
289,184,153937,1,4,0:0:0:0:
236,190,154073,1,8,0:0:0:0:
225,184,154210,1,8,0:0:0:0:
289,184,154346,1,4,0:0:0:0:
235,189,154482,1,8,0:0:0:0:
225,184,154619,1,8,0:0:0:0:
289,184,154755,1,4,0:0:0:0:
236,190,154891,1,8,0:0:0:0:
289,184,155028,1,4,0:0:0:0:
235,189,155163,1,8,0:0:0:0:
289,184,155301,1,4,0:0:0:0:
289,184,155573,1,4,0:0:0:0:
236,190,155709,1,8,0:0:0:0:
225,184,155846,1,8,0:0:0:0:
289,184,155983,1,4,0:0:0:0:
235,189,156118,1,8,0:0:0:0:
225,184,156255,1,8,0:0:0:0:
289,184,156392,1,4,0:0:0:0:
236,190,156527,1,8,0:0:0:0:
289,184,156664,1,4,0:0:0:0:
235,189,156800,1,8,0:0:0:0:
225,184,156937,1,12,0:0:0:0:
289,184,157210,1,4,0:0:0:0:
236,190,157345,1,8,0:0:0:0:
225,184,157483,1,8,0:0:0:0:
289,184,157619,1,4,0:0:0:0:
235,189,157754,1,8,0:0:0:0:
225,184,157892,1,8,0:0:0:0:
289,184,158028,1,4,0:0:0:0:
236,190,158163,1,8,0:0:0:0:
289,184,158301,1,4,0:0:0:0:
235,189,158436,1,8,0:0:0:0:
289,184,158573,1,4,0:0:0:0:
289,184,158846,1,4,0:0:0:0:
236,190,158982,1,8,0:0:0:0:
225,184,159119,1,8,0:0:0:0:
289,184,159255,1,4,0:0:0:0:
235,189,159391,1,8,0:0:0:0:
225,184,159528,1,8,0:0:0:0:
289,184,159664,1,4,0:0:0:0:
236,190,159800,1,8,0:0:0:0:
289,184,159937,1,4,0:0:0:0:
235,189,160073,1,8,0:0:0:0:
289,184,160210,1,4,0:0:0:0:
289,184,160483,1,4,0:0:0:0:
236,190,160618,1,8,0:0:0:0:
225,184,160755,1,8,0:0:0:0:
289,184,160892,1,4,0:0:0:0:
235,189,161027,1,8,0:0:0:0:
225,184,161164,1,8,0:0:0:0:
289,184,161301,1,4,0:0:0:0:
236,190,161436,1,8,0:0:0:0:
289,184,161573,1,4,0:0:0:0:
236,190,161709,1,8,0:0:0:0:
289,184,161846,1,4,0:0:0:0:
289,184,162119,1,4,0:0:0:0:
248,179,162255,1,8,0:0:0:0:
225,184,162392,1,8,0:0:0:0:
289,184,162528,1,4,0:0:0:0:
288,192,162664,1,8,0:0:0:0:
225,184,162801,1,8,0:0:0:0:
256,192,163482,12,0,163618,0:0:0:0:
225,184,163754,5,12,0:0:0:0:
225,184,164028,1,8,0:0:0:0:
225,184,164096,1,8,0:0:0:0:
289,184,164164,1,0,0:0:0:0:
225,184,164232,1,0,0:0:0:0:
294,184,164300,1,8,0:0:0:0:
225,184,164437,1,8,0:0:0:0:
289,184,164573,1,0,0:0:0:0:
234,189,164641,1,0,0:0:0:0:
289,184,164710,1,0,0:0:0:0:
224,192,164777,1,0,0:0:0:0:
225,184,164846,1,8,0:0:0:0:
225,184,164983,1,8,0:0:0:0:
256,192,165050,1,8,0:0:0:0:
289,184,165119,1,0,0:0:0:0:
224,160,165254,1,0,0:0:0:0:
224,192,165300,1,0,0:0:0:0:
224,192,165345,1,0,0:0:0:0:
225,184,165392,1,8,0:0:0:0:
289,184,165528,1,0,0:0:0:0:
243,179,165663,1,8,0:0:0:0:
225,184,165801,1,8,0:0:0:0:
225,184,165869,1,8,0:0:0:0:
289,184,165937,1,0,0:0:0:0:
289,184,166073,1,0,0:0:0:0:
225,184,166210,1,8,0:0:0:0:
288,192,166413,1,0,0:0:0:0:
225,184,166483,1,8,0:0:0:0:
225,184,166619,1,8,0:0:0:0:
439,299,166755,1,0,0:0:0:0:
289,184,166892,1,8,0:0:0:0:
225,184,166960,1,8,0:0:0:0:
289,184,167027,1,0,0:0:0:0:
224,192,167073,1,0,0:0:0:0:
224,192,167118,1,0,0:0:0:0:
256,192,167163,1,8,0:0:0:0:
256,192,167232,1,8,0:0:0:0:
256,192,167300,1,0,0:0:0:0:
259,192,167368,1,0,0:0:0:0:
256,192,167436,1,8,0:0:0:0:
224,192,167573,1,0,0:0:0:0:
224,192,167641,1,0,0:0:0:0:
256,192,167709,1,8,0:0:0:0:
246,185,167777,1,8,0:0:0:0:
226,197,167845,1,0,0:0:0:0:
251,195,167913,1,0,0:0:0:0:
256,192,167982,1,8,0:0:0:0:
251,195,168050,1,0,0:0:0:0:
225,184,168119,1,8,0:0:0:0:
256,192,168254,1,0,0:0:0:0:
224,192,168323,1,0,0:0:0:0:
225,184,168392,1,8,0:0:0:0:
225,184,168459,1,8,0:0:0:0:
256,204,168527,1,0,0:0:0:0:
275,167,168663,1,8,0:0:0:0:
256,192,168732,1,8,0:0:0:0:
225,184,168869,1,8,0:0:0:0:
289,184,168937,1,0,0:0:0:0:
269,193,169004,1,0,0:0:0:0:
258,178,169073,1,8,0:0:0:0:
242,172,169118,1,8,0:0:0:0:
251,181,169163,1,8,0:0:0:0:
263,172,169210,1,0,0:0:0:0:
253,180,169278,1,0,0:0:0:0:
225,184,169346,1,8,0:0:0:0:
289,184,169483,1,4,0:0:0:0:
225,184,169755,1,8,0:0:0:0:
225,184,169823,1,8,0:0:0:0:
289,184,169892,1,0,0:0:0:0:
289,184,170028,1,8,0:0:0:0:
256,192,170095,1,0,0:0:0:0:
225,184,170164,1,8,0:0:0:0:
289,184,170301,1,0,0:0:0:0:
289,184,170437,1,0,0:0:0:0:
225,184,170573,1,8,0:0:0:0:
256,192,170618,1,8,0:0:0:0:
225,184,170663,1,8,0:0:0:0:
289,184,170710,1,0,0:0:0:0:
289,184,170846,1,4,0:0:0:0:
225,184,171119,1,8,0:0:0:0:
289,184,171255,1,0,0:0:0:0:
225,184,171392,1,8,0:0:0:0:
225,184,171528,1,8,0:0:0:0:
289,184,171664,1,0,0:0:0:0:
225,184,171733,1,0,0:0:0:0:
256,192,171800,1,8,0:0:0:0:
224,192,171868,1,0,0:0:0:0:
225,184,171937,1,8,0:0:0:0:
224,192,172004,1,8,0:0:0:0:
289,184,172073,1,0,0:0:0:0:
225,184,172210,1,12,0:0:0:0:
289,184,172483,1,0,0:0:0:0:
225,184,172619,1,8,0:0:0:0:
289,184,172755,1,0,0:0:0:0:
289,184,172823,1,0,0:0:0:0:
225,184,172892,1,8,0:0:0:0:
262,182,172959,1,0,0:0:0:0:
225,184,173028,1,8,0:0:0:0:
265,178,173163,1,8,0:0:0:0:
264,178,173232,1,8,0:0:0:0:
289,184,173301,1,0,0:0:0:0:
256,192,173345,1,0,0:0:0:0:
256,192,173391,1,0,0:0:0:0:
256,192,173436,1,8,0:0:0:0:
261,176,173504,1,8,0:0:0:0:
256,192,173573,1,0,0:0:0:0:
239,178,173641,1,0,0:0:0:0:
267,177,173709,1,8,0:0:0:0:
252,175,173777,1,8,0:0:0:0:
289,184,173846,1,0,0:0:0:0:
225,184,173913,1,0,0:0:0:0:
225,184,173983,1,8,0:0:0:0:
263,171,174118,1,8,0:0:0:0:
252,191,174186,1,0,0:0:0:0:
263,171,174254,1,8,0:0:0:0:
256,192,174323,1,0,0:0:0:0:
276,179,174391,1,8,0:0:0:0:
246,177,174459,1,0,0:0:0:0:
265,183,174527,1,8,0:0:0:0:
256,192,174595,1,0,0:0:0:0:
276,180,174663,1,8,0:0:0:0:
276,180,174709,1,8,0:0:0:0:
259,182,174754,1,0,0:0:0:0:
276,180,174845,1,8,0:0:0:0:
244,180,174891,1,8,0:0:0:0:
259,182,174936,1,0,0:0:0:0:
255,182,175027,1,8,0:0:0:0:
245,181,175073,1,8,0:0:0:0:
270,176,175118,1,8,0:0:0:0:
262,189,175163,1,8,0:0:0:0:
263,178,175209,1,0,0:0:0:0:
225,184,175483,1,8,0:0:0:0:
289,184,175619,1,0,0:0:0:0:
256,192,175686,1,8,0:0:0:0:
289,184,175755,1,0,0:0:0:0:
288,192,175823,1,0,0:0:0:0:
263,182,175891,1,0,0:0:0:0:
225,184,176028,1,8,0:0:0:0:
224,192,176163,1,0,0:0:0:0:
225,184,176301,1,8,0:0:0:0:
289,184,176437,1,0,0:0:0:0:
256,192,176504,1,0,0:0:0:0:
225,184,176573,1,12,0:0:0:0:
285,169,176846,1,0,0:0:0:0:
236,184,176891,1,0,0:0:0:0:
224,192,176936,1,0,0:0:0:0:
225,184,176983,1,8,0:0:0:0:
270,181,177119,1,8,0:0:0:0:
225,184,177255,1,0,0:0:0:0:
225,184,177528,1,8,0:0:0:0:
256,189,177595,1,0,0:0:0:0:
225,184,177664,1,8,0:0:0:0:
289,184,177801,1,0,0:0:0:0:
225,184,177937,1,8,0:0:0:0:
251,193,178073,1,0,0:0:0:0:
225,184,178210,1,8,0:0:0:0:
269,171,178277,1,8,0:0:0:0:
231,173,178346,1,0,0:0:0:0:
289,184,178483,1,0,0:0:0:0:
225,184,178619,1,8,0:0:0:0:
260,176,178686,1,0,0:0:0:0:
225,184,178755,1,8,0:0:0:0:
265,182,178891,1,0,0:0:0:0:
289,184,179028,1,0,0:0:0:0:
256,189,179095,1,0,0:0:0:0:
225,184,179164,1,8,0:0:0:0:
289,184,179301,1,0,0:0:0:0:
252,189,179368,1,0,0:0:0:0:
271,184,179437,1,0,0:0:0:0:
242,171,179573,1,8,0:0:0:0:
260,176,179641,1,8,0:0:0:0:
289,184,179710,1,0,0:0:0:0:
268,172,179777,1,0,0:0:0:0:
249,183,179846,1,8,0:0:0:0:
289,184,179913,1,0,0:0:0:0:
263,175,179982,1,8,0:0:0:0:
256,189,180050,1,0,0:0:0:0:
225,184,180119,1,8,0:0:0:0:
225,184,180255,1,8,0:0:0:0:
244,171,180392,1,0,0:0:0:0:
265,175,180527,1,0,0:0:0:0:
289,184,180664,1,8,0:0:0:0:
265,177,180732,1,0,0:0:0:0:
271,177,180800,1,8,0:0:0:0:
271,177,180868,1,8,0:0:0:0:
263,175,180936,1,0,0:0:0:0:
258,175,181004,1,0,0:0:0:0:
225,184,181073,1,8,0:0:0:0:
289,184,181210,1,0,0:0:0:0:
289,184,181278,1,0,0:0:0:0:
225,184,181346,1,8,0:0:0:0:
289,184,181483,1,0,0:0:0:0:
289,184,181551,1,8,0:0:0:0:
266,184,181619,1,8,0:0:0:0:
244,182,181755,1,0,0:0:0:0:
278,173,181891,1,8,0:0:0:0:
278,173,181936,1,8,0:0:0:0:
278,173,181982,1,8,0:0:0:0:
250,191,182027,1,0,0:0:0:0:
250,191,182095,1,0,0:0:0:0:
278,173,182163,1,8,0:0:0:0:
289,184,182301,1,0,0:0:0:0:
225,184,182573,1,8,0:0:0:0:
289,184,182710,1,0,0:0:0:0:
263,189,182777,1,0,0:0:0:0:
225,184,182846,1,8,0:0:0:0:
263,189,182913,1,0,0:0:0:0:
261,179,182982,1,8,0:0:0:0:
225,184,183119,1,12,0:0:0:0:
289,184,183392,1,0,0:0:0:0:
225,184,183528,1,8,0:0:0:0:
255,188,183595,1,0,0:0:0:0:
225,184,183664,1,8,0:0:0:0:
289,184,183801,1,0,0:0:0:0:
289,184,183869,1,0,0:0:0:0:
262,184,183936,1,8,0:0:0:0:
289,184,184210,1,4,0:0:0:0:
289,184,184483,1,4,0:0:0:0:
289,184,184619,1,4,0:0:0:0:
289,184,184755,1,4,0:0:0:0:
289,184,184892,1,4,0:0:0:0:
289,184,185028,1,4,0:0:0:0:
263,181,185233,1,0,0:0:0:0:
275,182,185368,1,0,0:0:0:0:
289,184,185437,1,0,0:0:0:0:
289,184,185573,1,0,0:0:0:0:
289,184,185710,1,0,0:0:0:0:
225,184,185846,1,8,0:0:0:0:
247,184,185913,1,8,0:0:0:0:
289,184,185983,1,0,0:0:0:0:
289,184,186119,1,0,0:0:0:0:
289,184,186255,1,0,0:0:0:0:
225,184,186392,1,8,0:0:0:0:
245,170,186436,1,8,0:0:0:0:
285,182,186482,1,8,0:0:0:0:
289,184,186528,1,0,0:0:0:0:
225,184,186664,1,0,0:0:0:0:
225,184,186937,1,8,0:0:0:0:
225,184,187073,1,8,0:0:0:0:
225,184,187142,1,8,0:0:0:0:
289,184,187210,1,0,0:0:0:0:
235,179,187277,1,8,0:0:0:0:
289,184,187346,1,0,0:0:0:0:
225,184,187483,1,8,0:0:0:0:
289,184,187619,1,0,0:0:0:0:
225,184,187755,1,8,0:0:0:0:
289,184,187892,1,0,0:0:0:0:
277,180,187959,1,0,0:0:0:0:
225,184,188028,1,12,0:0:0:0:
289,184,188301,1,0,0:0:0:0:
256,177,188368,1,0,0:0:0:0:
289,184,188437,1,0,0:0:0:0:
289,184,188505,1,0,0:0:0:0:
225,184,188573,1,8,0:0:0:0:
289,184,188710,1,8,0:0:0:0:
225,184,188778,1,8,0:0:0:0:
289,184,188846,1,0,0:0:0:0:
272,178,188891,1,0,0:0:0:0:
261,184,188936,1,0,0:0:0:0:
246,188,188982,1,8,0:0:0:0:
243,187,189118,1,0,0:0:0:0:
289,184,189392,1,0,0:0:0:0:
289,184,189436,1,0,0:0:0:0:
263,187,189482,1,0,0:0:0:0:
225,184,189528,1,8,0:0:0:0:
225,184,189596,1,8,0:0:0:0:
289,184,189664,1,0,0:0:0:0:
245,187,189709,1,0,0:0:0:0:
247,187,189754,1,0,0:0:0:0:
225,184,189801,1,8,0:0:0:0:
264,193,189868,1,8,0:0:0:0:
289,184,189937,1,0,0:0:0:0:
225,184,190210,1,8,0:0:0:0:
257,207,190278,1,8,0:0:0:0:
289,184,190346,1,0,0:0:0:0:
271,188,190413,1,8,0:0:0:0:
225,184,190483,1,0,0:0:0:0:
225,184,190619,1,8,0:0:0:0:
289,184,190755,1,0,0:0:0:0:
261,189,190800,1,8,0:0:0:0:
261,189,190845,1,8,0:0:0:0:
261,189,190891,1,8,0:0:0:0:
254,188,191027,1,0,0:0:0:0:
251,188,191095,1,0,0:0:0:0:
266,176,191163,1,8,0:0:0:0:
301,172,191232,1,8,0:0:0:0:
266,171,191300,1,0,0:0:0:0:
256,160,191437,1,8,0:0:0:0:
289,184,191573,1,0,0:0:0:0:
279,181,191709,1,8,0:0:0:0:
289,184,191983,1,0,0:0:0:0:
289,184,192027,1,0,0:0:0:0:
276,179,192073,1,0,0:0:0:0:
289,184,192119,1,0,0:0:0:0:
225,184,192392,1,8,0:0:0:0:
289,184,192528,1,0,0:0:0:0:
266,178,192595,1,0,0:0:0:0:
225,184,192664,1,8,0:0:0:0:
289,184,192801,1,0,0:0:0:0:
225,184,192937,1,8,0:0:0:0:
289,184,193209,1,0,0:0:0:0:
235,181,193276,1,0,0:0:0:0:
235,181,193344,1,0,0:0:0:0:
235,181,193412,1,0,0:0:0:0:
225,184,193480,1,8,0:0:0:0:
289,184,193548,1,0,0:0:0:0:
225,184,193616,1,8,0:0:0:0:
235,181,193684,1,0,0:0:0:0:
225,184,193751,1,8,0:0:0:0:
235,181,193819,1,0,0:0:0:0:
263,176,193887,1,8,0:0:0:0:
232,195,193955,1,0,0:0:0:0:
225,184,194023,1,8,0:0:0:0:
225,184,194090,1,8,0:0:0:0:
289,184,194158,1,0,0:0:0:0:
235,181,194225,1,0,0:0:0:0:
225,184,194293,1,8,0:0:0:0:
289,184,194427,1,0,0:0:0:0:
289,184,194495,1,0,0:0:0:0:
225,184,194563,1,8,0:0:0:0:
248,181,194631,1,0,0:0:0:0:
239,188,194698,1,8,0:0:0:0:
255,185,194743,1,8,0:0:0:0:
255,185,194788,1,8,0:0:0:0:
252,180,194833,1,0,0:0:0:0:
225,184,194966,1,8,0:0:0:0:
259,188,195033,1,8,0:0:0:0:
258,180,195233,1,8,0:0:0:0:
258,180,195299,1,8,0:0:0:0:
245,168,195366,1,0,0:0:0:0:
260,183,195433,1,0,0:0:0:0:
225,184,195499,1,8,0:0:0:0:
289,184,195630,1,0,0:0:0:0:
289,184,195893,1,0,0:0:0:0:
271,170,195958,1,0,0:0:0:0:
268,178,196024,1,8,0:0:0:0:
286,172,196156,1,0,0:0:0:0:
261,189,196222,1,8,0:0:0:0:
256,192,196287,1,8,0:0:0:0:
289,184,196419,1,0,0:0:0:0:
225,184,196679,1,8,0:0:0:0:
225,184,196723,1,8,0:0:0:0:
257,178,196766,1,8,0:0:0:0:
289,184,196810,1,0,0:0:0:0:
289,184,196940,1,0,0:0:0:0:
249,201,197201,1,0,0:0:0:0:
245,176,197330,1,8,0:0:0:0:
225,184,197459,1,8,0:0:0:0:
225,184,197588,1,8,0:0:0:0:
289,184,197847,1,0,0:0:0:0:
289,184,197912,1,0,0:0:0:0:
225,184,197976,1,8,0:0:0:0:
245,190,198040,1,0,0:0:0:0:
277,182,198104,1,8,0:0:0:0:
289,184,198232,1,0,0:0:0:0:
292,184,198488,1,8,0:0:0:0:
225,184,198617,1,8,0:0:0:0:
289,184,198745,1,0,0:0:0:0:
246,181,198808,1,0,0:0:0:0:
263,184,198872,1,8,0:0:0:0:
219,177,198935,1,0,0:0:0:0:
225,184,198999,1,8,0:0:0:0:
213,194,199062,1,0,0:0:0:0:
260,188,199126,1,8,0:0:0:0:
289,184,199253,1,0,0:0:0:0:
276,183,199317,1,8,0:0:0:0:
245,184,199380,1,8,0:0:0:0:
247,182,199507,1,0,0:0:0:0:
253,183,199633,1,0,0:0:0:0:
253,183,199696,1,0,0:0:0:0:
225,184,199759,1,8,0:0:0:0:
225,184,199822,1,8,0:0:0:0:
289,184,199885,1,0,0:0:0:0:
289,184,199948,1,0,0:0:0:0:
225,184,200011,1,8,0:0:0:0:
255,179,200074,1,0,0:0:0:0:
248,188,200137,1,8,0:0:0:0:
254,186,200263,1,0,0:0:0:0:
228,185,200388,1,0,0:0:0:0:
238,193,200450,1,0,0:0:0:0:
261,187,200513,1,8,0:0:0:0:
246,200,200575,1,0,0:0:0:0:
227,198,200638,1,8,0:0:0:0:
234,194,200700,1,0,0:0:0:0:
256,192,200763,1,8,0:0:0:0:
230,199,200825,1,8,0:0:0:0:
224,192,200888,1,0,0:0:0:0:
255,179,200950,1,8,0:0:0:0:
222,211,201013,1,0,0:0:0:0:
289,184,201384,1,0,0:0:0:0:
289,184,201446,1,0,0:0:0:0:
225,184,201508,1,8,0:0:0:0:
225,184,201632,1,8,0:0:0:0:
289,184,201756,1,0,0:0:0:0:
225,184,201878,1,0,0:0:0:0:
232,175,201940,1,0,0:0:0:0:
225,184,202001,1,8,0:0:0:0:
289,184,202124,1,0,0:0:0:0:
225,184,202247,1,8,0:0:0:0:
289,184,202493,1,0,0:0:0:0:
225,184,202735,1,8,0:0:0:0:
239,171,202857,1,0,0:0:0:0:
247,174,202918,1,0,0:0:0:0:
289,184,202978,1,0,0:0:0:0:
256,175,203039,1,0,0:0:0:0:
288,192,203100,1,8,0:0:0:0:
289,184,203221,1,0,0:0:0:0:
225,184,203461,1,8,0:0:0:0:
289,184,203581,1,0,0:0:0:0:
260,183,203701,1,8,0:0:0:0:
260,183,203761,1,8,0:0:0:0:
244,165,203821,1,0,0:0:0:0:
225,184,203941,1,8,0:0:0:0:
295,180,204059,1,8,0:0:0:0:
289,184,204296,1,0,0:0:0:0:
225,184,204415,1,8,0:0:0:0:
269,182,204474,1,8,0:0:0:0:
289,184,204533,1,0,0:0:0:0:
252,170,204593,1,0,0:0:0:0:
225,184,204652,1,8,0:0:0:0:
238,159,204769,1,0,0:0:0:0:
251,177,204828,1,0,0:0:0:0:
289,184,204887,1,8,0:0:0:0:
225,184,205004,1,8,0:0:0:0:
289,184,205122,1,0,0:0:0:0:
224,160,205181,1,0,0:0:0:0:
239,182,205240,1,0,0:0:0:0:
245,184,205357,1,0,0:0:0:0:
245,184,205473,1,8,0:0:0:0:
250,182,205532,1,8,0:0:0:0:
251,184,205590,1,8,0:0:0:0:
289,184,205707,1,0,0:0:0:0:
289,184,205765,1,0,0:0:0:0:
225,184,205823,1,8,0:0:0:0:
275,191,205882,1,0,0:0:0:0:
225,184,205940,1,8,0:0:0:0:
289,184,206057,1,0,0:0:0:0:
256,192,206172,1,8,0:0:0:0:
259,187,206230,1,0,0:0:0:0:
225,184,206287,1,8,0:0:0:0:
225,184,206403,1,8,0:0:0:0:
289,184,206518,1,0,0:0:0:0:
289,184,206749,1,0,0:0:0:0:
255,186,206863,1,8,0:0:0:0:
225,184,207091,1,8,0:0:0:0:
289,184,207205,1,0,0:0:0:0:
289,184,207262,1,0,0:0:0:0:
289,184,207319,1,0,0:0:0:0:
225,184,207433,1,8,0:0:0:0:
289,184,207546,1,0,0:0:0:0:
253,175,207602,1,0,0:0:0:0:
225,184,207659,1,8,0:0:0:0:
241,195,207772,1,0,0:0:0:0:
225,184,207885,1,12,0:0:0:0:
289,184,208112,1,0,0:0:0:0:
225,184,208224,1,8,0:0:0:0:
251,183,208280,1,0,0:0:0:0:
225,184,208336,1,8,0:0:0:0:
289,184,208449,1,0,0:0:0:0:
289,184,208673,1,0,0:0:0:0:
225,184,208786,1,8,0:0:0:0:
289,184,209009,1,0,0:0:0:0:
289,184,209121,1,0,0:0:0:0:
289,184,209233,1,0,0:0:0:0:
289,184,209345,1,0,0:0:0:0:
289,184,209457,1,0,0:0:0:0:
243,178,209568,1,8,0:0:0:0:
289,184,209790,1,0,0:0:0:0:
289,184,209901,1,0,0:0:0:0:
272,202,210012,1,8,0:0:0:0:
289,184,210123,1,0,0:0:0:0:
256,192,210233,1,0,0:0:0:0:
289,184,210343,1,0,0:0:0:0:
289,184,210453,1,0,0:0:0:0:
289,184,210564,1,8,0:0:0:0:
261,186,210619,1,8,0:0:0:0:
241,200,210674,1,0,0:0:0:0:
243,200,210729,1,0,0:0:0:0:
289,184,210784,1,8,0:0:0:0:
225,184,211002,1,8,0:0:0:0:
289,184,211112,1,0,0:0:0:0:
256,186,211167,1,8,0:0:0:0:
224,192,211221,1,0,0:0:0:0:
247,171,211276,1,0,0:0:0:0:
246,189,211331,1,8,0:0:0:0:
252,186,211440,1,0,0:0:0:0:
288,160,211548,1,8,0:0:0:0:
249,187,211656,1,8,0:0:0:0:
256,192,211764,1,0,0:0:0:0:
225,184,211873,1,12,0:0:0:0:
289,184,212089,1,0,0:0:0:0:
289,184,212142,1,0,0:0:0:0:
289,184,212196,1,0,0:0:0:0:
263,183,212249,1,0,0:0:0:0:
225,184,212303,1,8,0:0:0:0:
252,186,212410,1,0,0:0:0:0:
252,186,212464,1,0,0:0:0:0:
259,163,212517,1,8,0:0:0:0:
289,184,212731,1,8,0:0:0:0:
269,190,212784,1,8,0:0:0:0:
245,195,212837,1,0,0:0:0:0:
252,198,212943,1,8,0:0:0:0:
225,184,213050,1,8,0:0:0:0:
262,191,213103,1,8,0:0:0:0:
289,184,213156,1,0,0:0:0:0:
253,191,213262,1,8,0:0:0:0:
289,184,213369,1,0,0:0:0:0:
252,189,213439,1,0,0:0:0:0:
252,189,213509,1,0,0:0:0:0:
269,190,213580,1,8,0:0:0:0:
250,176,213685,1,8,0:0:0:0:
253,191,213791,1,0,0:0:0:0:
253,186,213844,1,0,0:0:0:0:
281,162,213897,1,8,0:0:0:0:
254,174,214002,1,0,0:0:0:0:
254,187,214054,1,0,0:0:0:0:
289,184,214106,1,0,0:0:0:0:
225,184,214211,1,8,0:0:0:0:
225,184,214316,1,8,0:0:0:0:
289,184,214421,1,0,0:0:0:0:
289,184,214631,1,0,0:0:0:0:
231,188,214735,1,0,0:0:0:0:
289,184,214839,1,8,0:0:0:0:
254,174,214891,1,8,0:0:0:0:
287,180,214943,1,0,0:0:0:0:
242,186,214995,1,0,0:0:0:0:
289,184,215047,1,8,0:0:0:0:
257,179,215151,1,8,0:0:0:0:
225,184,215256,1,0,0:0:0:0:
225,184,215359,1,8,0:0:0:0:
264,184,215462,1,0,0:0:0:0:
225,184,215566,1,8,0:0:0:0:
289,184,215669,1,0,0:0:0:0:
289,184,215773,1,0,0:0:0:0:
225,184,215876,1,8,0:0:0:0:
245,194,216081,1,0,0:0:0:0:
256,183,216132,1,8,0:0:0:0:
266,169,216286,1,0,0:0:0:0:
289,184,216492,1,0,0:0:0:0:
289,184,216543,1,0,0:0:0:0:
225,184,216594,1,8,0:0:0:0:
254,184,216645,1,8,0:0:0:0:
263,191,216696,1,0,0:0:0:0:
244,189,216900,1,0,0:0:0:0:
264,184,216951,1,8,0:0:0:0:
253,177,217002,1,8,0:0:0:0:
289,184,217104,1,0,0:0:0:0:
289,184,217205,1,0,0:0:0:0:
225,184,217306,1,8,0:0:0:0:
283,187,217356,1,8,0:0:0:0:
225,184,217407,1,0,0:0:0:0:
266,189,217457,1,0,0:0:0:0:
289,184,217508,1,8,0:0:0:0:
263,188,217558,1,0,0:0:0:0:
289,184,217609,1,8,0:0:0:0:
289,184,217710,1,4,0:0:0:0:
289,184,218010,1,4,0:0:0:0:
289,184,218310,1,0,0:0:0:0:
289,184,218409,1,0,0:0:0:0:
225,184,218508,1,8,0:0:0:0:
259,183,218558,1,0,0:0:0:0:
289,184,218608,1,8,0:0:0:0:
248,182,218806,1,8,0:0:0:0:
244,174,218906,1,0,0:0:0:0:
245,194,219004,1,0,0:0:0:0:
242,206,219102,1,8,0:0:0:0:
228,187,219201,1,0,0:0:0:0:
237,187,219250,1,0,0:0:0:0:
232,182,219299,1,0,0:0:0:0:
232,182,219348,1,0,0:0:0:0:
252,202,219397,1,8,0:0:0:0:
225,184,219496,1,0,0:0:0:0:
251,184,219593,1,0,0:0:0:0:
239,182,219642,1,0,0:0:0:0:
244,174,219691,1,0,0:0:0:0:
264,190,219789,1,8,0:0:0:0:
250,175,219984,1,8,0:0:0:0:
248,175,220082,1,0,0:0:0:0:
225,184,220178,1,8,0:0:0:0:
267,186,220227,1,8,0:0:0:0:
257,186,220275,1,0,0:0:0:0:
289,184,220372,1,8,0:0:0:0:
267,186,220420,1,8,0:0:0:0:
251,184,220469,1,0,0:0:0:0:
234,182,220565,1,0,0:0:0:0:
263,182,220662,1,8,0:0:0:0:
253,189,220950,1,0,0:0:0:0:
253,189,220998,1,0,0:0:0:0:
229,181,221046,1,0,0:0:0:0:
255,187,221142,1,0,0:0:0:0:
225,184,221238,1,8,0:0:0:0:
225,184,221301,1,8,0:0:0:0:
289,184,221428,1,0,0:0:0:0:
257,196,221476,1,0,0:0:0:0:
251,185,221523,1,0,0:0:0:0:
225,184,221618,1,8,0:0:0:0:
289,184,221809,1,0,0:0:0:0:
289,184,221903,1,0,0:0:0:0:
225,184,221998,1,8,0:0:0:0:
254,174,222045,1,8,0:0:0:0:
257,183,222092,1,0,0:0:0:0:
259,183,222140,1,8,0:0:0:0:
246,182,222187,1,0,0:0:0:0:
225,184,222376,1,8,0:0:0:0:
234,188,222469,1,0,0:0:0:0:
259,182,222563,1,8,0:0:0:0:
250,180,222657,1,0,0:0:0:0:
263,188,222704,1,0,0:0:0:0:
249,184,222751,1,0,0:0:0:0:
286,187,222844,1,0,0:0:0:0:
244,172,222938,1,8,0:0:0:0:
289,184,223124,1,0,0:0:0:0:
225,184,223218,1,8,0:0:0:0:
289,184,223311,1,0,0:0:0:0:
243,184,223405,1,0,0:0:0:0:
225,184,223498,1,8,0:0:0:0:
257,178,223590,1,0,0:0:0:0:
257,189,223683,1,8,0:0:0:0:
257,189,223776,1,8,0:0:0:0:
243,189,223869,1,0,0:0:0:0:
251,173,224055,1,0,0:0:0:0:
249,179,224147,1,0,0:0:0:0:
225,184,224240,1,8,0:0:0:0:
225,184,224332,1,8,0:0:0:0:
289,184,224425,1,0,0:0:0:0:
245,179,224517,1,0,0:0:0:0:
245,179,224564,1,0,0:0:0:0:
266,191,224610,1,8,0:0:0:0:
251,173,224794,1,0,0:0:0:0:
286,179,224886,1,8,0:0:0:0:
255,182,224932,1,0,0:0:0:0:
289,184,224978,1,8,0:0:0:0:
265,182,225070,1,8,0:0:0:0:
289,184,225162,1,0,0:0:0:0:
225,184,225344,1,8,0:0:0:0:
225,184,225435,1,8,0:0:0:0:
289,184,225526,1,0,0:0:0:0:
264,170,225617,1,0,0:0:0:0:
289,184,225709,1,8,0:0:0:0:
253,184,225754,1,0,0:0:0:0:
248,182,225889,1,8,0:0:0:0:
254,185,225980,1,0,0:0:0:0:
225,184,226070,1,8,0:0:0:0:
289,184,226251,1,0,0:0:0:0:
289,184,226520,1,0,0:0:0:0:
289,184,226789,1,0,0:0:0:0:
225,184,226878,1,8,0:0:0:0:
289,184,226967,1,0,0:0:0:0:
289,184,227056,1,0,0:0:0:0:
279,182,227146,1,8,0:0:0:0:
278,182,227190,1,8,0:0:0:0:
259,183,227235,1,8,0:0:0:0:
289,184,227324,1,0,0:0:0:0:
233,184,227501,1,0,0:0:0:0:
289,184,227590,1,8,0:0:0:0:
233,184,227767,1,0,0:0:0:0:
225,184,227856,1,8,0:0:0:0:
225,184,227900,1,8,0:0:0:0:
289,184,227944,1,0,0:0:0:0:
252,186,228032,1,8,0:0:0:0:
289,184,228120,1,0,0:0:0:0:
225,184,228208,1,8,0:0:0:0:
252,186,228297,1,8,0:0:0:0:
289,184,228385,1,0,0:0:0:0:
233,184,228560,1,0,0:0:0:0:
237,192,228648,1,8,0:0:0:0:
233,184,228823,1,0,0:0:0:0:
280,186,228911,1,8,0:0:0:0:
258,182,228954,1,8,0:0:0:0:
225,184,228998,1,0,0:0:0:0:
289,184,229085,1,8,0:0:0:0:
289,184,229172,1,0,0:0:0:0:
289,184,229259,1,8,0:0:0:0:
254,183,229347,1,8,0:0:0:0:
281,182,229434,1,0,0:0:0:0:
253,191,229521,1,0,0:0:0:0:
255,189,229608,1,0,0:0:0:0:
255,189,229695,1,8,0:0:0:0:
248,188,229870,1,0,0:0:0:0:
289,184,229957,1,8,0:0:0:0:
248,181,230001,1,8,0:0:0:0:
289,184,230044,1,0,0:0:0:0:
270,183,230131,1,8,0:0:0:0:
289,184,230219,1,0,0:0:0:0:
225,184,230306,1,8,0:0:0:0:
280,187,230393,1,8,0:0:0:0:
255,194,230480,1,0,0:0:0:0:
267,189,230655,1,0,0:0:0:0:
225,184,230742,1,8,0:0:0:0:
260,176,230916,1,0,0:0:0:0:
289,184,231004,1,8,0:0:0:0:
257,184,231047,1,8,0:0:0:0:
242,173,231091,1,0,0:0:0:0:
257,187,231178,1,8,0:0:0:0:
280,187,231265,1,0,0:0:0:0:
254,183,231352,1,8,0:0:0:0:
248,191,231440,1,4,0:0:0:0:
256,192,231527,12,0,233271,0:0:0:0:
256,192,233576,12,0,233707,0:0:0:0:
256,192,235713,12,8,246178,0:0:0:0:
440,248,246527,5,0,0:0:0:0:
450,270,247053,1,8,0:0:0:0:
431,269,250343,5,0,0:0:0:0:
429,291,250988,1,8,0:0:0:0:
256,192,255314,12,0,259314,0:0:0:0:
