osu file format v14

[General]
AudioFilename: audio.mp3
AudioLeadIn: 0
PreviewTime: 101518
Countdown: 0
SampleSet: Normal
StackLeniency: 0.5
Mode: 1
LetterboxInBreaks: 0
EpilepsyWarning: 1
WidescreenStoryboard: 1

[Editor]
Bookmarks: 65583,81950,101586,124492,150670,193209
DistanceSpacing: 2
BeatDivisor: 8
GridSize: 32
TimelineZoom: 1.7

[Metadata]
Title:Hibi Darake no Me
TitleUnicode:ヒビダラケの眼
Artist:KikuoHana
ArtistUnicode:きくおはな
Creator:Alchyr
Version:Diaphanous
Source:
Tags:Kikuo 花たん YURiCa 第二幕 2nd act electronic japanese
BeatmapID:2107788
BeatmapSetID:1006568

[Difficulty]
HPDrainRate:4.5
CircleSize:7
OverallDifficulty:7.7
ApproachRate:7.7
SliderMultiplier:1.4
SliderTickRate:1

[Events]
//Background and Video events
0,0,"bright.jpg",0,0
//Break Periods
//Storyboard Layer 0 (Background)
//Storyboard Layer 1 (Fail)
//Storyboard Layer 2 (Pass)
//Storyboard Layer 3 (Foreground)
//Storyboard Layer 4 (Overlay)
//Storyboard Sound Samples

[TimingPoints]
1749,410.958904109589,4,1,0,20,1,0
1749,-132.727272728021,4,1,0,20,0,0
6680,545.454545454546,4,1,0,20,1,0
8384,-102.040816326531,4,1,0,20,0,0
8452,-104.166666666667,4,1,0,20,0,0
8861,-107.52688172043,4,1,0,20,0,0
8930,-109.89010989011,4,1,0,20,0,0
8998,-112.359550561798,4,1,0,20,0,0
9407,-117.647058823529,4,1,0,20,0,0
9498,-120.481927710843,4,1,0,20,0,0
9589,-123.456790123457,4,1,0,20,0,0
9680,-126.582278481013,4,1,0,20,0,0
10907,-142.857142857143,4,1,0,20,0,0
10975,-147.058823529412,4,1,0,20,0,0
11043,-151.515151515152,4,1,0,20,0,0
13221,272.727272727273,3,1,0,30,1,0
33675,-120.481927710843,3,1,0,25,0,0
35311,-87.719298245614,3,1,0,20,0,0
36948,-120.481927710843,3,1,0,25,0,0
38584,-151.515151515152,3,1,0,20,0,0
40221,-120.481927710843,3,1,0,25,0,0
41857,285.714285714286,3,1,0,30,1,0
42428,-107.52688172043,3,1,0,30,0,0
42714,258.620689655172,3,1,0,30,1,0
42714,-129.971988796217,3,1,0,30,0,0
43489,272.727272727273,3,1,0,30,1,0
43489,-142.857142857143,3,1,0,30,0,0
44307,-166.666666666667,3,1,0,30,0,0
45125,-200,3,1,0,30,0,0
45941,-100,3,1,0,30,0,0
63123,-105.263157894737,3,1,0,30,0,0
63941,-111.111111111111,3,1,0,30,0,0
64759,-117.647058823529,3,1,0,30,0,0
65032,-120.481927710843,3,1,0,30,0,0
78670,-100,3,1,0,30,0,0
79489,-87.719298245614,3,1,0,30,0,0
80307,-66.6666666666667,3,1,0,30,0,0
81125,-133.333333333333,3,1,0,30,0,0
81943,272.727272727273,6,1,0,20,1,0
81943,-200,6,1,0,20,0,0
124483,272.727272727273,6,1,0,20,1,0
124483,-200,6,1,0,20,0,0
124619,-151.515151515152,6,1,0,20,0,0
136619,-100,6,1,0,40,0,0
137573,272.727272727273,3,1,0,40,1,0
150662,-100,3,1,0,40,0,0
150799,-99.4418642548684,3,1,0,40,0,0
150935,-98.8878024932779,3,1,0,40,0,0
151071,-98.3337407316874,3,1,0,40,0,0
151208,-97.7756049865558,3,1,0,40,0,0
151344,-97.2215432249654,3,1,0,40,0,0
151481,-96.6634074798338,3,1,0,40,0,0
151617,-96.1093457182433,3,1,0,40,0,0
151753,-95.5552839566528,3,1,0,40,0,0
151890,-94.9971482115212,3,1,0,40,0,0
152026,-94.4430864499307,3,1,0,40,0,0
152162,-93.8890246883403,3,1,0,40,0,0
152299,-93.3308889432087,3,1,0,40,0,0
152435,-92.7768271816182,3,1,0,40,0,0
152571,-92.2227654200277,3,1,0,40,0,0
152708,-91.6646296748961,3,1,0,40,0,0
152844,-91.1105679133056,3,1,0,40,0,0
152981,-90.552432168174,3,1,0,40,0,0
153117,-89.9983704065836,3,1,0,40,0,0
153253,-89.4443086449931,3,1,0,40,0,0
153390,-88.8861728998615,3,1,0,40,0,0
153526,-88.332111138271,3,1,0,40,0,0
153662,-87.7780493766805,3,1,0,40,0,0
153799,-87.2199136315489,3,1,0,40,0,0
153935,-86.6658518699584,3,1,0,40,0,0
154071,-86.111790108368,3,1,0,40,0,0
154208,-85.5536543632364,3,1,0,40,0,0
154344,-84.9995926016459,3,1,0,40,0,0
154481,-84.4414568565143,3,1,0,40,0,0
154617,-83.8873950949238,3,1,0,40,0,0
154753,-83.3333333333333,3,1,0,40,0,0
154890,-82.7751975882017,3,1,0,40,0,0
155026,-82.2211358266113,3,1,0,40,0,0
155162,-81.6670740650208,3,1,0,40,0,0
155299,-81.1089383198892,3,1,0,40,0,0
155435,-80.5548765582987,3,1,0,40,0,0
155571,-80.0008147967082,3,1,0,40,0,0
155708,-79.4426790515766,3,1,0,40,0,0
155844,-78.8886172899861,3,1,0,40,0,0
155981,-78.3304815448546,3,1,0,40,0,0
156117,-77.7764197832641,3,1,0,40,0,0
156253,-77.2223580216736,3,1,0,40,0,0
156390,-76.664222276542,3,1,0,40,0,0
156526,-76.1101605149515,3,1,0,40,0,0
156662,-75.556098753361,3,1,0,40,0,0
156799,-74.9979630082294,3,1,0,40,0,0
156935,-74.443901246639,3,1,0,40,0,0
157071,-73.8898394850485,3,1,0,40,0,0
157208,-73.3317037399169,3,1,0,40,0,0
157344,-72.7776419783264,3,1,0,40,0,0
157481,-72.2195062331948,3,1,0,40,0,0
157617,-71.6654444716043,3,1,0,40,0,0
157753,-71.1113827100139,3,1,0,40,0,0
157890,-70.5532469648823,3,1,0,40,0,0
158026,-69.9991852032918,3,1,0,40,0,0
158162,-69.4451234417013,3,1,0,40,0,0
158299,-68.8869876965697,3,1,0,40,0,0
158435,-68.3329259349792,3,1,0,40,0,0
158571,-67.7788641733887,3,1,0,40,0,0
158708,-67.2207284282572,3,1,0,40,0,0
158844,-66.6666666666667,3,1,0,40,0,0
158981,-66.1085309215351,3,1,0,40,0,0
159117,-65.5544691599446,3,1,0,40,0,0
159253,-65.0004073983541,3,1,0,40,0,0
159390,-64.4422716532225,3,1,0,40,0,0
159526,-63.888209891632,3,1,0,40,0,0
159662,-63.3341481300416,3,1,0,40,0,0
159799,-62.77601238491,3,1,0,40,0,0
159935,-62.2219506233195,3,1,0,40,0,0
160071,-61.667888861729,3,1,0,40,0,0
160208,-61.1097531165974,3,1,0,40,0,0
160344,-60.5556913550069,3,1,0,40,0,0
160481,-59.9975556098753,3,1,0,40,0,0
160617,-59.4434938482849,3,1,0,40,0,0
160753,-58.8894320866944,3,1,0,40,0,0
160890,-58.3312963415628,3,1,0,40,0,0
161026,-57.7772345799723,3,1,0,40,0,0
161162,-57.2231728183818,3,1,0,40,0,0
161299,-56.6650370732502,3,1,0,40,0,0
161435,-56.1109753116597,3,1,0,40,0,0
161571,-55.5569135500693,3,1,0,40,0,0
161708,-54.9987778049377,3,1,0,40,0,0
161844,-54.4447160433472,3,1,0,40,0,0
161981,-53.8865802982156,3,1,0,40,0,0
162117,-53.3325185366251,3,1,0,40,0,0
162253,-52.7784567750346,3,1,0,40,0,0
162390,-52.220321029903,3,1,0,40,0,0
162526,-51.6662592683126,3,1,0,40,0,0
162662,-51.1121975067221,3,1,0,40,0,0
162799,-50.5540617615905,3,1,0,40,0,0
162935,-50,3,1,0,60,0,0
163482,-100,3,1,0,80,0,0
163754,-87.719298245614,3,1,0,75,0,1
193209,271.493212669683,3,1,0,75,1,1
193209,-87.719298245614,3,1,0,75,0,1
194023,270.27027027027,3,1,0,75,1,1
194023,-87.719298245614,3,1,0,75,0,1
194833,266.666666666667,3,1,0,75,1,1
194833,-87.719298245614,3,1,0,75,0,1
195630,263.157894736842,3,1,0,75,1,1
195630,-87.719298245614,3,1,0,75,0,1
196419,260.869565217391,3,1,0,75,1,1
196419,-87.719298245614,3,1,0,75,0,1
197201,258.620689655172,3,1,0,75,1,1
197201,-87.719298245614,3,1,0,75,0,1
197976,256.410256410256,3,1,0,75,1,1
197976,-87.719298245614,3,1,0,75,0,1
198745,254.237288135593,3,1,0,75,1,1
198745,-87.719298245614,3,1,0,75,0,1
199507,252.100840336134,3,1,0,75,1,1
199507,-87.719298245614,3,1,0,75,0,1
200263,250,3,1,0,75,1,1
200263,-87.719298245614,3,1,0,75,0,1
201013,247.933884297521,3,1,0,75,1,1
201013,-87.719298245614,3,1,0,75,0,1
201756,245.901639344262,3,1,0,75,1,1
201756,-87.719298245614,3,1,0,75,0,1
202493,242.914979757085,3,1,0,75,1,1
202493,-87.719298245614,3,1,0,75,0,1
203221,240,3,1,0,75,1,1
203221,-87.719298245614,3,1,0,75,0,1
203941,237.154150197628,3,1,0,75,1,1
203941,-87.719298245614,3,1,0,75,0,1
204652,235.294117647059,3,1,0,75,1,1
204652,-87.719298245614,3,1,0,75,0,1
205357,233.463035019455,3,1,0,75,1,1
205357,-87.719298245614,3,1,0,75,0,1
206057,230.769230769231,3,1,0,75,1,1
206057,-87.719298245614,3,1,0,75,0,1
206749,228.136882129278,3,1,0,75,1,1
206749,-87.719298245614,3,1,0,75,0,1
207433,226.415094339623,3,1,0,75,1,1
207433,-87.719298245614,3,1,0,75,0,1
208112,224.719101123595,3,1,0,75,1,1
208112,-87.719298245614,3,1,0,75,0,1
208786,223.880597014925,3,1,0,75,1,1
208786,-87.719298245614,3,1,0,75,0,1
209457,222.222222222222,3,1,0,75,1,1
209457,-87.719298245614,3,1,0,75,0,1
210123,220.588235294118,3,1,0,75,1,1
210123,-87.719298245614,3,1,0,75,0,1
210784,218.978102189781,3,1,0,75,1,1
210784,-87.719298245614,3,1,0,75,0,1
211440,216.606498194946,3,1,0,75,1,1
211440,-87.719298245614,3,1,0,75,0,1
212089,214.285714285714,3,1,0,75,1,1
212089,-87.719298245614,3,1,0,75,0,1
212731,212.765957446809,3,1,0,75,1,1
212731,-87.719298245614,3,1,0,75,0,1
213369,211.267605633803,3,1,0,75,1,1
213369,-87.719298245614,3,1,0,75,0,1
214002,209.79020979021,3,1,0,75,1,1
214002,-87.719298245614,3,1,0,75,0,1
214631,208.333333333333,3,1,0,75,1,1
214631,-87.719298245614,3,1,0,75,0,1
215256,206.896551724138,3,1,0,75,1,1
215256,-87.719298245614,3,1,0,75,0,1
215876,205.479452054795,3,1,0,75,1,1
215876,-87.719298245614,3,1,0,75,0,1
216492,204.081632653061,3,1,0,75,1,1
216492,-87.719298245614,3,1,0,75,0,1
217104,202.020202020202,3,1,0,75,1,1
217104,-87.719298245614,3,1,0,75,0,1
217710,200,3,1,0,75,1,1
217710,-87.719298245614,3,1,0,75,0,1
218310,198.675496688742,3,1,0,75,1,1
218310,-87.719298245614,3,1,0,75,0,1
218906,196.72131147541,3,1,0,75,1,1
218906,-87.719298245614,3,1,0,75,0,1
219496,195.439739413681,3,1,0,75,1,1
219496,-87.719298245614,3,1,0,75,0,1
220082,193.548387096774,3,1,0,75,1,1
220082,-87.719298245614,3,1,0,75,0,1
220662,192.307692307692,3,1,0,75,1,1
220662,-87.719298245614,3,1,0,75,0,1
221238,190.47619047619,3,1,0,75,1,1
221238,-87.719298245614,3,1,0,75,0,1
221809,189.274447949527,3,1,0,75,1,1
221809,-88.4955752212389,3,1,0,75,0,1
222376,187.5,3,1,0,75,1,1
222376,-89.2857142857143,3,1,0,75,0,1
222938,186.915887850467,3,1,0,75,1,1
222938,-90.0900900900901,3,1,0,75,0,1
223498,185.758513931889,3,1,0,75,1,1
223498,-90.9090909090909,3,1,0,75,0,1
224055,185.185185185185,3,1,0,75,1,1
224055,-91.743119266055,3,1,0,75,0,1
224610,184.049079754601,3,1,0,75,1,1
224610,-92.5925925925926,3,1,0,75,0,1
225162,182.370820668693,3,1,0,75,1,1
225162,-93.4579439252336,3,1,0,75,0,1
225709,180.722891566265,3,1,0,75,1,1
225709,-94.3396226415094,3,1,0,75,0,1
226251,179.640718562874,3,1,0,75,1,1
226251,-95.2380952380952,3,1,0,75,0,1
226789,178.571428571429,3,1,0,75,1,1
226789,-96.1538461538461,3,1,0,75,0,1
227324,177.514792899408,3,1,0,75,1,1
227324,-97.0873786407767,3,1,0,75,0,1
227856,176.470588235294,3,1,0,75,1,1
227856,-98.0392156862745,3,1,0,75,0,1
228385,175.438596491228,3,1,0,75,1,1
228385,-99.009900990099,3,1,0,75,0,1
228911,174.418604651163,3,1,0,75,1,1
231527,-50,3,1,0,75,0,0
232050,-25,3,1,0,75,0,0
233576,-66.6666666666667,3,1,0,30,0,0
233620,-100,3,1,0,30,0,0
234143,-113.636363636364,3,1,0,50,0,0
234666,-133.333333333333,3,1,0,40,0,0
235190,-158.730158730159,3,1,0,30,0,0
235713,348.837209302326,4,1,0,20,1,0
236759,-100,4,1,0,19,0,0
237108,-100,4,1,0,18,0,0
237457,-100,4,1,0,17,0,0
237806,-100,4,1,0,16,0,0
238154,-100,4,1,0,15,0,0
238503,-100,4,1,0,14,0,0
238852,-105.263157894737,4,1,0,13,0,0
239201,-105.263157894737,4,1,0,12,0,0
239550,-105.263157894737,4,1,0,11,0,0
239899,-105.263157894737,4,1,0,10,0,0
240247,-111.111111111111,4,1,0,9,0,0
240596,-111.111111111111,4,1,0,8,0,0
240945,-111.111111111111,4,1,0,7,0,0
241294,-117.647058823529,4,1,0,6,0,0
242689,-125,4,1,0,5,0,0
244085,-133.333333333333,4,1,0,5,0,0
245480,-142.857142857143,4,1,0,5,0,0
246527,526.315789473684,4,1,0,20,1,0
248632,571.428571428571,4,1,0,20,1,8
250343,645.161290322581,4,1,0,20,1,0
252923,800,4,1,0,20,1,8
255314,1000,4,1,0,7,1,0
255314,-151.515151515152,4,1,0,7,0,0
256314,-200,4,1,0,6,0,0
257314,-200,4,1,0,5,0,0

[HitObjects]
288,288,1749,5,0,0:0:0:0:
224,292,2159,1,8,0:0:0:0:
255,297,2570,1,0,0:0:0:0:
425,191,2981,1,0,0:0:0:0:
186,108,3392,1,8,0:0:0:0:
252,92,3803,1,0,0:0:0:0:
83,190,4214,1,8,0:0:0:0:
221,96,4420,1,8,0:0:0:0:
456,295,4625,1,0,0:0:0:0:
294,94,5036,1,0,0:0:0:0:
331,107,5447,1,0,0:0:0:0:
360,130,5653,1,8,0:0:0:0:
255,88,5858,1,0,0:0:0:0:
323,275,6269,1,8,0:0:0:0:
194,282,6680,1,0,0:0:0:0:
166,262,6952,1,0,0:0:0:0:
134,235,7225,1,8,0:0:0:0:
267,176,7498,1,0,0:0:0:0:
248,178,7770,1,8,0:0:0:0:
243,197,8043,1,8,0:0:0:0:
266,195,8316,1,0,0:0:0:0:
255,181,8384,1,8,0:0:0:0:
237,168,8452,1,8,0:0:0:0:
259,164,8861,1,0,0:0:0:0:
280,172,8930,1,0,0:0:0:0:
276,191,8998,1,8,0:0:0:0:
255,201,9407,1,0,0:0:0:0:
248,189,9498,1,0,0:0:0:0:
243,175,9589,1,8,0:0:0:0:
242,207,9680,1,8,0:0:0:0:
236,198,10907,1,8,0:0:0:0:
244,207,10975,1,8,0:0:0:0:
257,193,11043,1,0,0:0:0:0:
380,144,13221,1,0,0:0:0:0:
104,154,13493,1,8,0:0:0:0:
104,154,13766,1,8,0:0:0:0:
380,144,14039,1,0,0:0:0:0:
104,154,14311,1,8,0:0:0:0:
104,154,14584,1,8,0:0:0:0:
352,260,14857,1,0,0:0:0:0:
118,219,15130,1,8,0:0:0:0:
128,54,15402,1,8,0:0:0:0:
365,77,15675,1,0,0:0:0:0:
121,31,15948,1,8,0:0:0:0:
253,37,16084,1,8,0:0:0:0:
309,53,16221,1,0,0:0:0:0:
190,45,16357,1,8,0:0:0:0:
384,59,16493,1,0,0:0:0:0:
187,30,16766,1,8,0:0:0:0:
184,16,17039,1,8,0:0:0:0:
311,40,17311,1,0,0:0:0:0:
250,33,17584,1,8,0:0:0:0:
251,19,17857,1,8,0:0:0:0:
317,24,18130,1,0,0:0:0:0:
91,174,18402,1,8,0:0:0:0:
383,246,18675,1,8,0:0:0:0:
264,183,18948,1,0,0:0:0:0:
256,192,19221,1,8,0:0:0:0:
431,194,19357,1,0,0:0:0:0:
256,192,19493,1,8,0:0:0:0:
256,192,19630,1,8,0:0:0:0:
408,186,19766,1,0,0:0:0:0:
256,192,20039,1,8,0:0:0:0:
119,130,20311,1,8,0:0:0:0:
320,95,20584,1,0,0:0:0:0:
185,96,20857,1,8,0:0:0:0:
213,89,21130,1,8,0:0:0:0:
276,95,21402,1,0,0:0:0:0:
176,103,21675,1,8,0:0:0:0:
186,104,21948,1,8,0:0:0:0:
339,115,22221,1,0,0:0:0:0:
201,100,22493,1,8,0:0:0:0:
163,113,22630,1,8,0:0:0:0:
361,129,22766,1,0,0:0:0:0:
333,110,22902,1,0,0:0:0:0:
176,103,23039,1,8,0:0:0:0:
348,117,23311,1,0,0:0:0:0:
278,92,23584,1,0,0:0:0:0:
214,94,23857,1,8,0:0:0:0:
249,91,24130,1,0,0:0:0:0:
262,175,24402,1,0,0:0:0:0:
260,196,24675,1,8,0:0:0:0:
249,180,24948,1,0,0:0:0:0:
255,185,25221,1,0,0:0:0:0:
182,273,25493,1,8,0:0:0:0:
189,281,25766,1,0,0:0:0:0:
167,264,25902,1,8,0:0:0:0:
150,251,26039,1,8,0:0:0:0:
274,294,26175,1,0,0:0:0:0:
150,251,26311,1,8,0:0:0:0:
310,278,26584,1,0,0:0:0:0:
234,291,26857,1,0,0:0:0:0:
177,274,27130,1,8,0:0:0:0:
202,285,27402,1,0,0:0:0:0:
392,157,27675,1,0,0:0:0:0:
103,205,27948,1,8,0:0:0:0:
384,149,28221,1,0,0:0:0:0:
418,209,28493,1,0,0:0:0:0:
427,178,28766,1,8,0:0:0:0:
444,192,29039,1,0,0:0:0:0:
483,188,29175,1,8,0:0:0:0:
436,119,29311,1,0,0:0:0:0:
462,184,29448,1,0,0:0:0:0:
444,110,29584,1,8,0:0:0:0:
461,101,29857,1,0,0:0:0:0:
376,66,30130,1,0,0:0:0:0:
128,70,30402,1,8,0:0:0:0:
387,53,30675,1,0,0:0:0:0:
402,44,30948,1,0,0:0:0:0:
126,65,31221,1,8,0:0:0:0:
413,32,31493,1,0,0:0:0:0:
125,52,31766,1,0,0:0:0:0:
359,254,32039,1,8,0:0:0:0:
382,238,32311,1,0,0:0:0:0:
398,228,32448,1,0,0:0:0:0:
334,265,32584,1,8,0:0:0:0:
348,258,32721,1,8,0:0:0:0:
143,120,33675,1,0,0:0:0:0:
155,113,34493,1,8,0:0:0:0:
134,123,34539,1,8,0:0:0:0:
62,196,35584,1,8,0:0:0:0:
113,140,35721,1,8,0:0:0:0:
91,197,35857,1,0,0:0:0:0:
100,167,35993,1,8,0:0:0:0:
87,171,36130,1,0,0:0:0:0:
67,179,36948,1,0,0:0:0:0:
80,175,37766,1,8,0:0:0:0:
95,166,37811,1,8,0:0:0:0:
268,187,38857,1,0,0:0:0:0:
250,179,38993,1,0,0:0:0:0:
268,187,39130,1,8,0:0:0:0:
264,175,39266,1,8,0:0:0:0:
255,191,39402,1,0,0:0:0:0:
262,194,40221,1,0,0:0:0:0:
277,190,41039,1,0,0:0:0:0:
245,182,41084,1,8,0:0:0:0:
256,192,42142,1,0,0:0:0:0:
256,192,42428,1,0,0:0:0:0:
256,192,42714,1,0,0:0:0:0:
256,192,45943,5,12,0:0:0:0:
276,192,46216,1,0,0:0:0:0:
244,192,46284,1,0,0:0:0:0:
276,192,46352,1,0,0:0:0:0:
244,192,46489,1,0,0:0:0:0:
276,192,46625,1,0,0:0:0:0:
260,178,46761,1,8,0:0:0:0:
276,192,47034,1,0,0:0:0:0:
276,192,47170,1,0,0:0:0:0:
254,211,47443,1,0,0:0:0:0:
244,192,47579,1,8,0:0:0:0:
254,211,47852,1,0,0:0:0:0:
254,211,47920,1,0,0:0:0:0:
254,211,47989,1,0,0:0:0:0:
266,207,48125,1,0,0:0:0:0:
266,207,48261,1,0,0:0:0:0:
262,187,48398,1,8,0:0:0:0:
262,187,48443,1,8,0:0:0:0:
246,202,48670,1,0,0:0:0:0:
242,202,48807,1,8,0:0:0:0:
246,202,48943,1,0,0:0:0:0:
246,202,49079,1,0,0:0:0:0:
248,185,49216,1,8,0:0:0:0:
243,182,49261,1,8,0:0:0:0:
246,202,49489,1,0,0:0:0:0:
266,196,49557,1,0,0:0:0:0:
246,202,49625,1,0,0:0:0:0:
263,199,49761,1,0,0:0:0:0:
266,196,49898,1,0,0:0:0:0:
260,190,50034,1,8,0:0:0:0:
250,191,50307,1,0,0:0:0:0:
250,191,50443,1,0,0:0:0:0:
266,196,50716,1,8,0:0:0:0:
261,189,50852,1,8,0:0:0:0:
254,201,51125,1,0,0:0:0:0:
254,201,51193,1,0,0:0:0:0:
254,201,51261,1,0,0:0:0:0:
254,201,51398,1,0,0:0:0:0:
254,201,51534,1,0,0:0:0:0:
240,196,51670,1,8,0:0:0:0:
258,197,51943,1,0,0:0:0:0:
250,191,52079,1,8,0:0:0:0:
237,202,52216,1,8,0:0:0:0:
250,191,52352,1,0,0:0:0:0:
240,196,52489,1,8,0:0:0:0:
243,204,52523,1,8,0:0:0:0:
238,191,52761,1,0,0:0:0:0:
254,199,52829,1,0,0:0:0:0:
254,199,52898,1,0,0:0:0:0:
254,199,53034,1,0,0:0:0:0:
254,199,53170,1,0,0:0:0:0:
245,204,53307,1,8,0:0:0:0:
254,199,53579,1,0,0:0:0:0:
265,197,53716,1,0,0:0:0:0:
265,197,53989,1,0,0:0:0:0:
255,187,54125,1,8,0:0:0:0:
281,193,54398,1,0,0:0:0:0:
281,193,54466,1,0,0:0:0:0:
281,193,54534,1,0,0:0:0:0:
281,193,54670,1,0,0:0:0:0:
281,193,54807,1,0,0:0:0:0:
235,197,54943,1,8,0:0:0:0:
255,174,55216,1,0,0:0:0:0:
255,174,55352,1,0,0:0:0:0:
255,174,55625,1,0,0:0:0:0:
260,203,55761,1,8,0:0:0:0:
260,203,55898,1,8,0:0:0:0:
260,203,56034,1,8,0:0:0:0:
451,306,56170,1,8,0:0:0:0:
260,203,56307,1,8,0:0:0:0:
260,203,56443,1,8,0:0:0:0:
260,203,56579,1,8,0:0:0:0:
238,213,56716,1,0,0:0:0:0:
238,181,56784,1,0,0:0:0:0:
260,203,56852,1,8,0:0:0:0:
275,180,56920,1,0,0:0:0:0:
275,180,56989,1,0,0:0:0:0:
275,180,57057,1,0,0:0:0:0:
272,216,57125,1,8,0:0:0:0:
275,180,57193,1,0,0:0:0:0:
275,180,57261,1,0,0:0:0:0:
275,180,57329,1,0,0:0:0:0:
247,196,57398,1,8,0:0:0:0:
93,197,57466,1,8,0:0:0:0:
93,197,57534,1,0,0:0:0:0:
93,197,57602,1,0,0:0:0:0:
77,198,57670,1,8,0:0:0:0:
93,197,57739,1,0,0:0:0:0:
93,197,57807,1,0,0:0:0:0:
93,197,57875,1,0,0:0:0:0:
87,187,57943,1,8,0:0:0:0:
93,197,58011,1,0,0:0:0:0:
93,197,58079,1,0,0:0:0:0:
93,197,58148,1,0,0:0:0:0:
68,187,58216,1,8,0:0:0:0:
93,197,58284,1,8,0:0:0:0:
77,198,58352,1,0,0:0:0:0:
77,187,58420,1,0,0:0:0:0:
68,187,58489,1,8,0:0:0:0:
253,39,58557,1,8,0:0:0:0:
254,24,58625,1,0,0:0:0:0:
254,12,58693,1,0,0:0:0:0:
256,0,58761,1,8,0:0:0:0:
256,0,58829,1,8,0:0:0:0:
256,0,58898,1,0,0:0:0:0:
256,0,58966,1,0,0:0:0:0:
256,192,59034,1,8,0:0:0:0:
236,191,59307,1,0,0:0:0:0:
256,212,59443,1,8,0:0:0:0:
279,192,59579,1,0,0:0:0:0:
258,164,59852,1,0,0:0:0:0:
259,197,60125,1,0,0:0:0:0:
256,192,60398,1,0,0:0:0:0:
257,181,60670,1,8,0:0:0:0:
256,192,60943,1,0,0:0:0:0:
255,205,61079,1,8,0:0:0:0:
255,205,61216,1,0,0:0:0:0:
255,182,61284,1,0,0:0:0:0:
256,192,61352,1,0,0:0:0:0:
256,192,61420,1,0,0:0:0:0:
272,185,61489,1,8,0:0:0:0:
235,214,61557,1,8,0:0:0:0:
276,217,61625,1,0,0:0:0:0:
235,172,61693,1,0,0:0:0:0:
245,167,61761,1,8,0:0:0:0:
271,165,61829,1,8,0:0:0:0:
290,185,61898,1,0,0:0:0:0:
225,197,61966,1,0,0:0:0:0:
269,213,62034,1,8,0:0:0:0:
247,223,62102,1,8,0:0:0:0:
259,200,62170,1,8,0:0:0:0:
259,200,62239,1,8,0:0:0:0:
256,224,62307,1,0,0:0:0:0:
317,48,65170,1,0,0:0:0:0:
322,45,65307,1,8,0:0:0:0:
345,13,65443,1,8,0:0:0:0:
330,22,65579,1,0,0:0:0:0:
96,192,65989,1,8,0:0:0:0:
244,190,66398,1,0,0:0:0:0:
236,197,66807,1,0,0:0:0:0:
266,177,67216,1,8,0:0:0:0:
256,186,67489,1,0,0:0:0:0:
272,175,67898,1,8,0:0:0:0:
240,207,67966,1,8,0:0:0:0:
257,190,68034,1,0,0:0:0:0:
380,240,68307,1,0,0:0:0:0:
313,281,68579,1,0,0:0:0:0:
446,103,68852,1,8,0:0:0:0:
43,65,69125,1,0,0:0:0:0:
47,70,69398,1,8,0:0:0:0:
64,109,69602,1,8,0:0:0:0:
256,192,69670,1,0,0:0:0:0:
54,95,69943,1,0,0:0:0:0:
50,83,70216,1,8,0:0:0:0:
56,105,70489,1,0,0:0:0:0:
53,74,70761,1,8,0:0:0:0:
256,288,71170,1,8,0:0:0:0:
220,288,71307,1,8,0:0:0:0:
293,290,71443,1,0,0:0:0:0:
257,298,71579,1,8,0:0:0:0:
278,295,71716,1,0,0:0:0:0:
211,289,71852,1,8,0:0:0:0:
312,278,71989,1,0,0:0:0:0:
192,283,72125,1,8,0:0:0:0:
232,297,72398,1,0,0:0:0:0:
163,112,72943,1,8,0:0:0:0:
253,44,73625,1,0,0:0:0:0:
428,119,73761,1,8,0:0:0:0:
463,102,74034,1,8,0:0:0:0:
480,96,74307,1,0,0:0:0:0:
432,125,74579,1,0,0:0:0:0:
448,112,74852,1,8,0:0:0:0:
448,112,75125,1,0,0:0:0:0:
411,174,75398,1,8,0:0:0:0:
224,174,75670,1,8,0:0:0:0:
232,172,75943,1,8,0:0:0:0:
243,159,76079,1,0,0:0:0:0:
398,166,76216,1,0,0:0:0:0:
250,149,76489,1,8,0:0:0:0:
255,89,76761,1,8,0:0:0:0:
161,257,77034,1,0,0:0:0:0:
129,233,77443,1,8,0:0:0:0:
256,192,77852,12,0,80307,0:0:0:0:
289,184,81943,5,0,0:0:0:0:
289,184,82215,1,0,0:0:0:0:
225,184,82352,1,8,0:0:0:0:
289,184,82624,1,0,0:0:0:0:
289,184,82761,1,0,0:0:0:0:
289,184,83033,1,0,0:0:0:0:
289,184,83170,1,0,0:0:0:0:
225,184,83306,1,8,0:0:0:0:
225,184,83579,1,8,0:0:0:0:
225,184,83852,1,8,0:0:0:0:
289,184,83988,1,0,0:0:0:0:
289,184,84261,1,0,0:0:0:0:
225,184,84397,1,8,0:0:0:0:
289,184,84670,1,0,0:0:0:0:
225,184,84806,1,8,0:0:0:0:
289,184,84943,1,0,0:0:0:0:
289,184,85215,1,0,0:0:0:0:
289,184,85488,1,0,0:0:0:0:
225,184,85624,1,8,0:0:0:0:
289,184,85897,1,0,0:0:0:0:
289,184,86033,1,0,0:0:0:0:
289,184,86306,1,0,0:0:0:0:
289,184,86443,1,0,0:0:0:0:
225,184,86579,1,8,0:0:0:0:
225,184,86852,1,8,0:0:0:0:
289,184,87124,1,0,0:0:0:0:
225,184,87261,1,8,0:0:0:0:
225,184,87533,1,8,0:0:0:0:
289,184,87670,1,0,0:0:0:0:
289,184,87806,1,0,0:0:0:0:
289,184,87943,1,8,0:0:0:0:
289,184,88215,1,0,0:0:0:0:
289,184,88488,1,0,0:0:0:0:
289,184,88761,1,0,0:0:0:0:
289,184,88897,1,0,0:0:0:0:
225,184,89170,1,8,0:0:0:0:
289,184,89306,1,0,0:0:0:0:
289,184,89579,1,0,0:0:0:0:
289,184,89715,1,0,0:0:0:0:
225,184,89852,1,8,0:0:0:0:
289,184,90124,1,8,0:0:0:0:
289,184,90397,1,0,0:0:0:0:
225,184,90533,1,8,0:0:0:0:
289,184,90806,1,0,0:0:0:0:
225,184,90943,1,8,0:0:0:0:
225,184,91215,1,0,0:0:0:0:
225,184,91352,1,8,0:0:0:0:
289,184,91488,1,0,0:0:0:0:
225,184,91761,1,0,0:0:0:0:
225,184,92033,1,0,0:0:0:0:
225,184,92170,1,0,0:0:0:0:
289,184,92443,1,8,0:0:0:0:
225,184,92579,1,0,0:0:0:0:
289,184,92852,1,0,0:0:0:0:
289,184,92988,1,0,0:0:0:0:
225,184,93124,1,8,0:0:0:0:
225,184,93397,1,8,0:0:0:0:
289,184,93670,1,0,0:0:0:0:
225,184,93806,1,8,0:0:0:0:
235,186,93943,1,0,0:0:0:0:
235,185,94079,1,0,0:0:0:0:
274,170,94215,1,8,0:0:0:0:
225,184,94488,1,8,0:0:0:0:
225,184,94624,1,8,0:0:0:0:
289,184,94761,1,0,0:0:0:0:
225,184,95033,1,0,0:0:0:0:
289,184,95306,1,0,0:0:0:0:
289,184,95443,1,0,0:0:0:0:
437,304,95715,1,8,0:0:0:0:
289,184,95852,1,0,0:0:0:0:
289,184,96124,1,0,0:0:0:0:
289,184,96261,1,0,0:0:0:0:
225,184,96397,1,8,0:0:0:0:
225,184,96670,1,8,0:0:0:0:
289,184,96943,1,0,0:0:0:0:
225,184,97079,1,8,0:0:0:0:
289,184,97352,1,0,0:0:0:0:
225,184,97488,1,0,0:0:0:0:
289,184,97761,1,0,0:0:0:0:
225,184,97897,1,8,0:0:0:0:
289,184,98033,1,0,0:0:0:0:
225,184,98306,1,0,0:0:0:0:
289,184,98579,1,0,0:0:0:0:
225,184,98715,1,8,0:0:0:0:
225,184,98988,1,8,0:0:0:0:
289,184,99124,1,0,0:0:0:0:
225,184,99397,1,0,0:0:0:0:
289,184,99533,1,0,0:0:0:0:
225,184,99670,1,8,0:0:0:0:
289,184,99943,1,8,0:0:0:0:
289,184,100215,1,0,0:0:0:0:
289,184,100352,1,8,0:0:0:0:
225,184,100624,1,8,0:0:0:0:
289,184,100761,1,0,0:0:0:0:
247,187,100897,1,0,0:0:0:0:
225,184,101033,1,8,0:0:0:0:
289,184,101306,1,0,0:0:0:0:
289,184,101579,1,8,0:0:0:0:
258,182,101715,1,0,0:0:0:0:
225,184,101852,1,0,0:0:0:0:
225,184,102124,1,0,0:0:0:0:
225,184,102261,1,0,0:0:0:0:
225,184,102397,1,8,0:0:0:0:
289,184,102533,1,0,0:0:0:0:
289,184,102806,1,0,0:0:0:0:
289,184,102943,1,0,0:0:0:0:
289,184,103079,1,0,0:0:0:0:
225,184,103215,1,8,0:0:0:0:
289,184,103352,1,0,0:0:0:0:
225,184,103488,1,8,0:0:0:0:
289,184,103761,1,0,0:0:0:0:
289,184,103897,1,0,0:0:0:0:
225,184,104033,1,8,0:0:0:0:
289,184,104170,1,0,0:0:0:0:
289,184,104443,1,0,0:0:0:0:
225,184,104579,1,8,0:0:0:0:
225,184,104715,1,8,0:0:0:0:
289,184,104852,1,0,0:0:0:0:
289,184,104988,1,0,0:0:0:0:
225,184,105124,1,8,0:0:0:0:
289,184,105397,1,0,0:0:0:0:
225,184,105533,1,8,0:0:0:0:
289,184,105670,1,0,0:0:0:0:
225,184,105806,1,8,0:0:0:0:
225,184,106079,1,8,0:0:0:0:
289,184,106215,1,0,0:0:0:0:
289,184,106352,1,0,0:0:0:0:
225,184,106488,1,8,0:0:0:0:
289,184,106624,1,0,0:0:0:0:
289,184,106761,1,0,0:0:0:0:
289,184,107033,1,0,0:0:0:0:
289,184,107170,1,0,0:0:0:0:
225,184,107306,1,8,0:0:0:0:
289,184,107443,1,0,0:0:0:0:
289,184,107715,1,0,0:0:0:0:
225,184,107852,1,8,0:0:0:0:
225,184,107988,1,8,0:0:0:0:
289,184,108124,1,0,0:0:0:0:
289,184,108261,1,0,0:0:0:0:
225,184,108397,1,8,0:0:0:0:
289,184,108670,1,0,0:0:0:0:
289,184,108806,1,0,0:0:0:0:
225,184,108943,1,8,0:0:0:0:
289,184,109079,1,0,0:0:0:0:
225,184,109352,1,8,0:0:0:0:
289,184,109488,1,0,0:0:0:0:
289,184,109624,1,0,0:0:0:0:
225,184,109761,1,8,0:0:0:0:
289,184,109897,1,0,0:0:0:0:
289,184,110033,1,0,0:0:0:0:
225,184,110306,1,8,0:0:0:0:
225,184,110443,1,8,0:0:0:0:
289,184,110579,1,0,0:0:0:0:
225,184,110715,1,8,0:0:0:0:
289,184,110988,1,0,0:0:0:0:
225,184,111124,1,8,0:0:0:0:
225,184,111261,1,8,0:0:0:0:
289,184,111397,1,0,0:0:0:0:
225,184,111533,1,0,0:0:0:0:
225,184,111670,1,8,0:0:0:0:
225,184,111943,1,0,0:0:0:0:
225,184,112079,1,0,0:0:0:0:
225,184,112215,1,8,0:0:0:0:
289,184,112352,1,0,0:0:0:0:
289,184,112624,1,0,0:0:0:0:
289,184,112761,1,0,0:0:0:0:
289,184,112897,1,0,0:0:0:0:
225,184,113033,1,8,0:0:0:0:
289,184,113170,1,0,0:0:0:0:
225,184,113306,1,8,0:0:0:0:
289,184,113579,1,0,0:0:0:0:
225,184,113715,1,8,0:0:0:0:
289,184,113852,1,0,0:0:0:0:
289,184,113988,1,8,0:0:0:0:
289,184,114261,1,0,0:0:0:0:
225,184,114397,1,8,0:0:0:0:
225,184,114533,1,8,0:0:0:0:
289,184,114670,1,0,0:0:0:0:
289,184,114806,1,0,0:0:0:0:
225,184,114943,1,8,0:0:0:0:
289,184,115215,1,0,0:0:0:0:
225,184,115352,1,0,0:0:0:0:
225,184,115488,1,8,0:0:0:0:
289,184,115624,1,0,0:0:0:0:
225,184,115897,1,8,0:0:0:0:
289,184,116033,1,8,0:0:0:0:
289,184,116170,1,0,0:0:0:0:
225,184,116306,1,8,0:0:0:0:
289,184,116443,1,0,0:0:0:0:
289,184,116579,1,0,0:0:0:0:
289,184,116852,1,8,0:0:0:0:
225,184,116988,1,8,0:0:0:0:
289,184,117124,1,0,0:0:0:0:
289,184,117261,1,8,0:0:0:0:
289,184,117533,1,0,0:0:0:0:
225,184,117670,1,8,0:0:0:0:
225,184,117806,1,8,0:0:0:0:
289,184,117943,1,0,0:0:0:0:
289,184,118079,1,0,0:0:0:0:
225,184,118215,1,8,0:0:0:0:
225,184,118488,1,0,0:0:0:0:
225,184,118624,1,0,0:0:0:0:
225,184,118761,1,8,0:0:0:0:
289,184,118897,1,0,0:0:0:0:
225,184,119170,1,8,0:0:0:0:
289,184,119306,1,0,0:0:0:0:
225,184,119443,1,0,0:0:0:0:
289,184,119579,1,8,0:0:0:0:
225,184,119715,1,0,0:0:0:0:
225,184,119852,1,0,0:0:0:0:
289,184,120124,1,0,0:0:0:0:
225,184,120261,1,8,0:0:0:0:
289,184,120397,1,0,0:0:0:0:
289,184,120533,1,0,0:0:0:0:
225,184,120670,1,8,0:0:0:0:
289,184,120806,1,0,0:0:0:0:
225,184,120943,1,8,0:0:0:0:
225,184,121079,1,0,0:0:0:0:
289,184,121352,1,0,0:0:0:0:
289,184,121488,1,0,0:0:0:0:
289,184,121761,1,0,0:0:0:0:
289,184,121897,1,0,0:0:0:0:
289,184,122170,1,0,0:0:0:0:
289,184,122443,1,0,0:0:0:0:
289,184,122579,1,0,0:0:0:0:
289,184,122715,1,0,0:0:0:0:
289,184,122988,1,0,0:0:0:0:
289,184,123124,1,0,0:0:0:0:
289,184,123397,1,0,0:0:0:0:
289,184,123533,1,0,0:0:0:0:
289,184,123806,1,0,0:0:0:0:
289,184,124079,1,0,0:0:0:0:
289,184,124215,1,0,0:0:0:0:
289,184,124352,1,0,0:0:0:0:
225,184,124619,1,8,0:0:0:0:
225,184,124755,1,8,0:0:0:0:
225,184,125028,1,8,0:0:0:0:
225,184,125164,1,8,0:0:0:0:
225,184,125437,1,8,0:0:0:0:
225,184,125710,1,8,0:0:0:0:
225,184,125846,1,8,0:0:0:0:
289,184,125982,1,0,0:0:0:0:
225,184,126255,1,8,0:0:0:0:
225,184,126391,1,8,0:0:0:0:
225,184,126664,1,8,0:0:0:0:
225,184,126800,1,8,0:0:0:0:
225,184,127073,1,8,0:0:0:0:
225,184,127346,1,8,0:0:0:0:
289,184,127482,1,0,0:0:0:0:
289,184,127619,1,0,0:0:0:0:
225,184,127891,1,8,0:0:0:0:
225,184,128028,1,8,0:0:0:0:
225,184,128300,1,8,0:0:0:0:
225,184,128437,1,8,0:0:0:0:
225,184,128710,1,8,0:0:0:0:
289,184,128982,1,0,0:0:0:0:
289,184,129119,1,0,0:0:0:0:
289,184,129255,1,0,0:0:0:0:
225,184,129528,1,8,0:0:0:0:
225,184,129664,1,8,0:0:0:0:
225,184,129937,1,8,0:0:0:0:
225,184,130073,1,8,0:0:0:0:
225,184,130346,1,8,0:0:0:0:
225,184,130619,1,8,0:0:0:0:
289,184,130755,1,0,0:0:0:0:
289,184,130891,1,0,0:0:0:0:
225,184,131164,1,8,0:0:0:0:
225,184,131300,1,8,0:0:0:0:
225,184,131573,1,8,0:0:0:0:
225,184,131710,1,8,0:0:0:0:
225,184,131982,1,8,0:0:0:0:
225,184,132255,1,8,0:0:0:0:
225,184,132391,1,8,0:0:0:0:
289,184,132528,1,0,0:0:0:0:
225,184,132800,1,8,0:0:0:0:
225,184,132937,1,8,0:0:0:0:
225,184,133210,1,8,0:0:0:0:
225,184,133346,1,8,0:0:0:0:
225,184,133619,1,8,0:0:0:0:
225,184,133891,1,8,0:0:0:0:
289,184,134028,1,0,0:0:0:0:
289,184,134164,1,0,0:0:0:0:
225,184,134437,1,8,0:0:0:0:
225,184,134573,1,8,0:0:0:0:
225,184,134846,1,8,0:0:0:0:
225,184,134983,1,8,0:0:0:0:
225,184,135255,1,8,0:0:0:0:
289,184,135528,1,0,0:0:0:0:
289,184,135664,1,0,0:0:0:0:
289,184,135801,1,0,0:0:0:0:
225,184,136619,1,8,0:0:0:0:
225,184,136755,1,8,0:0:0:0:
289,184,136892,1,0,0:0:0:0:
225,184,137028,1,8,0:0:0:0:
289,184,137164,1,0,0:0:0:0:
225,184,137301,1,8,0:0:0:0:
225,184,137437,1,8,0:0:0:0:
289,184,137573,1,4,0:0:0:0:
225,184,137709,1,8,0:0:0:0:
225,184,137845,1,8,0:0:0:0:
289,184,137982,1,4,0:0:0:0:
225,184,138118,1,8,0:0:0:0:
225,184,138254,1,8,0:0:0:0:
289,184,138391,1,4,0:0:0:0:
225,184,138527,1,8,0:0:0:0:
289,184,138663,1,4,0:0:0:0:
225,184,138800,1,8,0:0:0:0:
289,184,138936,1,4,0:0:0:0:
225,184,139073,1,8,0:0:0:0:
289,184,139209,1,4,0:0:0:0:
225,184,139345,1,8,0:0:0:0:
225,184,139482,1,8,0:0:0:0:
289,184,139618,1,4,0:0:0:0:
225,184,139754,1,8,0:0:0:0:
225,184,139891,1,8,0:0:0:0:
289,184,140027,1,4,0:0:0:0:
225,184,140163,1,8,0:0:0:0:
289,184,140300,1,4,0:0:0:0:
225,184,140436,1,8,0:0:0:0:
289,184,140573,1,4,0:0:0:0:
225,184,140709,1,8,0:0:0:0:
289,184,140845,1,4,0:0:0:0:
225,184,140982,1,8,0:0:0:0:
225,184,141118,1,8,0:0:0:0:
289,184,141254,1,4,0:0:0:0:
225,184,141391,1,8,0:0:0:0:
225,184,141527,1,8,0:0:0:0:
289,184,141663,1,4,0:0:0:0:
225,184,141800,1,8,0:0:0:0:
289,184,141936,1,4,0:0:0:0:
225,184,142073,1,8,0:0:0:0:
289,184,142209,1,4,0:0:0:0:
225,184,142345,1,8,0:0:0:0:
289,184,142482,1,4,0:0:0:0:
225,184,142618,1,8,0:0:0:0:
225,184,142754,1,8,0:0:0:0:
289,184,142891,1,4,0:0:0:0:
225,184,143027,1,8,0:0:0:0:
225,184,143163,1,8,0:0:0:0:
289,184,143300,1,4,0:0:0:0:
225,184,143436,1,8,0:0:0:0:
289,184,143573,1,4,0:0:0:0:
225,184,143709,1,8,0:0:0:0:
225,184,143845,1,12,0:0:0:0:
225,184,143982,1,8,0:0:0:0:
289,184,144118,1,4,0:0:0:0:
225,184,144254,1,8,0:0:0:0:
225,184,144391,1,8,0:0:0:0:
289,184,144527,1,4,0:0:0:0:
225,184,144663,1,8,0:0:0:0:
225,184,144800,1,8,0:0:0:0:
289,184,144936,1,4,0:0:0:0:
225,184,145073,1,8,0:0:0:0:
289,184,145209,1,4,0:0:0:0:
225,184,145345,1,8,0:0:0:0:
289,184,145482,1,4,0:0:0:0:
225,184,145618,1,8,0:0:0:0:
289,184,145754,1,4,0:0:0:0:
225,184,145891,1,8,0:0:0:0:
225,184,146027,1,8,0:0:0:0:
289,184,146163,1,4,0:0:0:0:
225,184,146300,1,8,0:0:0:0:
225,184,146436,1,8,0:0:0:0:
289,184,146573,1,4,0:0:0:0:
225,184,146709,1,8,0:0:0:0:
289,184,146845,1,4,0:0:0:0:
225,184,146982,1,8,0:0:0:0:
289,184,147118,1,4,0:0:0:0:
225,184,147254,1,8,0:0:0:0:
289,184,147391,1,4,0:0:0:0:
225,184,147527,1,8,0:0:0:0:
225,184,147663,1,8,0:0:0:0:
289,184,147800,1,4,0:0:0:0:
225,184,147936,1,8,0:0:0:0:
225,184,148073,1,8,0:0:0:0:
289,184,148209,1,4,0:0:0:0:
225,184,148345,1,8,0:0:0:0:
289,184,148482,1,4,0:0:0:0:
225,184,148618,1,8,0:0:0:0:
289,184,148754,1,4,0:0:0:0:
225,184,148891,1,8,0:0:0:0:
289,184,149027,1,4,0:0:0:0:
225,184,149163,1,8,0:0:0:0:
225,184,149300,1,8,0:0:0:0:
289,184,149436,1,4,0:0:0:0:
225,184,149573,1,8,0:0:0:0:
225,184,149709,1,8,0:0:0:0:
289,184,149845,1,4,0:0:0:0:
225,184,149982,1,8,0:0:0:0:
289,184,150118,1,4,0:0:0:0:
225,184,150254,1,8,0:0:0:0:
225,184,150391,1,12,0:0:0:0:
225,184,150527,1,8,0:0:0:0:
289,184,150663,1,4,0:0:0:0:
225,184,150800,1,8,0:0:0:0:
225,184,150936,1,8,0:0:0:0:
289,184,151073,1,4,0:0:0:0:
225,184,151209,1,8,0:0:0:0:
225,184,151345,1,8,0:0:0:0:
289,184,151482,1,4,0:0:0:0:
225,184,151618,1,8,0:0:0:0:
289,184,151754,1,4,0:0:0:0:
225,184,151891,1,8,0:0:0:0:
289,184,152027,1,4,0:0:0:0:
225,184,152163,1,8,0:0:0:0:
289,184,152300,1,4,0:0:0:0:
225,184,152436,1,8,0:0:0:0:
225,184,152573,1,8,0:0:0:0:
289,184,152709,1,4,0:0:0:0:
225,184,152845,1,8,0:0:0:0:
225,184,152982,1,8,0:0:0:0:
289,184,153118,1,4,0:0:0:0:
225,184,153254,1,8,0:0:0:0:
289,184,153391,1,4,0:0:0:0:
225,184,153527,1,8,0:0:0:0:
289,184,153663,1,4,0:0:0:0:
225,184,153800,1,8,0:0:0:0:
289,184,153936,1,4,0:0:0:0:
225,184,154073,1,8,0:0:0:0:
225,184,154209,1,8,0:0:0:0:
289,184,154345,1,4,0:0:0:0:
225,184,154482,1,8,0:0:0:0:
225,184,154618,1,8,0:0:0:0:
289,184,154754,1,4,0:0:0:0:
225,184,154891,1,8,0:0:0:0:
289,184,155027,1,4,0:0:0:0:
225,184,155163,1,8,0:0:0:0:
289,184,155300,1,4,0:0:0:0:
225,184,155436,1,8,0:0:0:0:
289,184,155573,1,4,0:0:0:0:
225,184,155709,1,8,0:0:0:0:
225,184,155845,1,8,0:0:0:0:
289,184,155982,1,4,0:0:0:0:
225,184,156118,1,8,0:0:0:0:
225,184,156254,1,8,0:0:0:0:
289,184,156391,1,4,0:0:0:0:
225,184,156527,1,8,0:0:0:0:
289,184,156663,1,4,0:0:0:0:
225,184,156800,1,8,0:0:0:0:
225,184,156936,1,12,0:0:0:0:
225,184,157073,1,8,0:0:0:0:
289,184,157209,1,4,0:0:0:0:
225,184,157345,1,8,0:0:0:0:
225,184,157482,1,8,0:0:0:0:
289,184,157618,1,4,0:0:0:0:
225,184,157754,1,8,0:0:0:0:
225,184,157891,1,8,0:0:0:0:
289,184,158027,1,4,0:0:0:0:
225,184,158163,1,8,0:0:0:0:
289,184,158300,1,4,0:0:0:0:
225,184,158436,1,8,0:0:0:0:
289,184,158573,1,4,0:0:0:0:
225,184,158709,1,8,0:0:0:0:
289,184,158845,1,4,0:0:0:0:
225,184,158982,1,8,0:0:0:0:
225,184,159118,1,8,0:0:0:0:
289,184,159254,1,4,0:0:0:0:
225,184,159391,1,8,0:0:0:0:
225,184,159527,1,8,0:0:0:0:
289,184,159663,1,4,0:0:0:0:
225,184,159800,1,8,0:0:0:0:
289,184,159936,1,4,0:0:0:0:
225,184,160073,1,8,0:0:0:0:
289,184,160209,1,4,0:0:0:0:
225,184,160345,1,8,0:0:0:0:
289,184,160482,1,4,0:0:0:0:
225,184,160618,1,8,0:0:0:0:
225,184,160754,1,8,0:0:0:0:
289,184,160891,1,4,0:0:0:0:
225,184,161027,1,8,0:0:0:0:
225,184,161163,1,8,0:0:0:0:
289,184,161300,1,4,0:0:0:0:
225,184,161436,1,8,0:0:0:0:
289,184,161573,1,4,0:0:0:0:
225,184,161709,1,8,0:0:0:0:
289,184,161845,1,4,0:0:0:0:
225,184,161982,1,8,0:0:0:0:
289,184,162118,1,4,0:0:0:0:
225,184,162254,1,8,0:0:0:0:
225,184,162391,1,8,0:0:0:0:
289,184,162527,1,4,0:0:0:0:
225,184,162663,1,8,0:0:0:0:
225,184,162800,1,8,0:0:0:0:
256,192,162936,12,0,163073,0:0:0:0:
256,192,163482,12,0,163619,0:0:0:0:
225,184,163754,5,12,0:0:0:0:
289,184,163891,1,0,0:0:0:0:
289,184,163959,1,0,0:0:0:0:
225,184,164027,1,8,0:0:0:0:
225,184,164095,1,8,0:0:0:0:
289,184,164163,1,0,0:0:0:0:
225,184,164232,1,8,0:0:0:0:
289,184,164300,1,0,0:0:0:0:
289,184,164368,1,0,0:0:0:0:
225,184,164436,1,8,0:0:0:0:
225,184,164504,1,8,0:0:0:0:
289,184,164573,1,0,0:0:0:0:
225,184,164641,1,8,0:0:0:0:
289,184,164709,1,0,0:0:0:0:
289,184,164777,1,0,0:0:0:0:
225,184,164845,1,8,0:0:0:0:
225,184,164982,1,8,0:0:0:0:
225,184,165027,1,8,0:0:0:0:
225,184,165073,1,8,0:0:0:0:
289,184,165118,1,0,0:0:0:0:
289,184,165152,1,0,0:0:0:0:
289,184,165186,1,0,0:0:0:0:
225,184,165255,1,8,0:0:0:0:
289,184,165300,1,0,0:0:0:0:
289,184,165345,1,0,0:0:0:0:
225,184,165391,1,8,0:0:0:0:
289,184,165527,1,0,0:0:0:0:
225,184,165663,1,8,0:0:0:0:
225,184,165800,1,8,0:0:0:0:
225,184,165868,1,8,0:0:0:0:
289,184,165936,1,0,0:0:0:0:
289,184,166073,1,0,0:0:0:0:
225,184,166209,1,8,0:0:0:0:
289,184,166413,1,0,0:0:0:0:
225,184,166482,1,8,0:0:0:0:
225,184,166618,1,8,0:0:0:0:
225,184,166754,1,8,0:0:0:0:
289,184,166891,1,0,0:0:0:0:
225,184,166959,1,8,0:0:0:0:
289,184,167027,1,0,0:0:0:0:
289,184,167163,1,0,0:0:0:0:
289,184,167198,1,0,0:0:0:0:
289,184,167232,1,0,0:0:0:0:
225,184,167300,1,8,0:0:0:0:
225,184,167436,1,8,0:0:0:0:
225,184,167482,1,8,0:0:0:0:
225,184,167527,1,8,0:0:0:0:
225,184,167573,1,8,0:0:0:0:
225,184,167641,1,8,0:0:0:0:
289,184,167709,1,0,0:0:0:0:
289,184,167754,1,0,0:0:0:0:
289,184,167800,1,0,0:0:0:0:
225,184,167845,1,8,0:0:0:0:
289,184,167913,1,0,0:0:0:0:
225,184,167982,1,8,0:0:0:0:
289,184,168050,1,0,0:0:0:0:
225,184,168118,1,8,0:0:0:0:
225,184,168254,1,8,0:0:0:0:
289,184,168323,1,0,0:0:0:0:
289,184,168391,1,0,0:0:0:0:
289,184,168459,1,0,0:0:0:0:
225,184,168527,1,8,0:0:0:0:
225,184,168595,1,8,0:0:0:0:
289,184,168663,1,0,0:0:0:0:
225,184,168698,1,8,0:0:0:0:
225,184,168732,1,8,0:0:0:0:
289,184,168800,1,0,0:0:0:0:
289,184,168868,1,0,0:0:0:0:
225,184,168936,1,8,0:0:0:0:
225,184,169004,1,0,0:0:0:0:
225,184,169073,1,8,0:0:0:0:
225,184,169118,1,8,0:0:0:0:
289,184,169163,1,0,0:0:0:0:
225,184,169209,1,8,0:0:0:0:
289,184,169277,1,0,0:0:0:0:
225,184,169345,1,8,0:0:0:0:
289,184,169482,1,0,0:0:0:0:
245,176,169550,1,8,0:0:0:0:
289,184,169618,1,0,0:0:0:0:
225,184,169754,1,8,0:0:0:0:
225,184,169788,1,8,0:0:0:0:
225,184,169823,1,8,0:0:0:0:
289,184,169891,1,0,0:0:0:0:
289,184,169936,1,0,0:0:0:0:
225,184,169982,1,8,0:0:0:0:
289,184,170027,1,0,0:0:0:0:
289,184,170095,1,0,0:0:0:0:
225,184,170163,1,8,0:0:0:0:
225,184,170232,1,8,0:0:0:0:
289,184,170300,1,0,0:0:0:0:
289,184,170436,1,0,0:0:0:0:
225,184,170573,1,8,0:0:0:0:
225,184,170607,1,8,0:0:0:0:
225,184,170641,1,8,0:0:0:0:
225,184,170675,1,8,0:0:0:0:
289,184,170709,1,0,0:0:0:0:
289,184,170845,1,4,0:0:0:0:
225,184,171118,1,8,0:0:0:0:
289,184,171254,1,0,0:0:0:0:
289,184,171288,1,0,0:0:0:0:
225,184,171391,1,8,0:0:0:0:
225,184,171425,1,8,0:0:0:0:
225,184,171527,1,8,0:0:0:0:
225,184,171561,1,8,0:0:0:0:
289,184,171663,1,0,0:0:0:0:
225,184,171732,1,8,0:0:0:0:
225,184,171800,1,8,0:0:0:0:
289,184,171868,1,0,0:0:0:0:
225,184,171936,1,8,0:0:0:0:
289,184,172004,1,0,0:0:0:0:
289,184,172073,1,0,0:0:0:0:
289,184,172141,1,0,0:0:0:0:
225,184,172209,1,12,0:0:0:0:
289,184,172482,1,0,0:0:0:0:
225,184,172618,1,8,0:0:0:0:
289,184,172754,1,0,0:0:0:0:
289,184,172823,1,0,0:0:0:0:
225,184,172891,1,8,0:0:0:0:
289,184,172959,1,0,0:0:0:0:
225,184,173027,1,8,0:0:0:0:
289,184,173095,1,0,0:0:0:0:
225,184,173163,1,8,0:0:0:0:
225,184,173209,1,8,0:0:0:0:
225,184,173254,1,8,0:0:0:0:
289,184,173300,1,0,0:0:0:0:
289,184,173334,1,0,0:0:0:0:
289,184,173368,1,0,0:0:0:0:
225,184,173436,1,8,0:0:0:0:
289,184,173504,1,0,0:0:0:0:
225,184,173573,1,8,0:0:0:0:
289,184,173607,1,0,0:0:0:0:
289,184,173641,1,0,0:0:0:0:
225,184,173709,1,8,0:0:0:0:
225,184,173777,1,8,0:0:0:0:
289,184,173845,1,0,0:0:0:0:
289,184,173913,1,0,0:0:0:0:
225,184,173982,1,8,0:0:0:0:
289,184,174050,1,0,0:0:0:0:
225,184,174118,1,8,0:0:0:0:
289,184,174173,1,0,0:0:0:0:
225,184,174228,1,8,0:0:0:0:
289,184,174282,1,0,0:0:0:0:
225,184,174337,1,8,0:0:0:0:
289,184,174391,1,0,0:0:0:0:
225,184,174446,1,8,0:0:0:0:
289,184,174500,1,0,0:0:0:0:
225,184,174555,1,8,0:0:0:0:
289,184,174609,1,0,0:0:0:0:
225,184,174663,1,8,0:0:0:0:
289,184,174709,1,0,0:0:0:0:
225,184,174754,1,8,0:0:0:0:
225,184,174800,1,8,0:0:0:0:
289,184,174845,1,0,0:0:0:0:
289,184,174891,1,0,0:0:0:0:
225,184,174936,1,8,0:0:0:0:
225,184,174982,1,8,0:0:0:0:
289,184,175027,1,0,0:0:0:0:
289,184,175073,1,0,0:0:0:0:
225,184,175118,1,8,0:0:0:0:
225,184,175163,1,8,0:0:0:0:
289,184,175209,1,8,0:0:0:0:
289,184,175345,1,0,0:0:0:0:
225,184,175482,1,8,0:0:0:0:
225,184,175516,1,8,0:0:0:0:
289,184,175618,1,0,0:0:0:0:
225,184,175686,1,8,0:0:0:0:
289,184,175754,1,0,0:0:0:0:
289,184,175823,1,0,0:0:0:0:
289,184,175891,1,0,0:0:0:0:
225,184,176027,1,8,0:0:0:0:
289,184,176163,1,0,0:0:0:0:
289,184,176198,1,0,0:0:0:0:
225,184,176300,1,8,0:0:0:0:
225,184,176334,1,8,0:0:0:0:
289,184,176436,1,0,0:0:0:0:
258,158,176470,1,0,0:0:0:0:
255,215,176504,1,0,0:0:0:0:
225,184,176573,1,12,0:0:0:0:
285,169,176845,1,0,0:0:0:0:
236,184,176891,1,0,0:0:0:0:
236,184,176936,1,0,0:0:0:0:
225,184,176982,1,8,0:0:0:0:
289,184,177050,1,0,0:0:0:0:
270,181,177118,1,8,0:0:0:0:
225,184,177254,1,0,0:0:0:0:
236,184,177391,1,0,0:0:0:0:
225,184,177527,1,8,0:0:0:0:
289,184,177595,1,0,0:0:0:0:
225,184,177663,1,8,0:0:0:0:
289,184,177800,1,0,0:0:0:0:
225,184,177936,1,8,0:0:0:0:
289,184,178073,1,0,0:0:0:0:
289,184,178141,1,0,0:0:0:0:
225,184,178209,1,8,0:0:0:0:
252,176,178243,1,8,0:0:0:0:
289,184,178277,1,8,0:0:0:0:
231,173,178345,1,0,0:0:0:0:
289,184,178482,1,0,0:0:0:0:
225,184,178618,1,8,0:0:0:0:
289,184,178686,1,0,0:0:0:0:
225,184,178754,1,8,0:0:0:0:
225,184,178823,1,8,0:0:0:0:
289,184,178891,1,0,0:0:0:0:
289,184,179027,1,0,0:0:0:0:
289,184,179061,1,0,0:0:0:0:
225,184,179163,1,8,0:0:0:0:
225,184,179198,1,8,0:0:0:0:
289,184,179300,1,0,0:0:0:0:
289,184,179368,1,0,0:0:0:0:
225,184,179436,1,8,0:0:0:0:
289,184,179573,1,0,0:0:0:0:
225,184,179607,1,8,0:0:0:0:
225,184,179641,1,8,0:0:0:0:
289,184,179709,1,0,0:0:0:0:
289,184,179777,1,0,0:0:0:0:
225,184,179845,1,8,0:0:0:0:
289,184,179913,1,0,0:0:0:0:
225,184,179982,1,8,0:0:0:0:
289,184,180016,1,0,0:0:0:0:
225,184,180118,1,8,0:0:0:0:
225,184,180152,1,8,0:0:0:0:
225,184,180254,1,8,0:0:0:0:
255,173,180288,1,8,0:0:0:0:
289,184,180391,1,0,0:0:0:0:
289,184,180527,1,0,0:0:0:0:
289,184,180663,1,0,0:0:0:0:
225,184,180732,1,8,0:0:0:0:
289,184,180800,1,0,0:0:0:0:
225,184,180868,1,8,0:0:0:0:
289,184,180936,1,0,0:0:0:0:
289,184,181004,1,0,0:0:0:0:
225,184,181073,1,8,0:0:0:0:
225,184,181209,1,8,0:0:0:0:
225,184,181277,1,8,0:0:0:0:
289,184,181345,1,0,0:0:0:0:
289,184,181379,1,0,0:0:0:0:
289,184,181413,1,0,0:0:0:0:
225,184,181482,1,8,0:0:0:0:
225,184,181550,1,8,0:0:0:0:
289,184,181618,1,0,0:0:0:0:
289,184,181652,1,0,0:0:0:0:
289,184,181686,1,0,0:0:0:0:
225,184,181754,1,8,0:0:0:0:
225,184,181891,1,8,0:0:0:0:
225,184,181936,1,8,0:0:0:0:
225,184,181982,1,8,0:0:0:0:
289,184,182027,1,0,0:0:0:0:
289,184,182073,1,0,0:0:0:0:
289,184,182118,1,0,0:0:0:0:
225,184,182163,1,8,0:0:0:0:
225,184,182209,1,8,0:0:0:0:
225,184,182254,1,8,0:0:0:0:
289,184,182300,1,0,0:0:0:0:
225,184,182436,1,8,0:0:0:0:
225,184,182573,1,8,0:0:0:0:
289,184,182709,1,0,0:0:0:0:
289,184,182777,1,0,0:0:0:0:
225,184,182845,1,8,0:0:0:0:
289,184,182913,1,0,0:0:0:0:
225,184,182982,1,8,0:0:0:0:
225,184,183118,1,12,0:0:0:0:
289,184,183391,1,0,0:0:0:0:
225,184,183527,1,8,0:0:0:0:
289,184,183595,1,0,0:0:0:0:
225,184,183663,1,8,0:0:0:0:
289,184,183800,1,0,0:0:0:0:
289,184,183868,1,0,0:0:0:0:
225,184,183936,1,8,0:0:0:0:
289,184,184073,1,0,0:0:0:0:
225,184,184141,1,8,0:0:0:0:
289,184,184209,1,4,0:0:0:0:
289,184,184482,1,4,0:0:0:0:
289,184,184618,1,4,0:0:0:0:
289,184,184754,1,4,0:0:0:0:
289,184,184891,1,4,0:0:0:0:
289,184,185027,1,4,0:0:0:0:
289,184,185232,1,0,0:0:0:0:
289,184,185368,1,0,0:0:0:0:
289,184,185436,1,0,0:0:0:0:
289,184,185573,1,0,0:0:0:0:
289,184,185709,1,0,0:0:0:0:
225,184,185845,1,8,0:0:0:0:
225,184,185913,1,8,0:0:0:0:
289,184,185982,1,0,0:0:0:0:
289,184,186118,1,0,0:0:0:0:
289,184,186254,1,0,0:0:0:0:
225,184,186391,1,8,0:0:0:0:
225,184,186425,1,8,0:0:0:0:
289,184,186459,1,0,0:0:0:0:
225,184,186527,1,8,0:0:0:0:
225,184,186573,1,8,0:0:0:0:
225,184,186618,1,8,0:0:0:0:
289,184,186663,1,0,0:0:0:0:
289,184,186732,1,0,0:0:0:0:
225,184,186936,1,8,0:0:0:0:
225,184,187073,1,8,0:0:0:0:
225,184,187141,1,8,0:0:0:0:
289,184,187209,1,0,0:0:0:0:
225,184,187277,1,8,0:0:0:0:
289,184,187345,1,0,0:0:0:0:
225,184,187482,1,8,0:0:0:0:
289,184,187618,1,0,0:0:0:0:
289,184,187652,1,0,0:0:0:0:
225,184,187754,1,8,0:0:0:0:
225,184,187788,1,8,0:0:0:0:
289,184,187891,1,0,0:0:0:0:
289,184,187925,1,0,0:0:0:0:
289,184,187959,1,0,0:0:0:0:
225,184,188027,1,12,0:0:0:0:
289,184,188300,1,0,0:0:0:0:
289,184,188368,1,0,0:0:0:0:
289,184,188436,1,0,0:0:0:0:
289,184,188504,1,0,0:0:0:0:
225,184,188573,1,8,0:0:0:0:
289,184,188709,1,0,0:0:0:0:
289,184,188777,1,0,0:0:0:0:
225,184,188845,1,8,0:0:0:0:
272,178,188891,1,8,0:0:0:0:
246,197,188936,1,8,0:0:0:0:
272,178,188982,1,0,0:0:0:0:
225,184,189118,1,8,0:0:0:0:
289,184,189254,1,0,0:0:0:0:
289,184,189288,1,0,0:0:0:0:
225,184,189323,1,8,0:0:0:0:
225,184,189357,1,8,0:0:0:0:
289,184,189391,1,0,0:0:0:0:
289,184,189436,1,0,0:0:0:0:
258,186,189482,1,0,0:0:0:0:
225,184,189527,1,8,0:0:0:0:
225,184,189573,1,8,0:0:0:0:
261,175,189618,1,8,0:0:0:0:
289,184,189663,1,0,0:0:0:0:
289,184,189709,1,0,0:0:0:0:
249,170,189754,1,0,0:0:0:0:
225,184,189800,1,8,0:0:0:0:
289,184,189936,1,4,0:0:0:0:
256,192,190073,1,0,0:0:0:0:
256,192,190141,1,0,0:0:0:0:
225,184,190209,1,8,0:0:0:0:
289,184,190345,1,0,0:0:0:0:
225,184,190413,1,8,0:0:0:0:
225,184,190482,1,8,0:0:0:0:
289,184,190550,1,0,0:0:0:0:
225,184,190618,1,8,0:0:0:0:
289,184,190754,1,8,0:0:0:0:
289,184,190823,1,0,0:0:0:0:
241,185,190857,1,8,0:0:0:0:
225,184,190891,1,8,0:0:0:0:
289,184,191027,1,0,0:0:0:0:
225,184,191095,1,8,0:0:0:0:
225,184,191118,1,8,0:0:0:0:
289,184,191163,1,0,0:0:0:0:
225,184,191209,1,8,0:0:0:0:
289,184,191300,1,0,0:0:0:0:
225,184,191436,1,8,0:0:0:0:
225,184,191482,1,8,0:0:0:0:
225,184,191527,1,8,0:0:0:0:
289,184,191573,1,0,0:0:0:0:
244,188,191709,1,0,0:0:0:0:
253,180,191754,1,8,0:0:0:0:
248,163,191800,1,8,0:0:0:0:
255,181,191845,1,8,0:0:0:0:
289,184,191982,1,0,0:0:0:0:
289,184,192016,1,0,0:0:0:0:
225,184,192050,1,8,0:0:0:0:
289,184,192118,1,4,0:0:0:0:
225,184,192391,1,8,0:0:0:0:
259,178,192527,1,0,0:0:0:0:
259,178,192595,1,0,0:0:0:0:
225,184,192663,1,8,0:0:0:0:
289,184,192800,1,0,0:0:0:0:
225,184,192936,1,8,0:0:0:0:
289,184,193209,1,4,0:0:0:0:
289,184,193344,1,0,0:0:0:0:
249,182,193412,1,0,0:0:0:0:
225,184,193480,1,8,0:0:0:0:
225,184,193525,1,8,0:0:0:0:
289,184,193570,1,0,0:0:0:0:
225,184,193616,1,8,0:0:0:0:
225,184,193661,1,8,0:0:0:0:
289,184,193706,1,0,0:0:0:0:
225,184,193751,1,8,0:0:0:0:
225,184,193819,1,8,0:0:0:0:
289,184,193887,1,0,0:0:0:0:
289,184,193955,1,0,0:0:0:0:
225,184,194023,1,8,0:0:0:0:
225,184,194090,1,0,0:0:0:0:
289,184,194158,1,8,0:0:0:0:
289,184,194225,1,0,0:0:0:0:
225,184,194293,1,8,0:0:0:0:
289,184,194428,1,0,0:0:0:0:
225,184,194462,1,8,0:0:0:0:
225,184,194495,1,8,0:0:0:0:
289,184,194563,1,0,0:0:0:0:
289,184,194631,1,0,0:0:0:0:
225,184,194698,1,8,0:0:0:0:
261,183,194732,1,8,0:0:0:0:
280,183,194766,1,8,0:0:0:0:
225,184,194833,1,0,0:0:0:0:
225,184,194966,1,8,0:0:0:0:
243,203,195033,1,8,0:0:0:0:
289,184,195233,1,0,0:0:0:0:
289,184,195277,1,0,0:0:0:0:
289,184,195321,1,0,0:0:0:0:
225,184,195366,1,8,0:0:0:0:
289,184,195433,1,0,0:0:0:0:
225,184,195499,1,8,0:0:0:0:
289,184,195630,1,4,0:0:0:0:
289,184,195893,1,0,0:0:0:0:
289,184,195937,1,0,0:0:0:0:
256,192,195980,1,8,0:0:0:0:
225,184,196024,1,8,0:0:0:0:
289,184,196156,1,0,0:0:0:0:
216,173,196200,1,8,0:0:0:0:
266,162,196287,1,0,0:0:0:0:
225,184,196353,1,8,0:0:0:0:
289,184,196419,1,0,0:0:0:0:
289,184,196549,1,0,0:0:0:0:
225,184,196679,1,8,0:0:0:0:
225,184,196723,1,8,0:0:0:0:
225,184,196766,1,8,0:0:0:0:
289,184,196810,1,0,0:0:0:0:
289,184,196842,1,0,0:0:0:0:
255,155,196875,1,8,0:0:0:0:
289,184,196940,1,4,0:0:0:0:
225,184,197201,1,8,0:0:0:0:
289,184,197330,1,0,0:0:0:0:
289,184,197362,1,0,0:0:0:0:
225,184,197459,1,8,0:0:0:0:
225,184,197491,1,8,0:0:0:0:
225,184,197588,1,8,0:0:0:0:
256,160,197621,1,8,0:0:0:0:
225,184,197782,1,8,0:0:0:0:
289,184,197847,1,0,0:0:0:0:
289,184,197912,1,0,0:0:0:0:
225,184,197976,1,8,0:0:0:0:
225,184,198018,1,8,0:0:0:0:
225,184,198061,1,8,0:0:0:0:
289,184,198104,1,0,0:0:0:0:
225,184,198168,1,8,0:0:0:0:
289,184,198232,1,4,0:0:0:0:
292,184,198617,1,8,0:0:0:0:
289,184,198745,1,0,0:0:0:0:
289,184,198808,1,0,0:0:0:0:
225,184,198872,1,8,0:0:0:0:
289,184,198935,1,0,0:0:0:0:
225,184,198999,1,8,0:0:0:0:
289,184,199062,1,0,0:0:0:0:
225,184,199126,1,8,0:0:0:0:
225,184,199168,1,8,0:0:0:0:
225,184,199211,1,8,0:0:0:0:
289,184,199253,1,0,0:0:0:0:
276,183,199317,1,8,0:0:0:0:
225,184,199380,1,8,0:0:0:0:
247,182,199507,1,0,0:0:0:0:
289,184,199633,1,0,0:0:0:0:
289,184,199696,1,0,0:0:0:0:
225,184,199759,1,8,0:0:0:0:
225,184,199822,1,8,0:0:0:0:
289,184,199885,1,0,0:0:0:0:
289,184,199948,1,0,0:0:0:0:
225,184,200011,1,8,0:0:0:0:
289,184,200074,1,0,0:0:0:0:
289,184,200116,1,8,0:0:0:0:
225,184,200158,1,8,0:0:0:0:
225,184,200200,1,0,0:0:0:0:
254,186,200263,1,0,0:0:0:0:
249,170,200388,1,8,0:0:0:0:
225,184,200429,1,8,0:0:0:0:
268,187,200471,1,0,0:0:0:0:
275,172,200513,1,0,0:0:0:0:
225,184,200554,1,8,0:0:0:0:
225,184,200596,1,8,0:0:0:0:
289,184,200638,1,0,0:0:0:0:
251,198,200679,1,0,0:0:0:0:
225,184,200721,1,8,0:0:0:0:
225,184,200762,1,8,0:0:0:0:
289,184,200804,1,0,0:0:0:0:
289,184,200846,1,0,0:0:0:0:
289,184,200888,1,8,0:0:0:0:
289,184,200950,1,8,0:0:0:0:
254,172,201013,1,0,0:0:0:0:
261,180,201054,1,0,0:0:0:0:
260,184,201095,1,0,0:0:0:0:
260,184,201136,1,0,0:0:0:0:
289,184,201384,1,0,0:0:0:0:
289,184,201446,1,0,0:0:0:0:
225,184,201508,1,8,0:0:0:0:
225,184,201632,1,8,0:0:0:0:
289,184,201756,1,0,0:0:0:0:
225,184,201878,1,8,0:0:0:0:
260,179,201940,1,0,0:0:0:0:
225,184,202001,1,8,0:0:0:0:
289,184,202124,1,0,0:0:0:0:
289,184,202155,1,0,0:0:0:0:
289,184,202186,1,0,0:0:0:0:
225,184,202247,1,12,0:0:0:0:
289,184,202493,1,0,0:0:0:0:
225,184,202735,1,8,0:0:0:0:
234,178,202857,1,0,0:0:0:0:
284,175,202918,1,8,0:0:0:0:
289,184,202978,1,0,0:0:0:0:
289,184,203039,1,0,0:0:0:0:
225,184,203100,1,8,0:0:0:0:
289,184,203221,1,0,0:0:0:0:
225,184,203461,1,8,0:0:0:0:
289,184,203581,1,0,0:0:0:0:
225,184,203701,1,8,0:0:0:0:
225,184,203761,1,8,0:0:0:0:
289,184,203821,1,0,0:0:0:0:
225,184,203941,1,8,0:0:0:0:
261,180,204000,1,0,0:0:0:0:
225,184,204059,1,8,0:0:0:0:
289,184,204296,1,0,0:0:0:0:
225,184,204415,1,8,0:0:0:0:
242,162,204454,1,0,0:0:0:0:
261,167,204494,1,0,0:0:0:0:
225,184,204533,1,8,0:0:0:0:
225,184,204593,1,8,0:0:0:0:
253,173,204652,1,0,0:0:0:0:
279,177,204769,1,8,0:0:0:0:
278,177,204828,1,8,0:0:0:0:
289,184,204887,1,0,0:0:0:0:
225,184,205004,1,8,0:0:0:0:
289,184,205122,1,0,0:0:0:0:
225,184,205181,1,8,0:0:0:0:
266,182,205240,1,8,0:0:0:0:
245,184,205357,1,0,0:0:0:0:
260,175,205473,1,8,0:0:0:0:
266,182,205512,1,8,0:0:0:0:
225,184,205551,1,8,0:0:0:0:
289,184,205590,1,0,0:0:0:0:
289,184,205707,1,0,0:0:0:0:
289,184,205765,1,0,0:0:0:0:
225,184,205823,1,8,0:0:0:0:
247,186,205882,1,0,0:0:0:0:
225,184,205940,1,8,0:0:0:0:
289,184,206057,1,0,0:0:0:0:
225,184,206172,1,8,0:0:0:0:
289,184,206230,1,0,0:0:0:0:
289,184,206287,1,8,0:0:0:0:
289,184,206345,1,0,0:0:0:0:
225,184,206403,1,8,0:0:0:0:
289,184,206518,1,0,0:0:0:0:
269,176,206557,1,0,0:0:0:0:
269,176,206595,1,0,0:0:0:0:
225,184,206633,1,8,0:0:0:0:
289,184,206749,1,0,0:0:0:0:
225,184,206863,1,8,0:0:0:0:
225,184,207091,1,8,0:0:0:0:
289,184,207205,1,0,0:0:0:0:
289,184,207262,1,0,0:0:0:0:
289,184,207319,1,0,0:0:0:0:
225,184,207433,1,8,0:0:0:0:
225,184,207546,1,8,0:0:0:0:
289,184,207602,1,0,0:0:0:0:
225,184,207659,1,8,0:0:0:0:
257,184,207716,1,8,0:0:0:0:
289,184,207772,1,0,0:0:0:0:
225,184,207885,1,12,0:0:0:0:
289,184,208112,1,0,0:0:0:0:
225,184,208224,1,8,0:0:0:0:
255,173,208280,1,0,0:0:0:0:
225,184,208336,1,8,0:0:0:0:
289,184,208449,1,0,0:0:0:0:
289,184,208505,1,0,0:0:0:0:
289,184,208561,1,0,0:0:0:0:
289,184,208673,1,0,0:0:0:0:
225,184,208786,1,8,0:0:0:0:
225,184,208953,1,8,0:0:0:0:
289,184,209009,1,0,0:0:0:0:
289,184,209121,1,0,0:0:0:0:
289,184,209233,1,0,0:0:0:0:
289,184,209345,1,0,0:0:0:0:
289,184,209457,1,0,0:0:0:0:
225,184,209568,1,8,0:0:0:0:
225,184,209623,1,8,0:0:0:0:
225,184,209679,1,8,0:0:0:0:
289,184,209790,1,0,0:0:0:0:
289,184,209901,1,0,0:0:0:0:
225,184,210012,1,8,0:0:0:0:
289,184,210123,1,0,0:0:0:0:
289,184,210178,1,0,0:0:0:0:
289,184,210233,1,0,0:0:0:0:
289,184,210343,1,0,0:0:0:0:
289,184,210453,1,0,0:0:0:0:
289,184,210564,1,8,0:0:0:0:
289,184,210600,1,8,0:0:0:0:
289,184,210637,1,0,0:0:0:0:
225,184,210674,1,0,0:0:0:0:
255,182,210729,1,0,0:0:0:0:
289,184,210784,1,8,0:0:0:0:
225,184,211002,1,8,0:0:0:0:
289,184,211112,1,0,0:0:0:0:
225,184,211167,1,8,0:0:0:0:
296,177,211203,1,8,0:0:0:0:
293,182,211240,1,8,0:0:0:0:
289,184,211276,1,0,0:0:0:0:
289,184,211331,1,0,0:0:0:0:
251,165,211440,1,8,0:0:0:0:
241,183,211548,1,0,0:0:0:0:
234,181,211575,1,0,0:0:0:0:
225,184,211656,1,8,0:0:0:0:
267,179,211683,1,8,0:0:0:0:
248,179,211764,1,0,0:0:0:0:
251,159,211791,1,0,0:0:0:0:
225,184,211873,1,12,0:0:0:0:
289,184,212089,1,0,0:0:0:0:
225,184,212142,1,8,0:0:0:0:
289,184,212196,1,0,0:0:0:0:
289,184,212249,1,0,0:0:0:0:
225,184,212303,1,8,0:0:0:0:
289,184,212410,1,0,0:0:0:0:
225,184,212464,1,8,0:0:0:0:
289,184,212517,1,0,0:0:0:0:
289,184,212553,1,0,0:0:0:0:
289,184,212589,1,0,0:0:0:0:
284,162,212731,1,8,0:0:0:0:
259,177,212784,1,0,0:0:0:0:
289,184,212837,1,0,0:0:0:0:
225,184,212943,1,8,0:0:0:0:
225,184,212970,1,8,0:0:0:0:
266,170,212996,1,0,0:0:0:0:
289,184,213050,1,0,0:0:0:0:
289,184,213103,1,0,0:0:0:0:
225,184,213156,1,8,0:0:0:0:
225,184,213262,1,8,0:0:0:0:
289,184,213369,1,0,0:0:0:0:
289,184,213404,1,0,0:0:0:0:
262,170,213439,1,0,0:0:0:0:
225,184,213474,1,8,0:0:0:0:
225,184,213527,1,8,0:0:0:0:
289,184,213580,1,0,0:0:0:0:
225,184,213685,1,8,0:0:0:0:
225,184,213738,1,8,0:0:0:0:
289,184,213791,1,0,0:0:0:0:
281,162,213897,1,8,0:0:0:0:
289,184,214002,1,0,0:0:0:0:
242,181,214054,1,0,0:0:0:0:
289,184,214106,1,0,0:0:0:0:
289,184,214159,1,0,0:0:0:0:
225,184,214211,1,8,0:0:0:0:
225,184,214316,1,8,0:0:0:0:
289,184,214421,1,0,0:0:0:0:
225,184,214526,1,8,0:0:0:0:
289,184,214631,1,0,0:0:0:0:
231,188,214735,1,0,0:0:0:0:
289,184,214839,1,8,0:0:0:0:
265,175,214891,1,8,0:0:0:0:
287,180,214943,1,0,0:0:0:0:
265,175,214995,1,0,0:0:0:0:
289,184,215047,1,8,0:0:0:0:
257,179,215151,1,8,0:0:0:0:
225,184,215256,1,0,0:0:0:0:
246,189,215359,1,0,0:0:0:0:
265,188,215462,1,8,0:0:0:0:
243,194,215566,1,0,0:0:0:0:
265,188,215669,1,8,0:0:0:0:
268,188,215773,1,8,0:0:0:0:
289,184,215876,1,0,0:0:0:0:
253,184,215901,1,8,0:0:0:0:
253,184,215927,1,8,0:0:0:0:
225,184,216081,1,8,0:0:0:0:
225,184,216115,1,8,0:0:0:0:
289,184,216149,1,0,0:0:0:0:
289,184,216286,1,0,0:0:0:0:
225,184,216338,1,8,0:0:0:0:
289,184,216492,1,0,0:0:0:0:
225,184,216543,1,8,0:0:0:0:
225,184,216594,1,8,0:0:0:0:
289,184,216645,1,0,0:0:0:0:
225,184,216696,1,8,0:0:0:0:
225,184,216730,1,8,0:0:0:0:
289,184,216900,1,0,0:0:0:0:
225,184,216951,1,8,0:0:0:0:
225,184,217002,1,8,0:0:0:0:
289,184,217053,1,0,0:0:0:0:
301,186,217104,1,8,0:0:0:0:
273,178,217137,1,8,0:0:0:0:
253,174,217171,1,0,0:0:0:0:
263,182,217205,1,0,0:0:0:0:
263,177,217306,1,8,0:0:0:0:
232,179,217356,1,0,0:0:0:0:
252,163,217407,1,8,0:0:0:0:
272,172,217457,1,8,0:0:0:0:
263,184,217508,1,0,0:0:0:0:
262,185,217558,1,0,0:0:0:0:
236,177,217609,1,8,0:0:0:0:
272,182,217659,1,8,0:0:0:0:
289,184,217710,1,4,0:0:0:0:
225,184,217910,1,8,0:0:0:0:
289,184,218010,1,4,0:0:0:0:
254,153,218210,1,8,0:0:0:0:
289,184,218310,1,0,0:0:0:0:
289,184,218409,1,0,0:0:0:0:
259,172,218508,1,0,0:0:0:0:
277,181,218532,1,0,0:0:0:0:
263,184,218607,1,8,0:0:0:0:
225,184,218632,1,8,0:0:0:0:
289,184,218806,1,8,0:0:0:0:
244,174,218906,1,0,0:0:0:0:
225,184,219004,1,8,0:0:0:0:
289,184,219053,1,0,0:0:0:0:
225,184,219102,1,8,0:0:0:0:
289,184,219201,1,0,0:0:0:0:
257,189,219250,1,0,0:0:0:0:
225,184,219299,1,8,0:0:0:0:
241,182,219348,1,0,0:0:0:0:
241,182,219397,1,0,0:0:0:0:
289,184,219446,1,0,0:0:0:0:
225,184,219496,1,8,0:0:0:0:
289,184,219593,1,0,0:0:0:0:
289,184,219642,1,0,0:0:0:0:
246,184,219691,1,0,0:0:0:0:
225,184,219789,1,8,0:0:0:0:
225,184,219984,1,8,0:0:0:0:
289,184,220082,1,0,0:0:0:0:
225,184,220178,1,8,0:0:0:0:
225,184,220227,1,8,0:0:0:0:
225,184,220275,1,0,0:0:0:0:
289,184,220372,1,8,0:0:0:0:
289,184,220420,1,8,0:0:0:0:
289,184,220469,1,8,0:0:0:0:
260,175,220517,1,8,0:0:0:0:
289,184,220565,1,0,0:0:0:0:
227,167,220662,1,8,0:0:0:0:
228,170,220710,1,8,0:0:0:0:
263,188,220758,1,0,0:0:0:0:
289,184,220950,1,0,0:0:0:0:
289,184,220998,1,0,0:0:0:0:
225,184,221046,1,8,0:0:0:0:
225,184,221094,1,8,0:0:0:0:
289,184,221142,1,0,0:0:0:0:
289,184,221190,1,0,0:0:0:0:
225,184,221238,1,8,0:0:0:0:
225,184,221301,1,8,0:0:0:0:
289,184,221364,1,0,0:0:0:0:
225,184,221428,1,8,0:0:0:0:
289,184,221476,1,0,0:0:0:0:
289,184,221523,1,0,0:0:0:0:
289,184,221571,1,8,0:0:0:0:
225,184,221618,1,8,0:0:0:0:
289,184,221809,1,0,0:0:0:0:
289,184,221903,1,0,0:0:0:0:
225,184,221998,1,8,0:0:0:0:
289,184,222045,1,0,0:0:0:0:
289,184,222092,1,0,0:0:0:0:
225,184,222140,1,8,0:0:0:0:
289,184,222234,1,0,0:0:0:0:
225,184,222282,1,8,0:0:0:0:
254,179,222376,1,0,0:0:0:0:
289,184,222469,1,0,0:0:0:0:
225,184,222563,1,8,0:0:0:0:
289,184,222657,1,0,0:0:0:0:
289,184,222704,1,0,0:0:0:0:
289,184,222751,1,0,0:0:0:0:
274,181,222844,1,0,0:0:0:0:
244,172,222938,1,12,0:0:0:0:
289,184,223124,1,0,0:0:0:0:
225,184,223218,1,8,0:0:0:0:
289,184,223311,1,0,0:0:0:0:
289,184,223405,1,0,0:0:0:0:
225,184,223498,1,8,0:0:0:0:
289,184,223590,1,0,0:0:0:0:
289,184,223637,1,0,0:0:0:0:
225,184,223683,1,8,0:0:0:0:
225,184,223776,1,8,0:0:0:0:
289,184,223869,1,0,0:0:0:0:
289,184,224055,1,0,0:0:0:0:
289,184,224101,1,0,0:0:0:0:
225,184,224147,1,8,0:0:0:0:
225,184,224240,1,8,0:0:0:0:
225,184,224332,1,8,0:0:0:0:
289,184,224425,1,0,0:0:0:0:
289,184,224471,1,0,0:0:0:0:
289,184,224517,1,8,0:0:0:0:
262,178,224548,1,0,0:0:0:0:
256,154,224579,1,0,0:0:0:0:
266,191,224610,1,8,0:0:0:0:
241,183,224702,1,0,0:0:0:0:
225,184,224794,1,8,0:0:0:0:
289,184,224886,1,0,0:0:0:0:
289,184,224932,1,0,0:0:0:0:
225,184,224978,1,8,0:0:0:0:
225,184,225024,1,8,0:0:0:0:
271,180,225070,1,0,0:0:0:0:
303,192,225162,1,8,0:0:0:0:
258,186,225344,1,0,0:0:0:0:
289,184,225435,1,8,0:0:0:0:
225,184,225481,1,8,0:0:0:0:
279,167,225526,1,0,0:0:0:0:
225,184,225617,1,8,0:0:0:0:
289,184,225663,1,0,0:0:0:0:
250,173,225709,1,8,0:0:0:0:
258,160,225799,1,0,0:0:0:0:
234,188,225935,1,8,0:0:0:0:
250,179,225980,1,0,0:0:0:0:
248,187,226070,1,8,0:0:0:0:
289,184,226115,1,0,0:0:0:0:
289,184,226251,1,8,0:0:0:0:
250,189,226430,1,0,0:0:0:0:
289,184,226520,1,0,0:0:0:0:
289,184,226565,1,0,0:0:0:0:
305,189,226610,1,8,0:0:0:0:
276,181,226700,1,8,0:0:0:0:
289,184,226789,1,0,0:0:0:0:
225,184,226878,1,8,0:0:0:0:
289,184,226967,1,0,0:0:0:0:
289,184,227056,1,0,0:0:0:0:
225,184,227146,1,8,0:0:0:0:
225,184,227190,1,8,0:0:0:0:
225,184,227235,1,8,0:0:0:0:
289,184,227324,1,0,0:0:0:0:
289,184,227501,1,0,0:0:0:0:
225,184,227590,1,8,0:0:0:0:
289,184,227767,1,0,0:0:0:0:
225,184,227856,1,8,0:0:0:0:
225,184,227900,1,8,0:0:0:0:
255,163,227944,1,0,0:0:0:0:
276,178,228032,1,8,0:0:0:0:
289,184,228120,1,0,0:0:0:0:
289,184,228164,1,0,0:0:0:0:
225,184,228208,1,8,0:0:0:0:
251,190,228297,1,8,0:0:0:0:
289,184,228385,1,0,0:0:0:0:
237,192,228560,1,0,0:0:0:0:
225,184,228648,1,8,0:0:0:0:
253,185,228823,1,0,0:0:0:0:
225,184,228911,1,8,0:0:0:0:
276,178,228954,1,8,0:0:0:0:
225,184,228998,1,8,0:0:0:0:
289,184,229085,1,0,0:0:0:0:
289,184,229172,1,8,0:0:0:0:
225,184,229216,1,8,0:0:0:0:
289,184,229259,1,0,0:0:0:0:
289,184,229347,1,0,0:0:0:0:
281,182,229434,1,8,0:0:0:0:
279,174,229521,1,8,0:0:0:0:
289,184,229608,1,0,0:0:0:0:
261,187,229652,1,0,0:0:0:0:
246,162,229695,1,8,0:0:0:0:
225,184,229870,1,0,0:0:0:0:
272,164,229957,1,8,0:0:0:0:
272,164,230001,1,8,0:0:0:0:
239,176,230044,1,0,0:0:0:0:
264,197,230131,1,8,0:0:0:0:
289,184,230219,1,0,0:0:0:0:
235,172,230262,1,0,0:0:0:0:
225,184,230306,1,8,0:0:0:0:
289,184,230393,1,0,0:0:0:0:
225,184,230480,1,8,0:0:0:0:
255,194,230567,1,0,0:0:0:0:
246,172,230611,1,0,0:0:0:0:
255,194,230655,1,0,0:0:0:0:
263,167,230742,1,8,0:0:0:0:
246,182,230916,1,0,0:0:0:0:
260,176,231004,1,8,0:0:0:0:
260,178,231047,1,8,0:0:0:0:
289,184,231091,1,0,0:0:0:0:
258,182,231178,1,8,0:0:0:0:
242,173,231222,1,8,0:0:0:0:
242,173,231265,1,0,0:0:0:0:
289,184,231309,1,0,0:0:0:0:
254,183,231352,1,8,0:0:0:0:
248,191,231440,1,4,0:0:0:0:
256,192,231527,12,0,233445,0:0:0:0:
256,192,233576,12,0,233707,0:0:0:0:
256,192,235713,12,8,246178,0:0:0:0:
440,248,246527,5,0,0:0:0:0:
450,270,247053,1,8,0:0:0:0:
431,269,250343,5,0,0:0:0:0:
429,291,250988,1,8,0:0:0:0:
256,192,255314,12,0,259314,0:0:0:0:
