osu file format v14

[General]
AudioFilename: voc3.mp3
AudioLeadIn: 0
PreviewTime: 136791
Countdown: 0
SampleSet: Soft
StackLeniency: 0.3
Mode: 0
LetterboxInBreaks: 0
WidescreenStoryboard: 0

[Editor]
Bookmarks: 11854,23104,33104,43104,58104,68104,75604,131854,213104,228104
DistanceSpacing: 0.5
BeatDivisor: 4
GridSize: 32
TimelineZoom: 1.6

[Metadata]
Title:Desert Theater
TitleUnicode:デザート・シアター
Artist:KikuoHana
ArtistUnicode:きくおはな
Creator:Keqing
Version:lu^3's Extra (#3)
Source:
Tags:shizuku- shikibe mayu kazato asa Hey lululu fuju chiga ajisai- newton- Cubby iljaaz moete guanineso npc newspaper cup mapping contest npc2021 japanese hanatan kikuo 第一幕 act 1 rock
BeatmapID:2856173
BeatmapSetID:1382362

[Difficulty]
HPDrainRate:6
CircleSize:4.2
OverallDifficulty:9
ApproachRate:9.3
SliderMultiplier:1.6
SliderTickRate:1

[Events]
//Background and Video events
0,0,"BG.jpg",0,0
//Break Periods
2,75804,84800
//Storyboard Layer 0 (Background)
//Storyboard Layer 1 (Fail)
//Storyboard Layer 2 (Pass)
//Storyboard Layer 3 (Foreground)
//Storyboard Layer 4 (Overlay)
//Storyboard Sound Samples

[TimingPoints]
604,250,5,2,1,70,1,0
1604,-66.6666666666667,5,2,1,70,0,0
1854,-100,5,2,1,80,0,0
2604,-62.5,5,2,1,80,0,0
3104,-100,5,2,1,80,0,0
3854,-62.5,5,2,1,80,0,0
4354,-100,5,2,1,80,0,0
5104,-62.5,5,2,1,80,0,0
5604,-100,5,2,1,80,0,0
6854,-90.9090909090909,5,2,1,80,0,0
7604,-62.5,5,2,1,80,0,0
8104,-83.3333333333333,5,2,1,80,0,0
8854,-62.5,5,2,1,80,0,0
9354,-76.9230769230769,5,2,1,80,0,0
10104,-62.5,5,2,1,80,0,0
10604,-71.4285714285714,5,2,1,80,0,0
11854,-90.9090909090909,5,2,1,75,0,0
17854,-83.3333333333333,5,2,1,75,0,0
18104,-71.4285714285714,5,2,1,75,0,0
19354,-90.9090909090909,5,2,1,75,0,0
23104,-200,5,2,1,60,0,0
33104,-125,5,2,2,70,0,0
42604,-125,5,2,1,75,0,0
43104,-83.3333333333333,5,2,1,80,0,0
43854,-62.5,5,2,1,80,0,0
44354,-76.9230769230769,5,2,1,80,0,0
45104,-62.5,5,2,1,80,0,0
45604,-71.4285714285714,5,2,1,80,0,0
46354,-62.5,5,2,1,80,0,0
46854,-66.6666666666667,5,2,1,80,0,0
47604,-62.5,5,2,1,80,0,0
48104,-83.3333333333333,5,2,1,80,0,1
53104,-76.9230769230769,5,2,1,80,0,1
54354,-90.9090909090909,5,2,1,80,0,1
55604,-83.3333333333333,5,2,1,80,0,1
63104,-76.9230769230769,5,2,1,80,0,1
64354,-90.9090909090909,5,2,1,80,0,1
65604,-83.3333333333333,5,2,1,80,0,1
75604,-100,5,2,1,60,0,0
85604,-125,5,2,2,70,0,0
93104,-100,5,2,2,70,0,0
94354,-100,5,2,1,80,0,0
95604,-100,5,2,1,75,0,0
104354,-83.3333333333333,5,2,1,60,0,0
105604,-76.9230769230769,5,2,1,65,0,0
106854,-71.4285714285714,5,2,1,70,0,0
108104,-66.6666666666667,5,2,1,75,0,0
109354,-100,5,2,1,60,0,0
111854,-200,5,2,2,60,0,0
121354,-100,5,2,1,70,0,0
121854,-100,5,2,2,75,0,0
130604,-100,5,2,1,60,0,0
131354,-100,5,2,1,70,0,0
131854,-83.3333333333333,5,2,1,80,0,0
132604,-62.5,5,2,1,80,0,0
133104,-76.9230769230769,5,2,1,80,0,0
133854,-62.5,5,2,1,80,0,0
134354,-71.4285714285714,5,2,1,80,0,0
135104,-62.5,5,2,1,80,0,0
135604,-66.6666666666667,5,2,1,80,0,0
136354,-62.5,5,2,1,80,0,0
136854,-83.3333333333333,5,2,1,80,0,1
141854,-76.9230769230769,5,2,1,80,0,1
143104,-90.9090909090909,5,2,1,80,0,1
144354,-83.3333333333333,5,2,1,80,0,1
151854,-76.9230769230769,5,2,1,80,0,1
153104,-90.9090909090909,5,2,1,80,0,1
154354,-83.3333333333333,5,2,1,80,0,1
165354,-100,5,2,1,80,0,0
165604,-76.9230769230769,5,2,1,85,0,1
170604,-71.4285714285714,5,2,1,85,0,1
171854,-83.3333333333333,5,2,1,85,0,1
173104,-76.9230769230769,5,2,1,85,0,1
180604,-71.4285714285714,5,2,1,85,0,1
181854,-83.3333333333333,5,2,1,85,0,1
183104,-76.9230769230769,5,2,1,85,0,1
194104,-76.9230769230769,5,2,1,80,0,0
194354,-94.3396226415094,5,2,2,90,0,1
199354,-83.3333333333333,5,2,1,80,0,0
204354,-100,5,2,3,70,0,0
213104,-83.3333333333333,5,2,1,60,0,0
214354,-76.9230769230769,5,2,1,65,0,0
215604,-71.4285714285714,5,2,1,70,0,0
216854,-66.6666666666667,5,2,1,75,0,0
218104,-66.6666666666667,5,2,1,80,0,0
218854,-62.5,5,2,1,80,0,0
219354,-66.6666666666667,5,2,1,80,0,0
220104,-62.5,5,2,1,80,0,0
220604,-66.6666666666667,5,2,1,80,0,0
221354,-62.5,5,2,1,80,0,0
221854,-66.6666666666667,5,2,1,80,0,0
222604,-62.5,5,2,1,80,0,0
223104,-66.6666666666667,5,2,1,80,0,0
223854,-62.5,5,2,1,80,0,0
224354,-66.6666666666667,5,2,1,80,0,0
225104,-62.5,5,2,1,80,0,0
225604,-66.6666666666667,5,2,1,80,0,0
226354,-62.5,5,2,1,80,0,0
226854,-66.6666666666667,5,2,1,80,0,0
229354,-66.6666666666667,5,2,1,70,0,0
230604,-66.6666666666667,5,2,1,60,0,0
231854,-66.6666666666667,5,2,1,50,0,0
233104,-66.6666666666667,5,2,1,40,0,0
234354,-66.6666666666667,5,2,1,30,0,0
235604,-66.6666666666667,5,2,1,20,0,0
236354,-66.6666666666667,5,2,1,10,0,0

[Colours]
Combo1 : 221,81,81
Combo2 : 255,199,172
Combo3 : 196,136,136
Combo4 : 124,190,190

[HitObjects]
174,14,1479,6,0,L|196:64,1,40,0|0,3:0|0:0,0:0:0:0:
273,29,1604,2,0,B|248:13|248:13|196:42|196:42|201:97|159:137,1,180.000006866455,8|0,3:2|0:0,0:0:0:0:
22,163,1854,5,4,3:1:0:0:
22,163,1979,2,0,P|62:175|95:217,1,80
86,282,2229,1,8,3:2:0:0:
188,165,2354,2,0,P|186:206|154:249,1,80
261,362,2604,6,0,B|363:338|300:294|427:265,1,192,8|0,3:2|0:0,0:0:0:0:
434,322,2854,2,0,B|313:349|350:282|247:306,1,192,8|0,3:2|0:0,0:0:0:0:
146,340,3104,5,8,3:2:0:0:
85,281,3229,2,0,P|77:243|103:211,1,80,2|0,0:0|0:0,0:0:0:0:
4,308,3479,1,8,3:2:0:0:
100,212,3604,2,0,P|108:250|82:282,1,80,2|0,0:0|0:0,0:0:0:0:
88,250,3854,6,0,B|94:179|183:163|177:77,1,192,8|0,3:2|0:0,0:0:0:0:
107,142,4104,2,0,P|108:220|173:171,1,192,8|0,3:2|0:0,0:0:0:0:
167,93,4354,5,8,3:2:0:0:
167,93,4479,2,0,P|153:57|110:25,1,80,2|0,0:0|0:0,0:0:0:0:
33,72,4729,1,8,3:2:0:0:
214,162,4854,2,0,P|243:137|261:86,1,80,2|0,0:0|0:0,0:0:0:0:
366,130,5104,6,0,P|400:189|553:214,1,192,8|0,3:2|0:0,0:0:0:0:
412,275,5354,2,0,P|454:191|431:100,1,192,8|0,3:2|0:0,0:0:0:0:
370,53,5604,5,8,3:2:0:0:
244,42,5729,2,0,B|258:94|228:76|243:133,1,80,2|0,0:0|0:0,0:0:0:0:
304,217,5979,1,8,3:2:0:0:
276,112,6104,2,0,B|224:94|256:79|201:59,1,80,2|8,0:0|3:1,0:0:0:0:
130,109,6291,1,8,3:1:0:0:
130,109,6354,5,8,3:2:0:0:
47,68,6479,1,8,3:1:0:0:
169,211,6604,5,8,3:2:0:0:
13,270,6729,1,8,3:1:0:0:
79,217,6854,6,0,P|161:221|204:313,1,176.000005371094,4|0,3:1|0:0,0:0:0:0:
240,135,7229,2,0,B|288:157|352:113|330:75|330:75|300:82|302:113,1,176.000005371094,8|0,3:2|0:0,0:0:0:0:
87,92,7604,6,0,P|13:116|36:242,1,192,8|0,3:2|0:0,0:0:0:0:
7,79,7854,2,0,P|68:12|152:45,1,192,8|0,3:2|0:0,0:0:0:0:
141,168,8104,5,8,3:2:0:0:
245,204,8229,2,0,B|280:181|280:181|295:182|295:182|349:150,1,95.9999970703126,2|0,0:0|0:0,0:0:0:0:
413,117,8479,1,8,3:2:0:0:
236,181,8604,2,0,B|277:188|277:188|291:182|291:182|353:190,1,95.9999970703126,2|0,0:0|0:0,0:0:0:0:
102,305,8854,6,0,B|74:264|32:247|32:247|54:213|50:139,1,192,8|0,3:2|0:0,0:0:0:0:
11,166,9104,2,0,B|39:207|81:224|81:224|59:258|63:332,1,192,8|0,3:2|0:0,0:0:0:0:
171,376,9354,6,0,B|199:264|260:339|287:195,1,207.999990478516,8|0,3:2|0:0,0:0:0:0:
167,98,9729,2,0,P|193:155|199:69,1,207.999990478516,8|0,3:2|0:0,0:0:0:0:
355,43,10104,6,0,B|392:19|392:19|494:42|494:42|515:88,1,192,8|0,3:2|0:0,0:0:0:0:
461,196,10354,2,0,B|430:157|423:107|423:107|393:149|314:164,1,192,8|0,3:2|0:0,0:0:0:0:
377,238,10604,5,8,3:2:0:0:
227,289,10729,2,0,P|280:302|337:340,1,111.999996582031,2|0,0:0|0:0,0:0:0:0:
244,376,10979,1,8,3:2:0:0:
377,238,11104,2,0,P|324:251|267:289,1,111.999996582031,2|0,0:0|0:0,0:0:0:0:
133,263,11354,5,8,3:2:0:0:
37,179,11479,1,8,3:1:0:0:
120,146,11604,5,8,3:2:0:0:
35,339,11729,1,8,3:1:0:0:
282,258,11854,6,0,B|279:214|229:149|152:153|185:235|222:234|252:200,1,176.000005371094,4|0,3:1|0:0,0:0:0:0:
207,302,12229,1,8,3:2:0:0:
338,180,12354,2,0,B|352:136|401:141|390:171|341:168,1,88.000002685547,2|0,0:0|3:2,0:0:0:0:
281,242,12604,2,0,B|192:213|217:177|119:159,1,176.000005371094,2|8,3:2|3:2,0:0:0:0:
302,104,13104,6,0,B|304:60|354:-4|431:0|398:81|361:80|331:46,1,176.000005371094,2|0,3:2|0:0,0:0:0:0:
377,148,13479,1,8,3:2:0:0:
246,26,13604,2,0,B|232:-18|182:-12|193:17|242:14,1,88.000002685547,2|0,0:0|3:2,0:0:0:0:
303,88,13854,2,0,B|392:59|367:23|465:5,1,176.000005371094,2|8,3:2|3:2,0:0:0:0:
197,258,14354,6,0,B|100:243|150:196|38:179,1,176.000005371094,2|0,3:2|0:0,0:0:0:0:
256,320,14729,1,8,3:2:0:0:
254,186,14854,2,0,B|239:167|256:145|256:145|274:167|258:197,1,88.000002685547,2|0,0:0|3:2,0:0:0:0:
315,258,15104,2,0,B|412:243|362:196|474:179,1,176.000005371094,2|8,3:2|3:2,0:0:0:0:
175,211,15604,6,0,B|140:239|145:280|145:280|172:306|172:306|173:327|158:372,1,176.000005371094,2|0,3:2|0:0,0:0:0:0:
337,211,15979,2,0,B|372:239|367:280|367:280|340:306|340:306|339:327|354:372,1,176.000005371094,8|0,3:2|3:2,0:0:0:0:
256,256,16354,1,0,3:1:0:0:
187,96,16479,1,8,3:1:0:0:
192,108,16541,1,8,3:1:0:0:
196,120,16604,6,0,L|255:106,1,44.0000013427735,8|8,3:3|3:1,0:0:0:0:
286,87,16729,2,0,L|227:73,1,44.0000013427735,8|8,3:3|3:1,0:0:0:0:
122,22,16854,6,0,P|58:22|0:121,1,176.000005371094,4|0,3:1|0:0,0:0:0:0:
181,208,17229,2,0,P|245:208|303:307,1,176.000005371094,8|0,3:2|3:2,0:0:0:0:
76,274,17604,1,8,3:1:0:0:
55,281,17666,1,8,3:1:0:0:
38,295,17729,1,8,3:1:0:0:
27,314,17791,1,8,3:1:0:0:
23,335,17854,6,0,L|88:350,1,47.9999985351563,8|0,3:2|0:0,0:0:0:0:
152,367,17979,2,0,L|217:382,1,47.9999985351563,8|0,3:2|0:0,0:0:0:0:
320,332,18104,6,0,P|378:288|431:291,1,111.999996582031,6|0,3:2|0:0,0:0:0:0:
456,346,18354,1,0,0:0:0:0:
297,245,18479,2,0,B|237:234|268:214|196:199,1,111.999996582031,12|2,3:2|0:0,0:0:0:0:
188,282,18729,1,0,3:2:0:0:
348,140,18854,5,2,3:2:0:0:
435,148,18979,1,0,3:0:0:0:
456,197,19104,1,0,3:0:0:0:
437,229,19229,1,8,3:2:0:0:
418,233,19354,6,0,B|418:141|475:183|475:71,1,176.000005371094,4|0,3:1|0:0,0:0:0:0:
446,140,19729,2,0,P|455:171|440:142,1,88.000002685547,8|2,3:2|0:0,0:0:0:0:
466,305,19979,1,0,3:2:0:0:
327,252,20104,2,0,P|285:268|240:298,1,88.000002685547,2|0,3:2|0:0,0:0:0:0:
207,228,20354,2,0,P|249:244|294:274,1,88.000002685547,8|0,3:2|0:0,0:0:0:0:
55,305,20604,5,4,3:1:0:0:
6,212,20729,1,0,3:0:0:0:
104,165,20854,1,8,3:2:0:0:
180,111,20979,5,0,3:0:0:0:
218,37,21104,1,0,3:0:0:0:
141,0,21229,1,8,3:2:0:0:
93,77,21354,5,0,3:0:0:0:
93,77,21479,1,0,3:0:0:0:
182,131,21604,5,8,3:3:0:0:
349,59,21729,1,8,3:3:0:0:
458,139,21854,6,0,L|400:155,1,44.0000013427735,8|0,3:2|0:0,0:0:0:0:
473,155,21979,1,8,3:2:0:0:
244,220,22229,6,0,L|302:236,1,44.0000013427735,8|0,3:2|0:0,0:0:0:0:
229,236,22354,1,8,3:2:0:0:
291,312,22479,1,0,0:0:0:0:
187,368,22604,5,8,3:2:0:0:
147,297,22729,1,0,3:0:0:0:
99,285,22854,1,0,3:0:0:0:
60,296,22979,1,0,3:0:0:0:
53,310,23041,1,0,0:0:0:0:
65,322,23104,5,4,3:1:0:0:
320,48,23854,6,0,P|360:42|398:27,2,80
292,25,25354,5,2,0:0:0:0:
417,48,25604,1,2,0:0:0:0:
96,141,26604,6,0,P|51:156|15:171,1,80
374,333,27854,5,0,0:0:0:0:
374,333,28104,2,0,B|391:274|414:295|433:227,1,120,2|0,0:0|0:0,0:0:0:0:
459,347,28604,1,0,0:0:0:0:
459,347,28854,1,2,0:0:0:0:
349,219,29104,1,0,0:0:0:0:
184,283,29354,6,0,B|104:298|133:347|50:377,1,160,2|0,0:0|0:0,0:0:0:0:
84,319,30104,2,0,P|120:337|170:346,1,80,2|2,0:0|0:0,0:0:0:0:
97,191,30604,6,0,B|13:166|13:166|-9:114|34:104,1,160,2|0,0:0|0:0,0:0:0:0:
163,110,31354,2,0,B|190:99|190:99|218:104|218:104|252:95,1,80,2|2,0:0|0:0,0:0:0:0:
239,98,31854,2,0,B|213:196|257:169|233:268,1,160,2|2,0:0|0:0,0:0:0:0:
207,151,32604,2,0,B|233:197|240:170|267:216,1,80,2|2,0:0|0:0,0:0:0:0:
153,259,33104,6,0,B|88:286|119:316|55:351,1,128,2|8,3:2|0:0,0:0:0:0:
55,336,33479,2,0,B|110:305|79:275|144:248,1,128,2|0,3:2|0:0,0:0:0:0:
174,329,33854,1,2,3:2:0:0:
11,263,34104,1,10,3:2:0:0:
182,156,34354,6,0,P|182:97|101:85,1,128,2|0,3:2|0:0,0:0:0:0:
133,67,34729,2,0,P|185:88|191:155,1,128,2|0,3:2|0:0,0:0:0:0:
249,238,35104,2,0,P|220:250|184:275,1,64,2|0,3:2|0:0,0:0:0:0:
122,210,35291,1,0,0:0:0:0:
122,210,35354,2,0,P|151:222|187:247,1,64,2|8,3:2|0:0,0:0:0:0:
352,344,35604,6,0,B|403:331|403:331|424:338|424:338|477:329,1,128,2|0,3:2|0:0,0:0:0:0:
482,319,35979,2,0,B|429:328|429:328|408:321|408:321|357:334,1,128,2|0,3:2|0:0,0:0:0:0:
272,364,36354,1,2,3:2:0:0:
452,246,36604,1,2,3:2:0:0:
290,111,36854,6,0,B|300:83|300:49|300:49|329:69|366:69,1,128,2|0,3:2|0:0,0:0:0:0:
353,54,37229,2,0,B|321:54|292:34|292:34|292:68|282:96,1,128,2|0,3:2|0:0,0:0:0:0:
145,60,37604,2,0,P|135:41|143:-4,1,64,2|0,3:2|0:0,0:0:0:0:
212,132,37791,1,0,0:0:0:0:
212,132,37854,2,0,P|219:162|207:191,1,64,2|8,3:2|0:0,0:0:0:0:
118,358,38104,6,0,B|152:317|170:258|85:203|57:247|73:303|128:269,1,192,2|2,3:2|3:2,0:0:0:0:
107,278,38604,1,0,0:0:0:0:
259,222,38854,2,0,P|287:257|303:285,1,64,2|0,3:2|0:0,0:0:0:0:
274,319,39104,2,0,P|291:292|311:267,1,64,10|0,3:2|0:0,0:0:0:0:
499,185,39354,6,0,B|457:201|457:201|446:231|446:231|399:256,1,128,2|0,3:2|0:0,0:0:0:0:
391,250,39729,2,0,B|436:226|436:226|447:196|447:196|489:180,1,128,2|0,3:2|0:0,0:0:0:0:
483,290,40104,1,2,3:2:0:0:
368,168,40270,1,0,0:0:0:0:
353,184,40354,2,0,L|282:172,1,64,2|8,3:2|0:0,0:0:0:0:
120,110,40604,6,0,B|98:47|98:47|172:23,1,128,2|8,3:2|0:0,0:0:0:0:
143,21,40979,2,0,B|84:39|84:39|106:102,1,128,2|0,3:2|0:0,0:0:0:0:
234,196,41354,1,2,3:2:0:0:
204,88,41604,1,2,3:2:0:0:
134,256,41854,5,8,3:2:0:0:
134,256,42604,5,0,3:0:0:0:
199,191,42729,2,0,L|187:133,1,32,8|0,3:2|0:0,0:0:0:0:
336,180,42854,5,0,3:2:0:0:
271,115,42979,2,0,L|283:57,1,32,0|0,3:2|0:0,0:0:0:0:
206,49,43104,6,0,B|190:133|280:147|268:243,1,191.999994140625,4|0,3:1|0:0,0:0:0:0:
136,303,43479,2,0,B|75:278|75:278|54:235|54:235|126:265,1,191.999994140625,8|0,3:2|0:0,0:0:0:0:
426,279,43854,6,0,P|309:288|256:351,1,192,8|0,3:2|0:0,0:0:0:0:
300,375,44104,2,0,P|333:262|405:223,1,192,8|0,3:2|0:0,0:0:0:0:
223,164,44354,6,0,B|153:139|138:61|192:8|263:72|207:87,1,207.999990478516,8|0,3:2|0:0,0:0:0:0:
249,245,44729,2,0,P|235:185|158:39,1,207.999990478516,8|0,3:2|0:0,0:0:0:0:
0,260,45104,6,0,P|57:288|165:180,1,192,8|0,3:2|0:0,0:0:0:0:
0,260,45354,2,0,P|71:201|159:228,1,192,8|0,3:2|0:0,0:0:0:0:
250,358,45604,6,0,B|230:308|292:249|355:272|355:272|309:285|288:327,1,223.999993164063,4|0,3:1|0:0,0:0:0:0:
216,151,45979,2,0,B|104:125|172:38|30:22,1,223.999993164063,8|0,3:2|0:0,0:0:0:0:
399,154,46354,6,0,B|360:62|360:62|445:26,1,192,8|0,3:2|0:0,0:0:0:0:
412,155,46604,2,0,B|497:119|497:119|459:28,1,192,8|0,3:2|0:0,0:0:0:0:
430,91,46854,6,0,B|384:167|384:167|386:177|386:177|352:232|352:232|355:243|355:243|319:307,1,240.000009155274,8|0,3:2|0:0,0:0:0:0:
334,378,47229,2,0,B|366:370|366:370|323:297|323:297|242:330|242:330|270:361,1,240.000009155274,8|8,3:2|3:1,0:0:0:0:
466,326,47541,1,0,0:0:0:0:
466,326,47604,6,0,P|447:298|409:289,1,64,8|8,3:2|3:1,0:0:0:0:
512,210,47729,2,0,P|478:203|445:224,1,64,8|8,3:1|3:1,0:0:0:0:
316,178,47854,6,0,P|335:150|373:141,1,64,8|8,3:2|3:1,0:0:0:0:
270,62,47979,2,0,P|303:55|336:76,1,64,8|8,3:1|3:1,0:0:0:0:
439,46,48104,6,0,B|348:63|348:63|341:70|341:70|242:90,1,191.999994140625,4|0,3:1|0:0,0:0:0:0:
63,80,48479,2,0,P|75:39|134:12,1,95.9999970703126,8|2,3:2|0:0,0:0:0:0:
202,26,48729,1,0,3:2:0:0:
105,218,48854,2,0,B|54:207|78:188|-7:174,1,95.9999970703126,2|0,3:2|0:0,0:0:0:0:
94,176,49104,2,0,B|145:165|121:146|206:132,1,95.9999970703126,10|0,3:2|0:0,0:0:0:0:
296,188,49354,6,0,P|358:201|477:248,1,191.999994140625,2|0,3:2|0:0,0:0:0:0:
445,159,49729,2,0,B|368:192|416:229|322:278,1,143.999995605469,8|0,3:2|0:0,0:0:0:0:
419,316,49979,1,0,3:2:0:0:
243,382,50104,2,0,P|276:354|266:278,1,95.9999970703126,2|0,3:2|0:0,0:0:0:0:
182,283,50354,2,0,P|163:243|87:233,1,95.9999970703126,8|0,3:2|0:0,0:0:0:0:
0,337,50604,6,0,L|196:296,1,191.999994140625,2|0,3:2|0:0,0:0:0:0:
31,245,50979,1,8,3:2:0:0:
228,198,51104,2,0,B|267:211|267:211|280:229|280:229|313:244,1,95.9999970703126,2|0,0:0|3:2,0:0:0:0:
156,123,51354,2,0,B|125:151|125:151|141:175|159:215,1,95.9999970703126,2|0,3:2|0:0,0:0:0:0:
292,75,51604,2,0,B|323:47|323:47|307:23|289:-17,1,95.9999970703126,10|0,3:2|0:0,0:0:0:0:
205,9,51854,6,0,L|251:218,1,191.999994140625,2|0,3:2|0:0,0:0:0:0:
132,205,52229,2,0,B|87:186|87:186|41:214|41:214|40:272|9:296,1,191.999994140625,8|0,3:2|3:2,0:0:0:0:
106,381,52604,5,2,3:2:0:0:
227,312,52729,1,8,3:1:0:0:
234,298,52791,1,8,3:1:0:0:
227,283,52854,6,0,L|241:228,1,47.9999985351563,8|8,3:2|3:1,0:0:0:0:
132,205,52979,2,0,L|118:150,1,47.9999985351563,8|8,3:1|3:1,0:0:0:0:
258,56,53104,6,0,B|232:21|232:21|343:77|343:77|320:37,1,207.999990478516,4|2,3:1|0:0,0:0:0:0:
244,71,53479,2,0,L|347:46,1,103.999995239258,8|2,3:2|0:0,0:0:0:0:
438,29,53729,1,0,3:2:0:0:
173,124,53854,6,0,B|139:80|139:80|174:19,1,103.999995239258,2|8,3:2|3:1,0:0:0:0:
178,138,54104,1,10,3:2:0:0:
162,27,54229,1,8,3:1:0:0:
299,148,54354,6,0,B|284:181|263:204|263:204|288:244|288:244|258:272|254:321,1,176.000005371094,4|2,3:2|0:0,0:0:0:0:
165,335,54729,2,0,B|207:307|207:307|282:341|282:341|294:386,1,176.000005371094,12|0,3:2|3:2,0:0:0:0:
397,305,55104,5,4,3:1:0:0:
507,267,55229,1,0,3:1:0:0:
328,213,55354,5,10,3:2:0:0:
237,181,55479,1,0,3:1:0:0:
96,264,55604,6,0,B|14:282|14:282|-14:262|-14:262|59:243,1,191.999994140625,4|2,3:1|0:0,0:0:0:0:
141,142,55979,2,0,B|248:170|185:220|287:267,1,191.999994140625,8|0,3:2|3:2,0:0:0:0:
383,152,56354,2,0,B|359:136|359:136|343:183|397:204,1,95.9999970703126,2|0,3:2|0:0,0:0:0:0:
459,287,56604,2,0,B|451:314|451:314|501:314|503:256,1,95.9999970703126,10|0,3:2|0:0,0:0:0:0:
344,332,56854,5,4,3:1:0:0:
219,365,56979,1,8,3:1:0:0:
219,365,57104,1,8,3:1:0:0:
147,244,57229,5,4,3:1:0:0:
22,211,57354,1,8,3:1:0:0:
22,211,57479,1,8,3:1:0:0:
279,241,57604,6,0,P|268:202|264:171,1,47.9999985351563,2|0,3:1|0:0,0:0:0:0:
310,117,57729,1,8,3:1:0:0:
192,125,57854,6,0,P|203:86|207:55,1,47.9999985351563,10|0,3:1|0:0,0:0:0:0:
161,1,57979,1,8,3:1:0:0:
104,162,58104,6,0,P|193:137|303:118,1,191.999994140625,4|0,3:1|0:0,0:0:0:0:
246,145,58479,2,0,P|202:131|146:123,1,95.9999970703126,8|2,3:2|0:0,0:0:0:0:
306,29,58729,1,0,3:2:0:0:
72,37,58854,2,0,P|41:68|51:121,1,95.9999970703126,2|0,3:2|0:0,0:0:0:0:
154,291,59104,2,0,P|185:260|175:207,1,95.9999970703126,10|0,3:2|0:0,0:0:0:0:
342,130,59354,6,0,P|366:170|409:191,1,95.9999970703126,2|0,3:2|0:0,0:0:0:0:
508,160,59604,1,0,0:0:0:0:
428,102,59729,6,0,P|380:102|341:129,1,95.9999970703126,8|0,3:2|0:0,0:0:0:0:
319,230,59979,1,0,3:2:0:0:
409,191,60104,6,0,P|431:149|428:102,1,95.9999970703126,2|0,3:2|0:0,0:0:0:0:
261,0,60354,2,0,P|238:41|241:88,1,95.9999970703126,8|0,3:2|0:0,0:0:0:0:
201,217,60604,6,0,P|171:153|26:117,1,191.999994140625,2|0,3:2|0:0,0:0:0:0:
3,173,60979,1,8,3:2:0:0:
241,88,61104,2,0,P|255:55|328:38,1,95.9999970703126,2|0,0:0|3:2,0:0:0:0:
464,151,61354,2,0,B|422:141|422:141|415:133|415:133|365:123,1,95.9999970703126,2|0,3:2|0:0,0:0:0:0:
210,225,61604,2,0,B|252:215|252:215|259:207|259:207|309:197,1,95.9999970703126,10|0,3:2|0:0,0:0:0:0:
89,16,61854,6,0,P|79:62|96:106,1,95.9999970703126,2|0,3:2|0:0,0:0:0:0:
190,150,62104,1,0,0:0:0:0:
171,54,62229,6,0,P|135:22|88:15,1,95.9999970703126,8|0,3:2|0:0,0:0:0:0:
4,73,62479,1,0,3:2:0:0:
97,107,62604,6,0,P|141:92|171:55,1,95.9999970703126,2|8,3:2|3:1,0:0:0:0:
284,12,62791,1,8,3:1:0:0:
288,16,62854,5,8,3:2:0:0:
334,27,62916,1,8,3:1:0:0:
381,39,62979,1,8,3:1:0:0:
427,51,63041,1,8,3:1:0:0:
434,66,63104,6,0,B|380:99|338:101|338:101|288:139|286:220,1,207.999990478516,4|2,3:1|0:0,0:0:0:0:
434,66,63479,2,0,B|392:114|384:155|384:155|339:198|258:188,1,207.999990478516,8|0,3:2|3:2,0:0:0:0:
229,245,63854,5,2,3:2:0:0:
113,204,63979,1,8,3:1:0:0:
106,186,64041,1,8,3:1:0:0:
121,167,64104,6,0,P|153:179|180:192,1,51.999997619629,10|0,3:2|0:0,0:0:0:0:
238,110,64229,2,0,P|270:98|297:85,1,51.999997619629,8|0,3:1|0:0,0:0:0:0:
351,0,64354,6,0,B|369:22|402:37|402:37|412:86|412:86|445:99|483:146,1,176.000005371094,4|2,3:2|0:0,0:0:0:0:
351,0,64728,2,0,B|365:24|368:61|368:61|411:87|411:87|412:122|443:174,1,176.000005371094,12|0,3:2|3:2,0:0:0:0:
318,255,65103,5,4,3:1:0:0:
343,158,65228,1,0,3:1:0:0:
445,252,65353,5,10,3:2:0:0:
470,349,65478,1,0,3:1:0:0:
291,247,65604,6,0,P|237:258|208:305,1,95.9999970703126,4|0,3:1|0:0,0:0:0:0:
258,382,65854,1,2,0:0:0:0:
212,288,65979,2,0,P|262:253|265:113,1,191.999994140625,8|0,3:2|3:2,0:0:0:0:
176,175,66354,2,0,P|200:221|247:236,1,95.9999970703126,2|0,3:2|0:0,0:0:0:0:
395,61,66604,2,0,P|371:15|324:0,1,95.9999970703126,10|0,3:2|0:0,0:0:0:0:
169,65,66854,5,4,3:1:0:0:
312,107,66979,1,8,3:1:0:0:
312,107,67104,1,8,3:1:0:0:
369,225,67229,5,4,3:1:0:0:
512,183,67354,1,8,3:1:0:0:
512,183,67479,1,8,3:1:0:0:
289,184,67604,6,0,P|261:173|237:158,1,47.9999985351563,2|8,3:1|3:1,0:0:0:0:
201,81,67729,1,8,3:1:0:0:
202,238,67854,6,0,P|174:249|150:264,1,47.9999985351563,10|0,3:1|0:0,0:0:0:0:
114,341,67979,1,8,3:1:0:0:
18,216,68104,6,0,P|97:224|197:291,1,191.999994140625,4|0,3:1|0:0,0:0:0:0:
254,361,68479,2,0,L|388:346,1,95.9999970703126,10|2,3:2|0:0,0:0:0:0:
443,345,68729,1,0,3:2:0:0:
190,283,68854,2,0,B|175:253|175:253|214:173,1,95.9999970703126,2|0,3:2|0:0,0:0:0:0:
322,101,69104,2,0,B|337:131|337:131|298:211,1,95.9999970703126,10|0,3:2|0:0,0:0:0:0:
175,122,69354,6,0,B|78:91|143:29|13:5,1,191.999994140625,2|0,3:2|0:0,0:0:0:0:
53,137,69729,2,0,P|145:107|245:82,1,191.999994140625,8|0,3:2|3:2,0:0:0:0:
446,169,70104,2,0,P|394:173|375:113,1,95.9999970703126,2|0,3:2|0:0,0:0:0:0:
408,65,70354,2,0,P|459:60|478:120,1,95.9999970703126,8|0,3:2|0:0,0:0:0:0:
419,196,70604,6,0,B|370:189|358:140|358:140|299:123|299:123|250:167,1,191.999994140625,2|0,3:2|0:0,0:0:0:0:
217,243,70979,2,0,L|100:271,1,95.9999970703126,10|0,3:2|0:0,0:0:0:0:
59,210,71229,1,0,3:2:0:0:
291,214,71354,2,0,P|311:267|290:305,1,95.9999970703126,2|0,3:2|0:0,0:0:0:0:
197,88,71604,2,0,P|177:35|198:-3,1,95.9999970703126,10|0,3:2|0:0,0:0:0:0:
414,0,71854,6,0,B|394:71|394:71|399:107|399:107|377:200,1,191.999994140625,2|0,3:2|0:0,0:0:0:0:
196,181,72229,2,0,B|216:252|216:252|211:288|211:288|233:381,1,191.999994140625,8|0,3:2|3:2,0:0:0:0:
132,384,72604,5,2,3:2:0:0:
30,312,72729,1,8,3:1:0:0:
23,295,72791,1,8,3:1:0:0:
30,282,72854,6,0,P|69:291|88:305,1,47.9999985351563,8|0,3:1|0:0,0:0:0:0:
141,224,72979,2,0,P|162:257|165:281,1,47.9999985351563,8|0,3:1|0:0,0:0:0:0:
259,339,73104,6,0,B|308:323|308:323|339:341|339:341|357:281|357:281|389:302|389:302|461:281,1,239.999992675781,4|0,3:1|0:0,0:0:0:0:
510,261,73479,1,8,3:2:0:0:
510,261,73729,1,0,3:0:0:0:
430,203,73854,6,0,P|435:175|461:151,1,47.9999985351563,2|8,3:2|3:1,0:0:0:0:
446,126,73979,2,0,P|469:109|504:111,1,47.9999985351563,8|8,3:1|3:1,0:0:0:0:
278,227,74104,6,0,P|299:245|307:279,1,47.9999985351563,10|0,3:2|0:0,0:0:0:0:
336,279,74229,2,0,P|338:307|319:337,1,47.9999985351563,0|0,3:0|0:0,0:0:0:0:
160,348,74354,5,0,3:0:0:0:
50,268,74479,1,8,3:1:0:0:
180,210,74604,1,8,3:1:0:0:
79,342,74729,5,0,3:0:0:0:
93,206,74854,1,8,3:1:0:0:
208,290,74979,1,8,3:1:0:0:
260,169,75104,6,0,L|316:154,1,47.9999985351563,10|0,3:1|0:0,0:0:0:0:
233,88,75229,2,0,L|289:73,1,47.9999985351563,8|0,3:1|0:0,0:0:0:0:
410,123,75354,6,0,L|466:108,1,47.9999985351563,10|0,3:1|0:0,0:0:0:0:
383,42,75479,2,0,L|439:27,1,47.9999985351563,8|0,3:1|0:0,0:0:0:0:
502,49,75604,5,4,0:1:0:0:
419,115,85354,5,8,3:2:0:0:
419,115,85604,6,0,P|411:52|372:2,1,128,6|8,3:2|0:0,0:0:0:0:
415,227,85979,2,0,P|474:249|512:299,1,128,2|0,3:2|0:0,0:0:0:0:
326,178,86354,2,0,L|263:193,1,64,2|0,3:2|0:0,0:0:0:0:
171,214,86604,2,0,L|108:229,1,64,10|0,3:2|0:0,0:0:0:0:
259,276,86854,6,0,B|330:298|302:331|381:362,1,128,2|0,3:2|0:0,0:0:0:0:
498,178,87229,2,0,B|427:200|455:233|376:264,1,128,2|0,3:2|0:0,0:0:0:0:
326,178,87604,2,0,P|309:152|309:111,1,64,2|0,3:2|0:0,0:0:0:0:
306,119,87854,2,0,P|323:145|323:186,1,64,2|8,3:2|0:0,0:0:0:0:
208,96,88104,6,0,L|124:80,2,64,2|0|0,3:2|0:0|0:0,0:0:0:0:
324,31,88479,2,0,L|379:0,2,64,2|0|0,3:2|0:0|0:0,0:0:0:0:
226,38,88854,2,0,P|205:80|212:107,1,64,2|0,3:2|0:0,0:0:0:0:
383,225,89104,2,0,P|404:183|397:156,1,64,2|0,3:2|0:0,0:0:0:0:
248,270,89354,5,2,3:2:0:0:
313,323,89479,2,0,L|347:314,2,32
250,377,89729,2,0,B|199:364|199:364|171:371|171:371|123:358,1,128,2|0,3:2|0:0,0:0:0:0:
33,287,90104,2,0,B|20:256|20:256|39:218,1,64,2|0,3:2|0:0,0:0:0:0:
117,183,90291,1,0,0:0:0:0:
131,178,90354,2,0,B|144:209|144:209|125:247,1,64,2|8,3:2|0:0,0:0:0:0:
237,249,90604,6,0,L|222:194,2,42.6666666666667,2|0|0,3:2|0:0|0:0,0:0:0:0:
278,120,90854,1,8,0:0:0:0:
343,171,90979,2,0,L|355:131,2,32,2|0|0,3:2|0:0|0:0,0:0:0:0:
397,254,91229,1,0,0:0:0:0:
462,203,91354,2,0,L|474:243,2,32,2|0|0,3:2|0:0|0:0,0:0:0:0:
317,247,91604,2,0,L|296:328,1,64,10|0,3:2|0:0,0:0:0:0:
471,233,91854,6,0,L|462:203,2,32,2|0|0,3:2|0:0|0:0,0:0:0:0:
397,254,92104,1,0,0:0:0:0:
352,140,92229,2,0,L|343:171,2,32,2|0|8,3:2|0:0|0:0,0:0:0:0:
278,120,92479,1,0,0:0:0:0:
227,218,92604,2,0,L|237:249,2,32,2|0|0,3:2|0:0|0:0,0:0:0:0:
300,308,92854,2,0,L|317:247,1,64,2|8,3:2|0:0,0:0:0:0:
155,352,93104,6,0,B|65:331|65:331|38:294|84:270,1,160,2|8,3:2|0:0,0:0:0:0:
230,204,93479,2,0,B|236:161|253:127|253:127|216:148|170:157,1,160,2|0,3:2|0:0,0:0:0:0:
30,62,93854,2,0,P|69:71|105:94,1,80,2|0,3:2|0:0,0:0:0:0:
167,19,94104,2,0,P|132:39|103:71,1,80,2|0,3:2|0:0,0:0:0:0:
90,208,94354,5,4,3:1:0:0:
222,276,94479,1,8,3:1:0:0:
225,132,94604,1,8,3:1:0:0:
131,285,94729,5,8,3:1:0:0:
137,132,94854,1,8,3:1:0:0:
266,213,94979,1,8,3:1:0:0:
174,209,95104,6,0,L|200:194,1,20,10|0,3:1|0:0,0:0:0:0:
338,140,95229,2,0,L|312:125,1,20,8|0,3:1|0:0,0:0:0:0:
205,13,95354,5,10,3:1:0:0:
272,232,95479,1,8,3:1:0:0:
441,86,95604,6,0,P|496:91|490:197,1,160,4|0,3:1|0:0,0:0:0:0:
492,188,95979,1,10,3:2:0:0:
420,299,96104,2,0,B|392:310|392:310|380:330|380:330|344:350,1,80
262,208,96354,2,0,B|286:173|298:196|330:145,1,80,2|0,3:2|0:0,0:0:0:0:
290,145,96604,2,0,B|281:190|305:181|300:223,1,80,2|0,3:2|0:0,0:0:0:0:
127,310,96854,6,0,B|26:340|26:340|15:359|15:359|58:346,1,160,2|0,3:2|0:0,0:0:0:0:
205,263,97229,2,0,B|147:194|137:259|51:157,1,160,8|0,3:2|0:0,0:0:0:0:
152,131,97604,1,2,3:2:0:0:
75,371,97854,2,0,L|60:331,1,40,0|0,3:2|0:0,0:0:0:0:
141,347,97979,2,0,L|126:307,1,40
89,182,98104,6,0,P|4:215|4:285,1,160,2|0,3:2|0:0,0:0:0:0:
17,286,98479,1,8,3:2:0:0:
168,167,98604,2,0,B|160:139|160:139|146:126|146:126|133:70,1,80
292,46,98854,2,0,L|391:41,1,80,2|0,3:2|0:0,0:0:0:0:
301,70,99104,2,0,L|375:4,1,80,2|0,3:2|0:0,0:0:0:0:
512,215,99354,6,0,B|456:198|456:198|436:167|436:167|346:144,1,160,2|0,3:2|0:0,0:0:0:0:
512,138,99729,2,0,B|456:154|456:154|436:185|436:185|346:208,1,160,8|0,3:2|0:0,0:0:0:0:
299,289,100104,5,2,3:2:0:0:
135,214,100229,1,8,3:2:0:0:
224,180,100354,5,0,3:2:0:0:
61,302,100479,1,0,0:0:0:0:
18,153,100604,6,0,B|44:125|44:125|90:146|90:146|89:190|117:215,1,160,2|0,3:2|0:0,0:0:0:0:
224,180,100979,2,0,B|278:171|290:216|290:216|301:259|360:249,1,160,10|0,3:2|0:0,0:0:0:0:
368,160,101354,1,2,3:2:0:0:
494,46,101479,1,0,0:0:0:0:
353,66,101604,2,0,P|394:77|443:99,1,80,2|0,3:2|0:0,0:0:0:0:
294,0,101854,6,0,P|246:0|189:85,1,160,2|0,3:2|0:0,0:0:0:0:
24,92,102229,2,0,B|82:110|82:110|102:146|102:146|171:177,1,160,8|0,3:2|0:0,0:0:0:0:
197,271,102604,1,2,3:2:0:0:
407,158,102854,1,8,3:2:0:0:
187,358,103104,6,0,B|188:275|97:246|79:311|123:317,1,160,2|0,3:2|0:0,0:0:0:0:
283,247,103479,2,0,B|281:164|372:135|390:200|346:206,1,160,8|0,3:2|0:0,0:0:0:0:
177,167,103854,2,0,P|163:126|147:89,1,80,2|0,3:2|0:0,0:0:0:0:
289,74,104104,2,0,P|303:33|319:-4,1,80,2|0,3:2|0:0,0:0:0:0:
512,203,104354,6,0,B|412:166|430:230|317:191,1,191.999994140625,4|0,3:1|0:0,0:0:0:0:
0,280,104729,2,0,B|99:243|81:307|194:268,1,191.999994140625,12|0,3:2|0:0,0:0:0:0:
374,282,105104,2,0,P|333:309|283:325,1,95.9999970703126,4|0,3:1|0:0,0:0:0:0:
138,186,105354,2,0,P|179:159|229:143,1,95.9999970703126,8|0,3:2|0:0,0:0:0:0:
512,197,105604,6,0,P|449:218|343:138,1,207.999990478516,12|0,3:2|0:0,0:0:0:0:
4,59,105979,2,0,P|67:80|173:0,1,207.999990478516,4|0,3:1|0:0,0:0:0:0:
405,40,106354,2,0,P|350:50|300:66,1,103.999995239258,8|0,3:2|0:0,0:0:0:0:
138,186,106604,2,0,P|193:196|243:212,1,103.999995239258,8|0,3:2|0:0,0:0:0:0:
496,240,106854,6,0,B|513:237|537:199|504:181|455:213|425:283|360:316|336:278|352:242|412:247,1,223.999993164063,4|0,3:1|0:0,0:0:0:0:
20,174,107229,2,0,B|3:171|-21:133|12:115|61:147|91:217|156:250|180:212|164:176|104:181,1,223.999993164063,0|0,3:0|0:0,0:0:0:0:
416,74,107604,2,0,B|383:74|366:103|366:103|349:126|303:125,1,111.999996582031,12|0,3:2|0:0,0:0:0:0:
106,4,107854,2,0,B|138:4|156:33|156:33|172:56|218:55,1,111.999996582031,8|0,3:2|0:0,0:0:0:0:
512,247,108104,6,0,B|442:229|442:229|407:234|407:234|355:209|355:209|339:214|339:214|262:203,1,240.000009155274,4|0,3:1|0:0,0:0:0:0:
0,352,108479,2,0,B|70:334|70:334|105:339|105:339|157:314|157:314|173:319|173:319|250:308,1,240.000009155274,0|0,3:0|0:0,0:0:0:0:
329,239,108854,5,0,3:2:0:0:
446,273,108979,1,2,0:2:0:0:
254,192,109104,5,0,3:2:0:0:
122,228,109229,1,2,0:2:0:0:
196,123,109354,6,0,P|187:107|181:87,4,40,0|0|0|0|0,3:0|3:0|3:0|3:0|3:0,0:0:0:0:
296,40,109729,2,0,P|305:24|311:4,4,40,0|0|0|0|0,3:0|3:0|3:0|3:0|3:0,0:0:0:0:
165,67,110104,2,0,L|122:58,2,40,0|0|0,3:0|3:0|3:0,0:0:0:0:
336,111,110354,2,0,L|375:119,2,40,0|0|0,3:0|3:0|3:0,0:0:0:0:
204,144,110604,5,2,3:2:0:0:
163,218,110729,2,0,B|145:225|145:225|147:200,2,40,2|0|0,3:2|3:0|3:0,0:0:0:0:
204,144,110979,5,2,3:2:0:0:
130,103,111104,2,0,B|123:85|123:85|148:87,2,40,2|0|0,3:2|3:0|3:0,0:0:0:0:
245,70,111354,6,0,B|263:63|263:63|261:88,2,40,2|0|0,3:2|3:0|3:0,0:0:0:0:
278,185,111604,2,0,B|285:203|285:203|260:201,2,40,2|0|0,3:2|3:0|3:0,0:0:0:0:
204,144,111854,5,2,3:2:0:0:
439,347,112604,6,0,P|446:298|456:263,2,80,2|10|2,3:2|3:2|3:2,0:0:0:0:
207,208,114104,5,2,3:2:0:0:
85,254,114354,1,2,3:2:0:0:
113,217,115354,6,0,B|157:232|137:244|184:258,1,80,2|2,3:2|3:2,0:0:0:0:
424,76,116604,5,2,3:2:0:0:
424,76,116854,2,0,P|355:93|304:124,1,120,2|2,3:2|3:2,0:0:0:0:
297,203,117354,1,0,0:0:0:0:
134,199,117604,2,0,P|167:201|220:234,1,80,2|10,3:2|3:2,0:0:0:0:
308,333,118104,6,0,B|379:319|379:319|386:310|386:310|476:293,1,160,2|8,3:2|0:0,0:0:0:0:
221,366,118854,2,0,B|212:343,3,20,2|0|0|0,3:2|0:0|0:0|0:0,0:0:0:0:
249,276,119104,1,2,3:2:0:0:
66,358,119354,6,0,P|41:330|63:243,1,120,2|2,3:2|3:2,0:0:0:0:
141,224,119854,1,0,0:0:0:0:
25,95,120104,2,0,B|59:111|59:111|67:124|67:124|97:140,1,80,2|2,3:2|3:2,0:0:0:0:
256,64,120604,5,2,0:0:0:0:
427,192,121354,6,0,P|451:177|481:165,2,53.3333333333333,2|0|0,0:0|0:0|0:0,0:0:0:0:
431,212,121604,2,0,P|411:198|378:186,3,40,8|0|0|0,0:3|0:0|0:0|0:0,0:0:0:0:
358,267,121854,6,0,B|350:253|350:253|401:280|401:280|415:337|344:369,1,160,2|0,3:2|3:2,0:0:0:0:
275,328,122229,1,10,3:2:0:0:
512,159,122479,1,0,3:2:0:0:
512,159,122604,2,0,P|475:153|442:120,1,80,2|0,3:2|0:0,0:0:0:0:
324,70,122854,2,0,P|361:64|394:31,1,80,10|0,3:2|0:0,0:0:0:0:
331,173,123104,6,0,B|340:152|356:139|356:139|289:168|325:195|245:231,1,160,2|0,3:2|3:2,0:0:0:0:
223,143,123479,1,10,3:2:0:0:
22,286,123729,1,0,3:2:0:0:
22,286,123854,2,0,B|-5:255|-5:255|2:202,1,80,2|0,3:2|0:0,0:0:0:0:
117,173,124041,1,0,0:0:0:0:
117,173,124104,2,0,B|144:204|144:204|137:257,1,80,10|0,3:2|0:0,0:0:0:0:
222,291,124354,6,0,B|269:279|298:315|298:315|312:354|385:363,1,160,2|0,3:2|3:2,0:0:0:0:
450,306,124729,1,10,3:2:0:0:
483,169,124979,1,0,3:2:0:0:
483,169,125104,2,0,P|511:201|506:244,1,80,2|0,3:2|0:0,0:0:0:0:
366,279,125354,2,0,P|338:247|343:204,1,80,10|0,3:2|0:0,0:0:0:0:
476,82,125604,6,0,B|486:58|508:47|508:47|398:83,1,160,2|0,3:2|3:2,0:0:0:0:
323,34,125979,1,10,3:2:0:0:
146,141,126229,1,0,3:2:0:0:
146,141,126354,2,0,P|181:150|220:171,1,80,2|0,3:2|0:0,0:0:0:0:
307,116,126541,1,0,0:0:0:0:
307,116,126604,2,0,P|313:135|333:162,1,40,10|0,3:2|0:0,0:0:0:0:
319,199,126729,2,0,P|329:181|354:158,1,40
460,227,126854,6,0,B|476:197|500:181|500:181|480:167|444:133|444:133|463:170,1,160,2|0,3:2|3:2,0:0:0:0:
512,306,127229,2,0,L|380:339,1,120,10|0,3:2|0:0,0:0:0:0:
331,381,127479,1,0,3:2:0:0:
228,300,127604,2,0,P|187:279|136:268,1,80,2|0,3:2|0:0,0:0:0:0:
44,213,127854,2,0,P|82:202|117:183,1,80,10|0,3:2|0:0,0:0:0:0:
93,81,128104,6,0,B|121:64|136:31|136:31|158:78|214:96,1,160,2|0,3:2|3:2,0:0:0:0:
340,154,128479,2,0,B|322:133|281:136|281:136|263:164|227:176,1,120,10|0,3:2|0:0,0:0:0:0:
153,166,128728,1,0,3:2:0:0:
282,309,128853,2,0,L|300:218,1,80,2|0,3:2|0:0,0:0:0:0:
442,126,129103,2,0,L|426:204,1,80,10|0,3:2|0:0,0:0:0:0:
491,301,129353,6,0,B|466:280|466:280|419:305|419:305|419:347|387:377,1,160,2|0,3:2|3:2,0:0:0:0:
282,309,129728,2,0,B|275:295|255:284|255:284|345:311,1,120,10|0,3:2|0:0,0:0:0:0:
392,372,129978,1,0,3:2:0:0:
485,230,130103,2,0,P|448:238|409:268,1,80,2|0,3:2|0:0,0:0:0:0:
311,133,130353,2,0,P|347:140|387:168,1,80,10|0,3:2|0:0,0:0:0:0:
427,23,130603,5,2,3:2:0:0:
427,23,131354,1,8,3:2:0:0:
384,117,131479,1,0,3:2:0:0:
296,143,131604,1,0,3:2:0:0:
226,124,131729,1,0,3:2:0:0:
192,96,131854,6,0,P|242:106|275:231,1,191.999994140625,4|0,3:1|0:0,0:0:0:0:
400,254,132229,2,0,P|405:304|297:374,1,191.999994140625,8|0,3:2|0:0,0:0:0:0:
205,312,132604,6,0,B|162:310|132:295|132:295|92:305|92:305|61:285|4:284,1,192,8|0,3:2|0:0,0:0:0:0:
39,352,132854,2,0,B|76:330|96:303|96:303|136:294|136:294|155:262|205:235,1,192,8|0,3:2|0:0,0:0:0:0:
94,203,133104,6,0,B|16:188|2:106|79:32|113:89|104:139,1,207.999990478516,8|0,3:2|0:0,0:0:0:0:
103,216,133479,2,0,B|221:190|191:262|307:236,1,207.999990478516,8|0,3:2|0:0,0:0:0:0:
434,172,133854,6,0,B|451:192|451:192|507:163|507:163|496:80|496:80|478:107,1,192,8|0,3:2|0:0,0:0:0:0:
418,163,134104,2,0,B|390:159|390:159|385:96|385:96|460:61|460:61|448:89,1,192,8|0,3:2|0:0,0:0:0:0:
475,266,134354,6,0,B|373:294|388:381|388:381|431:371|416:322,1,223.999993164063,4|0,3:1|0:0,0:0:0:0:
301,213,134729,2,0,B|205:169|233:85|233:85|274:101|252:148,1,223.999993164063,8|0,3:2|0:0,0:0:0:0:
192,280,135104,6,0,B|83:271|65:379|129:389|154:349|134:317,1,192,8|0,3:2|0:0,0:0:0:0:
53,236,135354,2,0,B|-49:199|-22:93|40:110|46:157|15:178,1,192,8|0,3:2|0:0,0:0:0:0:
145,29,135604,6,0,B|122:26|122:26|194:-7|194:-7|263:38|223:134,1,240.000009155274,8|0,3:2|0:0,0:0:0:0:
280,204,135979,2,0,B|293:179|326:163|326:163|217:180|259:241|160:263,1,240.000009155274,8|8,3:2|3:1,0:0:0:0:
366,335,136354,6,0,B|392:342|392:342|404:352|404:352|439:360,1,64,8|8,3:2|3:1,0:0:0:0:
403,269,136479,2,0,B|429:276|429:276|441:286|441:286|476:294,1,64,8|8,3:1|3:1,0:0:0:0:
338,205,136604,6,0,B|312:212|312:212|300:222|300:222|265:230,1,64,8|8,3:2|3:1,0:0:0:0:
301,139,136729,2,0,B|275:146|275:146|263:156|263:156|228:164,1,64,8|8,3:1|3:1,0:0:0:0:
446,26,136854,6,0,B|437:-3|437:-3|465:22|499:35|499:35|457:73|446:121,1,191.999994140625,4|0,3:1|0:0,0:0:0:0:
406,172,137229,1,8,3:2:0:0:
305,64,137354,2,0,L|340:216,1,143.999995605469,2|0,0:0|0:0,0:0:0:0:
262,237,137604,2,0,P|208:242|191:190,1,95.9999970703126,2|0,3:2|0:0,0:0:0:0:
183,202,137854,2,0,P|207:248|260:242,1,95.9999970703126,10|0,3:2|0:0,0:0:0:0:
341,182,138104,6,0,B|473:141|473:141|429:185,1,191.999994140625,2|0,3:2|0:0,0:0:0:0:
333,102,138479,2,0,B|285:88|294:54|294:54|304:19|243:2,1,143.999995605469,8|0,3:2|0:0,0:0:0:0:
231,27,138729,2,0,L|185:42,1,47.9999985351563,0|0,3:2|0:0,0:0:0:0:
51,133,138854,2,0,B|28:104|28:104|57:40,1,95.9999970703126,2|0,3:2|0:0,0:0:0:0:
176,217,139104,2,0,B|199:246|199:246|170:310,1,95.9999970703126,8|0,3:2|0:0,0:0:0:0:
1,261,139354,6,0,B|18:260|38:245|38:245|58:263|88:269|88:269|71:321|113:369,1,191.999994140625,2|0,3:2|0:0,0:0:0:0:
174,299,139729,1,8,3:2:0:0:
273,358,139854,2,0,B|312:330|312:330|324:275|272:235,1,143.999995605469,2|0,0:0|0:0,0:0:0:0:
226,158,140104,2,0,B|209:138|209:138|303:175,1,95.9999970703126,2|0,3:2|0:0,0:0:0:0:
362,74,140354,2,0,B|379:54|379:54|285:91,1,95.9999970703126,10|0,3:2|0:0,0:0:0:0:
107,178,140604,6,0,B|129:149|126:109|126:109|166:84|166:84|172:39|191:3,1,191.999994140625,2|0,3:2|0:0,0:0:0:0:
182,231,140979,1,8,3:2:0:0:
248,143,141104,2,0,B|266:203|266:203|292:220|292:220|307:269,1,143.999995605469
266,335,141354,5,2,3:2:0:0:
415,263,141479,1,8,3:1:0:0:
403,282,141541,1,8,3:1:0:0:
384,294,141604,2,0,L|327:273,1,47.9999985351563,8|8,3:2|3:1,0:0:0:0:
373,151,141729,2,0,L|430:130,1,47.9999985351563,8|8,3:1|3:1,0:0:0:0:
230,78,141854,6,0,B|245:67|245:67|182:38|182:38|124:87|163:156,1,207.999990478516,4|2,3:1|0:0,0:0:0:0:
101,259,142229,1,8,3:2:0:0:
12,214,142354,2,0,B|55:223|55:223|69:233|69:233|117:244,1,103.999995239258,2|0,0:0|3:2,0:0:0:0:
179,317,142604,5,2,3:2:0:0:
267,210,142729,1,8,3:1:0:0:
284,200,142791,1,0,0:0:0:0:
303,191,142854,6,0,L|364:206,1,51.999997619629,10|0,3:2|0:0,0:0:0:0:
428,369,142979,2,0,L|377:356,1,51.999997619629,8|0,3:1|0:0,0:0:0:0:
477,163,143104,6,0,B|525:211|525:211|470:278|470:278|465:252,1,176.000005371094,4|2,3:2|0:0,0:0:0:0:
384,124,143479,2,0,B|363:79|363:79|404:13|404:13|462:11,1,176.000005371094,12|0,3:2|3:2,0:0:0:0:
389,141,143854,5,4,3:1:0:0:
272,110,143979,1,0,3:1:0:0:
171,254,144104,5,10,3:2:0:0:
264,229,144229,1,0,3:1:0:0:
386,345,144354,6,0,P|437:312|450:257,1,95.9999970703126,4|0,3:1|0:0,0:0:0:0:
479,115,144604,1,2,0:0:0:0:
372,177,144729,2,0,P|365:225|450:345,1,191.999994140625,8|0,3:2|3:2,0:0:0:0:
490,124,145104,2,0,B|447:112|447:112|439:99|439:99|365:82,1,95.9999970703126,2|0,3:2|0:0,0:0:0:0:
157,32,145354,2,0,B|199:20|199:20|207:7|207:7|281:-9,1,95.9999970703126,10|0,3:2|0:0,0:0:0:0:
54,0,145604,5,4,3:1:0:0:
12,148,145729,1,8,3:1:0:0:
12,148,145854,1,8,3:1:0:0:
239,103,145979,5,4,3:1:0:0:
281,251,146104,1,8,3:1:0:0:
281,251,146229,1,8,3:1:0:0:
98,162,146354,6,0,P|87:201|76:227,1,47.9999985351563,2|0,3:1|0:0,0:0:0:0:
24,279,146479,1,8,3:1:0:0:
182,265,146604,6,0,P|193:304|204:330,1,47.9999985351563,10|0,3:1|0:0,0:0:0:0:
256,382,146729,1,8,3:1:0:0:
124,378,146854,6,0,P|161:286|177:156,1,191.999994140625,4|0,3:1|0:0,0:0:0:0:
148,249,147229,2,0,P|156:308|173:353,1,95.9999970703126,8|2,3:2|0:0,0:0:0:0:
256,382,147479,1,0,3:2:0:0:
411,269,147604,2,0,B|383:216|374:251|343:190,1,95.9999970703126,2|0,3:2|0:0,0:0:0:0:
380,285,147854,2,0,B|369:226|397:248|384:181,1,95.9999970703126,10|0,3:2|0:0,0:0:0:0:
302,137,148104,6,0,B|317:110|352:95|352:95|215:140,1,191.999994140625,2|0,3:2|0:0,0:0:0:0:
68,138,148479,2,0,B|99:119|99:119|141:142|141:142|138:179|176:201,1,143.999995605469,8|0,3:2|0:0,0:0:0:0:
147,219,148729,2,0,L|79:236,1,47.9999985351563,0|0,3:2|0:0,0:0:0:0:
220,340,148854,2,0,P|278:340|301:295,1,95.9999970703126,2|0,3:2|0:0,0:0:0:0:
461,224,149104,2,0,P|403:224|380:179,1,95.9999970703126,8|0,3:2|0:0,0:0:0:0:
352,0,149354,6,0,L|301:195,1,191.999994140625,2|0,3:2|0:0,0:0:0:0:
85,77,149729,1,8,3:2:0:0:
119,4,149854,2,0,B|156:3|183:37|161:47|182:80|232:83,1,143.999995605469,2|0,0:0|0:0,0:0:0:0:
162,170,150104,2,0,B|148:203|148:203|128:219|128:219|112:257,1,95.9999970703126,2|0,3:2|0:0,0:0:0:0:
228,384,150354,2,0,B|241:350|241:350|261:334|261:334|277:296,1,95.9999970703126,10|0,3:2|0:0,0:0:0:0:
485,255,150604,6,0,B|533:322|478:385|426:375|403:353|403:323|439:311,1,191.999994140625,2|0,3:2|0:0,0:0:0:0:
337,185,150979,1,8,3:2:0:0:
443,174,151104,2,0,P|400:189|340:204,1,95.9999970703126,0|0,0:0|3:2,0:0:0:0:
156,233,151354,5,2,3:2:0:0:
53,127,151479,1,8,3:1:0:0:
55,107,151541,1,8,3:1:0:0:
69,90,151604,6,0,L|124:77,1,47.9999985351563,8|8,3:2|3:1,0:0:0:0:
231,85,151729,2,0,L|277:73,1,47.9999985351563,8|8,3:1|3:1,0:0:0:0:
447,107,151854,6,0,B|478:53|422:-56|319:0|359:54|396:39,1,207.999990478516,4|2,3:1|0:0,0:0:0:0:
415,207,152229,2,0,B|445:261|569:267|571:150|504:157|498:196,1,207.999990478516,8|0,3:2|3:2,0:0:0:0:
314,159,152604,2,0,P|265:171|226:232,1,103.999995239258,2|8,3:2|3:1,0:0:0:0:
274,303,152791,1,8,3:1:0:0:
274,303,152854,6,0,L|220:289,1,51.999997619629,10|0,3:2|0:0,0:0:0:0:
112,264,152979,2,0,L|58:250,1,51.999997619629,8|0,3:1|0:0,0:0:0:0:
29,368,153104,6,0,B|89:354|89:354|145:370|145:370|202:360,1,176.000005371094,4|2,3:2|0:0,0:0:0:0:
112,264,153479,2,0,B|98:216|98:216|111:194|111:194|133:268,1,132.00000402832,12|0,3:2|0:0,0:0:0:0:
201,283,153729,1,0,3:2:0:0:
262,169,153854,5,4,3:1:0:0:
384,133,153979,1,0,3:1:0:0:
271,62,154104,5,10,3:2:0:0:
149,26,154229,1,0,3:1:0:0:
444,13,154354,6,0,B|472:44|504:63|504:63|439:186,1,191.999994140625,4|2,3:1|0:0,0:0:0:0:
512,270,154729,2,0,B|510:248|473:239|473:239|446:249|405:250,1,95.9999970703126,8|2,3:2|0:0,0:0:0:0:
377,350,154979,1,0,3:2:0:0:
306,229,155104,2,0,B|318:194|318:194|339:180|339:180|359:128,1,95.9999970703126,2|0,3:2|0:0,0:0:0:0:
194,0,155354,2,0,B|206:31|206:31|227:45|227:45|239:80,1,95.9999970703126,10|0,3:2|0:0,0:0:0:0:
178,217,155604,5,4,3:1:0:0:
53,131,155729,1,8,3:1:0:0:
53,131,155854,1,8,3:1:0:0:
239,80,155979,5,4,3:1:0:0:
375,14,156104,1,8,3:1:0:0:
375,14,156229,1,8,3:1:0:0:
465,151,156354,6,0,P|435:161|401:182,1,47.9999985351563,2|8,3:1|3:1,0:0:0:0:
340,255,156479,1,8,3:1:0:0:
166,279,156604,6,0,P|196:289|230:310,1,47.9999985351563,10|0,3:1|0:0,0:0:0:0:
291,383,156729,1,8,3:1:0:0:
482,299,156854,6,0,P|384:242|301:207,1,191.999994140625,4|0,3:1|0:0,0:0:0:0:
512,122,157229,2,0,P|466:140|412:181,1,95.9999970703126,10|2,3:2|0:0,0:0:0:0:
340,255,157479,1,0,3:2:0:0:
217,83,157604,2,0,B|219:36|219:36|264:-5,1,95.9999970703126,2|0,3:2|0:0,0:0:0:0:
375,67,157854,2,0,B|373:114|373:114|328:155,1,95.9999970703126,10|0,3:2|0:0,0:0:0:0:
209,200,158104,6,0,B|105:231|150:277|40:308,1,191.999994140625,2|0,3:2|0:0,0:0:0:0:
61,196,158479,2,0,B|112:211|90:234|145:249,1,95.9999970703126,8|0,3:2|0:0,0:0:0:0:
155,138,158729,1,0,3:2:0:0:
224,315,158854,2,0,P|252:281|330:288,1,95.9999970703126,2|0,3:2|0:0,0:0:0:0:
336,190,159104,2,0,P|379:185|430:245,1,95.9999970703126,8|0,3:2|0:0,0:0:0:0:
512,326,159354,6,0,B|423:314|423:314|414:308|414:308|309:291,1,191.999994140625,2|0,3:2|0:0,0:0:0:0:
194,215,159729,2,0,L|93:235,1,95.9999970703126,10|0,3:2|0:0,0:0:0:0:
258,254,159979,1,0,3:2:0:0:
199,83,160104,2,0,P|188:48|230:-7,1,95.9999970703126,2|0,3:2|0:0,0:0:0:0:
353,106,160354,2,0,P|364:141|322:196,1,95.9999970703126,10|0,3:2|0:0,0:0:0:0:
344,347,160604,6,0,B|356:283|435:248|480:274|455:328|407:296,1,191.999994140625,2|0,3:2|0:0,0:0:0:0:
194,215,160979,2,0,B|182:151|103:116|58:142|83:196|131:164,1,191.999994140625,8|0,3:2|3:2,0:0:0:0:
336,87,161354,6,0,L|319:162,1,47.9999985351563,2|0,3:2|0:0,0:0:0:0:
406,123,161479,2,0,L|389:198,1,47.9999985351563,8|8,3:1|3:1,0:0:0:0:
194,215,161604,6,0,L|211:290,1,47.9999985351563,8|0,3:1|0:0,0:0:0:0:
124,251,161729,2,0,L|141:326,1,47.9999985351563,8|0,3:1|0:0,0:0:0:0:
272,360,161854,6,0,B|291:232|200:288|225:128,1,239.999992675781,4|0,3:1|0:0,0:0:0:0:
256,64,162229,1,8,3:2:0:0:
256,64,162479,1,0,3:0:0:0:
395,169,162604,6,0,L|406:123,1,47.9999985351563,2|8,3:2|3:1,0:0:0:0:
325,133,162729,2,0,L|336:87,1,47.9999985351563,8|8,3:1|3:1,0:0:0:0:
134,297,162854,6,0,L|123:250,1,47.9999985351563,10|0,3:2|0:0,0:0:0:0:
204,261,162979,2,0,L|193:214,1,47.9999985351563,0|0,3:0|0:0,0:0:0:0:
306,330,163104,5,0,3:0:0:0:
449,371,163229,1,8,3:1:0:0:
400,278,163354,1,8,3:1:0:0:
204,261,163479,5,0,3:0:0:0:
61,302,163604,1,8,3:1:0:0:
110,209,163729,1,8,3:1:0:0:
352,108,163854,6,0,B|371:153|371:153|346:218,1,95.9999970703126,10|8,3:1|3:1,0:0:0:0:
172,89,164104,2,0,B|153:44|153:44|178:-21,1,95.9999970703126,10|8,3:1|3:1,0:0:0:0:
363,116,164354,6,0,L|464:95,1,95.9999970703126,4|0,0:1|0:0,0:0:0:0:
425,22,164604,1,2,3:2:0:0:
201,182,164729,2,0,L|100:161,1,95.9999970703126,8|0,3:1|0:0,0:0:0:0:
139,88,164979,1,2,3:2:0:0:
336,188,165104,5,8,3:1:0:0:
133,312,165229,1,0,3:0:0:0:
308,310,165354,5,8,3:1:0:0:
201,182,165479,1,0,3:0:0:0:
205,266,165604,6,0,B|277:293|225:302|308:337,1,103.999995239258,4|0,3:1|0:0,0:0:0:0:
393,300,165854,1,0,0:0:0:0:
298,225,165979,6,0,B|238:273|256:224|185:278,1,103.999995239258,8|2,3:2|0:0,0:0:0:0:
174,370,166229,1,0,3:2:0:0:
286,327,166354,6,0,B|273:251|307:291|295:202,1,103.999995239258,2|0,3:2|0:0,0:0:0:0:
226,57,166604,2,0,B|238:132|204:92|216:181,1,103.999995239258,10|0,3:2|0:0,0:0:0:0:
370,250,166854,6,0,P|434:217|446:184,1,103.999995239258,2|0,3:2|0:0,0:0:0:0:
371,125,167104,1,0,0:0:0:0:
355,334,167229,2,0,B|310:315|310:315|292:285|292:285|212:298|211:380,1,207.999990478516,8|0,3:2|3:2,0:0:0:0:
55,296,167604,2,0,B|50:348|50:348|85:290,1,103.999995239258,2|0,3:2|0:0,0:0:0:0:
116,162,167854,2,0,B|121:110|121:110|86:168,1,103.999995239258,8|0,3:2|0:0,0:0:0:0:
8,148,168104,6,0,B|24:203|24:203|54:224|54:224|83:306,1,155.999992858887,2|0,3:2|0:0,0:0:0:0:
55,296,168354,1,0,0:0:0:0:
215,182,168479,2,0,P|221:218|163:247,1,103.999995239258,8|2,3:2|0:0,0:0:0:0:
116,162,168729,1,0,3:2:0:0:
236,84,168854,2,0,B|275:72|275:72|290:79|290:79|346:68,1,103.999995239258,2|0,3:2|0:0,0:0:0:0:
132,15,169104,2,0,B|93:3|93:3|78:10|78:10|22:-1,1,103.999995239258,10|0,3:2|0:0,0:0:0:0:
342,83,169354,6,0,B|344:133|415:136|445:92|436:27|386:-5,1,207.999990478516,2|0,3:2|0:0,0:0:0:0:
255,172,169729,2,0,B|322:172|291:202|393:205,1,103.999995239258,8|0,3:2|0:0,0:0:0:0:
455,165,169979,1,0,3:2:0:0:
335,293,170104,5,2,3:2:0:0:
245,265,170229,2,0,P|241:285|244:329,1,51.999997619629,8|8,3:1|3:1,0:0:0:0:
408,229,170354,2,0,P|392:215|353:196,1,51.999997619629,8|8,3:2|3:1,0:0:0:0:
352,383,170479,2,0,P|371:376|407:351,1,51.999997619629,8|8,3:1|3:1,0:0:0:0:
335,293,170604,6,0,B|240:316|281:356|183:373,1,167.999994873047,4|0,3:1|0:0,0:0:0:0:
129,322,170854,1,2,0:0:0:0:
72,162,170979,2,0,P|128:186|179:200,1,111.999996582031,8|2,3:2|0:0,0:0:0:0:
268,137,171229,1,0,3:2:0:0:
239,64,171354,5,2,3:2:0:0:
413,0,171479,2,0,L|394:59,1,55.9999982910157,8|0,3:1|0:0,0:0:0:0:
462,189,171604,2,0,L|420:143,1,55.9999982910157,10|0,3:2|0:0,0:0:0:0:
268,137,171729,2,0,L|328:123,1,55.9999982910157,8|0,3:1|0:0,0:0:0:0:
512,262,171854,6,0,B|405:308|466:339|354:388,1,191.999994140625,4|2,3:2|0:0,0:0:0:0:
216,238,172229,2,0,B|225:221|225:221|156:255|156:255|151:310|199:342,1,191.999994140625,12|0,3:2|3:2,0:0:0:0:
337,295,172604,5,4,3:1:0:0:
342,115,172729,1,0,3:1:0:0:
375,232,172854,5,10,3:2:0:0:
303,176,172979,1,0,3:1:0:0:
169,257,173104,6,0,B|219:243|253:288|253:288|253:356|313:374,1,207.999990478516,4|2,3:1|0:0,0:0:0:0:
481,307,173479,2,0,B|487:294|499:285|499:285|406:328,1,103.999995239258,8|2,3:2|0:0,0:0:0:0:
311,373,173729,1,0,3:2:0:0:
176,273,173854,2,0,P|164:229|207:179,1,103.999995239258,2|0,3:2|0:0,0:0:0:0:
347,150,174104,2,0,L|456:173,1,103.999995239258,10|0,3:2|0:0,0:0:0:0:
339,265,174354,5,4,3:1:0:0:
209,351,174479,1,8,3:1:0:0:
209,351,174604,1,8,3:1:0:0:
134,182,174729,5,4,3:1:0:0:
321,259,174854,1,8,3:1:0:0:
321,259,174979,1,8,3:1:0:0:
423,80,175104,5,2,3:1:0:0:
416,55,175166,1,0,0:0:0:0:
391,45,175229,2,0,L|308:73,1,51.999997619629,8|0,3:1|0:0,0:0:0:0:
134,182,175354,5,10,3:1:0:0:
141,157,175416,1,0,0:0:0:0:
166,147,175479,2,0,L|249:175,1,51.999997619629,8|0,3:1|0:0,0:0:0:0:
321,259,175604,6,0,B|357:246|357:246|373:224|373:224|423:204,1,103.999995239258,4|0,3:1|0:0,0:0:0:0:
512,237,175854,1,0,0:0:0:0:
322,158,175979,6,0,B|315:195|315:195|326:220|326:220|318:273,1,103.999995239258,8|2,3:2|0:0,0:0:0:0:
245,334,176229,1,0,3:2:0:0:
408,209,176354,6,0,B|378:184|378:184|351:181|351:181|309:148,1,103.999995239258,2|0,3:2|0:0,0:0:0:0:
485,25,176604,2,0,B|516:63|516:63|481:134,1,103.999995239258,10|0,3:2|0:0,0:0:0:0:
266,102,176854,6,0,B|297:74|334:81|334:81|163:30,1,207.999990478516,2|0,3:2|0:0,0:0:0:0:
0,134,177229,2,0,B|87:131|59:196|152:198,1,155.999992858887,8|0,3:2|0:0,0:0:0:0:
142,116,177479,1,0,3:2:0:0:
8,298,177604,2,0,B|-18:254|-18:254|24:196,1,103.999995239258,2|0,3:2|0:0,0:0:0:0:
171,294,177854,2,0,L|284:275,1,103.999995239258,8|0,3:2|0:0,0:0:0:0:
375,293,178104,6,0,B|390:288|390:288|334:252|334:252|264:281|282:359,1,207.999990478516,2|0,3:2|0:0,0:0:0:0:
473,297,178479,2,0,B|481:221|413:241|427:155,1,155.999992858887,8|0,3:2|0:0,0:0:0:0:
507,171,178729,1,0,3:2:0:0:
375,293,178854,2,0,P|316:310|260:336,1,103.999995239258,2|0,3:2|0:0,0:0:0:0:
209,270,179104,2,0,P|268:287|324:313,1,103.999995239258,10|0,3:2|0:0,0:0:0:0:
299,200,179354,6,0,B|337:98|250:112|297:-9,1,207.999990478516,2|0,3:2|0:0,0:0:0:0:
307,16,179729,1,8,3:2:0:0:
355,111,179854,2,0,P|305:119|217:145,1,103.999995239258,0|0,0:0|3:2,0:0:0:0:
167,210,180104,5,2,3:2:0:0:
38,141,180229,1,8,3:1:0:0:
30,121,180291,1,8,3:1:0:0:
36,101,180354,6,0,P|55:83|90:68,1,51.999997619629,8|8,3:2|3:1,0:0:0:0:
143,0,180479,2,0,P|169:0|204:14,1,51.999997619629,8|8,3:1|3:1,0:0:0:0:
355,111,180604,6,0,B|328:71|328:71|397:115|397:115|392:170|350:202,1,223.999993164063,4|2,3:1|0:0,0:0:0:0:
260,259,180979,1,8,3:2:0:0:
330,328,181104,2,0,B|373:314|373:314|400:321|400:321|458:304,1,111.999996582031,2|0,0:0|3:2,0:0:0:0:
496,379,181354,5,2,3:2:0:0:
398,243,181479,1,8,3:1:0:0:
405,222,181541,1,8,3:1:0:0:
413,201,181604,2,0,P|440:208|460:244,1,55.9999982910157,10|0,3:2|0:0,0:0:0:0:
373,356,181729,2,0,P|346:349|326:313,1,55.9999982910157,8|0,3:1|0:0,0:0:0:0:
195,203,181854,6,0,B|226:97|265:164|298:45,1,191.999994140625,4|2,3:2|0:0,0:0:0:0:
222,90,182229,2,0,B|238:149|258:115|274:169,1,95.9999970703126,12|2,3:2|0:0,0:0:0:0:
263,262,182479,1,0,3:2:0:0:
100,263,182604,5,4,3:1:0:0:
195,203,182729,1,0,3:1:0:0:
301,140,182854,5,10,3:2:0:0:
222,90,182979,1,0,3:1:0:0:
128,0,183104,6,0,P|128:56|92:105,1,103.999995239258,4|0,3:1|0:0,0:0:0:0:
12,142,183354,1,2,0:0:0:0:
126,192,183479,2,0,P|94:120|134:-7,1,207.999990478516,8|0,3:2|3:2,0:0:0:0:
290,34,183854,2,0,B|332:44|332:44|345:62|345:62|395:79,1,103.999995239258,2|0,3:2|0:0,0:0:0:0:
301,156,184104,2,0,B|259:166|259:166|246:184|246:184|196:201,1,103.999995239258,10|0,3:2|0:0,0:0:0:0:
114,297,184354,5,4,3:1:0:0:
30,182,184479,1,8,3:1:0:0:
30,182,184604,1,8,3:1:0:0:
200,251,184729,5,4,3:1:0:0:
113,383,184854,1,8,3:1:0:0:
113,383,184979,1,8,3:1:0:0:
360,331,185104,5,2,3:1:0:0:
370,307,185166,1,8,3:1:0:0:
370,281,185229,1,8,3:1:0:0:
359,258,185291,1,8,3:1:0:0:
340,241,185354,6,0,P|315:251|269:261,1,51.999997619629,10|0,3:1|0:0,0:0:0:0:
187,78,185479,2,0,P|212:88|258:98,1,51.999997619629,8|0,3:1|0:0,0:0:0:0:
179,178,185604,6,0,B|61:211|127:262|-3:305,1,207.999990478516,4|0,3:1|0:0,0:0:0:0:
184,339,185979,2,0,B|302:378|302:378|359:361|330:295,1,207.999990478516,10|0,3:2|3:2,0:0:0:0:
281,214,186354,2,0,P|270:169|317:126,1,103.999995239258,2|0,3:2|0:0,0:0:0:0:
427,113,186604,2,0,B|465:132|465:132|475:151|475:151|527:176,1,103.999995239258,10|0,3:2|0:0,0:0:0:0:
504,292,186854,6,0,B|529:266|529:266|436:305|436:305|434:361|372:383,1,207.999990478516,2|0,3:2|0:0,0:0:0:0:
343,292,187229,2,0,B|344:277|344:277|307:255|307:255|277:273|216:274,1,103.999995239258,8|0,3:2|0:0,0:0:0:0:
275,373,187479,1,0,3:2:0:0:
169,275,187604,2,0,P|149:230|201:183,1,103.999995239258,2|0,3:2|0:0,0:0:0:0:
363,207,187854,2,0,P|383:252|331:299,1,103.999995239258,8|0,3:2|0:0,0:0:0:0:
225,107,188104,6,0,B|113:79|181:26|35:0,1,207.999990478516,2|0,3:2|0:0,0:0:0:0:
317,149,188479,2,0,B|344:110|344:110|301:41,1,103.999995239258,10|0,3:2|0:0,0:0:0:0:
221,14,188729,1,0,3:2:0:0:
124,140,188854,2,0,B|59:159|99:181|9:213,1,103.999995239258,2|0,3:2|0:0,0:0:0:0:
269,224,189104,2,0,B|334:243|294:265|384:297,1,103.999995239258,10|0,3:2|0:0,0:0:0:0:
466,166,189354,6,0,B|527:142|527:142|539:109|539:109|424:153,1,207.999990478516,2|0,3:2|0:0,0:0:0:0:
409,56,189729,2,0,B|376:42|376:42|360:17|360:17|309:-1,1,103.999995239258,8|0,3:2|0:0,0:0:0:0:
237,100,189979,1,0,3:2:0:0:
56,44,190104,5,2,3:2:0:0:
46,68,190166,1,0,0:0:0:0:
46,94,190229,1,8,3:1:0:0:
57,117,190291,1,8,3:1:0:0:
76,134,190354,6,0,P|101:124|147:114,1,51.999997619629,8|0,3:1|0:0,0:0:0:0:
269,224,190479,2,0,P|244:214|198:204,1,51.999997619629,8|0,3:1|0:0,0:0:0:0:
4,278,190604,6,0,B|30:245|92:259|98:307|98:307|104:298|104:298|109:344|141:384|212:363,1,259.999988098145,4|0,3:1|0:0,0:0:0:0:
256,320,190979,1,8,3:2:0:0:
256,320,191229,1,0,3:0:0:0:
376,197,191354,5,2,3:2:0:0:
414,191,191416,1,8,3:1:0:0:
449,206,191479,1,8,3:1:0:0:
471,238,191541,1,8,3:1:0:0:
472,276,191604,6,0,L|410:293,1,51.999997619629,10|0,3:2|0:0,0:0:0:0:
371,365,191729,2,0,L|309:382,1,51.999997619629,0|0,3:0|0:0,0:0:0:0:
164,348,191854,5,0,3:0:0:0:
38,248,191979,1,8,3:1:0:0:
235,177,192104,1,8,3:1:0:0:
27,107,192229,5,0,3:0:0:0:
141,237,192354,1,8,3:1:0:0:
215,27,192479,1,8,3:1:0:0:
387,162,192604,6,0,B|422:147|422:147|446:152|446:152|496:136,1,103.999995239258,10|8,3:1|3:1,0:0:0:0:
141,237,192854,2,0,B|106:222|106:222|82:227|82:227|32:211,1,103.999995239258,10|8,3:1|3:1,0:0:0:0:
256,192,193041,12,0,194104,0:0:0:0:
233,200,194354,6,0,B|319:123|355:100|366:98|366:98|383:97|432:105|511:136|511:136|471:160|471:160|466:169|466:169|452:173|426:194|375:223|375:223|423:246|423:246|415:247|404:250|404:250|403:257|408:267|408:267|402:282|365:304|365:304|380:351|380:351|350:361|313:263|230:230|230:230|230:230|230:230|141:229|68:306|45:286|45:286|77:249|77:249|49:213|50:199|50:199|58:190|61:183|61:183|52:177|44:171|44:171|98:169|98:169|60:123|44:94|34:84|34:84|33:75|33:75|4:38|4:38|88:39|138:50|151:56|151:56|161:63|191:107|212:161,2,1696.00000258789,4|0|4,3:1|3:0|3:1,0:0:0:0:
228,358,199604,5,0,0:0:0:0:
153,275,199729,2,0,P|142:236|188:198,1,95.9999970703126,8|0,3:2|0:0,0:0:0:0:
227,366,199979,1,0,3:2:0:0:
330,300,200104,5,8,3:1:0:0:
353,295,200166,1,8,3:1:0:0:
376,290,200229,1,8,3:1:0:0:
400,285,200291,1,8,3:1:0:0:
423,280,200354,6,0,P|433:258|437:233,1,47.9999985351563,8|0,3:2|0:0,0:0:0:0:
512,165,200479,2,0,P|494:148|471:137,1,47.9999985351563,8|0,3:1|0:0,0:0:0:0:
381,52,200604,6,0,B|354:41|294:75|294:75|222:58|275:-19,1,191.999994140625,4|0,3:2|0:0,0:0:0:0:
147,216,200979,2,0,B|174:205|234:239|234:239|306:222|253:145,1,191.999994140625,4|0,3:2|3:2,0:0:0:0:
185,119,201354,5,4,3:1:0:0:
70,153,201479,1,0,3:2:0:0:
0,30,201604,5,8,3:2:0:0:
81,54,201729,1,8,3:2:0:0:
40,258,201854,6,0,B|9:257|9:257|74:234|74:234|103:291|173:297,1,191.999994140625,4|0,3:1|0:0,0:0:0:0:
234,363,202229,2,0,B|225:376|225:376|297:349|297:349|303:295|244:250,1,191.999994140625,8|0,3:2|0:0,0:0:0:0:
112,162,202604,2,0,B|71:169|75:202|26:216,1,95.9999970703126,2|0,3:2|0:0,0:0:0:0:
197,70,202854,2,0,B|238:77|234:110|283:124,1,95.9999970703126,8|0,3:2|0:0,0:0:0:0:
444,131,203104,5,4,3:1:0:0:
294,191,203229,1,8,3:1:0:0:
294,191,203354,1,8,3:1:0:0:
361,295,203479,5,4,3:1:0:0:
511,355,203604,1,8,3:1:0:0:
511,355,203729,1,8,3:1:0:0:
510,229,203854,5,8,3:0:0:0:
492,221,203916,1,8,3:0:0:0:
472,222,203979,2,0,P|448:232|411:250,1,47.9999985351563,8|8,3:0|3:0,0:0:0:0:
258,361,204104,6,0,B|254:345|254:345|257:329|257:329|250:286,1,47.9999985351563,8|0,3:2|0:0,0:0:0:0:
265,199,204229,2,0,B|267:183|267:183|264:167|264:167|268:151,1,47.9999985351563,8|0,3:2|0:0,0:0:0:0:
78,77,204354,6,0,P|23:107|29:181,1,120,4|0,3:2|0:0,0:0:0:0:
40,177,204604,2,0,P|80:185|113:146,1,80,10|0,3:2|0:0,0:0:0:0:
162,91,204854,1,2,3:2:0:0:
162,91,204979,1,8,3:2:0:0:
240,163,205104,2,0,L|318:147,1,80,10|0,3:2|0:0,0:0:0:0:
403,15,205354,2,0,L|325:31,1,80,2|0,0:0|0:0,0:0:0:0:
505,152,205604,6,0,B|517:161|543:151|551:106|493:94|448:123,1,120,2|0,3:2|0:0,0:0:0:0:
447,135,205854,2,0,L|430:234,1,80,10|0,3:2|0:0,0:0:0:0:
416,319,206104,1,2,3:2:0:0:
416,319,206229,1,8,3:2:0:0:
306,376,206354,2,0,B|265:356|286:345|228:321,1,80,10|0,3:2|0:0,0:0:0:0:
155,268,206604,2,0,B|196:248|175:237|233:213,1,80,2|0,0:0|0:0,0:0:0:0:
112,158,206854,6,0,B|46:132|46:132|34:99|60:87,1,120,2|0,3:2|0:0,0:0:0:0:
82,79,207104,2,0,B|117:70|117:70|128:73|128:73|182:63,1,80,10|0,3:2|0:0,0:0:0:0:
252,53,207354,1,2,3:2:0:0:
252,53,207479,1,8,3:2:0:0:
398,142,207604,2,0,P|341:131|323:95,1,80,10|0,3:2|0:0,0:0:0:0:
192,238,207854,2,0,P|249:227|267:191,1,80,2|0,0:0|0:0,0:0:0:0:
374,311,208104,6,0,P|461:319|484:384,2,160,2|10|2,3:2|3:2|3:2,0:0:0:0:
278,372,208729,1,8,3:2:0:0:
178,275,208854,6,0,P|188:248|194:227,1,40,10|8,3:2|3:1,0:0:0:0:
101,175,208979,1,8,3:0:0:0:
254,172,209104,6,0,P|244:145|238:124,1,40,2|8,0:0|3:1,0:0:0:0:
331,72,209229,1,8,3:0:0:0:
168,0,209354,6,0,P|94:27|107:80,1,120,4|0,3:2|0:0,0:0:0:0:
97,77,209604,2,0,B|124:86|124:86|137:103|137:103|169:114,1,80,10|0,3:2|0:0,0:0:0:0:
254,172,209854,1,2,3:2:0:0:
254,172,209979,1,8,3:2:0:0:
178,275,210104,2,0,B|215:241|210:275|254:245,1,80,10|0,3:2|0:0,0:0:0:0:
333,352,210354,2,0,B|370:385|365:351|409:381,1,80,2|0,0:0|0:0,0:0:0:0:
502,230,210604,6,0,B|523:187|523:187|462:226,1,120,2|0,3:2|0:0,0:0:0:0:
442,242,210854,2,0,L|344:227,1,80,10|0,3:2|0:0,0:0:0:0:
336,130,211104,1,2,3:2:0:0:
336,130,211229,1,8,3:2:0:0:
238,65,211354,2,0,P|200:83|155:93,1,80,10|0,3:2|0:0,0:0:0:0:
78,206,211604,2,0,P|40:188|-5:178,1,80,2|0,0:0|0:0,0:0:0:0:
181,333,211854,6,0,P|222:312|220:200,2,160,2|10|2,3:2|3:2|3:2,0:0:0:0:
80,289,212479,1,8,3:2:0:0:
34,175,212604,5,10,3:2:0:0:
48,168,212666,1,0,0:0:0:0:
64,167,212729,2,0,P|97:187|108:222,1,40,8|0,3:1|0:0,0:0:0:0:
203,81,212854,6,0,L|190:143,1,40,2|0,0:0|0:0,0:0:0:0:
305,165,212979,2,0,L|313:125,1,40,8|0,3:1|0:0,0:0:0:0:
504,212,213104,6,0,B|454:229|454:229|434:230|434:230|419:263|419:263|377:267|326:291,1,191.999994140625,4|0,3:1|0:0,0:0:0:0:
9,345,213479,2,0,B|46:327|88:323|88:323|103:290|103:290|123:289|123:289|173:272,1,191.999994140625,12|0,3:2|0:0,0:0:0:0:
380,361,213854,2,0,B|331:379|331:379|276:346,1,95.9999970703126,4|0,3:1|0:0,0:0:0:0:
132,206,214104,2,0,B|181:188|181:188|236:221,1,95.9999970703126,8|0,3:2|0:0,0:0:0:0:
497,173,214354,6,0,B|445:193|426:245|426:245|385:236|385:236|323:271,1,207.999990478516,12|0,3:2|0:0,0:0:0:0:
11,45,214729,2,0,B|63:65|82:117|82:117|123:108|123:108|185:143,1,207.999990478516,4|0,3:1|0:0,0:0:0:0:
397,85,215104,2,0,B|417:65|417:65|329:101,1,103.999995239258,8|0,3:2|0:0,0:0:0:0:
145,223,215354,2,0,B|125:203|125:203|213:239,1,103.999995239258,8|0,3:2|0:0,0:0:0:0:
512,263,215604,6,0,B|463:261|437:221|437:221|382:196|382:196|337:216|298:210,1,223.999993164063,4|0,3:1|0:0,0:0:0:0:
0,174,215979,2,0,B|49:172|75:132|75:132|130:107|130:107|175:127|214:121,1,223.999993164063,0|0,3:0|0:0,0:0:0:0:
206,262,216354,2,0,B|155:290|155:290|193:229,1,111.999996582031,12|0,3:2|0:0,0:0:0:0:
306,122,216604,2,0,B|357:94|357:94|319:155,1,111.999996582031,8|0,3:2|0:0,0:0:0:0:
215,43,216854,6,0,B|171:60|171:60|155:90|155:90|114:108,1,120.000004577637,4|0,3:1|0:0,0:0:0:0:
98,29,217104,1,0,0:0:0:0:
306,122,217229,2,0,B|350:139|350:139|366:169|366:169|407:187,1,120.000004577637,0|0,3:0|0:0,0:0:0:0:
423,108,217479,1,0,0:0:0:0:
503,295,217604,5,2,3:2:0:0:
487,281,217687,6,0,B|455:288|455:288|442:299|442:299|402:312,1,80.0000030517579,0|2,0:2|0:2,3:2:0:0:
279,337,217854,6,0,B|247:344|247:344|234:355|234:355|194:368,1,80.0000030517579,4|2,0:2|0:2,3:2:0:0:
58,384,218020,5,0,0:0:0:0:
64,369,218104,5,4,3:1:0:0:
37,257,218229,2,0,B|95:238|95:238|146:287,1,120.000004577637
112,169,218479,1,8,3:2:0:0:
138,279,218604,2,0,B|79:297|79:297|28:248,1,120.000004577637
237,259,218854,6,0,B|290:291|348:261|301:218|364:196|405:220,1,192,8|0,3:2|0:0,0:0:0:0:
403,219,219104,2,0,B|379:257|312:267|334:207|269:208|234:256,1,192,8|0,3:2|0:0,0:0:0:0:
146,199,219354,5,8,3:2:0:0:
163,103,219479,2,0,B|168:64|161:40|161:40|184:23|213:-19,1,120.000004577637,2|0,0:0|0:0,0:0:0:0:
146,199,219729,1,8,3:2:0:0:
200,0,219854,2,0,B|194:38|201:62|201:62|178:79|149:122,1,120.000004577637,2|0,0:0|0:0,0:0:0:0:
281,126,220104,6,0,B|388:104|366:181|491:152,1,192,8|0,3:2|0:0,0:0:0:0:
414,55,220354,2,0,B|335:131|412:156|318:243,1,192,8|0,3:2|0:0,0:0:0:0:
430,247,220604,5,8,3:2:0:0:
256,295,220729,2,0,P|239:261|289:192,1,120.000004577637,2|0,0:0|0:0,0:0:0:0:
233,372,220979,1,8,3:2:0:0:
278,197,221104,2,0,P|315:199|350:277,1,120.000004577637,2|0,0:0|0:0,0:0:0:0:
65,215,221354,6,0,B|97:112|132:169|165:34,1,192,8|0,3:2|0:0,0:0:0:0:
97,91,221604,2,0,B|69:84|69:84|157:184|157:184|106:161,1,192,8|0,3:2|0:0,0:0:0:0:
3,263,221854,5,8,3:2:0:0:
131,284,221979,2,0,P|179:319|184:375,1,120.000004577637,2|0,0:0|0:0,0:0:0:0:
3,263,222229,1,8,3:2:0:0:
78,161,222354,2,0,P|126:126|180:138,1,120.000004577637,2|8,0:0|3:1,0:0:0:0:
333,196,222604,5,8,3:2:0:0:
241,8,222729,1,8,3:1:0:0:
255,138,222854,5,8,3:2:0:0:
313,50,222979,1,8,3:1:0:0:
491,164,223104,6,0,B|509:135|509:135|414:179|414:179|422:238|365:272,1,240.000009155274,4|0,3:1|0:0,0:0:0:0:
435,375,223479,2,0,B|415:314|415:314|309:279|309:279|236:314,1,240.000009155274,8|0,3:2|0:0,0:0:0:0:
70,264,223854,6,0,B|169:210|91:171|209:90,1,192,8|0,3:2|0:0,0:0:0:0:
224,170,224104,2,0,B|120:144|146:228|39:192,1,192,8|0,3:2|0:0,0:0:0:0:
77,95,224354,5,8,3:2:0:0:
165,18,224479,2,0,B|206:52|206:52|177:117,1,120.000004577637,2|0,0:0|0:0,0:0:0:0:
193,249,224729,1,8,3:2:0:0:
281,326,224854,2,0,B|322:292|322:292|293:227,1,120.000004577637,2|0,0:0|0:0,0:0:0:0:
495,164,225104,6,0,B|534:256|534:256|449:292,1,192,8|0,3:2|0:0,0:0:0:0:
435,290,225354,2,0,B|396:198|396:198|481:162,1,192,8|0,3:2|0:0,0:0:0:0:
508,91,225604,6,0,B|528:41|466:-18|403:5|403:5|449:18|470:60,1,240.000009155274,8|0,3:2|0:0,0:0:0:0:
352,85,225979,2,0,B|166:139|166:139|123:122,1,240.000009155274,8|0,3:2|0:0,0:0:0:0:
1,335,226354,6,0,P|36:247|118:202,1,192,8|0,3:2|0:0,0:0:0:0:
117,379,226604,2,0,P|149:290|118:201,1,192,8|0,3:2|0:0,0:0:0:0:
158,118,226854,5,8,3:2:0:0:
9,29,226979,2,0,P|2:63|72:123,1,120.000004577637,2|0,0:0|0:0,0:0:0:0:
158,118,227229,1,8,3:2:0:0:
309,33,227354,2,0,P|259:3|205:25,1,120.000004577637,2|0,0:0|0:0,0:0:0:0:
246,157,227541,1,0,0:0:0:0:
246,157,227604,5,8,3:2:0:0:
412,219,227729,1,8,3:1:0:0:
263,235,227854,5,8,3:2:0:0:
165,305,227979,1,8,3:1:0:0:
279,384,228104,5,6,3:1:0:0:
256,192,228166,12,0,236354,0:0:0:0:
