osu file format v14

[General]
AudioFilename: voc3.mp3
AudioLeadIn: 0
PreviewTime: 136791
Countdown: 0
SampleSet: Soft
StackLeniency: 0.7
Mode: 0
LetterboxInBreaks: 0
WidescreenStoryboard: 1

[Editor]
Bookmarks: 1479,68104,85354,95604,111854,136854,165604,194354,218104,236354
DistanceSpacing: 0.1
BeatDivisor: 4
GridSize: 8
TimelineZoom: 2.3

[Metadata]
Title:Desert Theater
TitleUnicode:デザート・シアター
Artist:KikuoHana
ArtistUnicode:きくおはな
Creator:Keqing
Version:Moeyuneso's Extra
Source:
Tags:shizuku- shikibe mayu kazato asa Hey lululu fuju chiga ajisai- newton- Cubby iljaaz moete guanineso npc newspaper cup mapping contest npc2021 japanese hanatan kikuo 第一幕 act 1 rock
BeatmapID:2909397
BeatmapSetID:1382362

[Difficulty]
HPDrainRate:5.5
CircleSize:4.5
OverallDifficulty:8.5
ApproachRate:9.4
SliderMultiplier:1.6
SliderTickRate:0.5

[Events]
//Background and Video events
0,0,"71766783_p0.jpg",0,0
//Break Periods
//Storyboard Layer 0 (Background)
//Storyboard Layer 1 (Fail)
//Storyboard Layer 2 (Pass)
//Storyboard Layer 3 (Foreground)
//Storyboard Layer 4 (Overlay)
//Storyboard Sound Samples

[TimingPoints]
604,250,5,2,1,70,1,0
1604,-76.9230769230769,5,2,1,70,0,0
1854,-90.9090909090909,5,2,1,80,0,0
2604,-111.111111111111,5,2,1,80,0,0
3104,-90.9090909090909,5,2,1,80,0,0
3854,-111.111111111111,5,2,1,80,0,0
4354,-90.9090909090909,5,2,1,80,0,0
5104,-111.111111111111,5,2,1,80,0,0
5604,-90.9090909090909,5,2,1,80,0,0
6854,-90.9090909090909,5,2,1,80,0,0
7604,-111.111111111111,5,2,1,80,0,0
8104,-90.9090909090909,5,2,1,80,0,0
8854,-111.111111111111,5,2,1,80,0,0
9354,-90.9090909090909,5,2,1,80,0,0
10104,-111.111111111111,5,2,1,80,0,0
10604,-90.9090909090909,5,2,1,80,0,0
11854,-100,5,2,1,75,0,0
16854,-83.3333333333333,5,2,1,75,0,0
17229,-100,5,2,1,75,0,0
21354,-83.3333333333333,5,2,1,75,0,0
23104,-153.846153846153,5,2,1,60,0,0
25354,-142.857142857143,5,2,1,60,0,0
25541,-125,5,2,1,5,0,0
25604,-166.666666666667,5,2,1,60,0,0
26604,-153.846153846153,5,2,1,60,0,0
33104,-125,5,2,2,70,0,0
35604,-111.111111111111,5,2,2,70,0,0
35979,-125,5,2,2,70,0,0
40104,-111.111111111111,5,2,2,70,0,0
40479,-125,5,2,2,70,0,0
42604,-125,5,2,1,75,0,0
43104,-90.9090909090909,5,2,1,80,0,0
43854,-111.111111111111,5,2,1,80,0,0
44354,-90.9090909090909,5,2,1,80,0,0
45104,-111.111111111111,5,2,1,80,0,0
45604,-83.3333333333333,5,2,1,80,0,0
46354,-111.111111111111,5,2,1,80,0,0
46854,-83.3333333333333,5,2,1,80,0,0
48104,-76.9230769230769,5,2,1,80,0,1
48166,-76.9230769230769,5,2,1,80,0,1
48604,-90.9090909090909,5,2,1,80,0,1
48854,-83.3333333333333,5,2,1,80,0,1
50604,-76.9230769230769,5,2,1,80,0,1
50979,-83.3333333333333,5,2,1,80,0,1
52604,-71.4285714285714,5,2,1,80,0,1
53104,-76.9230769230769,5,2,1,80,0,1
53479,-83.3333333333333,5,2,1,80,0,1
55604,-76.9230769230769,5,2,1,80,0,1
55979,-83.3333333333333,5,2,1,80,0,1
57604,-71.4285714285714,5,2,1,80,0,1
58104,-76.9230769230769,5,2,1,80,0,1
58479,-90.9090909090909,5,2,1,80,0,1
58854,-83.3333333333333,5,2,1,80,0,1
60604,-71.4285714285714,5,2,1,80,0,1
60979,-83.3333333333333,5,2,1,80,0,1
62604,-71.4285714285714,5,2,1,80,0,1
63104,-76.9230769230769,5,2,1,80,0,1
63479,-83.3333333333333,5,2,1,80,0,1
65604,-76.9230769230769,5,2,1,80,0,1
65979,-83.3333333333333,5,2,1,80,0,1
67604,-71.4285714285714,5,2,1,80,0,1
68104,-87.719298245614,4,2,1,80,0,0
75604,-111.111111111111,4,2,1,60,0,0
85104,-66.6666666666667,4,2,1,60,0,0
85354,-74.6268656716417,4,2,1,60,0,0
85604,-111.111111111111,4,2,2,70,0,0
86604,-99.9999999999999,4,2,2,70,0,0
87604,-111.111111111111,4,2,2,70,0,0
87854,-99.9999999999999,4,2,2,70,0,0
90104,-90.9090909090909,4,2,2,70,0,0
90604,-90.9090909090909,4,2,2,70,0,0
90979,-111.111111111111,4,2,2,70,0,0
91854,-90.9090909090909,4,2,2,70,0,0
92229,-111.111111111111,4,2,2,70,0,0
93104,-90.9090909090909,4,2,2,70,0,0
93479,-100,4,2,2,70,0,0
94354,-90.9090909090909,4,2,1,80,0,0
95104,-90.9090909090909,4,2,1,80,0,0
95604,-83.3333333333333,4,2,1,75,0,0
95666,-83.3333333333333,4,2,1,75,0,0
95979,-90.9090909090909,4,2,1,75,0,0
100604,-83.3333333333333,4,2,1,75,0,0
100854,-90.9090909090909,4,2,1,75,0,0
101979,-83.3333333333333,4,2,1,75,0,0
102354,-90.9090909090909,4,2,1,75,0,0
103854,-76.9230769230769,4,2,1,75,0,0
104104,-100,4,2,1,75,0,0
104354,-83.3333333333333,4,2,1,60,0,0
105604,-83.3333333333333,4,2,1,65,0,0
106354,-76.9230769230769,4,2,1,65,0,0
106854,-76.9230769230769,4,2,1,70,0,0
107854,-90.9090909090909,4,2,1,70,0,0
108104,-90.9090909090909,4,2,1,75,0,0
108854,-71.4285714285714,4,2,1,75,0,0
109104,-66.6666666666667,4,2,1,75,0,0
109354,-125,4,2,1,60,0,0
110604,-100,4,2,1,60,0,0
111854,-125,4,2,2,60,0,0
116854,-111.111111111111,4,2,2,60,0,0
117604,-125,4,2,2,60,0,0
118104,-111.111111111111,4,2,2,60,0,0
120104,-125,4,2,2,60,0,0
120604,-500,4,2,2,60,0,0
121354,-500,4,2,1,70,0,0
121604,-83.3333333333333,4,2,1,70,0,0
121854,-111.111111111111,4,2,1,70,0,0
126854,-99.9999999999999,4,2,2,75,0,0
128104,-111.111111111111,4,2,2,75,0,0
128854,-100,4,2,2,75,0,0
130104,-111.111111111111,4,2,2,75,0,0
130604,-111.111111111111,4,2,1,60,0,0
131354,-111.111111111111,4,2,1,70,0,0
131854,-90.9090909090909,4,2,1,80,0,0
132604,-111.111111111111,4,2,1,80,0,0
133104,-90.9090909090909,4,2,1,80,0,0
133854,-111.111111111111,4,2,1,80,0,0
134354,-83.3333333333333,4,2,1,80,0,0
135104,-100,4,2,1,80,0,0
135604,-83.3333333333333,4,2,1,80,0,0
136854,-76.9230769230769,5,2,1,80,0,1
136916,-76.9230769230769,5,2,1,80,0,1
137354,-90.9090909090909,5,2,1,80,0,1
137604,-83.3333333333333,5,2,1,80,0,1
139354,-71.4285714285714,5,2,1,80,0,1
139729,-83.3333333333333,5,2,1,80,0,1
141354,-71.4285714285714,5,2,1,80,0,1
141854,-76.9230769230769,5,2,1,80,0,1
142229,-83.3333333333333,5,2,1,80,0,1
144354,-76.9230769230769,5,2,1,80,0,1
144729,-83.3333333333333,5,2,1,80,0,1
146354,-71.4285714285714,5,2,1,80,0,1
146854,-76.9230769230769,5,2,1,80,0,1
147229,-90.9090909090909,5,2,1,80,0,1
147604,-83.3333333333333,5,2,1,80,0,1
149354,-71.4285714285714,5,2,1,80,0,1
149729,-83.3333333333333,5,2,1,80,0,1
151354,-71.4285714285714,5,2,1,80,0,1
151854,-76.9230769230769,5,2,1,80,0,1
152229,-83.3333333333333,5,2,1,80,0,1
154354,-76.9230769230769,5,2,1,80,0,1
154729,-83.3333333333333,5,2,1,80,0,1
156354,-71.4285714285714,5,2,1,80,0,1
156854,-87.719298245614,4,2,1,80,0,0
165604,-76.9230769230769,4,2,1,85,0,1
165666,-76.9230769230769,4,2,1,85,0,1
166104,-90.9090909090909,4,2,1,85,0,1
166354,-83.3333333333333,4,2,1,85,0,1
168104,-76.9230769230769,4,2,1,85,0,1
168479,-83.3333333333333,4,2,1,85,0,1
170104,-71.4285714285714,4,2,1,85,0,1
170604,-76.9230769230769,4,2,1,85,0,1
170979,-83.3333333333333,4,2,1,85,0,1
173104,-76.9230769230769,4,2,1,85,0,1
173479,-83.3333333333333,4,2,1,85,0,1
175104,-71.4285714285714,4,2,1,85,0,1
175604,-76.9230769230769,4,2,1,85,0,1
175979,-90.9090909090909,4,2,1,85,0,1
176354,-83.3333333333333,4,2,1,85,0,1
178104,-71.4285714285714,4,2,1,85,0,1
178479,-83.3333333333333,4,2,1,85,0,1
180104,-71.4285714285714,4,2,1,85,0,1
180604,-76.9230769230769,4,2,1,85,0,1
180979,-83.3333333333333,4,2,1,85,0,1
183104,-76.9230769230769,4,2,1,85,0,1
183479,-83.3333333333333,4,2,1,85,0,1
185104,-71.4285714285714,4,2,1,85,0,1
185604,-87.719298245614,4,2,1,85,0,0
192604,-74.6268656716418,4,2,1,85,0,0
193104,-185.185185185185,4,2,1,85,0,0
194104,-185.185185185185,4,2,1,80,0,0
194354,-80.6451612903226,4,2,2,90,0,0
194416,-80.6451612903226,4,2,1,90,0,0
199354,-80.6451612903226,4,2,1,80,0,0
204354,-90.9090909090909,4,2,3,70,0,0
205104,-111.111111111111,4,2,3,70,0,0
213104,-83.3333333333333,4,2,1,60,0,0
214354,-83.3333333333333,4,2,1,65,0,0
215104,-76.9230769230769,4,2,1,65,0,0
215604,-76.9230769230769,4,2,1,70,0,0
216854,-76.9230769230769,4,2,1,75,0,0
217604,-71.4285714285714,4,2,1,75,0,0
217854,-66.6666666666667,4,2,1,75,0,0
218104,-90.9090909090909,4,2,1,80,0,0
218854,-111.111111111111,4,2,1,80,0,0
219354,-90.9090909090909,4,2,1,80,0,0
220104,-111.111111111111,4,2,1,80,0,0
220604,-90.9090909090909,4,2,1,80,0,0
221354,-111.111111111111,4,2,1,80,0,0
221854,-90.9090909090908,4,2,1,80,0,0
223104,-83.3333333333333,4,2,1,80,0,0
223854,-100,4,2,1,80,0,0
224354,-83.3333333333333,4,2,1,80,0,0
225104,-100,4,2,1,80,0,0
225604,-83.3333333333333,4,2,1,80,0,0
226354,-100,4,2,1,80,0,0
226854,-83.3333333333333,4,2,1,80,0,0
228104,-90.9090909090909,4,2,1,80,0,0
229354,-90.9090909090909,4,2,1,70,0,0
230604,-90.9090909090909,4,2,1,60,0,0
231854,-90.9090909090909,4,2,1,50,0,0
233104,-90.9090909090909,4,2,1,40,0,0
234354,-90.9090909090909,4,2,1,30,0,0
235604,-90.9090909090909,4,2,1,20,0,0
236354,-90.9090909090909,4,2,1,10,0,0

[Colours]
Combo1 : 255,102,204
Combo2 : 149,149,255
Combo3 : 220,140,247

[HitObjects]
208,166,1479,5,0,3:0:0:0:
137,119,1604,2,0,B|103:44|103:44|109:46|109:46|169:111,1,155.999992858887,8|0,3:2|0:0,0:0:0:0:
208,166,1854,6,0,B|260:151|299:189|299:189|314:235|364:232,1,176.000005371094,4|0,3:1|0:0,0:0:0:0:
444,161,2229,1,8,3:2:0:0:
447,158,2291,1,2,0:0:0:0:
451,156,2354,2,0,B|446:128|446:128|452:101|452:101|441:59,1,88.000002685547,2|0,0:0|0:0,0:0:0:0:
303,0,2604,6,0,B|331:11|331:11|252:46,1,107.999996704102,8|0,3:2|0:0,0:0:0:0:
186,83,2854,2,0,B|114:52|114:52|142:41,1,107.999996704102,8|0,3:2|0:0,0:0:0:0:
312,54,3104,6,0,B|352:73|352:73|403:133|356:177|309:172,1,176.000005371094,8|0,3:2|0:0,0:0:0:0:
178,271,3479,2,0,B|175:248|175:248|199:226,1,44.0000013427735,8|0,3:2|0:0,0:0:0:0:
190,233,3604,2,0,B|226:243|226:243|228:248|228:248|278:264,1,88.000002685547,2|0,0:0|0:0,0:0:0:0:
449,321,3854,6,0,B|473:321|495:289|495:289|464:306|439:306,1,107.999996704102,8|0,3:2|0:0,0:0:0:0:
380,274,4104,2,0,B|362:216|407:233|390:166,1,107.999996704102,8|0,3:2|0:0,0:0:0:0:
295,82,4354,6,0,B|256:74|238:31|238:31|256:91|220:122,1,176.000005371094,8|0,3:2|0:0,0:0:0:0:
110,165,4729,1,8,3:2:0:0:
105,162,4791,1,2,0:0:0:0:
101,158,4854,2,0,P|100:111|137:92,1,88.000002685547,2|0,0:0|0:0,0:0:0:0:
295,82,5104,6,0,B|282:91|282:91|338:117|338:117|365:103,1,107.999996704102,8|0,3:2|0:0,0:0:0:0:
435,41,5354,2,0,B|447:31|447:31|391:5|391:5|364:19,1,107.999996704102,8|0,3:2|0:0,0:0:0:0:
449,138,5604,6,0,B|398:113|355:158|355:158|348:198|308:210,1,176.000005371094,8|0,3:2|0:0,0:0:0:0:
161,290,5979,2,0,P|144:276|124:267,1,44.0000013427735,8|0,3:2|0:0,0:0:0:0:
82,178,6104,6,0,P|104:133|150:138,1,88.000002685547,2|8,0:0|3:1,0:0:0:0:
143,136,6291,1,8,3:1:0:0:
149,141,6354,1,8,3:2:0:0:
222,169,6479,1,8,3:1:0:0:
274,113,6604,1,8,3:2:0:0:
202,85,6729,1,8,3:1:0:0:
310,209,6854,6,0,B|327:214|350:271|299:298|309:268|253:302|275:354|288:361,1,176.000005371094,4|0,3:1|0:0,0:0:0:0:
422,384,7229,1,8,3:2:0:0:
425,381,7291,1,2,0:0:0:0:
427,377,7354,2,0,B|420:347|420:347|426:328|426:328|417:292,1,88.000002685547
466,149,7604,6,0,B|472:162|490:178|490:178|413:152,1,107.999996704102,8|0,3:2|0:0,0:0:0:0:
357,97,7854,2,0,P|370:37|424:38,1,107.999996704102,8|0,3:2|0:0,0:0:0:0:
349,107,8104,6,0,B|282:122|282:122|257:151|257:151|189:168,1,176.000005371094,8|0,3:2|0:0,0:0:0:0:
59,69,8479,2,0,P|74:39|98:38,1,44.0000013427735,8|0,3:2|0:0,0:0:0:0:
91,24,8604,2,0,P|150:39|156:62,1,88.000002685547,2|0,0:0|0:0,0:0:0:0:
50,204,8854,6,0,B|22:209|3:225|3:225|12:191|48:182,1,107.999996704102,8|0,3:2|0:0,0:0:0:0:
138,243,9104,2,0,B|166:250|175:284|175:284|156:265|129:263,1,107.999996704102,8|0,3:2|0:0,0:0:0:0:
111,355,9354,6,0,B|220:337|139:287|272:275,1,176.000005371094,8|0,3:2|0:0,0:0:0:0:
358,206,9729,1,8,3:2:0:0:
361,208,9791,1,2,0:0:0:0:
364,210,9854,2,0,B|394:243|394:243|371:291,1,88.000002685547,2|0,0:0|0:0,0:0:0:0:
239,182,10104,6,0,B|229:139|229:139|235:126|235:126|224:76,1,107.999996704102,8|0,3:2|0:0,0:0:0:0:
147,19,10354,2,0,B|108:62|108:62|126:82|143:112,1,107.999996704102,8|0,3:2|0:0,0:0:0:0:
329,55,10604,6,0,B|368:49|386:-2|386:-2|388:5|388:5|372:53|408:91,1,176.000005371094,8|0,3:2|0:0,0:0:0:0:
495,199,10979,2,0,P|511:175|511:153,1,44.0000013427735,8|0,3:2|0:0,0:0:0:0:
421,238,11104,6,0,P|410:278|464:309,1,88.000002685547,2|0,0:0|0:0,0:0:0:0:
448,309,11291,1,2,0:0:0:0:
456,306,11354,1,8,3:2:0:0:
332,223,11479,1,8,3:1:0:0:
270,368,11604,1,8,3:2:0:0:
353,321,11729,1,8,3:1:0:0:
189,225,11854,6,0,B|162:180|206:141|201:168|250:116|219:82,1,160,4|0,3:1|0:0,0:0:0:0:
125,19,12229,1,8,3:2:0:0:
57,27,12354,2,0,B|74:44|74:44|125:19,1,80,2|0,0:0|3:2,0:0:0:0:
214,95,12604,6,0,B|224:140|224:140|244:158|244:158|255:213,1,120,2|0,3:2|0:0,0:0:0:0:
201,269,12854,2,0,B|162:297|162:297|181:261,1,80,8|0,3:2|0:0,0:0:0:0:
289,357,13104,6,0,B|316:315|368:319|368:319|385:354|428:363,1,160,2|0,3:2|0:0,0:0:0:0:
512,256,13479,1,8,3:2:0:0:
455,207,13604,1,2,0:0:0:0:
455,207,13729,1,0,3:2:0:0:
334,282,13854,6,0,P|282:257|285:200,1,120,2|0,3:2|0:0,0:0:0:0:
299,130,14104,2,0,P|336:141|354:175,1,80,8|0,3:2|0:0,0:0:0:0:
246,276,14354,6,0,B|221:286|221:286|139:251|139:251|162:249|181:235,1,160,2|0,3:2|0:0,0:0:0:0:
288,355,14729,1,8,3:2:0:0:
187,229,14854,2,0,B|180:262|180:262|182:273|182:273|173:311,1,80,2|0,0:0|3:2,0:0:0:0:
30,384,15104,6,0,B|23:351|23:351|25:340|25:340|16:302,1,80,2|0,3:2|0:0,0:0:0:0:
121,206,15354,2,0,P|171:208|190:248,1,80,8|0,3:2|0:0,0:0:0:0:
306,335,15604,6,0,B|337:318|377:317|377:317|410:267|356:239,1,160,2|0,3:2|0:0,0:0:0:0:
252,129,15979,1,8,3:2:0:0:
186,187,16104,1,2,0:0:0:0:
237,241,16229,1,0,3:2:0:0:
373,144,16354,6,0,B|404:152|404:152|409:157|409:157|453:170,1,80,0|8,3:1|3:1,0:0:0:0:
453,174,16541,1,8,3:1:0:0:
458,179,16604,1,8,3:3:0:0:
363,242,16729,1,8,3:3:0:0:
240,120,16854,6,0,B|249:101|249:101|165:124|165:124|126:164|161:205,1,191.999994140625,4|0,3:1|0:0,0:0:0:0:
306,299,17229,1,8,3:2:0:0:
363,243,17354,2,0,B|355:211|355:211|350:204|350:204|340:164,1,80,2|0,0:0|3:2,0:0:0:0:
421,35,17604,6,0,P|468:28|487:45,1,40,8|8,3:1|3:1,0:0:0:0:
467,33,17729,2,0,P|489:42|499:67,1,40,8|8,3:1|3:1,0:0:0:0:
498,74,17854,1,8,3:2:0:0:
425,142,17979,1,8,3:2:0:0:
291,49,18104,6,0,B|215:28|215:28|217:34|217:34|277:78,1,160,6|0,3:2|0:0,0:0:0:0:
439,170,18479,2,0,B|499:126|499:126|501:120|501:120|425:142,1,160,12|0,3:2|3:2,0:0:0:0:
343,206,18854,5,2,3:2:0:0:
430,333,18979,1,0,3:0:0:0:
249,384,19104,5,0,3:0:0:0:
284,298,19229,1,8,3:2:0:0:
178,217,19354,6,0,B|132:201|132:201|58:227|94:292,1,160,4|0,3:1|0:0,0:0:0:0:
239,148,19729,2,0,B|231:120|231:120|234:105|234:105|224:71,1,80,8|2,3:2|0:0,0:0:0:0:
74,9,19979,5,0,3:2:0:0:
74,9,20041,1,0,3:0:0:0:
74,9,20104,2,0,B|22:30|22:30|48:99,1,120,2|0,3:2|0:0,0:0:0:0:
97,148,20354,2,0,P|117:126|115:98,1,40,8|0,3:2|0:0,0:0:0:0:
134,114,20479,2,0,P|131:84|119:69,1,40
3,192,20604,5,4,3:1:0:0:
120,300,20729,1,0,3:0:0:0:
54,337,20854,1,8,3:2:0:0:
147,205,20979,5,0,3:0:0:0:
45,344,21104,1,0,3:0:0:0:
111,384,21229,1,8,3:2:0:0:
239,306,21354,6,0,B|302:319|302:319|305:325|305:325|379:341,1,143.999995605469,0|0,3:0|0:0,0:0:0:0:
450,299,21604,1,8,3:3:0:0:
453,296,21666,1,8,3:3:0:0:
456,293,21729,2,0,P|452:266|440:249,1,47.9999985351563,8|0,3:3|0:0,0:0:0:0:
353,125,21854,5,8,3:2:0:0:
312,196,21979,1,8,3:2:0:0:
474,78,22229,5,8,3:2:0:0:
387,7,22354,2,0,P|343:27|294:42,1,95.9999970703126,8|0,3:2|0:0,0:0:0:0:
179,114,22604,5,8,3:2:0:0:
103,87,22729,1,0,3:0:0:0:
133,12,22854,1,0,3:0:0:0:
207,38,22979,1,0,3:0:0:0:
91,100,23104,6,0,B|75:113|63:155|104:177|96:159|134:185|128:220|105:242,1,155.999992858887,4|0,3:1|0:0,0:0:0:0:
26,314,23854,2,0,B|-20:286|-20:286|-17:285|-17:285|32:296,2,103.999995239258
207,343,25354,6,0,P|228:327|209:353,1,83.9999974365235,2|0,0:0|0:0,0:0:0:0:
227,345,25604,2,0,B|215:299|215:299|232:268|232:268|217:205,1,143.999995605469,2|0,0:0|0:0,0:0:0:0:
101,81,26604,5,0,0:0:0:0:
22,148,26854,2,0,P|16:89|100:101,1,155.999992858887
233,174,27854,5,0,0:0:0:0:
299,111,28104,2,0,B|346:126|387:114|387:114|350:130|336:157,1,155.999992858887,2|0,0:0|0:0,0:0:0:0:
336,155,28604,1,0,0:0:0:0:
442,233,28854,6,0,P|456:256|455:292,1,51.999997619629,2|0,0:0|0:0,0:0:0:0:
382,307,29104,2,0,P|368:284|369:248,1,51.999997619629
254,196,29354,6,0,B|159:213|206:249|110:265,1,155.999992858887,2|0,0:0|0:0,0:0:0:0:
0,181,30104,2,0,B|18:145|3:101|3:101|20:144|70:145,1,155.999992858887,2|0,0:0|0:0,0:0:0:0:
131,98,30604,6,0,B|153:31|153:31|151:20|151:20|102:90,1,155.999992858887,2|0,0:0|0:0,0:0:0:0:
108,80,31104,1,0,0:0:0:0:
246,179,31354,6,0,P|263:159|296:157,1,51.999997619629,2|0,0:0|0:0,0:0:0:0:
308,125,31604,2,0,P|341:130|359:151,1,51.999997619629,2|0,0:0|0:0,0:0:0:0:
442,216,31854,6,0,B|457:269|457:269|343:304,1,155.999992858887,2|2,0:0|0:0,0:0:0:0:
265,382,32479,1,2,0:0:0:0:
265,382,32604,2,0,P|226:333|241:307,1,77.9999964294435,2|0,0:0|0:0,0:0:0:0:
236,316,32854,1,2,0:0:0:0:
130,210,33104,6,0,B|121:231|94:248|94:248|98:248|98:248|166:222,1,128,2|8,3:2|0:0,0:0:0:0:
243,151,33479,2,0,P|223:75|183:77,1,128,2|0,3:2|0:0,0:0:0:0:
254,157,33854,6,0,P|290:145|304:112,1,64,2|0,3:2|0:0,0:0:0:0:
397,48,34104,2,0,P|378:22|348:14,1,64,10|0,3:2|0:0,0:0:0:0:
473,129,34354,6,0,B|462:178|462:178|441:194|441:194|430:253,1,128,2|0,3:2|0:0,0:0:0:0:
319,344,34729,2,0,B|311:321|311:321|312:316|312:316|299:275,1,64,2|8,3:2|0:0,0:0:0:0:
334,213,34979,1,0,0:0:0:0:
444,312,35104,1,2,3:2:0:0:
341,359,35229,5,2,0:0:0:0:
338,361,35291,1,2,0:0:0:0:
335,362,35354,2,0,P|298:362|282:382,1,64,2|8,3:2|0:0,0:0:0:0:
131,330,35604,6,0,B|77:285|77:285|150:304,1,143.999995605469,2|0,3:2|0:0,0:0:0:0:
212,250,35979,6,0,B|205:228|205:228|207:220|207:220|196:183,1,64,2|0,3:2|0:0,0:0:0:0:
197,188,36229,1,0,0:0:0:0:
114,99,36354,2,0,B|107:121|107:121|109:129|109:129|100:161,1,64,2|0,3:2|0:0,0:0:0:0:
259,28,36604,6,0,B|229:32|229:32|307:67,1,96,2|0,3:2|0:0,0:0:0:0:
352,118,36854,2,0,P|404:105|393:31,1,128,2|0,3:2|0:0,0:0:0:0:
404,41,37229,1,2,3:2:0:0:
342,127,37354,6,0,P|343:186|419:193,1,128,8|2,0:0|3:2,0:0:0:0:
486,132,37729,1,2,0:0:0:0:
491,128,37791,1,2,0:0:0:0:
496,124,37854,2,0,B|504:95|504:95|481:56,1,64,2|8,3:2|0:0,0:0:0:0:
343,8,38104,6,0,B|265:12|302:49|215:51,1,128,2|8,3:2|0:0,0:0:0:0:
133,125,38479,1,2,3:2:0:0:
61,49,38604,1,0,0:0:0:0:
127,0,38729,1,0,0:0:0:0:
225,50,38854,6,0,B|241:40|241:40|286:65|286:65|286:90,1,96,2|0,3:2|0:0,0:0:0:0:
290,101,39104,2,0,B|274:110|274:110|229:85|229:85|229:60,1,96,10|0,3:2|0:0,0:0:0:0:
145,131,39354,6,0,B|131:178|170:204|170:204|201:232|182:278,1,160,2|0,3:2|0:0,0:0:0:0:
106,326,39729,2,0,B|84:300|84:300|96:259,1,64,2|8,3:2|0:0,0:0:0:0:
92,271,39979,1,0,0:0:0:0:
255,347,40104,6,0,B|298:316|339:308|339:308|286:303,1,143.999995605469,2|2,3:2|3:2,0:0:0:0:
399,380,40479,1,8,0:0:0:0:
282,289,40604,6,0,P|295:212|343:212,1,128,2|8,3:2|0:0,0:0:0:0:
431,260,40979,1,2,3:2:0:0:
431,260,41041,1,2,0:0:0:0:
431,260,41104,2,0,P|413:304|389:303,1,64
293,197,41354,6,0,B|286:170|286:170|287:161|287:161|276:123,1,64,2|0,3:2|0:0,0:0:0:0:
404,51,41604,2,0,B|397:78|397:78|398:87|398:87|387:125,1,64,2|0,3:2|0:0,0:0:0:0:
302,16,41854,1,8,3:2:0:0:
302,16,42604,5,0,3:0:0:0:
185,115,42729,1,8,3:2:0:0:
90,0,42854,1,0,3:2:0:0:
199,27,42979,1,0,3:2:0:0:
94,144,43104,6,0,B|154:126|183:165|176:170|189:203|254:197,1,176.000005371094,4|0,3:1|0:0,0:0:0:0:
347,135,43479,1,8,3:2:0:0:
350,132,43541,1,2,0:0:0:0:
353,129,43604,2,0,P|354:81|313:69,1,88.000002685547,2|0,0:0|0:0,0:0:0:0:
174,144,43854,6,0,B|138:184|138:184|160:240,1,107.999996704102,8|0,3:2|0:0,0:0:0:0:
235,248,44104,2,0,B|269:208|269:208|248:151,1,107.999996704102,8|0,3:2|0:0,0:0:0:0:
161,124,44354,6,0,B|69:143|69:143|111:56,1,176.000005371094,8|0,3:2|0:0,0:0:0:0:
244,0,44729,2,0,P|272:15|280:31,1,44.0000013427735,8|0,3:2|0:0,0:0:0:0:
277,24,44854,2,0,B|315:33|315:33|320:40|320:40|361:50,1,88.000002685547,2|0,0:0|0:0,0:0:0:0:
487,140,45104,6,0,B|504:118|534:109|534:109|502:106|464:131,1,107.999996704102,8|0,3:2|0:0,0:0:0:0:
416,190,45354,2,0,P|415:237|479:247,1,107.999996704102,8|0,3:2|0:0,0:0:0:0:
336,313,45604,6,0,B|279:295|238:335|238:335|226:382|161:385,1,191.999994140625,4|0,3:1|0:0,0:0:0:0:
67,308,45979,1,8,3:2:0:0:
64,303,46041,1,2,0:0:0:0:
61,298,46104,2,0,B|65:265|65:265|77:247|77:247|83:207,1,95.9999970703126,2|0,0:0|0:0,0:0:0:0:
125,80,46354,6,0,B|131:66|165:58|165:58|170:59|170:59|145:76|133:102,1,107.999996704102,8|0,3:2|0:0,0:0:0:0:
16,168,46604,2,0,B|-3:146|-31:137|-31:137|-27:135|-27:135|8:133|28:150,1,107.999996704102,8|0,3:2|0:0,0:0:0:0:
157,238,46854,6,0,B|200:206|265:196|265:196|249:182|225:173|190:187,1,191.999994140625,8|0,3:2|0:0,0:0:0:0:
52,318,47229,6,0,B|84:298|84:298|143:321|143:321|157:381|218:383,1,191.999994140625,8|8,3:2|3:1,0:0:0:0:
302,338,47541,5,0,0:0:0:0:
310,329,47604,2,0,P|315:302|299:274,1,47.9999985351563,8|8,3:2|3:1,0:0:0:0:
316,272,47729,2,0,P|306:242|277:227,1,47.9999985351563,8|8,3:1|3:1,0:0:0:0:
185,176,47854,6,0,P|181:151|199:125,1,47.9999985351563,8|8,3:2|3:1,0:0:0:0:
185,116,47979,2,0,P|204:92|228:86,1,47.9999985351563,8|8,3:1|3:1,0:0:0:0:
347,66,48104,6,0,B|391:56|407:5|407:5|413:-3|413:-3|390:70|437:104,1,207.999990478516,4|0,3:1|0:0,0:0:0:0:
289,0,48479,1,8,3:2:0:0:
425,109,48604,6,0,P|474:87|472:41,1,88.000002685547,2|0,0:0|3:2,0:0:0:0:
321,203,48854,2,0,B|308:189|286:185|286:185|326:171|367:197|379:233,1,143.999995605469,2|0,3:2|0:0,0:0:0:0:
451,210,49104,2,0,B|477:243|477:243|440:307,1,95.9999970703126,10|0,3:2|0:0,0:0:0:0:
291,346,49354,6,0,B|235:318|188:364|214:367|168:410|116:384,1,191.999994140625,2|0,3:2|0:0,0:0:0:0:
8,293,49729,1,8,3:2:0:0:
146,185,49854,1,0,0:0:0:0:
104,260,49979,1,0,3:2:0:0:
0,148,50104,6,0,P|0:101|38:75,1,95.9999970703126,2|0,3:2|0:0,0:0:0:0:
157,0,50354,2,0,P|157:46|195:72,1,95.9999970703126,8|0,3:2|0:0,0:0:0:0:
359,171,50604,6,0,B|378:140|345:96|266:114|255:211|320:238,1,207.999990478516,2|0,3:2|0:0,0:0:0:0:
462,315,50979,1,8,3:2:0:0:
512,248,51104,6,0,P|511:210|462:186,1,95.9999970703126,2|0,0:0|3:2,0:0:0:0:
411,108,51354,2,0,P|369:125|359:171,1,95.9999970703126,2|0,3:2|0:0,0:0:0:0:
247,301,51604,6,0,B|165:324|165:324|196:305|205:281,1,143.999995605469,10|0,3:2|0:0,0:0:0:0:
125,241,51854,6,0,B|87:222|89:172|89:172|158:124|158:124|153:148,1,191.999994140625,2|0,3:2|0:0,0:0:0:0:
32,291,52229,1,8,3:2:0:0:
162,161,52354,6,0,B|203:171|203:171|208:177|208:177|268:192,1,95.9999970703126,0|0,0:0|3:2,0:0:0:0:
391,266,52604,2,0,B|412:237|437:232|437:232|410:224|389:246,1,111.999996582031,2|8,3:2|3:1,0:0:0:0:
322,315,52791,5,8,3:1:0:0:
318,322,52854,2,0,P|324:350|353:368,1,55.9999982910157,8|8,3:2|3:1,0:0:0:0:
343,377,52979,2,0,P|373:390|413:366,1,55.9999982910157,8|8,3:1|3:1,0:0:0:0:
503,312,53104,6,0,B|525:278|525:278|503:230|503:230|477:225|477:225|455:176|455:176|477:145,1,207.999990478516,4|2,3:1|0:0,0:0:0:0:
336,37,53479,1,8,3:2:0:0:
276,98,53604,2,0,P|284:142|336:150,1,95.9999970703126,2|0,0:0|3:2,0:0:0:0:
336,37,53854,5,2,3:2:0:0:
196,129,53979,1,8,3:1:0:0:
123,203,54104,5,10,3:2:0:0:
6,84,54229,1,8,3:1:0:0:
123,203,54354,6,0,B|110:173|78:165|78:165|73:163|73:163|133:162|152:204|147:204|159:243|216:252,1,239.999992675781,4|0,3:2|0:0,0:0:0:0:
408,302,54729,6,0,B|433:254|500:251|500:251|495:246|495:246|421:236|387:290,1,239.999992675781,12|0,3:2|0:0,0:0:0:0:
352,357,55104,5,4,3:1:0:0:
263,190,55229,1,0,3:1:0:0:
159,384,55354,5,10,3:2:0:0:
212,251,55479,1,0,3:1:0:0:
73,162,55604,6,0,B|100:123|79:59|79:59|86:64|86:64|105:120|152:122,1,207.999990478516,4|2,3:1|0:0,0:0:0:0:
37,250,55979,1,8,3:2:0:0:
159,115,56104,6,0,B|246:92|217:157|303:130,1,143.999995605469,2|0,0:0|0:0,0:0:0:0:
363,90,56354,6,0,B|352:60|352:60|361:30|361:30|345:-17,1,95.9999970703126,2|0,3:2|0:0,0:0:0:0:
491,97,56604,2,0,B|480:127|480:127|489:157|489:157|473:204,1,95.9999970703126,10|0,3:2|0:0,0:0:0:0:
407,331,56854,5,4,3:1:0:0:
331,347,56979,1,8,3:1:0:0:
274,295,57104,1,8,3:1:0:0:
144,182,57229,5,4,3:1:0:0:
28,281,57354,1,8,3:1:0:0:
163,348,57479,1,8,3:1:0:0:
85,384,57604,5,2,3:1:0:0:
180,244,57729,1,8,3:1:0:0:
184,239,57791,2,0,P|178:210|158:190,1,55.9999982910157,8|10,3:1|3:1,0:0:0:0:
274,295,57979,1,8,3:1:0:0:
144,182,58104,6,0,B|115:142|146:73|185:65|185:65|185:70|185:70|152:96|158:133,1,207.999990478516,4|0,3:1|0:0,0:0:0:0:
41,33,58479,1,8,3:2:0:0:
233,134,58604,6,0,B|274:121|274:121|277:116|277:116|323:103,1,88.000002685547,2|0,0:0|3:2,0:0:0:0:
484,202,58854,2,0,B|456:193|442:163|442:163|462:209|431:247,1,143.999995605469,2|0,3:2|0:0,0:0:0:0:
376,296,59104,2,0,B|344:258|344:258|367:205,1,95.9999970703126,10|0,3:2|0:0,0:0:0:0:
486,58,59354,6,0,B|498:55|531:67|548:132|443:170|399:98,1,191.999994140625,2|0,3:2|0:0,0:0:0:0:
271,19,59729,1,8,3:2:0:0:
218,160,59854,1,0,0:0:0:0:
300,107,59979,1,0,3:2:0:0:
162,14,60104,6,0,P|119:20|106:72,1,95.9999970703126,2|0,3:2|0:0,0:0:0:0:
6,121,60354,2,0,P|6:172|56:187,1,95.9999970703126,8|0,3:2|0:0,0:0:0:0:
206,296,60604,6,0,B|300:247|300:247|303:241|303:241|187:268,1,223.999993164063,2|0,3:2|0:0,0:0:0:0:
75,371,60979,1,8,3:2:0:0:
185,258,61104,6,0,P|230:252|257:289,1,95.9999970703126,2|0,0:0|3:2,0:0:0:0:
356,377,61354,2,0,B|361:342|361:342|374:323|374:323|379:274,1,95.9999970703126,2|0,3:2|0:0,0:0:0:0:
509,153,61604,6,0,B|470:151|443:124|443:124|474:155|459:198,1,143.999995605469,10|0,3:2|0:0,0:0:0:0:
384,180,61854,6,0,B|296:200|296:200|289:194|289:194|322:101,1,191.999994140625,2|0,3:2|0:0,0:0:0:0:
462,13,62229,1,8,3:2:0:0:
334,100,62354,6,0,B|328:69|328:69|336:47|336:47|324:2,1,95.9999970703126,0|0,0:0|3:2,0:0:0:0:
152,78,62604,2,0,B|138:57|115:47|115:47|154:45|178:76,1,111.999996582031,2|8,3:2|3:1,0:0:0:0:
232,123,62791,5,8,3:1:0:0:
238,130,62854,2,0,P|232:164|205:186,1,55.9999982910157,8|8,3:2|3:1,0:0:0:0:
219,190,62979,2,0,P|197:214|159:215,1,55.9999982910157,8|8,3:1|3:1,0:0:0:0:
73,199,63104,6,0,B|39:215|39:215|59:277|59:277|71:279|71:279|92:337|92:337|62:357,1,207.999990478516,4|2,3:1|0:0,0:0:0:0:
225,246,63479,1,8,3:2:0:0:
284,289,63604,2,0,B|289:259|289:259|207:242,1,95.9999970703126,2|0,0:0|3:2,0:0:0:0:
73,199,63854,6,0,P|68:152|141:157,1,95.9999970703126,2|8,3:2|3:1,0:0:0:0:
113,137,64041,1,8,3:1:0:0:
120,142,64104,1,10,3:2:0:0:
224,245,64229,1,8,3:1:0:0:
147,303,64354,6,0,B|123:339|76:351|76:351|120:329|190:336|209:384,1,239.999992675781,4|0,3:2|0:0,0:0:0:0:
397,338,64729,6,0,B|496:269|496:269|488:266|488:266|383:305,1,239.999992675781,12|0,3:2|0:0,0:0:0:0:
318,348,65104,5,4,3:1:0:0:
198,191,65229,1,0,3:1:0:0:
332,218,65354,5,10,3:2:0:0:
208,383,65479,1,0,3:1:0:0:
332,218,65604,6,0,B|397:153|341:63|266:100|270:143|287:159,1,207.999990478516,4|2,3:1|0:0,0:0:0:0:
423,250,65979,1,8,3:2:0:0:
276,166,66104,6,0,B|204:146|204:146|185:182|140:187,1,143.999995605469,2|0,0:0|0:0,0:0:0:0:
71,148,66354,6,0,P|72:93|108:81,1,95.9999970703126,2|0,3:2|0:0,0:0:0:0:
223,2,66604,2,0,P|271:16|277:59,1,95.9999970703126,10|0,3:2|0:0,0:0:0:0:
391,164,66854,5,4,3:1:0:0:
465,112,66979,1,8,3:1:0:0:
383,151,67104,1,8,3:1:0:0:
263,266,67229,5,4,3:1:0:0:
145,176,67354,1,8,3:1:0:0:
274,250,67479,1,8,3:1:0:0:
193,309,67604,5,2,3:1:0:0:
283,168,67729,1,8,3:1:0:0:
287,160,67791,2,0,B|283:139|283:139|278:134|278:134|272:108,1,55.9999982910157,8|10,3:1|3:1,0:0:0:0:
393,202,67979,1,8,3:1:0:0:
465,112,68104,6,0,B|494:103|504:67|504:67|474:204,1,182.399997773438,4|0,3:1|0:0,0:0:0:0:
444,363,68479,2,0,P|432:316|418:266,1,91.1999988867188,10|2,3:2|0:0,0:0:0:0:
393,202,68729,1,0,3:2:0:0:
319,351,68854,6,0,B|276:349|263:310|263:310|271:351|242:377,1,136.799998330078,2|0,3:2|0:0,0:0:0:0:
193,324,69104,2,0,B|157:334|157:334|147:349|147:349|110:360,1,91.1999988867188,10|0,3:2|0:0,0:0:0:0:
12,220,69354,6,0,B|6:203|-4:190|-4:190|20:157|114:163|103:252,1,182.399997773438,2|0,3:2|0:0,0:0:0:0:
31,374,69729,2,0,P|12:331|44:297,1,91.1999988867188,8|0,3:2|0:0,0:0:0:0:
203,233,69979,5,0,3:2:0:0:
208,231,70041,1,0,3:0:0:0:
213,229,70104,2,0,B|238:195|205:161|203:167|179:139|201:98,1,136.799998330078,2|0,3:2|0:0,0:0:0:0:
228,30,70354,2,0,B|280:18|280:18|259:29|250:52,1,91.1999988867188,8|0,3:2|0:0,0:0:0:0:
103,96,70604,6,0,B|19:75|19:75|-3:45|10:12|56:4,1,182.399997773438,2|0,3:2|0:0,0:0:0:0:
106,105,70979,2,0,B|63:95|63:95|59:91|59:91|17:83,1,91.1999988867188,10|0,3:2|0:0,0:0:0:0:
154,9,71229,1,0,3:2:0:0:
286,135,71354,6,0,B|335:117|335:117|351:87|351:87|415:65,1,136.799998330078,2|0,3:2|0:0,0:0:0:0:
448,15,71604,2,0,B|481:43|481:43|468:89,1,91.1999988867188,10|0,3:2|0:0,0:0:0:0:
405,240,71854,6,0,B|411:282|466:294|489:260|494:207|444:176,1,182.399997773438,2|0,3:2|0:0,0:0:0:0:
280,293,72229,2,0,B|386:331|386:331|350:312|340:272,1,182.399997773438,8|0,3:2|3:2,0:0:0:0:
221,185,72604,5,2,3:2:0:0:
218,193,72666,1,0,3:0:0:0:
215,199,72729,2,0,L|200:243,1,45.5999994433594,8|8,3:1|3:1,0:0:0:0:
62,348,72854,5,8,3:1:0:0:
35,277,72979,1,8,3:1:0:0:
242,355,73104,6,0,B|207:307|154:333|154:333|151:340|151:340|134:380|76:371,1,182.399997773438,4|0,3:1|0:0,0:0:0:0:
0,197,73479,2,0,B|16:189|30:175|30:175|93:196|93:196|96:250|145:261,1,182.399997773438,8|0,3:2|3:0,0:0:0:0:
234,110,73854,6,0,B|255:93|255:93|188:110,1,91.1999988867188,2|8,3:2|3:1,0:0:0:0:
128,130,74041,1,8,3:1:0:0:
125,125,74104,1,10,3:2:0:0:
193,33,74229,1,0,3:0:0:0:
334,124,74354,5,0,3:0:0:0:
334,124,74479,1,8,3:1:0:0:
334,124,74604,1,8,3:1:0:0:
377,10,74729,5,0,3:0:0:0:
457,60,74854,1,8,3:1:0:0:
362,14,74979,1,8,3:1:0:0:
395,218,75104,6,0,L|408:165,1,45.5999994433594,10|0,3:1|0:0,0:0:0:0:
403,161,75229,2,0,L|416:108,1,45.5999994433594,8|0,3:1|0:0,0:0:0:0:
512,238,75354,6,0,P|504:259|487:274,1,45.5999994433594,10|0,3:1|0:0,0:0:0:0:
479,290,75479,2,0,P|449:292|430:283,1,45.5999994433594,8|0,3:1|0:0,0:0:0:0:
312,204,75604,6,0,B|283:216|250:224|250:224|217:265|265:297,1,143.999995605469,4|0,0:1|0:0,0:0:0:0:
353,378,75979,2,0,B|362:358|390:350|390:350|354:359|321:340,1,107.999996704102,2|0,0:0|0:0,0:0:0:0:
319,340,76229,1,0,0:0:0:0:
194,332,76354,6,0,L|147:319,2,47.9999985351563,2|2|2,0:0|0:0|0:0,0:0:0:0:
258,291,76604,1,2,0:0:0:0:
82,369,76729,5,2,0:0:0:0:
78,365,76791,1,2,0:0:0:0:
74,361,76854,6,0,B|60:323|60:323|82:265|82:265|65:226,1,143.999995605469,2|0,0:0|0:0,0:0:0:0:
1,122,77229,1,2,0:0:0:0:
53,70,77354,2,0,P|90:62|126:91,1,71.9999978027344,10|0,0:0|0:0,0:0:0:0:
225,145,77604,6,0,L|240:88,2,47.9999985351563,2|0|0,0:1|0:0|0:0,0:0:0:0:
169,190,77854,1,2,0:1:0:0:
234,154,77979,1,2,0:1:0:0:
190,25,78104,6,0,B|261:5|261:5|281:45|320:48,1,143.999995605469,2|8,0:0|0:0,0:0:0:0:
465,22,78479,2,0,B|429:12|429:12|401:32,1,71.9999978027344,2|2,0:0|0:0,0:0:0:0:
505,115,78729,1,0,0:0:0:0:
512,105,78854,1,2,0:0:0:0:
436,188,78979,6,0,L|391:176,1,35.9999989013672
392,176,79104,2,0,B|344:162|344:162|337:156|337:156|289:143,1,107.999996704102,10|0,0:0|0:0,0:0:0:0:
232,184,79354,6,0,P|214:214|230:251,1,71.9999978027344,2|0,0:0|0:0,0:0:0:0:
364,355,79604,1,2,0:0:0:0:
275,369,79729,6,0,B|281:335|281:335|285:328|285:328|290:299,1,71.9999978027344,2|8,0:0|0:0,0:0:0:0:
392,176,79979,1,2,0:0:0:0:
494,283,80104,6,0,B|461:301|461:301|428:290,1,71.9999978027344,2|0,0:0|0:0,0:0:0:0:
352,250,80291,1,0,0:0:0:0:
356,246,80354,1,10,0:0:0:0:
419,285,80479,1,10,0:0:0:0:
289,299,80604,6,0,B|207:269|207:269|238:287|244:321,1,143.999995605469,2|8,0:0|0:0,0:0:0:0:
115,378,80979,2,0,P|91:331|129:299,1,107.999996704102,2|0,0:0|0:0,0:0:0:0:
141,300,81229,1,0,0:0:0:0:
94,211,81354,5,2,0:0:0:0:
101,204,81479,1,0,0:0:0:0:
1,300,81604,2,0,B|7:266|7:266|11:259|11:259|16:230,1,71.9999978027344,10|0,0:0|0:0,0:0:0:0:
95,124,81854,5,2,0:0:0:0:
35,84,81979,2,0,L|-6:95,2,35.9999989013672
134,15,82229,6,0,B|214:5|197:68|273:56,1,143.999995605469,2|0,0:0|0:0,0:0:0:0:
341,32,82604,1,2,0:0:0:0:
318,168,82729,6,0,L|304:126,1,35.9999989013672
304,127,82854,2,0,B|338:133|338:133|345:137|345:137|374:142,1,71.9999978027344,2|10,0:0|0:0,0:0:0:0:
487,43,83104,5,2,0:0:0:0:
487,43,83187,2,0,P|449:33|413:73,1,95.9999970703126
491,175,83479,6,0,B|481:147|481:147|444:210|444:210|468:248,2,143.999995605469,2|2|2,0:0|0:0|0:0,0:0:0:0:
369,265,84104,2,0,B|333:273|333:273|303:253,1,71.9999978027344,2|2,0:0|0:0,0:0:0:0:
482,351,84354,5,10,0:0:0:0:
482,351,84979,2,0,L|493:302,1,35.9999989013672
467,245,85104,6,0,B|453:206|410:204|410:204|433:219|446:258,1,120.000004577637,2|0,0:0|0:0,0:0:0:0:
394,356,85354,5,8,3:2:0:0:
394,356,85604,6,0,B|323:330|323:330|303:366|244:369,1,143.999995605469,6|8,3:2|0:0,0:0:0:0:
157,302,85979,5,2,3:2:0:0:
154,299,86041,1,2,3:2:0:0:
151,296,86104,2,0,P|151:225|220:236,1,143.999995605469,0|2,0:0|3:2,0:0:0:0:
317,309,86479,1,0,0:0:0:0:
385,256,86604,6,0,B|410:212|379:173|375:184|332:156|357:107,1,160,10|2,3:2|3:2,0:0:0:0:
438,32,86979,2,0,P|457:41|479:48,2,40
284,33,87229,5,2,3:2:0:0:
380,116,87354,1,8,0:0:0:0:
391,106,87479,1,0,0:0:0:0:
334,192,87604,6,0,B|288:202|288:202|280:210|280:210|222:224,1,107.999996704102,2|0,3:2|0:0,0:0:0:0:
160,192,87854,2,0,B|142:160|142:160|175:114,1,80,2|8,3:2|0:0,0:0:0:0:
309,35,88104,6,0,B|374:77|374:77|368:80|368:80|291:50,1,160,2|0,3:2|0:0,0:0:0:0:
231,3,88479,5,2,3:2:0:0:
112,76,88604,1,0,0:0:0:0:
235,145,88729,1,0,0:0:0:0:
199,83,88854,1,2,3:2:0:0:
199,83,88979,1,0,0:0:0:0:
123,179,89104,6,0,B|133:206|133:206|126:229|126:229|138:262,1,80,2|0,3:2|0:0,0:0:0:0:
19,337,89354,2,0,B|28:311|28:311|21:288|21:288|31:261,1,80,2|0,3:2|0:0,0:0:0:0:
34,259,89541,1,2,0:0:0:0:
37,256,89604,1,2,0:0:0:0:
153,331,89729,6,0,B|245:301|216:374|321:332,1,160,2|0,3:2|0:0,0:0:0:0:
396,251,90104,2,0,P|379:196|344:194,1,88.000002685547,2|0,3:2|0:0,0:0:0:0:
348,196,90291,1,2,0:0:0:0:
342,202,90354,1,2,3:2:0:0:
453,309,90479,1,8,0:0:0:0:
512,248,90604,6,0,B|536:195|500:160|495:175|448:139|481:83,1,176.000005371094,2|8,3:2|0:0,0:0:0:0:
333,13,90979,6,0,B|246:44|246:44|272:22|282:-2,1,143.999995605469,2|0,3:2|0:0,0:0:0:0:
366,81,91354,6,0,B|389:131|389:131|346:177,1,107.999996704102,2|0,3:2|0:0,0:0:0:0:
277,159,91604,2,0,B|254:109|254:109|297:63,1,107.999996704102,10|0,3:2|0:0,0:0:0:0:
362,186,91854,6,0,B|306:173|275:208|275:208|264:254|206:260,1,176.000005371094,2|0,3:2|0:0,0:0:0:0:
110,199,92229,5,2,3:2:0:0:
108,195,92291,1,2,0:0:0:0:
105,192,92354,2,0,B|99:172|99:172|108:147|108:147|98:110,1,71.9999978027344,8|0,0:0|0:0,0:0:0:0:
214,19,92604,6,0,B|160:8|160:8|210:46,1,107.999996704102,2|0,3:2|0:0,0:0:0:0:
309,102,92854,2,0,B|351:69|351:69|297:80,1,107.999996704102,2|0,3:2|0:0,0:0:0:0:
194,168,93104,6,0,B|185:153|185:153|251:173|251:173|287:231|235:262,1,176.000005371094,2|8,3:2|0:0,0:0:0:0:
131,345,93479,2,0,B|57:313|57:313|57:309|57:309|140:318,1,160,2|0,3:2|0:0,0:0:0:0:
233,375,93854,6,0,B|262:366|262:366|274:354|274:354|311:343,1,80,2|0,3:2|0:0,0:0:0:0:
419,278,94104,2,0,B|390:269|390:269|378:257|378:257|341:246,1,80,2|0,3:2|0:0,0:0:0:0:
267,167,94354,5,4,3:1:0:0:
138,30,94479,1,8,3:1:0:0:
131,21,94604,1,8,3:1:0:0:
154,207,94729,5,8,3:1:0:0:
285,45,94854,1,8,3:1:0:0:
291,39,94979,1,8,3:1:0:0:
424,184,95104,6,0,P|441:185|463:169,1,44.0000013427735,10|0,3:1|0:0,0:0:0:0:
476,172,95229,2,0,P|490:155|490:133,1,44.0000013427735,8|0,3:1|0:0,0:0:0:0:
451,50,95354,6,0,B|410:19|410:19|422:40|423:67,1,88.000002685547,10|8,3:1|3:1,0:0:0:0:
325,118,95604,6,0,B|294:64|224:74|224:74|214:117|175:124,1,191.999994140625,4|0,3:1|0:0,0:0:0:0:
128,256,95979,1,10,3:2:0:0:
16,197,96104,2,0,P|50:170|100:186,1,88.000002685547
208,292,96354,6,0,B|230:363|230:363|225:370|225:370|173:345,1,132.00000402832,2|0,3:2|0:0,0:0:0:0:
128,256,96604,2,0,B|57:278|57:278|54:286|54:286|104:315,1,132.00000402832,2|0,3:2|0:0,0:0:0:0:
208,292,96854,6,0,B|248:264|301:295|271:322|328:361|374:325,1,176.000005371094,2|0,3:2|0:0,0:0:0:0:
372,304,97229,6,0,B|337:269|279:290|304:322|241:351|202:307,1,176.000005371094,8|0,3:2|0:0,0:0:0:0:
85,166,97604,2,0,P|61:118|88:70,1,88.000002685547,2|0,3:2|0:0,0:0:0:0:
141,50,97854,1,0,3:2:0:0:
263,99,97979,2,0,L|320:88,1,44.0000013427735
365,165,98104,6,0,B|400:123|357:87|357:87|246:111,1,176.000005371094,2|0,3:2|0:0,0:0:0:0:
94,183,98479,2,0,B|52:182|17:218|17:218|39:172|98:163,1,176.000005371094,8|0,3:2|0:0,0:0:0:0:
194,280,98854,6,0,B|205:350|205:350|195:355|195:355|119:335,1,132.00000402832,2|0,3:2|0:0,0:0:0:0:
195,271,99104,2,0,B|230:265|230:265|245:276|245:276|297:268,1,88.000002685547,2|0,3:2|0:0,0:0:0:0:
488,350,99354,6,0,P|414:368|397:270,1,176.000005371094,2|0,3:2|0:0,0:0:0:0:
343,130,99729,2,0,P|363:92|403:74,1,88.000002685547,8|0,3:2|0:0,0:0:0:0:
473,174,99979,5,2,0:0:0:0:
465,177,100041,1,2,0:0:0:0:
455,183,100104,2,0,B|426:190|409:218|409:218|427:179|408:137,1,132.00000402832,2|0,3:2|0:0,0:0:0:0:
304,40,100354,2,0,B|275:33|258:5|258:5|276:44|257:86,1,132.00000402832,0|0,3:2|0:0,0:0:0:0:
131,159,100604,6,0,B|67:191|7:160|-2:107|60:63|89:98,1,191.999994140625,2|0,3:2|0:0,0:0:0:0:
240,184,100979,6,0,P|246:239|205:292,1,88.000002685547,10|0,3:2|0:0,0:0:0:0:
80,365,101229,1,2,0:0:0:0:
77,359,101291,1,2,0:0:0:0:
74,353,101354,2,0,B|64:326|45:315|45:315|154:342,1,132.00000402832,2|0,3:2|0:0,0:0:0:0:
200,376,101604,2,0,B|213:358|240:352|240:352|213:346|192:356,1,88.000002685547,2|0,3:2|0:0,0:0:0:0:
370,256,101854,6,0,L|419:264,1,44.0000013427735,2|0,3:2|0:0,0:0:0:0:
424,264,101979,2,0,B|371:280|342:246|342:246|375:271|392:303|378:353,1,191.999994140625,2|8,0:0|3:2,0:0:0:0:
264,224,102354,2,0,B|269:202|269:202|253:171|253:171|259:131,1,88.000002685547
302,80,102541,1,0,0:0:0:0:
307,85,102604,2,0,P|254:89|218:40,1,88.000002685547,2|0,3:2|0:0,0:0:0:0:
8,184,102854,2,0,B|42:190|68:153|68:153|39:192|63:237,1,132.00000402832,8|0,3:2|0:0,0:0:0:0:
5,115,103104,6,0,B|51:95|102:126|62:149|114:189|155:170,1,176.000005371094,2|0,3:2|0:0,0:0:0:0:
282,330,103479,6,0,B|249:339|249:339|244:354|244:354|195:368,1,88.000002685547,8|0,3:2|0:0,0:0:0:0:
363,286,103729,1,2,0:0:0:0:
368,281,103791,1,2,0:0:0:0:
374,275,103854,2,0,B|424:288|448:306|448:306|492:281|480:240|452:231,1,155.999992858887,2|0,3:2|0:0,0:0:0:0:
400,86,104104,2,0,B|407:43|447:37|447:37|417:55|418:94,1,120,2|0,3:2|0:0,0:0:0:0:
512,166,104354,6,0,P|484:170|457:150,1,47.9999985351563,4|0,3:1|0:0,0:0:0:0:
453,150,104479,2,0,B|400:160|400:160|383:184|383:184|310:199,1,143.999995605469
240,184,104729,2,0,B|226:167|226:167|288:178|288:178|342:234|278:287,1,191.999994140625,12|0,3:2|0:0,0:0:0:0:
64,372,105104,6,0,B|34:333|-10:340|-10:340|18:319|73:344,1,143.999995605469,4|0,3:1|0:0,0:0:0:0:
60,340,105354,2,0,B|86:344|86:344|128:328|128:328|152:332,1,95.9999970703126,8|0,3:2|0:0,0:0:0:0:
200,124,105604,6,0,B|176:88|122:100|122:100|153:120|155:157,1,143.999995605469,12|0,3:2|0:0,0:0:0:0:
84,165,105854,1,0,0:0:0:0:
232,267,105979,6,0,B|207:224|241:153|265:217|309:141|265:73,1,191.999994140625,4|0,3:1|0:0,0:0:0:0:
274,90,106291,1,2,0:0:0:0:
269,82,106354,2,0,B|305:45|362:55|384:104|384:104|365:137,1,155.999992858887,8|0,3:2|0:0,0:0:0:0:
436,196,106604,2,0,B|482:193|510:225|510:225|499:184|447:176,1,155.999992858887,8|0,3:2|0:0,0:0:0:0:
360,240,106854,5,4,3:1:0:0:
358,246,106916,1,2,3:2:0:0:
357,252,106979,1,2,0:0:0:0:
376,336,107104,1,0,0:0:0:0:
200,356,107229,6,0,B|121:406|12:340|102:253|148:288,1,207.999990478516,0|0,3:0|0:0,0:0:0:0:
278,381,107604,6,0,B|284:340|284:340|250:281|250:281|264:207,1,155.999992858887,12|0,3:2|0:0,0:0:0:0:
361,231,107854,6,0,B|379:246|411:246|411:246|310:276,1,132.00000402832,8|0,3:2|0:0,0:0:0:0:
258,235,108104,2,0,L|270:167,2,44.0000013427735,4|2|2,3:1|0:0|0:0,0:0:0:0:
228,128,108354,1,2,0:0:0:0:
292,68,108479,5,0,3:0:0:0:
294,74,108541,1,0,3:0:0:0:
295,80,108604,1,0,3:0:0:0:
172,52,108729,1,0,0:0:0:0:
189,200,108854,6,0,B|143:184|103:226|132:222|110:280|45:258,1,167.999994873047,0|0,3:2|0:0,0:0:0:0:
45,188,109104,6,0,B|97:179|133:232|102:222|115:289|189:278,1,180.000006866455,0|0,3:2|0:0,0:0:0:0:
244,138,109354,6,0,P|239:116|233:92,2,32,0|0|0,3:0|3:0|3:0,0:0:0:0:
189,200,109604,1,0,3:0:0:0:
328,308,109729,6,0,P|323:330|317:354,2,32,0|0|0,3:0|3:0|3:0,0:0:0:0:
273,246,109979,1,0,3:0:0:0:
212,340,110104,5,0,3:0:0:0:
206,342,110166,1,0,3:0:0:0:
200,343,110229,1,0,3:0:0:0:
118,281,110354,5,0,3:0:0:0:
124,283,110416,1,0,3:0:0:0:
130,284,110479,1,0,3:0:0:0:
284,216,110604,6,0,L|348:228,1,40,2|0,3:2|0:0,0:0:0:0:
397,190,110729,2,0,P|404:144|366:108,1,80,2|0,3:2|3:0,0:0:0:0:
486,251,110979,6,0,L|422:263,1,40,2|0,3:2|0:0,0:0:0:0:
386,108,111104,2,0,P|340:115|304:77,1,80,2|0,3:2|3:0,0:0:0:0:
206,29,111354,5,2,3:2:0:0:
204,35,111416,1,0,3:0:0:0:
203,41,111479,1,0,3:0:0:0:
25,168,111604,6,0,P|43:159|62:160,1,40,2|0,3:2|3:0,0:0:0:0:
81,144,111729,2,0,P|100:149|115:162,1,40,0|0,3:0|0:0,0:0:0:0:
165,227,111854,6,0,B|184:236|207:232|207:232|122:258,1,128,2|8,3:2|0:0,0:0:0:0:
0,313,112229,2,0,B|45:327|45:327|57:349|57:349|112:366,1,128,2|0,3:2|0:0,0:0:0:0:
261,310,112604,6,0,B|231:299|231:299|202:313,1,64,2|0,3:2|0:0,0:0:0:0:
352,384,112854,2,0,B|346:354|346:354|342:350|342:350|335:323,1,64,10|0,3:2|0:0,0:0:0:0:
285,204,113104,6,0,B|307:210|331:225|331:225|388:203|359:156,1,128,2|0,3:2|0:0,0:0:0:0:
309,54,113479,2,0,B|302:80|302:80|298:84|298:84|292:114,1,64,2|8,3:2|0:0,0:0:0:0:
454,35,113729,1,0,0:0:0:0:
385,8,113854,1,2,3:2:0:0:
434,136,113979,5,2,0:0:0:0:
435,141,114041,1,2,0:0:0:0:
437,146,114104,2,0,B|469:136|469:136|493:154,1,64,2|8,3:2|0:0,0:0:0:0:
460,298,114354,6,0,B|441:292|426:255|444:234|444:234|444:264|469:285,1,128,2|0,3:2|0:0,0:0:0:0:
395,342,114729,2,0,B|368:333|368:333|364:330|364:330|333:323,1,64,2|0,3:2|0:0,0:0:0:0:
287,269,114979,5,0,0:0:0:0:
187,361,115104,2,0,P|219:366|245:348,1,64,2|0,3:2|0:0,0:0:0:0:
117,286,115354,6,0,B|134:227|134:227|136:248|141:262,1,96,2|0,3:2|0:0,0:0:0:0:
124,291,115604,6,0,B|61:283|71:334|6:330,1,128,2|0,3:2|0:0,0:0:0:0:
98,162,115979,1,2,3:2:0:0:
13,124,116104,6,0,P|27:168|100:158,1,128,8|2,0:0|3:2,0:0:0:0:
151,34,116479,1,2,0:0:0:0:
142,36,116541,1,2,0:0:0:0:
135,38,116604,2,0,B|106:45|106:45|102:48|102:48|72:56,1,64,2|8,3:2|0:0,0:0:0:0:
187,132,116854,6,0,B|229:132|249:96|249:96|237:135|262:170,1,143.999995605469,2|8,3:2|0:0,0:0:0:0:
362,91,117229,1,2,3:2:0:0:
275,26,117354,6,0,B|310:33|310:33|341:13,1,71.9999978027344
470,104,117604,6,0,B|450:119|450:119|469:47,1,96,2|0,3:2|0:0,0:0:0:0:
475,42,117854,2,0,B|494:26|494:26|475:98,1,96,10|0,3:2|0:0,0:0:0:0:
389,180,118104,6,0,B|439:196|439:196|453:220|453:220|516:241,1,143.999995605469,2|0,3:2|0:0,0:0:0:0:
351,380,118479,2,0,P|334:353|347:314,1,71.9999978027344,2|8,3:2|0:0,0:0:0:0:
391,263,118729,1,0,0:0:0:0:
303,227,118854,6,0,B|265:241|265:241|253:260|253:260|210:275,1,107.999996704102,2|0,3:2|0:0,0:0:0:0:
160,227,119104,1,2,3:2:0:0:
162,223,119166,1,2,3:2:0:0:
163,218,119229,1,8,0:0:0:0:
52,322,119354,6,0,B|136:351|136:351|111:336|102:301,1,143.999995605469,2|8,3:2|0:0,0:0:0:0:
52,322,119729,1,2,3:2:0:0:
72,216,119854,6,0,B|41:236|41:236|6:229,1,71.9999978027344
166,127,120104,6,0,B|188:149|188:149|169:216,1,96,2|0,3:2|0:0,0:0:0:0:
163,218,120354,2,0,B|141:196|141:196|160:129,1,96,2|0,3:2|0:0,0:0:0:0:
118,63,120604,6,0,P|81:34|37:48,1,96,2|2,0:0|0:0,0:0:0:0:
286,36,121604,6,0,B|323:32|338:-1|338:-1|332:48|366:70,1,143.999995605469,8|0,0:3|0:0,0:0:0:0:
432,79,121854,6,0,B|359:73|379:133|298:129,1,143.999995605469,2|0,3:2|3:2,0:0:0:0:
429,241,122229,2,0,B|449:227|457:191|434:168|434:168|442:202|418:228,1,143.999995605469,10|0,3:2|3:2,0:0:0:0:
420,323,122604,6,0,B|454:332|454:332|458:335|458:335|488:343,1,71.9999978027344,2|0,3:2|0:0,0:0:0:0:
348,197,122854,2,0,B|328:228|328:228|347:263,1,71.9999978027344,10|0,3:2|0:0,0:0:0:0:
285,362,123104,6,0,B|258:349|223:345|223:345|197:295|244:278,1,143.999995605469,2|0,3:2|3:2,0:0:0:0:
348,197,123479,1,10,3:2:0:0:
292,129,123604,6,0,B|229:148|229:148|248:137|255:117,1,107.999996704102
216,55,123854,2,0,P|185:36|150:44,1,71.9999978027344,2|0,3:2|0:0,0:0:0:0:
94,89,124041,1,2,0:0:0:0:
97,95,124104,1,10,3:2:0:0:
152,146,124229,1,0,0:0:0:0:
24,195,124354,6,0,B|61:178|93:208|93:208|105:244|145:248,1,143.999995605469,2|0,3:2|3:2,0:0:0:0:
19,342,124729,2,0,B|27:312|27:312|30:308|30:308|39:274,1,71.9999978027344,10|0,3:2|0:0,0:0:0:0:
39,273,124979,1,0,3:2:0:0:
119,360,125104,6,0,B|154:367|154:367|185:348,1,71.9999978027344,2|0,3:2|0:0,0:0:0:0:
297,250,125354,2,0,B|318:227|318:227|241:253,1,107.999996704102,10|0,3:2|0:0,0:0:0:0:
273,320,125604,6,0,B|324:338|324:338|336:360|336:360|397:380,1,143.999995605469,2|0,3:2|3:2,0:0:0:0:
492,273,125979,2,0,L|454:262,1,35.9999989013672,10|0,3:2|0:0,0:0:0:0:
446,262,126104,6,0,B|454:292|454:292|457:296|457:296|466:330,1,71.9999978027344,0|0,0:0|3:2,0:0:0:0:
337,179,126354,2,0,B|368:160|368:160|402:170,1,71.9999978027344,2|0,3:2|0:0,0:0:0:0:
472,189,126541,1,2,0:0:0:0:
476,183,126604,1,10,3:2:0:0:
391,68,126729,1,0,0:0:0:0:
502,38,126854,6,0,P|472:92|388:63,1,160,2|0,3:2|3:2,0:0:0:0:
312,7,127229,1,10,3:2:0:0:
265,59,127354,6,0,B|227:69|227:69|223:72|223:72|188:82,1,80,0|0,0:0|3:2,0:0:0:0:
25,39,127604,6,0,B|19:23|19:23|46:-3|97:10|101:55,1,120,2|0,3:2|0:0,0:0:0:0:
118,119,127854,2,0,B|107:155|107:155|104:159|104:159|95:195,1,80,10|0,3:2|0:0,0:0:0:0:
70,292,128104,5,2,3:2:0:0:
0,274,128229,2,0,P|37:265|71:293,1,71.9999978027344,0|0,0:0|3:2,0:0:0:0:
193,339,128479,5,10,3:2:0:0:
123,357,128604,2,0,P|160:366|194:337,1,71.9999978027344,0|0,0:0|3:2,0:0:0:0:
296,240,128854,6,0,B|224:216|224:216|249:232|258:264,1,120,2|0,3:2|0:0,0:0:0:0:
298,313,129104,2,0,B|335:324|335:324|373:299,1,80,10|0,3:2|0:0,0:0:0:0:
495,224,129354,6,0,B|482:269|482:269|509:326|509:326|494:375,1,160,2|0,3:2|3:2,0:0:0:0:
386,221,129729,1,10,3:2:0:0:
504,131,129854,6,0,B|466:141|466:141|462:144|462:144|427:154,1,80,0|0,0:0|3:2,0:0:0:0:
305,33,130104,6,0,B|254:18|254:18|300:47,1,107.999996704102,2|0,3:2|0:0,0:0:0:0:
372,79,130354,2,0,B|418:50|418:50|363:67,1,107.999996704102,10|0,3:2|0:0,0:0:0:0:
310,122,130604,5,2,3:2:0:0:
310,122,131354,5,8,3:2:0:0:
241,148,131479,1,0,3:2:0:0:
114,63,131604,5,0,3:2:0:0:
45,37,131729,1,0,3:2:0:0:
185,92,131854,6,0,B|142:70|110:115|110:115|112:119|112:119|88:166|45:157,1,176.000005371094,4|0,3:1|0:0,0:0:0:0:
172,274,132229,1,8,3:2:0:0:
175,270,132291,1,2,0:0:0:0:
178,266,132354,2,0,B|196:226|196:226|167:192,1,88.000002685547,2|0,0:0|0:0,0:0:0:0:
2,301,132604,6,0,B|34:304|63:281|63:281|43:301|43:322,1,107.999996704102,8|0,3:2|0:0,0:0:0:0:
116,332,132854,2,0,P|139:367|198:356,1,107.999996704102,8|0,3:2|0:0,0:0:0:0:
266,290,133104,6,0,B|307:281|346:262|346:262|404:296|359:338,1,176.000005371094,8|0,3:2|0:0,0:0:0:0:
275,200,133479,2,0,B|269:178|269:178|281:158,1,44.0000013427735,8|0,3:2|0:0,0:0:0:0:
285,154,133604,2,0,B|317:161|317:161|331:173|331:173|366:182,1,88.000002685547,2|0,0:0|0:0,0:0:0:0:
481,318,133854,6,0,B|481:343|466:359|466:359|505:336|495:299,1,107.999996704102,8|0,3:2|0:0,0:0:0:0:
462,244,134104,2,0,B|450:187|450:187|446:182|446:182|437:139,1,107.999996704102,8|0,3:2|0:0,0:0:0:0:
499,44,134354,6,0,B|479:-1|418:-13|373:21|373:21|393:38|402:73,1,191.999994140625,4|0,3:1|0:0,0:0:0:0:
285,154,134729,1,8,3:2:0:0:
281,157,134791,1,2,0:0:0:0:
277,160,134854,2,0,P|232:171|197:132,1,95.9999970703126,2|0,0:0|0:0,0:0:0:0:
43,36,135104,6,0,B|20:103|20:103|33:75|60:66,1,120,8|0,3:2|0:0,0:0:0:0:
89,138,135354,2,0,B|112:205|112:205|99:177|72:168,1,120,8|0,3:2|0:0,0:0:0:0:
34,255,135604,6,0,B|-14:283|-15:338|3:375|53:377|81:346|71:308,1,191.999994140625,8|0,3:2|0:0,0:0:0:0:
217,264,135979,6,0,B|251:283|303:262|303:262|247:294|250:346,1,191.999994140625,8|8,3:2|3:1,0:0:0:0:
324,337,136291,5,0,0:0:0:0:
330,345,136354,2,0,P|351:355|375:354,1,47.9999985351563,8|8,3:2|3:1,0:0:0:0:
392,361,136479,2,0,P|411:347|422:326,1,47.9999985351563,8|8,3:1|3:1,0:0:0:0:
475,160,136604,6,0,L|487:221,1,47.9999985351563,8|8,3:2|3:1,0:0:0:0:
480,222,136729,2,0,L|492:283,1,47.9999985351563,8|8,3:1|3:1,0:0:0:0:
330,345,136854,6,0,B|316:298|262:280|219:308|219:308|205:355|166:350,1,207.999990478516,4|0,3:1|0:0,0:0:0:0:
26,266,137229,1,8,3:2:0:0:
55,366,137354,2,0,B|92:344|92:344|62:403,1,88.000002685547,2|0,0:0|3:2,0:0:0:0:
0,205,137604,6,0,B|38:260|94:231|94:231|108:193,1,143.999995605469,2|0,3:2|0:0,0:0:0:0:
72,128,137854,2,0,B|50:98|50:98|39:94|39:94|55:145,1,95.9999970703126,10|0,3:2|0:0,0:0:0:0:
187,41,138104,6,0,B|241:21|280:63|256:78|294:128|348:107,1,191.999994140625,2|0,3:2|0:0,0:0:0:0:
468,209,138479,2,0,B|478:221|483:241|483:241|512:216|504:177|461:152,1,143.999995605469,8|0,3:2|0:0,0:0:0:0:
391,177,138729,1,0,3:2:0:0:
415,44,138854,2,0,B|431:24|457:19|457:19|434:38|435:58,1,95.9999970703126,2|0,3:2|0:0,0:0:0:0:
391,177,139104,6,0,B|337:191|337:191|320:221|320:221|268:235,1,143.999995605469,8|0,3:2|0:0,0:0:0:0:
283,360,139354,6,0,B|318:314|306:246|246:214|190:254|205:301,1,223.999993164063,2|0,3:2|0:0,0:0:0:0:
272,160,139729,1,8,3:2:0:0:
205,301,139854,2,0,P|160:311|121:284,1,95.9999970703126,2|0,0:0|3:2,0:0:0:0:
88,128,140104,6,0,B|77:71|24:65|24:65|52:87|53:101,1,143.999995605469,2|0,3:2|0:0,0:0:0:0:
66,220,140354,2,0,B|102:212|102:212|114:196|114:196|152:188,1,95.9999970703126,10|0,3:2|0:0,0:0:0:0:
296,112,140604,6,0,B|337:70|300:24|300:24|233:9|233:9|244:31,1,191.999994140625,2|0,3:2|0:0,0:0:0:0:
400,128,140979,2,0,B|432:121|432:121|455:95|455:95|482:88,1,95.9999970703126,8|0,3:2|0:0,0:0:0:0:
328,216,141229,1,0,3:2:0:0:
456,336,141354,5,2,3:2:0:0:
481,324,141416,1,8,3:1:0:0:
496,301,141479,1,8,3:1:0:0:
496,274,141541,1,8,3:1:0:0:
481,250,141604,6,0,B|456:253|456:253|431:233,1,55.9999982910157,8|8,3:2|3:1,0:0:0:0:
355,259,141729,2,0,B|334:245|334:245|327:215,1,55.9999982910157,8|8,3:1|3:1,0:0:0:0:
226,149,141854,6,0,B|156:164|156:164|125:219|125:219|53:237,1,207.999990478516,4|2,3:1|0:0,0:0:0:0:
168,328,142229,1,8,3:2:0:0:
54,237,142354,2,0,P|102:227|138:257,1,95.9999970703126,2|0,0:0|3:2,0:0:0:0:
304,384,142604,6,0,P|327:378|344:362,1,47.9999985351563,2|0,3:2|0:0,0:0:0:0:
356,350,142729,2,0,P|360:327|352:304,1,47.9999985351563,8|0,3:1|0:0,0:0:0:0:
269,258,142854,5,10,3:2:0:0:
240,176,142979,1,8,3:1:0:0:
400,88,143104,6,0,B|411:114|440:132|440:132|311:105,1,191.999994140625,4|2,3:2|0:0,0:0:0:0:
80,220,143479,2,0,B|48:236|48:236|-8:200|24:144,1,143.999995605469,12|0,3:2|0:0,0:0:0:0:
36,136,143729,1,0,3:2:0:0:
188,72,143854,2,0,B|190:45|162:28|162:28|177:44|174:67,1,95.9999970703126,4|0,3:1|3:1,0:0:0:0:
204,236,144104,5,10,3:2:0:0:
180,316,144229,1,0,3:1:0:0:
334,380,144354,6,0,B|356:336|412:344|412:344|432:372|468:364,1,155.999992858887,4|0,3:1|0:0,0:0:0:0:
480,356,144604,1,2,0:0:0:0:
368,264,144729,2,0,P|328:220|352:168,1,95.9999970703126,8|2,3:2|0:0,0:0:0:0:
456,112,144979,1,0,3:2:0:0:
333,188,145104,6,0,B|288:200|264:172|276:160|240:128|189:152,1,143.999995605469,2|0,3:2|0:0,0:0:0:0:
105,104,145354,2,0,B|128:108|148:96|148:96|124:120|130:141,1,95.9999970703126,10|0,3:2|0:0,0:0:0:0:
44,364,145604,5,4,3:1:0:0:
108,288,145729,1,8,3:1:0:0:
200,320,145854,1,8,3:1:0:0:
320,240,145979,5,4,3:1:0:0:
472,296,146104,1,8,3:1:0:0:
344,384,146229,1,8,3:1:0:0:
412,240,146354,5,2,3:1:0:0:
414,234,146416,1,2,0:1:0:0:
416,228,146479,2,0,P|419:200|407:175,1,55.9999982910157,2|2,0:1|0:1,0:0:0:0:
288,112,146604,1,10,3:1:0:0:
396,32,146729,1,8,3:1:0:0:
160,148,146854,6,0,B|90:183|34:151|32:92|80:68|115:88,1,207.999990478516,4|0,3:1|0:0,0:0:0:0:
240,184,147229,1,8,3:2:0:0:
192,312,147354,2,0,B|164:276|164:276|176:235,1,88.000002685547,2|0,0:0|3:2,0:0:0:0:
273,56,147604,6,0,B|358:30|358:30|332:48|330:76,1,143.999995605469,2|0,3:2|0:0,0:0:0:0:
400,88,147854,2,0,B|440:117|440:117|417:160,1,95.9999970703126,10|0,3:2|0:0,0:0:0:0:
460,360,148104,6,0,B|477:374|518:349|517:278|430:252|388:282,1,191.999994140625,2|0,3:2|0:0,0:0:0:0:
264,236,148479,1,8,3:2:0:0:
292,384,148604,1,0,0:0:0:0:
316,304,148729,1,0,3:2:0:0:
140,360,148854,6,0,B|66:349|66:349|31:316|74:277,1,143.999995605469,2|0,3:2|0:0,0:0:0:0:
148,248,149104,2,0,B|134:216|105:224|105:224|124:236|130:256,1,95.9999970703126,8|0,3:2|0:0,0:0:0:0:
292,384,149354,6,0,B|312:352|312:352|296:300|296:300|264:292|264:292|248:240|248:240|280:200,1,223.999993164063,2|0,3:2|0:0,0:0:0:0:
384,80,149729,2,0,P|351:47|305:52,1,95.9999970703126,8|2,3:2|0:0,0:0:0:0:
144,148,149979,5,0,3:2:0:0:
136,148,150041,1,0,3:0:0:0:
128,152,150104,2,0,B|76:152|48:112|48:112|40:108|40:108|56:132|55:146,1,143.999995605469,2|0,3:2|0:0,0:0:0:0:
66,220,150354,2,0,B|38:228|22:252|22:252|10:228|24:213,1,95.9999970703126,10|0,3:2|0:0,0:0:0:0:
204,20,150604,6,0,L|256:28,1,47.9999985351563,2|0,3:2|0:0,0:0:0:0:
263,29,150729,2,0,B|232:40|232:40|184:76|200:156|262:156,1,191.999994140625,0|8,0:0|3:2,0:0:0:0:
384,224,151104,2,0,B|408:204|432:204|432:204|408:192|390:195,1,95.9999970703126,0|0,0:0|3:2,0:0:0:0:
288,344,151354,5,2,3:2:0:0:
144,280,151479,1,8,3:1:0:0:
133,284,151541,1,8,3:1:0:0:
124,288,151604,2,0,B|109:264|109:264|119:238,1,55.9999982910157,8|8,3:2|3:1,0:0:0:0:
88,120,151729,2,0,B|104:144|104:144|93:170,1,55.9999982910157,8|8,3:1|3:1,0:0:0:0:
24,208,151854,6,0,B|100:196|100:196|140:216|140:216|225:203,1,207.999990478516,4|2,3:1|0:0,0:0:0:0:
304,72,152229,1,8,3:2:0:0:
416,104,152354,2,0,P|394:143|348:141,1,95.9999970703126,2|0,0:0|3:2,0:0:0:0:
309,337,152604,6,0,B|317:369|317:369|378:355,1,95.9999970703126,2|8,3:2|3:1,0:0:0:0:
383,354,152791,1,8,3:1:0:0:
387,353,152854,1,10,3:2:0:0:
296,252,152979,1,8,3:1:0:0:
153,349,153104,6,0,B|133:355|126:372|126:372|20:354|20:354|-2:300|39:268,1,239.999992675781,4|0,3:2|0:0,0:0:0:0:
136,248,153479,2,0,B|114:247|100:225|100:225|116:249|111:275,1,95.9999970703126,12|2,3:2|0:0,0:0:0:0:
28,192,153729,1,0,3:2:0:0:
200,80,153854,5,4,3:1:0:0:
96,12,153979,1,0,3:1:0:0:
152,172,154104,5,10,3:2:0:0:
292,85,154229,1,0,3:1:0:0:
380,212,154354,6,0,B|444:259|516:207|502:149|450:133|428:160,1,207.999990478516,4|2,3:1|0:0,0:0:0:0:
388,340,154729,2,0,B|358:336|358:336|332:313|332:313|301:308,1,95.9999970703126,8|2,3:2|0:0,0:0:0:0:
132,136,154979,5,0,3:2:0:0:
132,136,155041,1,0,3:0:0:0:
132,136,155104,6,0,B|153:157|141:201|141:201|101:213|91:253,1,143.999995605469,2|0,3:2|0:0,0:0:0:0:
164,272,155354,2,0,B|193:276|213:286|213:286|236:270|216:248,1,95.9999970703126,10|0,3:2|0:0,0:0:0:0:
372,124,155604,5,4,3:1:0:0:
476,156,155729,1,8,3:1:0:0:
384,108,155854,1,8,3:1:0:0:
344,276,155979,5,4,3:1:0:0:
216,248,156104,1,8,3:1:0:0:
352,292,156229,1,8,3:1:0:0:
268,136,156354,6,0,P|216:151|173:118,1,111.999996582031,2|8,3:1|3:1,0:0:0:0:
212,52,156541,1,8,3:1:0:0:
216,56,156604,1,10,3:1:0:0:
100,8,156729,1,8,3:1:0:0:
24,192,156854,6,0,B|-4:224|8:280|52:288|52:288|28:256|38:230,1,182.399997773438,4|0,3:1|0:0,0:0:0:0:
173,118,157229,2,0,B|218:131|218:131|238:151|223:171,1,91.1999988867188,10|2,3:2|0:0,0:0:0:0:
116,236,157479,1,0,3:2:0:0:
204,348,157604,6,0,B|276:328|276:328|276:360|304:384,1,136.799998330078,2|0,3:2|0:0,0:0:0:0:
348,324,157854,2,0,L|438:341,1,91.1999988867188,10|0,3:2|0:0,0:0:0:0:
468,208,158104,6,0,B|500:220|500:220|488:160|424:148|376:176,1,182.399997773438,2|0,3:2|0:0,0:0:0:0:
246,77,158479,2,0,B|271:72|286:54|286:54|272:75|277:97,1,91.1999988867188,8|0,3:2|0:0,0:0:0:0:
126,234,158729,5,0,3:2:0:0:
121,235,158791,1,0,3:0:0:0:
116,236,158854,2,0,B|93:243|68:255|68:255|40:244|31:203|51:183,1,136.799998330078,2|0,3:2|0:0,0:0:0:0:
92,124,159104,2,0,B|72:104|46:108|46:108|67:95|85:101,1,91.1999988867188,8|0,3:2|0:0,0:0:0:0:
208,268,159354,6,0,B|258:298|294:250|278:254|314:198|368:230,1,182.399997773438,2|0,3:2|0:0,0:0:0:0:
468,120,159729,2,0,B|460:108|460:84|460:84|440:133,1,91.1999988867188,10|0,3:2|0:0,0:0:0:0:
496,316,159979,5,0,3:2:0:0:
491,317,160041,1,0,3:2:0:0:
486,318,160104,2,0,B|442:331|442:331|425:364|425:364|359:381,1,136.799998330078,2|0,3:2|0:0,0:0:0:0:
356,372,160354,2,0,B|344:324|372:340|358:282,1,91.1999988867188,10|0,3:2|0:0,0:0:0:0:
319,123,160604,6,0,B|336:104|336:104|396:92|440:152|399:202,1,182.399997773438,2|0,3:2|0:0,0:0:0:0:
224,340,160979,2,0,B|172:344|148:372|148:372|104:364|96:316|120:288,1,182.399997773438,8|0,3:2|3:2,0:0:0:0:
160,160,161354,5,2,3:2:0:0:
158,155,161416,1,0,3:2:0:0:
156,150,161479,2,0,L|111:139,1,45.5999994433594,8|8,3:1|3:1,0:0:0:0:
0,64,161604,1,8,3:1:0:0:
96,20,161729,1,8,3:1:0:0:
32,172,161854,6,0,B|80:148|123:180|123:180|136:232|200:232,1,182.399997773438,4|0,3:1|0:0,0:0:0:0:
348,82,162229,2,0,B|300:90|268:58|268:58|321:96|307:137,1,182.399997773438,8|0,3:2|3:0,0:0:0:0:
184,231,162604,2,0,P|152:207|164:155,1,91.1999988867188,2|8,3:2|3:1,0:0:0:0:
224,128,162791,1,8,3:1:0:0:
230,130,162854,5,10,3:2:0:0:
320,216,162979,1,0,3:0:0:0:
448,152,163104,2,0,B|488:180|488:180|477:221,1,91.1999988867188,0|8,3:0|3:1,0:0:0:0:
456,296,163291,1,8,3:1:0:0:
454,308,163354,5,8,3:1:0:0:
356,291,163479,1,0,3:0:0:0:
296,378,163604,1,8,3:1:0:0:
159,234,163729,5,8,3:1:0:0:
6,270,163854,1,10,3:1:0:0:
111,379,163979,1,8,3:1:0:0:
94,295,164104,2,0,B|96:274|96:274|72:236|72:236|77:204,1,91.1999988867188,10|8,3:1|3:1,0:0:0:0:
170,55,164354,5,4,0:1:0:0:
40,80,164479,1,0,0:0:0:0:
160,40,164604,1,2,3:2:0:0:
216,164,164729,5,8,3:1:0:0:
368,180,164854,1,0,0:0:0:0:
240,136,164979,1,2,3:2:0:0:
337,271,165104,6,0,P|356:283|378:288,1,45.5999994433594,8|0,3:1|0:0,0:0:0:0:
397,270,165229,2,0,P|417:259|432:242,1,45.5999994433594,0|0,3:0|0:0,0:0:0:0:
476,128,165354,6,0,L|431:117,1,45.5999994433594,8|0,3:1|0:0,0:0:0:0:
420,114,165479,2,0,L|375:103,1,45.5999994433594,0|0,3:0|0:0,0:0:0:0:
496,310,165604,6,0,B|540:276|504:223|504:223|425:206|425:206|443:228,1,207.999990478516,4|0,3:1|0:0,0:0:0:0:
494,384,165979,1,8,3:2:0:0:
378,288,166104,6,0,P|345:260|302:267,1,88.000002685547,2|0,0:0|3:2,0:0:0:0:
129,371,166354,6,0,B|216:348|216:348|180:354|148:330,1,143.999995605469,2|0,3:2|0:0,0:0:0:0:
201,274,166604,2,0,B|209:240|209:240|199:216|199:216|207:180,1,95.9999970703126,10|0,3:2|0:0,0:0:0:0:
8,285,166854,6,0,B|8:316|41:346|92:328|107:271|47:221,1,191.999994140625,2|0,3:2|0:0,0:0:0:0:
20,66,167229,2,0,B|64:85|98:60|98:60|66:85|69:122,1,143.999995605469,8|0,3:2|0:0,0:0:0:0:
105,172,167479,1,0,3:2:0:0:
220,45,167604,6,0,B|198:24|169:26|169:26|186:33|198:51,1,95.9999970703126,2|0,3:2|0:0,0:0:0:0:
296,158,167854,2,0,B|339:169|362:130|355:129|375:94|429:106,1,143.999995605469,8|0,3:2|0:0,0:0:0:0:
497,67,168104,6,0,B|448:107|373:77|369:22|369:22|391:13|406:0,1,207.999990478516,2|0,3:2|0:0,0:0:0:0:
512,152,168479,1,8,3:2:0:0:
394,255,168604,6,0,B|437:243|437:243|443:237|443:237|487:226,1,95.9999970703126,2|0,0:0|3:2,0:0:0:0:
262,299,168854,6,0,B|254:272|276:239|307:241|307:241|282:262|281:297,1,143.999995605469,2|0,3:2|0:0,0:0:0:0:
301,359,169104,2,0,B|345:372|345:372|384:341,1,95.9999970703126,10|0,3:2|0:0,0:0:0:0:
193,238,169354,6,0,B|146:212|109:261|109:261|112:265|112:265|85:317|29:302,1,191.999994140625,2|0,3:2|0:0,0:0:0:0:
168,366,169729,1,8,3:2:0:0:
27,301,169854,6,0,P|4:252|33:221,1,95.9999970703126,0|0,0:0|3:2,0:0:0:0:
145,85,170104,2,0,B|103:72|103:72|87:51|87:51|32:35,1,111.999996582031,2|8,3:2|3:1,0:0:0:0:
38,41,170291,5,8,3:1:0:0:
31,44,170354,2,0,P|11:67|10:94,1,55.9999982910157,8|8,3:2|3:1,0:0:0:0:
2,103,170479,2,0,P|13:131|35:145,1,55.9999982910157,8|8,3:1|3:1,0:0:0:0:
208,38,170604,6,0,B|229:26|240:13|240:13|305:33|305:33|308:96|367:109,1,207.999990478516,4|2,3:1|0:0,0:0:0:0:
479,55,170979,1,8,3:2:0:0:
405,171,171104,6,0,B|462:149|462:149|442:150|424:140,1,95.9999970703126,2|0,0:0|3:2,0:0:0:0:
326,238,171354,6,0,L|313:285,1,47.9999985351563,2|0,3:2|0:0,0:0:0:0:
273,346,171479,1,8,3:1:0:0:
307,371,171541,1,8,3:1:0:0:
353,352,171604,5,10,3:2:0:0:
198,291,171729,1,8,3:1:0:0:
353,352,171854,6,0,B|400:355|441:378|441:378|446:376|446:376|494:358|503:282|427:265,1,239.999992675781,4|0,3:2|0:0,0:0:0:0:
326,238,172229,6,0,B|197:291|197:291|202:283|202:283|252:267|264:208,1,239.999992675781,12|0,3:2|0:0,0:0:0:0:
186,210,172604,5,4,3:1:0:0:
292,124,172729,1,0,3:1:0:0:
403,238,172854,5,10,3:2:0:0:
223,101,172979,1,0,3:1:0:0:
392,52,173104,6,0,B|456:83|501:56|501:56|449:84|446:134,1,207.999990478516,4|2,3:1|0:0,0:0:0:0:
323,19,173479,1,8,3:2:0:0:
446,144,173604,6,0,B|404:154|404:154|398:160|398:160|355:172,1,95.9999970703126,2|0,0:0|3:2,0:0:0:0:
134,63,173854,6,0,B|144:54|153:42|153:42|192:31|233:61|223:110,1,143.999995605469,2|0,3:2|0:0,0:0:0:0:
187,170,174104,2,0,P|145:182|106:142,1,95.9999970703126,10|0,3:2|0:0,0:0:0:0:
25,49,174354,5,4,3:1:0:0:
85,11,174479,1,8,3:1:0:0:
134,63,174604,1,8,3:1:0:0:
15,192,174729,5,4,3:1:0:0:
109,151,174854,1,8,3:1:0:0:
4,189,174979,1,8,3:1:0:0:
162,281,175104,5,2,3:1:0:0:
108,232,175229,1,8,3:1:0:0:
74,268,175291,1,8,3:1:0:0:
96,313,175354,1,10,3:1:0:0:
188,171,175479,1,8,3:1:0:0:
86,320,175604,6,0,B|67:297|32:294|32:294|86:286|110:327|104:329|119:364|166:363,1,207.999990478516,4|0,3:1|0:0,0:0:0:0:
270,271,175979,1,8,3:2:0:0:
392,371,176104,6,0,B|360:360|360:360|351:346|351:346|311:332,1,88.000002685547,2|0,0:0|3:2,0:0:0:0:
204,202,176354,6,0,B|181:195|153:203|153:203|243:175,1,143.999995605469,2|0,3:2|0:0,0:0:0:0:
288,121,176604,2,0,P|319:156|299:211,1,95.9999970703126,10|0,3:2|0:0,0:0:0:0:
411,65,176854,6,0,B|420:23|461:6|496:15|496:15|442:27|427:80,1,191.999994140625,2|0,3:2|0:0,0:0:0:0:
478,206,177229,1,8,3:2:0:0:
505,110,177354,1,0,0:0:0:0:
388,178,177479,1,0,3:2:0:0:
506,328,177604,6,0,B|467:313|437:340|443:342|417:377|374:359,1,143.999995605469,2|0,3:2|0:0,0:0:0:0:
316,295,177854,2,0,B|333:281|335:255|335:255|351:283|326:307,1,95.9999970703126,8|0,3:2|0:0,0:0:0:0:
216,343,178104,6,0,B|149:341|128:275|128:275|149:333|102:366,1,223.999993164063,2|0,3:2|0:0,0:0:0:0:
220,252,178479,1,8,3:2:0:0:
92,369,178604,6,0,B|49:357|49:357|43:351|43:351|1:341,1,95.9999970703126,2|0,0:0|3:2,0:0:0:0:
156,181,178854,6,0,B|95:197|95:197|90:203|90:203|19:221,1,143.999995605469,2|0,3:2|0:0,0:0:0:0:
19,221,179104,2,0,P|-8:190|14:146,1,95.9999970703126,10|0,3:2|0:0,0:0:0:0:
119,19,179354,6,0,B|152:15|184:40|171:98|109:121|57:60,1,191.999994140625,2|0,3:2|0:0,0:0:0:0:
230,10,179729,1,8,3:2:0:0:
210,134,179854,6,0,B|252:109|252:109|298:126,1,95.9999970703126,0|0,0:0|3:2,0:0:0:0:
488,181,180104,2,0,B|423:204|423:204|444:188|451:165,1,111.999996582031,2|8,3:2|3:1,0:0:0:0:
386,141,180291,5,8,3:1:0:0:
381,137,180354,2,0,L|397:77,1,55.9999982910157,8|8,3:2|3:1,0:0:0:0:
395,71,180479,2,0,L|411:11,1,55.9999982910157,8|8,3:1|3:1,0:0:0:0:
488,181,180604,6,0,B|520:238|479:279|479:279|435:322|465:376,1,207.999990478516,4|2,3:1|0:0,0:0:0:0:
281,276,180979,1,8,3:2:0:0:
338,222,181104,6,0,P|375:212|403:270,1,95.9999970703126,2|0,0:0|3:2,0:0:0:0:
259,360,181354,6,0,L|212:347,1,47.9999985351563,2|0,3:2|0:0,0:0:0:0:
157,295,181479,1,8,3:1:0:0:
126,324,181541,1,8,3:1:0:0:
140,365,181604,5,10,3:2:0:0:
212,235,181729,1,8,3:1:0:0:
51,287,181854,6,0,B|41:265|-7:250|-7:250|168:298,1,239.999992675781,4|0,3:2|0:0,0:0:0:0:
272,188,182229,6,0,B|257:129|181:98|120:144|120:144|137:163|140:191,1,239.999992675781,12|0,3:2|0:0,0:0:0:0:
66,193,182604,5,4,3:1:0:0:
212,235,182729,1,0,3:1:0:0:
201,37,182854,5,10,3:2:0:0:
96,63,182979,1,0,3:1:0:0:
201,37,183104,6,0,B|252:12|292:61|292:61|289:65|289:65|318:121|374:107,1,207.999990478516,4|2,3:1|0:0,0:0:0:0:
478,50,183479,1,8,3:2:0:0:
381,188,183604,6,0,B|421:174|421:174|430:160|430:160|464:148,1,95.9999970703126,2|0,0:0|3:2,0:0:0:0:
508,328,183854,6,0,B|464:326|450:281|450:281|457:321|420:354,1,143.999995605469,2|0,3:2|0:0,0:0:0:0:
374,290,184104,2,0,P|323:298|294:262,1,95.9999970703126,10|0,3:2|0:0,0:0:0:0:
221,150,184354,5,4,3:1:0:0:
169,99,184479,1,8,3:1:0:0:
107,132,184604,1,8,3:1:0:0:
216,289,184729,5,4,3:1:0:0:
283,194,184854,1,8,3:1:0:0:
216,302,184979,1,8,3:1:0:0:
74,217,185104,5,2,3:1:0:0:
124,276,185229,1,8,3:1:0:0:
88,310,185291,1,8,3:1:0:0:
43,288,185354,1,10,3:1:0:0:
142,380,185479,1,8,3:1:0:0:
35,282,185604,6,0,B|23:251|23:251|35:210|35:210|56:198|56:198|67:155|67:155|47:120,1,182.399997773438,4|0,3:1|0:0,0:0:0:0:
0,11,185979,2,0,P|33:42|78:32,1,91.1999988867188,10|2,3:2|0:0,0:0:0:0:
208,0,186229,1,0,3:2:0:0:
169,157,186354,6,0,B|142:151|130:122|140:94|140:94|148:129|176:142,1,136.799998330078,2|0,3:2|0:0,0:0:0:0:
215,77,186604,2,0,B|251:87|251:87|261:102|261:102|298:113,1,91.1999988867188,10|0,3:2|0:0,0:0:0:0:
472,51,186854,6,0,B|388:76|388:76|355:60|343:27|380:-2,1,182.399997773438,2|0,3:2|0:0,0:0:0:0:
485,135,187229,2,0,B|513:169|513:169|492:212,1,91.1999988867188,8|0,3:2|0:0,0:0:0:0:
305,329,187479,5,0,3:2:0:0:
301,325,187541,1,0,3:0:0:0:
297,321,187604,6,0,B|363:310|346:372|420:359,1,136.799998330078,2|0,3:2|0:0,0:0:0:0:
408,289,187854,2,0,B|418:271|441:263|441:263|414:259|396:280,1,91.1999988867188,8|0,3:2|0:0,0:0:0:0:
213,361,188104,6,0,B|163:362|141:306|141:306|151:355|116:386,1,182.399997773438,2|0,3:2|0:0,0:0:0:0:
218,287,188479,2,0,P|241:250|220:205,1,91.1999988867188,10|0,3:2|0:0,0:0:0:0:
163,120,188729,1,0,3:2:0:0:
32,250,188854,6,0,B|9:170|9:170|24:198|58:213,1,136.799998330078,2|0,3:2|0:0,0:0:0:0:
71,135,189104,2,0,B|89:81|89:81|77:100|60:109,1,91.1999988867188,10|0,3:2|0:0,0:0:0:0:
226,208,189354,6,0,B|287:189|287:189|310:151|310:151|381:130,1,182.399997773438,2|0,3:2|0:0,0:0:0:0:
457,228,189729,2,0,B|463:245|473:258|473:258|449:291|355:285|366:196,1,182.399997773438,8|0,3:2|3:2,0:0:0:0:
367,32,190104,5,2,3:2:0:0:
375,35,190166,1,0,3:0:0:0:
380,38,190229,2,0,L|424:53,1,45.5999994433594,8|8,3:1|3:1,0:0:0:0:
477,106,190354,1,8,3:1:0:0:
511,70,190416,1,8,3:1:0:0:
489,25,190479,1,8,3:1:0:0:
286,67,190604,6,0,B|270:59|256:45|256:45|193:66|193:66|200:115|162:142,1,182.399997773438,4|0,3:1|0:0,0:0:0:0:
24,36,190979,2,0,B|8:8|8:8|90:24|90:24|120:64|83:95,1,182.399997773438,8|0,3:2|3:0,0:0:0:0:
32,250,191354,6,0,P|10:207|43:170,1,91.1999988867188,2|8,3:2|3:1,0:0:0:0:
102,157,191541,1,8,3:1:0:0:
109,161,191604,1,10,3:2:0:0:
7,105,191729,1,0,3:0:0:0:
119,255,191854,5,0,3:0:0:0:
119,255,191979,1,8,3:1:0:0:
119,255,192104,1,8,3:1:0:0:
0,361,192229,5,0,3:0:0:0:
32,250,192354,1,8,3:1:0:0:
186,372,192479,1,8,3:1:0:0:
208,294,192604,6,0,P|214:268|207:242,1,53.5999974645997,10|0,3:1|0:0,0:0:0:0:
211,226,192729,2,0,P|192:207|166:201,1,53.5999974645997,8|0,3:1|0:0,0:0:0:0:
291,361,192854,5,10,3:1:0:0:
291,361,192916,1,8,3:1:0:0:
291,361,192979,1,8,3:1:0:0:
291,361,193041,1,8,3:1:0:0:
291,361,193104,6,0,L|336:348,2,43.2000010546875,8|8|8,3:1|3:1|3:1,0:0:0:0:
436,313,193479,2,0,L|390:300,2,43.2000010546875,8|8|8,3:1|3:1|3:1,0:0:0:0:
353,221,193854,5,8,3:1:0:0:
288,255,193979,1,8,3:1:0:0:
387,123,194104,5,8,3:1:0:0:
496,236,194229,1,8,3:1:0:0:
480,72,194354,6,0,B|378:95|378:95|344:76|336:32|376:8,1,198.399992128907,4|0,3:1|0:0,0:0:0:0:
172,139,194729,2,0,B|135:129|135:129|130:118|130:118|69:99,1,99.1999960644533,8|2,3:2|0:0,0:0:0:0:
16,240,194979,1,0,3:2:0:0:
14,244,195041,1,0,3:0:0:0:
12,248,195104,2,0,B|-11:293|28:334|28:334|61:333|87:297,1,148.79999409668,2|0,3:2|0:0,0:0:0:0:
176,280,195354,2,0,B|148:282|133:262|133:262|153:285|147:308,1,99.1999960644533,10|0,3:2|0:0,0:0:0:0:
258,188,195604,6,0,B|306:164|343:202|343:202|346:210|346:210|379:258|452:237,1,198.399992128907,2|0,3:2|0:0,0:0:0:0:
504,144,195979,2,0,B|488:137|477:118|477:118|493:189,1,99.1999960644533,8|0,3:2|0:0,0:0:0:0:
500,384,196229,1,0,3:2:0:0:
496,379,196291,1,0,3:0:0:0:
493,375,196354,2,0,P|455:344|407:349,1,99.1999960644533,2|0,3:2|0:0,0:0:0:0:
312,275,196604,5,8,3:2:0:0:
238,328,196729,1,0,0:0:0:0:
104,248,196854,6,0,B|63:214|-2:288|72:349|151:305,1,198.399992128907,2|0,3:2|0:0,0:0:0:0:
315,193,197229,2,0,B|357:204|357:204|371:217|371:217|430:231,1,99.1999960644533,8|2,3:2|0:0,0:0:0:0:
456,112,197479,5,0,3:2:0:0:
425,221,197604,2,0,P|354:217|312:275,1,148.79999409668,2|0,3:2|0:0,0:0:0:0:
384,328,197854,2,0,B|407:339|424:371|424:371|423:337|399:314,1,99.1999960644533,10|0,3:2|0:0,0:0:0:0:
208,208,198104,6,0,B|176:224|160:248|160:248|112:248|80:192|120:144,1,198.399992128907,2|0,3:2|0:0,0:0:0:0:
288,32,198479,2,0,B|331:42|331:42|333:49|333:49|378:60,1,99.1999960644533,8|0,3:2|0:0,0:0:0:0:
472,24,198729,1,0,3:2:0:0:
464,208,198854,5,2,3:2:0:0:
337,172,198979,1,8,3:1:0:0:
353,156,199041,1,8,3:1:0:0:
385,156,199104,1,8,3:2:0:0:
328,292,199229,1,8,3:1:0:0:
115,149,199354,6,0,B|79:129|79:129|35:142|35:142|-7:198|26:251,1,198.399992128907,4|0,3:1|0:0,0:0:0:0:
152,376,199729,6,0,B|200:359|214:291|214:291|218:300|218:300|199:342|230:389,1,198.399992128907,8|0,3:2|3:2,0:0:0:0:
160,232,200104,1,8,3:1:0:0:
162,227,200166,1,8,3:1:0:0:
164,222,200229,2,0,L|213:213,1,49.5999980322266,8|8,3:1|3:1,0:0:0:0:
272,152,200354,1,8,3:2:0:0:
381,228,200479,1,8,3:1:0:0:
424,80,200604,6,0,B|440:59|465:54|465:54|421:26|365:42|332:101|361:154,1,247.999990161133,4|0,3:2|0:0,0:0:0:0:
456,264,200979,2,0,B|489:338|440:388|393:379|370:327|400:301,1,198.399992128907,4|0,3:2|3:2,0:0:0:0:
296,280,201354,5,4,3:1:0:0:
216,320,201479,1,0,3:2:0:0:
136,184,201604,5,8,3:2:0:0:
32,159,201729,1,8,3:2:0:0:
40,320,201854,6,0,B|83:327|101:361|101:361|69:239,1,198.399992128907,4|0,3:1|0:0,0:0:0:0:
112,88,202229,2,0,B|72:78|72:78|70:71|70:71|20:59,1,99.1999960644533,8|0,3:2|3:2,0:0:0:0:
212,213,202479,5,2,0:2:0:0:
216,215,202541,1,2,0:0:0:0:
220,217,202604,2,0,B|312:197|312:197|288:214|281:249,1,148.79999409668,2|0,3:2|0:0,0:0:0:0:
358,261,202854,2,0,L|455:244,1,99.1999960644533,8|0,3:2|0:0,0:0:0:0:
504,64,203104,5,4,3:1:0:0:
400,32,203229,1,8,3:1:0:0:
344,120,203354,1,8,3:1:0:0:
112,208,203479,5,4,3:1:0:0:
80,72,203604,1,8,3:1:0:0:
99,219,203729,1,8,3:1:0:0:
5,338,203854,6,0,P|21:319|44:311,1,49.5999980322266,8|8,3:0|3:0,0:0:0:0:
57,318,203979,2,0,P|80:323|99:340,1,49.5999980322266,8|8,3:0|3:0,0:0:0:0:
240,376,204104,6,0,L|250:327,1,49.5999980322266,8|0,3:2|0:0,0:0:0:0:
247,256,204229,2,0,L|257:304,1,49.5999980322266,8|0,3:2|0:0,0:0:0:0:
181,308,204354,6,0,B|225:300|225:300|299:338|299:338|346:329,1,176.000005371094,4|10,3:2|3:2,0:0:0:0:
408,200,204854,1,2,3:2:0:0:
408,200,204979,1,8,3:2:0:0:
485,259,205104,6,0,P|454:268|428:301,1,71.9999978027344,10|0,3:2|0:0,0:0:0:0:
421,104,205354,2,0,P|444:126|485:132,1,71.9999978027344,2|0,0:0|0:0,0:0:0:0:
408,200,205604,6,0,B|380:215|352:200|352:200|344:192|344:192|306:173|276:202,1,143.999995605469,2|10,3:2|3:2,0:0:0:0:
65,62,206104,1,2,3:2:0:0:
65,62,206229,1,8,3:2:0:0:
6,157,206354,2,0,P|50:148|103:209,1,107.999996704102,10|0,3:2|0:0,0:0:0:0:
106,201,206604,2,0,B|74:211|74:211|73:214|73:214|28:231,1,71.9999978027344,2|0,0:0|0:0,0:0:0:0:
193,131,206854,6,0,P|260:134|320:53,1,143.999995605469,2|10,3:2|3:2,0:0:0:0:
420,331,207354,5,2,3:2:0:0:
420,331,207479,1,8,3:2:0:0:
432,248,207604,2,0,B|399:255|399:255|397:258|397:258|353:270,1,71.9999978027344,10|0,3:2|0:0,0:0:0:0:
272,368,207854,2,0,B|220:361|220:361|218:358|218:358|157:348,1,107.999996704102,2|0,0:0|0:0,0:0:0:0:
128,278,208104,6,0,B|85:264|55:296|75:304|44:335|-5:320,2,143.999995605469,2|10|2,3:2|3:2|3:2,0:0:0:0:
128,278,208729,1,8,3:2:0:0:
230,235,208854,6,0,L|217:159,1,71.9999978027344,10|8,3:2|3:0,0:0:0:0:
217,160,209042,1,8,3:0:0:0:
216,156,209104,1,2,0:0:0:0:
248,80,209229,1,8,3:0:0:0:
120,168,209354,6,0,B|24:190|24:190|40:171|42:149,1,143.999995605469,4|10,3:2|3:2,0:0:0:0:
248,80,209854,5,2,3:2:0:0:
248,80,209979,1,8,3:2:0:0:
312,31,210104,2,0,P|380:55|393:107,1,107.999996704102,10|0,3:2|0:0,0:0:0:0:
452,132,210354,2,0,B|472:106|472:106|463:68,1,71.9999978027344,2|0,0:0|0:0,0:0:0:0:
324,224,210604,6,0,B|284:204|256:228|256:228|240:268|184:260,1,143.999995605469,2|10,3:2|3:2,0:0:0:0:
296,336,210979,1,0,0:0:0:0:
188,256,211104,2,0,P|192:216|196:172,1,71.9999978027344,2|8,3:2|3:2,0:0:0:0:
140,88,211354,6,0,P|88:97|47:65,1,107.999996704102,10|0,3:2|0:0,0:0:0:0:
46,64,211604,2,0,L|61:134,1,71.9999978027344,2|0,0:0|0:0,0:0:0:0:
24,320,211854,6,0,B|16:300|-8:292|-8:292|40:252|120:304|100:384,1,215.999993408203,2|0,3:2|0:0,0:0:0:0:
200,328,212354,2,0,B|224:328|244:340|244:340|240:324|228:316,1,71.9999978027344,2|8,3:2|3:2,0:0:0:0:
144,240,212604,5,10,3:2:0:0:
256,216,212729,1,8,3:1:0:0:
393,55,212854,5,2,0:0:0:0:
264,24,212979,1,8,3:1:0:0:
400,232,213104,6,0,P|423:226|446:222,1,47.9999985351563,4|0,3:1|0:0,0:0:0:0:
454,218,213229,2,0,B|472:193|498:187|498:187|373:166,1,143.999995605469
336,136,213479,2,0,B|288:156|288:156|248:200|268:276|352:268,1,191.999994140625,12|0,3:2|0:0,0:0:0:0:
96,376,213854,6,0,B|64:348|16:356|16:356|32:328|64:328,1,143.999995605469,4|0,3:1|0:0,0:0:0:0:
72,336,214104,2,0,B|106:325|106:325|110:317|110:317|172:295,1,95.9999970703126,8|0,3:2|0:0,0:0:0:0:
355,180,214354,6,0,B|382:134|433:137|433:137|439:141|439:141|410:158|401:198,1,143.999995605469,12|0,3:2|0:0,0:0:0:0:
476,207,214604,1,0,0:0:0:0:
232,112,214729,6,0,B|169:151|85:108|134:16|192:54,1,191.999994140625,4|0,3:1|0:0,0:0:0:0:
280,224,215104,2,0,B|264:280|264:280|304:320|288:384,1,155.999992858887,8|0,3:2|0:0,0:0:0:0:
216,344,215354,2,0,B|185:348|161:364|161:364|168:336|201:332,1,103.999995239258,8|0,3:2|0:0,0:0:0:0:
424,197,215604,6,0,L|479:207,2,51.999997619629,4|2|2,3:1|0:0|0:0,0:0:0:0:
368,264,215854,1,8,0:3:0:0:
283,102,215979,6,0,L|228:112,2,51.999997619629,0|2|2,3:0|0:0|0:0,0:0:0:0:
339,169,216229,1,8,0:3:0:0:
176,272,216354,6,0,B|136:288|94:268|121:236|75:219|28:239,1,155.999992858887,12|0,3:2|0:0,0:0:0:0:
49,253,216604,6,0,B|91:261|129:234|96:207|139:183|189:194,1,155.999992858887,8|0,3:2|0:0,0:0:0:0:
272,288,216854,5,4,3:1:0:0:
270,294,216916,1,8,3:1:0:0:
269,300,216979,1,8,3:1:0:0:
312,368,217104,1,8,0:3:0:0:
432,256,217229,5,8,3:1:0:0:
430,250,217291,1,8,3:1:0:0:
429,244,217354,1,8,1:3:0:0:
472,176,217479,1,8,3:1:0:0:
477,327,217604,6,0,B|428:327|403:354|403:354|399:358|399:358|391:308|332:276,1,167.999994873047,2|0,3:2|0:0,0:0:0:0:
325,209,217854,2,0,B|297:174|325:117|370:123|370:123|341:140|338:168,1,180.000006866455,0|0,3:0|0:0,0:0:0:0:
407,56,218104,6,0,B|420:31|451:23|451:23|328:47,1,176.000005371094,4|0,3:1|0:0,0:0:0:0:
171,26,218479,1,8,3:2:0:0:
176,24,218541,1,2,0:0:0:0:
182,22,218604,2,0,P|227:24|246:67,1,88.000002685547
122,174,218854,6,0,B|106:201|65:194|65:194|93:186|111:158,1,107.999996704102,8|0,3:2|0:0,0:0:0:0:
139,102,219104,2,0,B|179:116|179:116|190:134|190:134|235:150,1,107.999996704102,8|0,3:2|0:0,0:0:0:0:
325,209,219354,6,0,B|275:191|247:233|253:232|223:286|165:265,1,176.000005371094,8|0,3:2|0:0,0:0:0:0:
14,188,219729,2,0,B|35:180|35:180|56:190,1,44.0000013427735,8|0,3:2|0:0,0:0:0:0:
62,194,219854,2,0,B|70:234|70:234|68:242|68:242|76:286,1,88.000002685547,2|0,0:0|0:0,0:0:0:0:
205,339,220104,6,0,B|237:342|266:319|266:319|246:339|246:360,1,107.999996704102,8|0,3:2|0:0,0:0:0:0:
319,365,220354,2,0,B|383:382|383:382|363:370|355:352,1,107.999996704102,8|0,3:2|0:0,0:0:0:0:
451,336,220604,6,0,B|462:305|462:305|449:264|449:264|429:255|429:255|419:209|419:209|439:174,1,176.000005371094,8|0,3:2|0:0,0:0:0:0:
512,64,220979,1,8,3:2:0:0:
508,69,221041,1,2,0:0:0:0:
504,75,221104,2,0,B|466:99|466:99|417:80,1,88.000002685547,2|0,0:0|0:0,0:0:0:0:
269,15,221354,6,0,P|305:1|339:67,1,107.999996704102,8|0,3:2|0:0,0:0:0:0:
314,114,221604,2,0,B|259:97|259:97|247:123|214:136,1,107.999996704102,8|0,3:2|0:0,0:0:0:0:
178,51,221854,6,0,B|93:73|93:73|61:58|49:27|82:-3,1,176.000005371094,8|0,3:2|0:0,0:0:0:0:
223,131,222229,2,0,L|176:146,1,44.0000013427735,8|0,3:2|0:0,0:0:0:0:
173,152,222354,2,0,B|117:167|117:167|131:153|139:138,1,88.000002685547,2|8,0:0|3:1,0:0:0:0:
222,207,222541,1,8,3:1:0:0:
217,216,222604,5,8,3:2:0:0:
116,362,222729,1,8,3:1:0:0:
85,277,222854,5,8,3:2:0:0:
252,375,222979,1,8,3:1:0:0:
269,295,223104,6,0,B|220:269|187:319|187:319|189:324|189:324|164:376|107:359,1,191.999994140625,4|0,3:1|0:0,0:0:0:0:
3,244,223479,1,8,3:2:0:0:
7,241,223541,1,2,0:0:0:0:
13,239,223604,2,0,P|57:237|84:286,1,95.9999970703126,2|0,0:0|0:0,0:0:0:0:
266,372,223854,6,0,B|311:359|311:359|326:333|326:333|370:320,1,120,8|0,3:2|0:0,0:0:0:0:
435,359,224104,2,0,B|457:354|471:332|467:304|467:304|456:335|427:344,1,120,8|0,3:2|0:0,0:0:0:0:
363,210,224354,6,0,B|366:152|448:116|484:179|468:217|437:228,1,191.999994140625,8|0,3:2|0:0,0:0:0:0:
370,81,224729,2,0,B|360:58|360:58|376:26,1,47.9999985351563,8|0,3:2|0:0,0:0:0:0:
375,27,224854,2,0,B|414:36|414:36|421:41|421:41|465:53,1,95.9999970703126,2|0,0:0|0:0,0:0:0:0:
187,100,225104,6,0,B|173:73|173:73|201:13|201:13|213:34,1,120,8|0,3:2|0:0,0:0:0:0:
270,82,225354,2,0,B|290:109|273:139|273:139|256:168|273:199,1,120,8|0,3:2|0:0,0:0:0:0:
303,261,225604,6,0,B|286:216|221:201|181:241|181:241|199:257|209:293,1,191.999994140625,8|0,3:2|0:0,0:0:0:0:
36,362,225979,1,8,3:2:0:0:
34,356,226041,1,2,0:0:0:0:
32,349,226104,2,0,B|23:321|23:321|36:289|36:289|26:258,1,95.9999970703126,2|0,0:0|0:0,0:0:0:0:
123,158,226354,6,0,B|138:164|160:163|160:163|70:191,1,120,8|0,3:2|0:0,0:0:0:0:
25,145,226604,2,0,B|21:131|10:113|10:113|17:78|53:68|79:81,1,120,8|0,3:2|0:0,0:0:0:0:
150,18,226854,6,0,B|191:39|244:23|244:23|196:37|182:88,1,191.999994140625,8|0,3:2|0:0,0:0:0:0:
298,149,227229,2,0,P|325:148|345:135,1,47.9999985351563,8|0,3:2|0:0,0:0:0:0:
358,134,227354,2,0,P|362:81|313:59,1,95.9999970703126,2|0,0:0|0:0,0:0:0:0:
320,57,227541,1,8,3:1:0:0:
310,60,227604,5,8,3:2:0:0:
441,115,227729,1,8,3:1:0:0:
312,247,227854,5,8,3:2:0:0:
437,213,227979,1,8,3:1:0:0:
320,244,228104,5,6,3:1:0:0:
256,192,228166,12,0,236354,0:0:0:0:
