osu file format v14

[General]
AudioFilename: voc3.mp3
AudioLeadIn: 0
PreviewTime: 136791
Countdown: 0
SampleSet: Soft
StackLeniency: 0.9
Mode: 0
LetterboxInBreaks: 0
WidescreenStoryboard: 1

[Editor]
Bookmarks: 604,1854,11854,23104,33104,48104,58104,68104,75604,85604,95604,109354,121854,136854,146854,156854,165604,175604,185604,194354,204354,213104,223104,235604
DistanceSpacing: 1.3
BeatDivisor: 4
GridSize: 4
TimelineZoom: 2.3

[Metadata]
Title:Desert Theater
TitleUnicode:デザート・シアター
Artist:KikuoHana
ArtistUnicode:きくおはな
Creator:Keqing
Version:Ajewton's Hard
Source:
Tags:shizuku- shikibe mayu kazato asa Hey lululu fuju chiga ajisai- newton- Cubby iljaaz moete guanineso npc newspaper cup mapping contest npc2021 japanese hanatan kikuo 第一幕 act 1 rock
BeatmapID:2869713
BeatmapSetID:1382362

[Difficulty]
HPDrainRate:4
CircleSize:3.5
OverallDifficulty:7
ApproachRate:8.3
SliderMultiplier:1.4
SliderTickRate:1

[Events]
//Background and Video events
0,0,"71766783_p0.jpg",0,0
//Break Periods
2,23304,32400
2,75804,84900
//Storyboard Layer 0 (Background)
//Storyboard Layer 1 (Fail)
//Storyboard Layer 2 (Pass)
//Storyboard Layer 3 (Foreground)
//Storyboard Layer 4 (Overlay)
//Storyboard Sound Samples

[TimingPoints]
604,250,5,2,1,70,1,0
1604,-100,5,2,1,70,0,0
1854,-100,5,2,1,80,0,0
6854,-100,5,2,1,80,0,0
11854,-125,5,2,1,75,0,0
23104,-111.111111111111,5,2,1,60,0,0
33104,-111.111111111111,5,2,2,70,0,0
42604,-111.111111111111,5,2,1,75,0,0
43104,-100,5,2,1,80,0,0
45604,-100,5,2,1,80,0,0
48104,-100,5,2,1,80,0,1
48166,-100,5,2,1,80,0,1
68104,-100,4,2,1,80,0,0
73479,-100,4,2,1,80,0,0
73854,-100,4,2,1,80,0,0
75604,-100,4,2,1,60,0,0
75729,-100,4,2,1,60,0,0
85354,-100,4,2,1,60,0,0
85604,-111.111111111111,4,2,2,70,0,0
94354,-100,4,2,1,80,0,0
95104,-100,4,2,1,80,0,0
95604,-100,4,2,1,75,0,0
95666,-100,4,2,1,75,0,0
104354,-100,4,2,1,60,0,1
105604,-100,4,2,1,65,0,1
106854,-100,4,2,1,70,0,1
108104,-100,4,2,1,75,0,1
109354,-100,4,2,1,60,0,0
111854,-111.111111111111,4,2,2,60,0,0
112229,-111.111111111111,4,2,2,60,0,0
121354,-111.111111111111,4,2,1,70,0,0
121854,-100,4,2,2,75,0,0
130604,-100,4,2,1,60,0,0
131354,-100,4,2,1,70,0,0
131854,-100,4,2,1,80,0,0
134354,-100,4,2,1,80,0,0
136854,-100,4,2,1,80,0,1
136916,-100,4,2,1,80,0,1
156854,-100,4,2,1,80,0,0
165604,-100,4,2,1,85,0,1
165666,-100,4,2,1,85,0,1
185604,-100,4,2,1,85,0,0
194104,-100,4,2,1,80,0,0
194354,-100,4,2,2,90,0,0
194416,-100,4,2,1,90,0,0
199354,-100,4,2,1,80,0,0
204354,-100,4,2,3,70,0,0
213104,-100,4,2,1,60,0,1
214354,-100,4,2,1,65,0,1
215604,-100,4,2,1,70,0,1
216854,-100,4,2,1,75,0,1
218104,-100,4,2,1,80,0,0
223104,-100,4,2,1,80,0,1
228104,-100,4,2,1,80,0,0
229354,-100,4,2,1,70,0,0
230604,-100,4,2,1,60,0,0
231854,-100,4,2,1,50,0,0
233104,-100,4,2,1,40,0,0
234354,-100,4,2,1,30,0,0
235604,-100,4,2,1,20,0,0
236354,-100,4,2,1,10,0,0

[Colours]
Combo1 : 255,102,204
Combo2 : 149,149,255
Combo3 : 220,140,247

[HitObjects]
166,133,1854,5,4,3:1:0:0:
215,204,1979,2,0,P|261:200|289:182,1,70
364,104,2229,2,0,L|376:243,1,140,8|0,3:2|0:0,0:0:0:0:
365,334,2604,2,0,B|333:319|333:319|299:329,1,70,8|0,3:2|0:0,0:0:0:0:
227,289,2854,2,0,B|193:298|193:298|161:284,1,70,8|0,3:2|0:0,0:0:0:0:
118,203,3104,5,8,3:2:0:0:
118,203,3229,2,0,L|111:133,1,70,2|0,0:0|0:0,0:0:0:0:
182,50,3479,2,0,P|206:111|273:119,1,140,8|0,3:2|0:0,0:0:0:0:
345,72,3854,2,0,P|391:76|419:94,1,70,8|0,3:2|0:0,0:0:0:0:
412,176,4104,2,0,P|431:217|429:251,1,70,8|0,3:2|0:0,0:0:0:0:
344,279,4354,5,8,3:2:0:0:
344,279,4479,2,0,B|310:269|310:269|278:283,1,70,2|0,0:0|0:0,0:0:0:0:
212,347,4729,2,0,L|72:334,1,140,8|0,3:2|0:0,0:0:0:0:
17,271,5104,2,0,P|15:236|17:201,1,70,8|0,3:2|0:0,0:0:0:0:
83,134,5354,2,0,L|152:141,1,70,8|0,3:2|0:0,0:0:0:0:
231,104,5604,5,8,3:2:0:0:
231,104,5729,2,0,L|300:97,1,70,2|0,0:0|0:0,0:0:0:0:
398,43,5979,2,0,L|385:182,1,140,8|8,3:2|3:1,0:0:0:0:
358,207,6291,1,8,3:1:0:0:
358,207,6354,2,0,B|324:216|324:216|292:202,2,70,8|8|8,3:2|3:1|3:2,0:0:0:0:
398,279,6729,1,8,3:1:0:0:
332,368,6854,6,0,P|307:306|240:298,1,140,4|0,3:1|0:0,0:0:0:0:
153,340,7229,2,0,L|165:200,1,140,8|0,3:2|0:0,0:0:0:0:
233,144,7604,2,0,L|226:74,1,70,8|0,3:2|0:0,0:0:0:0:
199,55,7791,1,2,0:0:0:0:
199,55,7854,2,0,P|153:59|125:77,1,70,8|0,3:2|0:0,0:0:0:0:
30,28,8104,6,0,P|44:96|45:166,1,140,8|0,3:2|0:0,0:0:0:0:
133,193,8479,2,0,P|118:261|117:331,1,140,8|0,3:2|0:0,0:0:0:0:
209,280,8854,2,0,L|279:273,1,70,8|0,3:2|0:0,0:0:0:0:
328,344,9104,2,0,L|398:351,1,70,8|0,3:2|0:0,0:0:0:0:
461,265,9354,6,0,P|394:256|369:194,1,140,8|0,3:2|0:0,0:0:0:0:
442,145,9729,2,0,L|430:5,1,140,8|0,3:2|0:0,0:0:0:0:
347,69,10104,2,0,B|313:78|313:78|281:64,1,70,8|0,3:2|0:0,0:0:0:0:
266,57,10291,1,2,0:0:0:0:
266,57,10354,2,0,B|234:43|234:43|200:52,1,70,8|0,3:2|0:0,0:0:0:0:
113,23,10604,6,0,P|88:85|21:93,1,140,8|0,3:2|0:0,0:0:0:0:
44,188,10979,2,0,L|184:200,1,140,8|0,3:2|0:0,0:0:0:0:
242,266,11354,1,8,3:2:0:0:
242,266,11479,1,8,3:1:0:0:
306,211,11604,2,0,B|315:177|315:177|301:145,1,70,8|8,3:2|3:1,0:0:0:0:
240,104,11854,6,0,B|196:120|196:120|184:136|184:136|136:152,1,112,4|0,3:1|0:0,0:0:0:0:
76,116,12229,1,8,3:2:0:0:
168,228,12479,1,0,3:2:0:0:
168,228,12604,2,0,B|176:256|176:256|164:284,1,56,2|0,3:2|0:0,0:0:0:0:
128,344,12854,1,8,3:2:0:0:
260,280,13104,6,0,B|316:264|316:264|332:292|360:300,1,112,2|0,3:2|0:0,0:0:0:0:
392,360,13479,2,0,P|400:312|420:236,1,112,8|0,3:2|3:2,0:0:0:0:
440,184,13854,1,2,3:2:0:0:
308,120,14104,2,0,B|296:96|296:96|308:64,1,56,8|0,3:2|0:0,0:0:0:0:
340,4,14354,6,0,B|276:24|312:44|248:64,1,112,2|0,3:2|0:0,0:0:0:0:
180,40,14729,1,8,3:2:0:0:
60,120,14979,1,0,3:2:0:0:
60,120,15104,2,0,P|52:144|60:172,1,56,2|0,3:2|0:0,0:0:0:0:
112,224,15354,1,8,3:2:0:0:
16,336,15604,6,0,P|52:296|116:308,1,112,2|0,3:2|0:0,0:0:0:0:
164,348,15979,2,0,B|212:340|212:340|224:328|224:328|276:320,1,112,8|0,3:2|3:2,0:0:0:0:
344,308,16354,1,0,3:1:0:0:
344,308,16479,2,0,L|336:272,2,28,8|8|8,3:1|3:1|3:3,0:0:0:0:
404,348,16729,1,8,3:3:0:0:
448,288,16854,6,0,L|423:175,1,112,4|0,3:1|0:0,0:0:0:0:
464,116,17229,2,0,P|408:128|372:80,1,112,8|0,3:2|3:2,0:0:0:0:
312,52,17604,1,8,3:1:0:0:
256,100,17729,2,0,L|220:108,2,28,8|8|8,3:1|3:1|3:2,0:0:0:0:
316,144,17979,1,8,3:2:0:0:
252,208,18104,6,0,B|208:192|208:192|196:176|196:176|148:160,1,112,6|0,3:2|0:0,0:0:0:0:
52,128,18479,2,0,B|94:113|94:113|106:97|106:97|150:81,1,112,12|0,3:2|3:2,0:0:0:0:
204,28,18854,2,0,P|224:48|256:56,1,56,2|0,3:2|3:0,0:0:0:0:
288,120,19104,2,0,P|315:112|338:88,1,56,0|8,3:0|3:2,0:0:0:0:
400,24,19354,6,0,L|424:136,1,112,4|0,3:1|0:0,0:0:0:0:
384,196,19729,2,0,B|352:220|352:220|280:204,1,112,8|0,3:2|3:2,0:0:0:0:
220,244,20104,1,2,3:2:0:0:
120,352,20354,2,0,B|104:328|104:328|112:292,1,56,8|0,3:2|0:0,0:0:0:0:
60,216,20604,6,0,B|128:240|88:252|152:276,1,112,4|8,3:1|3:2,0:0:0:0:
220,244,20979,1,0,3:0:0:0:
280,284,21104,2,0,P|293:259|292:226,2,56,0|8|0,3:0|3:2|3:0,0:0:0:0:
388,384,21604,6,0,P|412:370|440:370,1,56,8|8,3:3|3:3,0:0:0:0:
496,324,21854,1,8,3:2:0:0:
496,324,21979,1,8,3:2:0:0:
384,240,22229,1,8,3:2:0:0:
384,240,22354,1,8,3:2:0:0:
476,128,22604,6,0,P|451:141|423:141,1,56,8|0,3:2|3:0,0:0:0:0:
376,84,22854,2,0,P|351:70|323:70,1,56,0|0,3:0|3:0,0:0:0:0:
256,112,23104,1,4,3:1:0:0:
268,64,33104,6,0,P|226:116|148:110,1,125.999996154785,2|8,3:2|0:0,0:0:0:0:
81,64,33479,2,0,L|92:191,1,125.999996154785,2|0,3:2|0:0,0:0:0:0:
73,284,33854,2,0,P|103:277|135:274,1,62.9999980773926,2|0,3:2|0:0,0:0:0:0:
207,218,34104,2,0,P|260:227|297:228,1,62.9999980773926,10|0,3:2|0:0,0:0:0:0:
319,321,34354,6,0,P|354:271|415:263,1,125.999996154785,2|0,3:2|0:0,0:0:0:0:
495,299,34729,1,2,3:2:0:0:
495,299,34979,1,0,0:0:0:0:
485,212,35104,2,0,L|490:149,1,62.9999980773926,2|0,3:2|0:0,0:0:0:0:
466,129,35291,1,2,0:0:0:0:
466,129,35354,2,0,L|460:66,1,62.9999980773926,2|10,3:2|0:0,0:0:0:0:
380,104,35604,6,0,L|254:93,1,125.999996154785,2|0,3:2|0:0,0:0:0:0:
195,35,35979,2,0,L|69:45,1,125.999996154785,2|0,3:2|0:0,0:0:0:0:
23,119,36354,2,0,P|29:149|32:181,1,62.9999980773926,2|0,3:2|0:0,0:0:0:0:
93,243,36604,2,0,P|86:274|83:306,1,62.9999980773926,2|0,3:2|0:0,0:0:0:0:
168,190,36854,6,0,P|203:239|264:247,1,125.999996154785,2|0,3:2|0:0,0:0:0:0:
333,196,37229,1,2,3:2:0:0:
333,196,37354,1,8,0:0:0:0:
393,340,37604,2,0,L|330:334,1,62.9999980773926,2|0,3:2|0:0,0:0:0:0:
310,359,37791,1,2,0:0:0:0:
310,359,37854,2,0,L|247:364,1,62.9999980773926,2|8,3:2|0:0,0:0:0:0:
171,316,38104,6,0,P|135:365|74:373,1,125.999996154785,2|8,3:2|0:0,0:0:0:0:
15,310,38479,1,2,3:2:0:0:
15,310,38604,2,0,L|20:247,1,62.9999980773926
99,201,38854,2,0,L|88:75,1,125.999996154785,2|10,3:2|3:2,0:0:0:0:
161,23,39229,1,0,0:0:0:0:
209,95,39354,6,0,P|269:87|305:37,1,125.999996154785,2|0,3:2|0:0,0:0:0:0:
382,89,39729,2,0,P|369:150|362:213,1,125.999996154785,2|0,3:2|0:0,0:0:0:0:
431,271,40104,2,0,L|425:333,1,62.9999980773926,2|0,3:2|0:0,0:0:0:0:
400,350,40291,1,2,0:0:0:0:
400,350,40354,2,0,L|337:344,1,62.9999980773926,2|8,3:2|0:0,0:0:0:0:
271,288,40604,6,0,B|189:283|234:330|156:322,1,125.999996154785,2|8,3:2|0:0,0:0:0:0:
91,265,40979,1,2,3:2:0:0:
91,265,41104,2,0,P|94:233|100:202,1,62.9999980773926
19,182,41354,2,0,P|12:119|0:57,1,125.999996154785,2|2,3:2|3:2,0:0:0:0:
83,23,41729,1,0,0:0:0:0:
139,106,41854,1,8,3:2:0:0:
139,106,42604,6,0,L|201:100,1,62.9999980773926,0|8,3:0|3:2,0:0:0:0:
261,34,42854,2,0,L|323:39,1,62.9999980773926,0|0,3:2|3:2,0:0:0:0:
416,95,43104,5,4,3:1:0:0:
345,144,43229,2,0,P|349:190|367:218,1,70
445,228,43479,2,0,P|378:235|353:296,1,140,8|0,3:2|0:0,0:0:0:0:
272,339,43854,2,0,L|265:269,1,70,8|0,3:2|0:0,0:0:0:0:
185,224,44104,2,0,L|178:294,1,70,8|0,3:2|0:0,0:0:0:0:
111,350,44354,5,8,3:2:0:0:
36,309,44479,2,0,L|43:239,1,70,2|0,0:0|0:0,0:0:0:0:
110,181,44729,2,0,L|98:41,1,140,8|0,3:2|0:0,0:0:0:0:
188,92,45104,2,0,B|220:106|220:106|254:97,1,70,8|0,3:2|0:0,0:0:0:0:
332,58,45354,2,0,B|366:49|366:49|398:63,1,70,8|0,3:2|0:0,0:0:0:0:
497,21,45604,6,0,P|483:89|482:159,1,140,4|0,3:1|0:0,0:0:0:0:
391,153,45979,2,0,P|405:221|406:291,1,140,8|0,3:2|0:0,0:0:0:0:
339,346,46354,2,0,L|269:339,1,70,8|0,3:2|0:0,0:0:0:0:
225,272,46604,2,0,L|155:279,1,70,8|0,3:2|0:0,0:0:0:0:
73,353,46854,6,0,P|11:327|4:261,1,140,8|0,3:2|0:0,0:0:0:0:
65,199,47229,2,0,L|77:59,1,140,8|8,3:2|3:1,0:0:0:0:
165,107,47604,2,0,L|168:150,2,35,8|8|8,3:2|3:1|3:1,0:0:0:0:
224,45,47854,1,8,3:2:0:0:
302,82,47979,2,0,L|292:116,1,35,8|8,3:1|3:1,0:0:0:0:
312,156,48104,6,0,P|376:144|412:200,1,140,4|0,3:1|0:0,0:0:0:0:
472,268,48479,1,8,3:2:0:0:
472,268,48604,2,0,P|444:292|396:288,1,70,2|0,0:0|3:2,0:0:0:0:
348,348,48854,2,0,P|313:335|292:292,1,70,2|0,3:2|0:0,0:0:0:0:
232,260,49104,1,10,3:2:0:0:
232,260,49354,5,2,3:2:0:0:
156,296,49479,2,0,B|132:216|180:240|160:160,1,140,0|8,0:0|3:2,0:0:0:0:
92,112,49854,1,0,0:0:0:0:
92,112,50104,2,0,P|111:83|144:72,1,70,2|0,3:2|0:0,0:0:0:0:
200,12,50354,2,0,P|234:15|260:37,1,70,8|0,3:2|0:0,0:0:0:0:
296,116,50604,6,0,B|376:136|332:168|412:188,1,140,2|0,3:2|0:0,0:0:0:0:
463,114,50979,1,8,3:2:0:0:
463,114,51104,1,2,0:0:0:0:
480,252,51354,6,0,P|460:288|468:324,1,70,2|0,3:2|0:0,0:0:0:0:
408,380,51604,2,0,P|386:344|351:333,1,70,10|0,3:2|0:0,0:0:0:0:
296,280,51854,2,0,B|244:300|244:300|228:324|228:324|172:344,1,140,2|0,3:2|0:0,0:0:0:0:
100,376,52229,1,8,3:2:0:0:
100,376,52354,2,0,B|84:344|84:344|96:312,1,70,0|0,0:0|3:2,0:0:0:0:
136,236,52604,1,2,3:2:0:0:
72,180,52729,2,0,L|84:144,2,35,8|8|8,3:1|3:1|3:2,0:0:0:0:
136,236,52979,2,0,L|172:224,1,35,8|8,3:1|3:1,0:0:0:0:
204,248,53104,6,0,B|232:252|252:268|252:268|312:248|288:184,1,140,4|2,3:1|0:0,0:0:0:0:
272,120,53479,2,0,B|232:120|208:148|208:148|160:144|152:96,1,140,8|0,3:2|3:2,0:0:0:0:
196,36,53854,2,0,P|224:16|268:24,1,70,2|8,3:2|3:1,0:0:0:0:
328,64,54104,2,0,L|362:71,3,35,10|0|8|0,3:2|0:0|3:1|0:0,0:0:0:0:
404,80,54354,6,0,B|428:104|452:116|452:116|432:148|420:200,1,140,4|2,3:2|0:0,0:0:0:0:
440,272,54729,2,0,B|372:256|372:256|360:292|320:300,1,140,12|0,3:2|3:2,0:0:0:0:
256,352,55104,2,0,P|236:316|244:280,1,70,4|0,3:1|3:1,0:0:0:0:
184,224,55354,2,0,P|162:259|127:270,1,70,10|0,3:2|3:1,0:0:0:0:
76,212,55604,6,0,B|88:148|88:148|96:140|96:140|108:76,1,140,4|2,3:1|0:0,0:0:0:0:
164,16,55979,1,8,3:2:0:0:
164,16,56104,2,0,B|196:6|196:6|228:21,1,70,2|0,0:0|3:2,0:0:0:0:
260,105,56354,2,0,B|312:125|312:125|328:149|328:149|380:167,1,140,2|10,3:2|3:2,0:0:0:0:
236,220,56854,5,4,3:1:0:0:
236,220,56979,2,0,P|256:248|252:292,1,70,8|8,3:1|3:1,0:0:0:0:
196,344,57229,1,4,3:1:0:0:
196,344,57354,2,0,P|161:347|125:321,1,70,8|8,3:1|3:1,0:0:0:0:
104,256,57604,1,2,3:1:0:0:
104,256,57729,2,0,P|118:224|158:206,1,70,8|10,3:1|3:1,0:0:0:0:
204,136,57979,1,8,3:1:0:0:
204,136,58104,6,0,B|302:142|248:85|342:95,1,140,4|0,3:1|0:0,0:0:0:0:
434,81,58479,2,0,P|413:147|411:217,1,140,8|0,3:2|3:2,0:0:0:0:
377,296,58854,2,0,P|384:333|387:370,1,70,2|0,3:2|0:0,0:0:0:0:
303,371,59104,2,0,P|265:378|228:381,1,70,10|0,3:2|0:0,0:0:0:0:
198,259,59354,6,0,P|165:319|98:325,1,140,2|0,3:2|0:0,0:0:0:0:
23,372,59729,1,8,3:2:0:0:
1,239,59979,1,0,3:2:0:0:
1,239,60104,2,0,L|7:169,1,70,2|0,3:2|0:0,0:0:0:0:
100,154,60354,2,0,L|93:84,1,70,8|0,3:2|0:0,0:0:0:0:
171,30,60604,6,0,P|237:50|307:52,1,140,2|0,3:2|0:0,0:0:0:0:
370,126,60979,1,8,3:2:0:0:
370,126,61104,2,0,P|407:118|444:115,1,70,2|0,0:0|3:2,0:0:0:0:
494,206,61354,2,0,P|427:212|394:271,1,140,2|10,3:2|3:2,0:0:0:0:
310,336,61729,1,0,0:0:0:0:
310,336,61854,6,0,L|303:266,2,70,2|0|0,3:2|0:0|0:0,0:0:0:0:
217,304,62229,2,0,B|118:298|172:354|79:344,1,140,8|0,3:2|3:2,0:0:0:0:
42,269,62604,1,2,3:2:0:0:
94,206,62729,2,0,L|149:201,2,35,8|8|8,3:1|3:1|3:2,0:0:0:0:
64,98,62979,1,0,3:0:0:0:
70,81,63042,1,0,3:0:0:0:
76,64,63104,6,0,P|142:70|175:129,1,140,4|2,3:1|0:0,0:0:0:0:
250,58,63479,2,0,P|316:78|386:80,1,140,8|0,3:2|3:2,0:0:0:0:
446,166,63854,2,0,P|411:169|376:176,1,70,2|8,3:2|3:1,0:0:0:0:
351,195,64041,1,8,3:1:0:0:
351,195,64104,2,0,P|316:191|281:184,1,70,10|8,3:2|3:1,0:0:0:0:
175,129,64354,6,0,B|76:123|130:179|37:169,1,140,4|2,3:2|0:0,0:0:0:0:
25,276,64729,2,0,P|91:255|161:253,1,140,12|0,3:2|3:2,0:0:0:0:
220,319,65104,1,4,3:1:0:0:
220,319,65229,1,0,3:1:0:0:
298,283,65354,1,10,3:2:0:0:
298,283,65479,1,0,3:1:0:0:
397,337,65604,6,0,P|377:271|375:201,1,140,4|2,3:1|0:0,0:0:0:0:
403,110,65979,1,8,3:2:0:0:
403,110,66104,2,0,L|333:116,1,70,2|0,0:0|3:2,0:0:0:0:
266,35,66354,2,0,P|233:94|166:100,1,140,2|10,3:2|3:2,0:0:0:0:
24,24,66854,5,4,3:1:0:0:
24,24,66979,2,0,P|27:59|34:94,1,70,8|8,3:1|3:1,0:0:0:0:
85,175,67229,1,4,3:1:0:0:
85,175,67354,2,0,P|82:210|75:245,1,70,8|8,3:1|3:1,0:0:0:0:
170,258,67604,1,2,3:1:0:0:
170,258,67729,2,0,P|173:293|180:328,1,70,8|10,3:1|3:1,0:0:0:0:
262,369,67979,1,8,3:1:0:0:
262,369,68104,6,0,B|328:352|328:352|356:384|400:384,1,140,4|0,3:1|0:0,0:0:0:0:
472,340,68479,1,10,3:2:0:0:
472,340,68604,1,2,0:0:0:0:
344,208,68854,2,0,B|328:176|328:176|340:140,1,70,2|0,3:2|0:0,0:0:0:0:
418,43,69104,2,0,B|434:75|434:75|424:108,1,70,10|0,3:2|0:0,0:0:0:0:
336,136,69354,6,0,B|256:164|304:188|220:216,1,140,2|0,3:2|0:0,0:0:0:0:
168,284,69729,2,0,B|148:268|124:260|124:260|100:212|148:180,1,140,8|0,3:2|3:2,0:0:0:0:
208,120,70104,2,0,P|224:88|216:52,1,70,2|0,3:2|0:0,0:0:0:0:
148,4,70354,1,8,3:2:0:0:
148,4,70479,1,0,0:0:0:0:
72,56,70604,6,0,B|80:120|80:120|84:128|84:128|92:196,1,140,2|0,3:2|0:0,0:0:0:0:
28,260,70979,2,0,P|80:244|124:308,1,140,10|0,3:2|3:2,0:0:0:0:
204,352,71354,2,0,P|236:372|272:368,1,70,2|0,3:2|0:0,0:0:0:0:
304,288,71604,2,0,P|337:270|351:237,1,70,10|0,3:2|0:0,0:0:0:0:
296,168,71854,6,0,B|312:80|312:80|296:108|264:120,1,140,2|0,3:2|0:0,0:0:0:0:
204,168,72229,2,0,P|144:180|96:124,1,140,8|0,3:2|3:2,0:0:0:0:
20,72,72604,1,2,3:2:0:0:
104,36,72729,2,0,L|116:0,2,35,8|8|8,3:1|3:1|3:1,0:0:0:0:
198,73,72979,1,0,3:0:0:0:
216,57,73041,1,0,3:0:0:0:
236,44,73104,6,0,B|302:51|302:51|310:55|310:55|374:63,1,140,4|0,3:1|0:0,0:0:0:0:
444,124,73479,2,0,P|392:168|404:236,1,140,8|0,3:2|3:0,0:0:0:0:
432,272,73791,1,2,0:0:0:0:
432,272,73854,2,0,P|453:298|455:332,1,70,2|8,3:2|3:1,0:0:0:0:
364,328,74104,2,0,P|352:360|323:378,1,70,10|0,3:2|3:0,0:0:0:0:
288,292,74354,2,0,P|254:297|224:281,1,70,0|8,3:0|3:1,0:0:0:0:
168,208,74604,1,8,3:1:0:0:
168,208,74729,1,0,3:0:0:0:
100,268,74854,6,0,L|84:336,1,70,8|8,3:1|3:1,0:0:0:0:
0,208,75104,2,0,L|16:276,1,70,10|8,3:1|3:1,0:0:0:0:
76,156,75354,1,10,3:1:0:0:
76,156,75479,1,8,3:1:0:0:
4,104,75604,5,4,0:1:0:0:
98,78,85604,6,0,L|108:204,1,125.999996154785,6|8,3:2|0:0,0:0:0:0:
172,276,85979,2,0,P|207:227|268:219,1,125.999996154785,2|0,3:2|0:0,0:0:0:0:
354,259,86354,2,0,P|356:227|363:196,1,62.9999980773926,2|0,3:2|0:0,0:0:0:0:
301,138,86604,2,0,P|298:106|291:75,1,62.9999980773926,10|0,3:2|0:0,0:0:0:0:
363,17,86854,6,0,P|398:66|459:74,1,125.999996154785,2|0,3:2|0:0,0:0:0:0:
510,150,87229,2,0,P|497:211|490:274,1,125.999996154785,2|0,3:2|0:0,0:0:0:0:
414,347,87604,2,0,P|411:315|404:284,1,62.9999980773926,2|0,3:2|0:0,0:0:0:0:
333,237,87854,1,2,3:2:0:0:
333,237,88104,6,0,B|251:232|296:279|218:271,1,125.999996154785,2|0,3:2|0:0,0:0:0:0:
120,237,88479,2,0,P|155:188|216:180,1,125.999996154785,2|0,3:2|0:0,0:0:0:0:
255,93,88854,2,0,L|192:88,1,62.9999980773926,2|0,3:2|0:0,0:0:0:0:
199,0,89104,2,0,L|262:5,1,62.9999980773926,2|0,3:2|0:0,0:0:0:0:
336,59,89354,6,0,P|396:51|432:2,1,125.999996154785,2|0,3:2|0:0,0:0:0:0:
499,78,89729,2,0,P|486:139|479:202,1,125.999996154785,2|0,3:2|0:0,0:0:0:0:
412,263,90104,1,2,3:2:0:0:
336,218,90229,2,0,L|333:186,2,31.4999990386963,0|0|2,0:0|0:0|3:2,0:0:0:0:
275,284,90479,1,8,0:0:0:0:
232,185,90604,6,0,B|150:180|195:227|117:219,1,125.999996154785,2|8,3:2|0:0,0:0:0:0:
24,270,90979,2,0,L|34:144,1,125.999996154785,2|0,3:2|0:0,0:0:0:0:
62,121,91291,1,2,0:0:0:0:
62,121,91354,2,0,L|57:58,1,62.9999980773926,2|0,3:2|0:0,0:0:0:0:
144,84,91604,2,0,L|207:79,1,62.9999980773926,10|0,3:2|0:0,0:0:0:0:
288,36,91854,6,0,P|348:43|384:92,1,125.999996154785,2|0,3:2|0:0,0:0:0:0:
463,141,92229,2,0,L|453:267,1,125.999996154785,2|0,3:2|0:0,0:0:0:0:
425,290,92541,1,2,0:0:0:0:
425,290,92604,2,0,L|430:353,1,62.9999980773926,2|0,3:2|0:0,0:0:0:0:
340,328,92854,2,0,P|308:330|277:337,1,62.9999980773926,2|8,3:2|0:0,0:0:0:0:
170,363,93104,6,0,P|107:356|45:342,1,125.999996154785,2|8,3:2|0:0,0:0:0:0:
89,241,93479,2,0,B|171:236|126:283|204:275,1,125.999996154785,2|0,3:2|0:0,0:0:0:0:
281,230,93854,2,0,L|276:167,1,62.9999980773926,2|0,3:2|0:0,0:0:0:0:
356,130,94104,2,0,L|361:67,1,62.9999980773926,2|0,3:2|0:0,0:0:0:0:
285,16,94354,5,4,3:1:0:0:
285,16,94479,1,8,3:1:0:0:
213,101,94604,2,0,P|167:97|139:79,1,70,8|8,3:1|3:1,0:0:0:0:
47,45,94854,2,0,P|61:76|62:111,1,70,8|8,3:1|3:1,0:0:0:0:
128,177,95104,1,10,3:1:0:0:
128,177,95229,1,8,3:1:0:0:
45,223,95354,1,10,3:1:0:0:
45,223,95479,1,8,3:1:0:0:
120,272,95604,6,0,B|168:284|168:284|192:316|192:316|244:328,1,140,4|0,3:1|0:0,0:0:0:0:
324,284,95979,1,10,3:2:0:0:
324,284,96104,1,0,0:0:0:0:
324,284,96354,6,0,P|304:260|312:204,1,70,2|0,3:2|0:0,0:0:0:0:
372,176,96604,2,0,P|389:146|385:111,1,70,2|0,3:2|0:0,0:0:0:0:
320,56,96854,2,0,B|240:80|280:104|200:124,1,140,2|0,3:2|0:0,0:0:0:0:
136,176,97229,2,0,B|147:238|147:238|155:246|155:246|167:310,1,140,8|0,3:2|0:0,0:0:0:0:
240,356,97604,1,2,3:2:0:0:
240,356,97854,2,0,B|272:340|272:340|312:352,1,70,0|0,3:2|0:0,0:0:0:0:
398,384,98104,6,0,B|438:348|438:348|410:264,1,140,2|0,3:2|0:0,0:0:0:0:
471,202,98479,1,8,3:2:0:0:
471,202,98604,1,0,0:0:0:0:
332,224,98854,6,0,L|264:208,1,70,2|0,3:2|0:0,0:0:0:0:
220,280,99104,2,0,L|152:296,1,70,2|0,3:2|0:0,0:0:0:0:
72,316,99354,2,0,P|20:272|36:204,1,140,2|0,3:2|0:0,0:0:0:0:
96,156,99729,2,0,B|148:184|148:184|200:176|196:124,1,140,8|0,3:2|0:0,0:0:0:0:
192,28,100104,2,0,P|160:48|128:40,2,70,2|8|0,3:2|3:2|3:2,0:0:0:0:
296,16,100479,1,2,0:0:0:0:
296,16,100541,1,2,0:0:0:0:
296,16,100604,6,0,B|384:0|384:0|424:32,1,140,2|0,3:2|0:0,0:0:0:0:
512,39,100979,1,10,3:2:0:0:
512,39,101104,1,0,0:0:0:0:
396,116,101354,6,0,B|384:148|384:148|396:184,1,70,2|0,3:2|0:0,0:0:0:0:
472,220,101604,2,0,B|483:253|483:253|471:285,1,70,2|0,3:2|0:0,0:0:0:0:
432,360,101854,2,0,B|400:388|400:388|300:364,1,140,2|0,3:2|0:0,0:0:0:0:
256,296,102229,2,0,L|236:156,1,140,8|0,3:2|0:0,0:0:0:0:
292,96,102604,1,2,3:2:0:0:
292,96,102854,2,0,P|264:72|224:68,1,70,8|0,3:2|0:0,0:0:0:0:
152,40,103104,6,0,B|64:68|64:68|108:92,1,140,2|0,3:2|0:0,0:0:0:0:
156,164,103479,1,8,3:2:0:0:
156,164,103604,1,0,0:0:0:0:
156,163,103854,6,0,P|126:182|92:181,1,70,2|0,3:2|0:0,0:0:0:0:
208,232,104104,2,0,P|207:273|180:303,1,70,2|0,3:2|0:0,0:0:0:0:
120,352,104354,6,0,B|196:336|196:336|212:368|256:380,1,140,4|0,3:1|0:0,0:0:0:0:
328,344,104729,2,0,P|372:300|352:224,1,140,12|0,3:2|0:0,0:0:0:0:
280,180,105104,2,0,L|260:112,1,70,4|0,3:1|0:0,0:0:0:0:
344,72,105354,2,0,L|364:4,1,70,8|0,3:2|0:0,0:0:0:0:
256,100,105604,6,0,B|208:112|208:112|184:144|184:144|132:156,1,140,12|0,3:2|0:0,0:0:0:0:
6,192,105979,2,0,B|56:204|56:204|80:236|80:236|128:248,1,140,4|0,3:1|0:0,0:0:0:0:
212,212,106354,2,0,P|228:240|220:280,1,70,8|0,3:2|0:0,0:0:0:0:
96,368,106604,2,0,P|128:356|148:328,1,70,8|0,3:2|0:0,0:0:0:0:
228,204,106854,6,0,B|304:224|268:256|348:276,1,140,4|0,3:1|0:0,0:0:0:0:
412,340,107229,2,0,B|456:316|456:316|488:268|444:232,1,140,0|0,3:0|0:0,0:0:0:0:
384,172,107604,2,0,P|420:164|444:132,1,70,12|0,3:2|0:0,0:0:0:0:
372,14,107854,2,0,P|383:47|372:80,1,70,8|0,3:2|0:0,0:0:0:0:
296,128,108104,6,0,B|234:139|234:139|226:147|226:147|162:159,1,140,4|0,3:1|0:0,0:0:0:0:
76,124,108479,1,0,3:0:0:0:
76,124,108604,2,0,B|60:92|60:92|70:59,1,70
161,159,108854,2,0,B|177:191|177:191|166:223,1,70,0|2,3:2|0:2,0:0:0:0:
90,328,109104,2,0,B|74:296|74:296|84:264,1,70,0|2,3:2|0:2,0:0:0:0:
3,248,109354,6,0,L|0:213,3,35,0|0|0|0,3:0|3:0|3:0|3:0,0:0:0:0:
17,182,109604,1,0,3:0:0:0:
97,142,109729,2,0,L|100:107,3,35,0|0|0|0,3:0|3:0|3:0|3:0,0:0:0:0:
83,76,109979,1,0,3:0:0:0:
189,106,110104,2,0,L|223:109,2,35,0|0|0,3:0|3:0|3:0,0:0:0:0:
211,193,110354,2,0,L|245:196,2,35,0|0|0,3:0|3:0|3:0,0:0:0:0:
241,284,110604,5,2,3:2:0:0:
241,284,110729,2,0,B|225:316|225:316|236:348,1,70,2|0,3:2|3:0,0:0:0:0:
339,240,110979,1,2,3:2:0:0:
339,240,111104,2,0,B|323:272|323:272|334:304,1,70,2|0,3:2|3:0,0:0:0:0:
424,257,111354,2,0,L|427:222,3,35,2|0|0|0,3:2|3:0|3:0|0:0,0:0:0:0:
452,208,111604,2,0,L|455:173,3,35,2|0|0|0,3:2|3:0|3:0|0:0,0:0:0:0:
479,147,111854,6,0,P|418:139|381:90,1,125.999996154785,2|8,3:2|0:0,0:0:0:0:
315,153,112229,2,0,P|254:140|191:133,1,125.999996154785,2|0,3:2|0:0,0:0:0:0:
69,89,112604,2,0,P|76:119|79:151,1,62.9999980773926,2|0,3:2|0:0,0:0:0:0:
147,207,112854,2,0,P|140:237|137:269,1,62.9999980773926,10|0,3:2|0:0,0:0:0:0:
71,352,113104,6,0,P|107:302|168:295,1,125.999996154785,2|0,3:2|0:0,0:0:0:0:
235,361,113479,1,2,3:2:0:0:
235,361,113604,2,0,L|298:366,1,62.9999980773926,8|0,0:0|0:0,0:0:0:0:
371,322,113854,2,0,L|434:327,1,62.9999980773926,2|0,3:2|0:0,0:0:0:0:
460,308,114041,1,2,0:0:0:0:
460,308,114104,2,0,L|465:245,1,62.9999980773926,2|8,3:2|0:0,0:0:0:0:
421,150,114354,6,0,P|428:89|477:52,1,125.999996154785,2|0,3:2|0:0,0:0:0:0:
344,65,114729,2,0,B|262:70|307:23|229:31,1,125.999996154785,2|0,3:2|0:0,0:0:0:0:
155,71,115104,1,2,3:2:0:0:
155,71,115354,2,0,P|162:101|165:133,1,62.9999980773926,2|0,3:2|0:0,0:0:0:0:
82,213,115604,6,0,P|69:274|62:337,1,125.999996154785,2|0,3:2|0:0,0:0:0:0:
153,308,115979,2,0,P|189:357|250:364,1,125.999996154785,2|0,3:2|0:0,0:0:0:0:
324,317,116354,2,0,L|330:254,1,62.9999980773926,2|0,3:2|0:0,0:0:0:0:
305,234,116541,1,2,0:0:0:0:
305,234,116604,2,0,L|300:171,1,62.9999980773926,2|8,3:2|0:0,0:0:0:0:
318,73,116854,6,0,B|236:68|281:115|203:107,1,125.999996154785,2|8,3:2|0:0,0:0:0:0:
117,133,117229,1,2,3:2:0:0:
117,133,117354,1,0,0:0:0:0:
117,133,117604,2,0,P|109:102|106:70,1,62.9999980773926,2|0,3:2|0:0,0:0:0:0:
0,177,117854,2,0,P|-430:207|-427:239,1,62.9999980773926,10|0,3:2|0:0,0:0:0:0:
117,273,118104,6,0,P|153:223|214:216,1,125.999996154785,2|0,3:2|0:0,0:0:0:0:
297,181,118479,2,0,L|423:192,1,125.999996154785,2|0,3:2|0:0,0:0:0:0:
491,258,118854,2,0,L|496:321,1,62.9999980773926,2|0,3:2|0:0,0:0:0:0:
477,347,119041,1,2,0:0:0:0:
477,347,119104,2,0,L|414:352,1,62.9999980773926,2|8,3:2|0:0,0:0:0:0:
339,277,119354,6,0,B|257:272|302:319|224:311,1,125.999996154785,2|8,3:2|0:0,0:0:0:0:
90,320,119729,2,0,P|139:283|146:222,1,125.999996154785,2|0,3:2|0:0,0:0:0:0:
68,180,120104,2,0,P|61:150|58:118,1,62.9999980773926,2|0,3:2|0:0,0:0:0:0:
139,73,120354,2,0,P|146:43|149:11,2,62.9999980773926,2|0|2,3:2|0:0|0:0,0:0:0:0:
139,73,121354,6,0,B|221:68|176:115|254:107,1,125.999996154785,2|8,0:0|0:3,0:0:0:0:
254,106,121854,6,0,P|202:150|218:218,1,140,2|0,3:2|3:2,0:0:0:0:
288,272,122229,2,0,P|300:337|248:380,1,140,10|0,3:2|3:2,0:0:0:0:
160,360,122604,2,0,L|88:336,1,70,2|0,3:2|0:0,0:0:0:0:
32,268,122854,2,0,L|98:245,1,70,10|0,3:2|0:0,0:0:0:0:
156,175,123104,2,0,P|175:147|170:113,2,70,2|0|0,3:2|0:0|3:2,0:0:0:0:
116,40,123479,6,0,B|200:64|152:88|240:112,1,140,10|0,3:2|3:2,0:0:0:0:
308,56,123854,2,0,P|336:36|370:41,1,70,2|0,3:2|0:0,0:0:0:0:
408,16,124041,1,2,0:0:0:0:
408,16,124104,2,0,P|439:31|453:63,1,70,10|0,3:2|0:0,0:0:0:0:
392,132,124354,6,0,B|404:196|404:196|412:204|412:204|423:266,1,140,2|0,3:2|3:2,0:0:0:0:
356,328,124729,2,0,B|324:300|288:316|288:316|268:352|228:356,1,140,10|0,3:2|3:2,0:0:0:0:
156,308,125104,1,2,3:2:0:0:
156,308,125354,2,0,P|132:280|152:224,1,70,10|0,3:2|0:0,0:0:0:0:
192,180,125604,6,0,P|228:173|266:218,2,70,2|0|0,3:2|0:0|3:2,0:0:0:0:
104,160,125979,2,0,P|68:119|98:37,1,140,10|0,3:2|3:2,0:0:0:0:
172,0,126354,2,0,L|248:20,1,70,2|0,3:2|0:0,0:0:0:0:
276,56,126541,1,2,0:0:0:0:
276,56,126604,2,0,L|352:36,1,70,10|0,3:2|0:0,0:0:0:0:
468,8,126854,6,0,B|512:48|512:48|484:128,1,140,2|0,3:2|3:2,0:0:0:0:
400,156,127229,2,0,B|308:176|308:176|356:192,1,140,10|0,3:2|3:2,0:0:0:0:
435,307,127604,2,0,P|443:274|428:244,1,70,2|0,3:2|0:0,0:0:0:0:
293,270,127854,2,0,P|327:272|352:295,1,70,10|0,3:2|0:0,0:0:0:0:
220,328,128104,6,0,B|136:344|180:368|92:380,1,140,2|0,3:2|3:2,0:0:0:0:
0,373,128479,1,10,3:2:0:0:
0,373,128604,1,0,0:0:0:0:
100,288,128854,2,0,L|116:216,1,70,2|0,3:2|0:0,0:0:0:0:
24,140,129104,1,10,3:2:0:0:
24,140,129229,1,0,0:0:0:0:
24,140,129354,6,0,B|80:132|80:132|100:112|100:112|164:100,1,140,2|0,3:2|3:2,0:0:0:0:
228,48,129729,1,10,3:2:0:0:
228,48,129854,1,0,0:0:0:0:
390,71,130104,6,0,P|410:99|402:143,1,70,2|0,3:2|0:0,0:0:0:0:
324,160,130354,2,0,P|309:191|267:206,1,70,10|0,3:2|0:0,0:0:0:0:
188,188,130604,1,2,3:2:0:0:
464,344,131354,6,0,P|444:324|400:320,1,70,8|0,3:2|3:2,0:0:0:0:
332,272,131604,1,0,3:2:0:0:
332,272,131729,1,0,3:2:0:0:
224,344,131854,5,4,3:1:0:0:
224,344,131979,2,0,B|192:360|192:360|156:352,1,70
96,288,132229,2,0,B|112:224|112:224|116:216|116:216|132:152,1,140,8|0,3:2|0:0,0:0:0:0:
88,72,132604,2,0,B|120:56|120:56|156:64,1,70,8|0,3:2|0:0,0:0:0:0:
224,120,132854,2,0,B|256:136|256:136|292:128,1,70,8|0,3:2|0:0,0:0:0:0:
412,80,133104,5,8,3:2:0:0:
412,80,133229,2,0,L|424:152,1,70,2|0,0:0|0:0,0:0:0:0:
504,196,133479,2,0,P|480:240|392:240,1,140,8|0,3:2|0:0,0:0:0:0:
320,196,133854,2,0,P|288:176|252:180,1,70,8|0,3:2|0:0,0:0:0:0:
196,108,134104,2,0,P|162:125|148:158,1,70,8|0,3:2|0:0,0:0:0:0:
56,240,134354,5,4,3:1:0:0:
56,240,134479,2,0,P|88:260|123:256,1,70,2|0,0:0|0:0,0:0:0:0:
188,316,134729,2,0,B|272:340|220:364|320:384,1,140,8|0,3:2|0:0,0:0:0:0:
388,336,135104,2,0,P|396:292|408:256,1,70,8|0,3:2|0:0,0:0:0:0:
324,224,135354,2,0,P|316:180|304:144,1,70,8|0,3:2|0:0,0:0:0:0:
392,56,135604,5,8,3:2:0:0:
392,56,135729,2,0,P|356:36|324:40,1,70,2|0,0:0|0:0,0:0:0:0:
256,92,135979,2,0,B|200:108|200:108|184:124|184:124|128:140,1,140,8|8,3:2|3:1,0:0:0:0:
68,208,136354,2,0,L|60:248,3,35,8|8|8|8,3:2|3:1|3:1|3:1,0:0:0:0:
88,280,136604,2,0,L|80:320,3,35,8|8|8|8,3:2|3:1|3:1|3:1,0:0:0:0:
104,352,136854,6,0,B|202:358|148:301|242:311,1,140,4|0,3:1|0:0,0:0:0:0:
305,355,137229,1,8,3:2:0:0:
382,277,137354,2,0,P|389:314|392:351,1,70,2|0,0:0|3:2,0:0:0:0:
470,279,137604,2,0,P|473:244|479:209,1,70,2|0,3:2|0:0,0:0:0:0:
418,143,137854,1,10,3:2:0:0:
418,143,138104,5,2,3:2:0:0:
341,189,138229,2,0,P|274:181|242:122,1,140,0|8,0:0|3:2,0:0:0:0:
160,59,138604,2,0,L|154:129,1,70,0|0,0:0|3:2,0:0:0:0:
67,124,138854,2,0,L|73:194,1,70,2|0,3:2|0:0,0:0:0:0:
12,277,139104,1,8,3:2:0:0:
13,276,139354,6,0,B|110:271|56:328|138:318,1,140,2|0,3:2|0:0,0:0:0:0:
195,251,139729,1,8,3:2:0:0:
195,251,139854,1,2,0:0:0:0:
246,378,140104,2,0,L|316:384,1,70,2|0,3:2|0:0,0:0:0:0:
376,324,140354,2,0,L|382:254,1,70,10|0,3:2|0:0,0:0:0:0:
483,276,140604,6,0,P|462:210|460:140,1,140,2|0,3:2|0:0,0:0:0:0:
406,41,140979,2,0,P|374:100|307:107,1,140,8|0,3:2|3:2,0:0:0:0:
233,59,141354,1,2,3:2:0:0:
176,132,141479,2,0,L|179:166,2,35,8|8|8,3:1|3:1|3:2,0:0:0:0:
75,92,141729,1,0,3:0:0:0:
50,101,141791,1,0,3:0:0:0:
26,112,141854,6,0,L|14:251,1,140,4|2,3:1|0:0,0:0:0:0:
78,324,142229,2,0,P|109:264|176:257,1,140,8|0,3:2|3:2,0:0:0:0:
241,307,142604,2,0,L|244:341,2,35,2|0|8,3:2|0:0|3:1,0:0:0:0:
301,239,142854,1,10,3:2:0:0:
348,311,142979,1,8,3:1:0:0:
440,246,143104,6,0,P|438:176|417:109,1,140,4|2,3:2|0:0,0:0:0:0:
435,9,143479,2,0,B|338:3|392:60|309:51,1,140,12|0,3:2|3:2,0:0:0:0:
232,17,143854,1,4,3:1:0:0:
232,17,143979,1,0,3:1:0:0:
167,74,144104,1,10,3:2:0:0:
167,74,144229,1,0,3:1:0:0:
77,25,144354,6,0,L|88:164,1,140,4|2,3:1|0:0,0:0:0:0:
166,213,144729,2,0,P|232:191|302:190,1,140,8|0,3:2|3:2,0:0:0:0:
402,168,145104,2,0,P|395:202|392:237,1,70,2|0,3:2|0:0,0:0:0:0:
483,216,145354,1,10,3:2:0:0:
342,310,145604,5,4,3:1:0:0:
342,310,145729,2,0,L|272:304,1,70,8|8,3:1|3:1,0:0:0:0:
235,207,145979,1,4,3:1:0:0:
235,207,146104,2,0,L|165:213,1,70,8|8,3:1|3:1,0:0:0:0:
136,299,146354,1,2,3:1:0:0:
136,299,146479,2,0,L|66:293,1,70,8|10,3:1|3:1,0:0:0:0:
1,228,146729,1,8,3:1:0:0:
1,228,146854,6,0,B|13:164|13:164|17:156|17:156|29:92,1,140,4|0,3:1|0:0,0:0:0:0:
100,48,147229,2,0,P|136:100|216:92,1,140,8|0,3:2|3:2,0:0:0:0:
272,44,147604,2,0,P|300:20|344:24,1,70,2|0,3:2|0:0,0:0:0:0:
404,60,147854,1,10,3:2:0:0:
404,60,148104,5,2,3:2:0:0:
460,124,148229,2,0,B|436:152|448:184|448:184|476:216|468:256,1,140,0|8,0:0|3:2,0:0:0:0:
412,316,148604,2,0,B|376:292|344:304|344:304|332:340|288:348,1,140,0|2,0:0|3:2,0:0:0:0:
330,217,148979,1,0,0:0:0:0:
330,217,149104,1,8,3:2:0:0:
220,316,149354,6,0,B|196:292|176:280|176:280|192:244|208:188,1,140,2|0,3:2|0:0,0:0:0:0:
167,115,149729,1,8,3:2:0:0:
167,115,149854,1,2,0:0:0:0:
294,40,150104,2,0,P|269:15|235:9,1,70,2|0,3:2|0:0,0:0:0:0:
146,16,150354,2,0,P|112:24|90:51,1,70,10|0,3:2|0:0,0:0:0:0:
32,112,150604,6,0,L|60:252,1,140,2|0,3:2|0:0,0:0:0:0:
84,336,150979,1,8,3:2:0:0:
84,336,151104,2,0,B|116:348|116:348|156:332,1,70,0|0,0:0|3:2,0:0:0:0:
224,296,151354,1,2,3:2:0:0:
312,307,151479,2,0,L|304:347,2,35,8|8|8,3:1|3:1|3:2,0:0:0:0:
208,220,151729,1,0,3:0:0:0:
208,220,151791,1,0,3:0:0:0:
208,220,151854,6,0,B|292:204|240:168|336:152,1,140,4|2,3:1|0:0,0:0:0:0:
332,72,152229,2,0,B|416:88|364:124|460:140,1,140,8|0,3:2|3:2,0:0:0:0:
492,212,152604,2,0,B|476:244|476:244|488:280,1,70,2|8,3:2|3:1,0:0:0:0:
504,316,152791,1,8,3:1:0:0:
504,316,152854,2,0,B|514:348|514:348|498:380,1,70,10|8,3:2|3:1,0:0:0:0:
424,340,153104,6,0,B|364:328|364:328|344:336|344:336|288:328,1,140,4|2,3:2|0:0,0:0:0:0:
212,368,153479,2,0,B|196:348|172:344|172:344|128:308|156:260,1,140,12|0,3:2|3:2,0:0:0:0:
92,204,153854,2,0,P|117:179|151:173,1,70,4|0,3:1|3:1,0:0:0:0:
172,92,154104,2,0,P|206:101|228:127,1,70,10|0,3:2|3:1,0:0:0:0:
260,204,154354,6,0,L|396:236,1,140,4|2,3:1|0:0,0:0:0:0:
467,181,154729,1,8,3:2:0:0:
467,181,154854,2,0,B|483:149|483:149|471:105,1,70,2|0,0:0|3:2,0:0:0:0:
512,39,155104,2,0,B|480:23|480:23|436:35,1,70,2|0,3:2|0:0,0:0:0:0:
363,0,155354,1,10,3:2:0:0:
292,121,155604,5,4,3:1:0:0:
292,121,155729,2,0,P|264:141|220:137,1,70,8|8,3:1|3:1,0:0:0:0:
146,204,155979,1,4,3:1:0:0:
146,204,156104,2,0,P|177:218|195:258,1,70,8|8,3:1|3:1,0:0:0:0:
296,260,156354,1,2,3:1:0:0:
296,260,156479,2,0,P|293:232|313:203,2,35,8|8|10,3:1|3:1|3:1,0:0:0:0:
352,324,156729,1,8,3:1:0:0:
288,380,156854,6,0,P|222:359|152:357,1,140,4|0,3:1|0:0,0:0:0:0:
81,304,157229,1,10,3:2:0:0:
81,304,157354,1,2,0:0:0:0:
161,176,157604,2,0,L|155:106,1,70,2|0,3:2|0:0,0:0:0:0:
218,39,157854,2,0,L|288:33,1,70,10|0,3:2|0:0,0:0:0:0:
360,99,158104,6,0,P|392:40|459:33,1,140,2|0,3:2|0:0,0:0:0:0:
496,112,158479,2,0,P|475:178|473:248,1,140,8|0,3:2|3:2,0:0:0:0:
392,303,158854,2,0,P|388:268|382:233,1,70,2|0,3:2|0:0,0:0:0:0:
315,178,159104,1,8,3:2:0:0:
315,178,159354,6,0,B|217:172|271:229|177:219,1,140,2|0,3:2|0:0,0:0:0:0:
129,156,159729,1,10,3:2:0:0:
129,156,159854,1,0,0:0:0:0:
16,258,160104,2,0,L|22:327,1,70,2|0,3:2|0:0,0:0:0:0:
95,383,160354,2,0,L|164:376,1,70,10|0,3:2|0:0,0:0:0:0:
232,304,160604,6,0,P|301:305|368:326,1,140,2|0,3:2|0:0,0:0:0:0:
452,338,160979,2,0,P|393:306|386:239,1,140,8|0,3:2|3:2,0:0:0:0:
458,186,161354,2,0,L|513:190,2,35,2|0|8,3:2|0:0|3:1,0:0:0:0:
409,109,161604,2,0,L|339:102,1,70,8|8,3:1|3:1,0:0:0:0:
297,196,161854,6,0,B|201:202|263:145|172:154,1,140,4|0,3:1|0:0,0:0:0:0:
89,216,162229,2,0,P|87:146|66:79,1,140,8|0,3:2|3:0,0:0:0:0:
142,34,162604,2,0,L|146:-21,2,35,2|8|8,3:2|3:1|3:1,0:0:0:0:
225,66,162854,2,0,L|294:59,1,70,10|0,3:2|3:0,0:0:0:0:
395,37,163104,5,0,3:0:0:0:
395,37,163229,2,0,P|388:71|385:106,1,70,8|8,3:1|3:1,0:0:0:0:
470,158,163479,1,0,3:0:0:0:
470,158,163604,2,0,P|476:192|479:227,1,70,8|8,3:1|3:1,0:0:0:0:
397,260,163854,1,10,3:1:0:0:
397,260,163979,2,0,P|390:294|387:329,1,70,8|10,3:1|3:1,0:0:0:0:
309,372,164229,6,0,P|274:365|239:362,2,70,8|4|0,3:1|0:1|0:0,0:0:0:0:
307,281,164604,1,2,3:2:0:0:
307,281,164729,2,0,P|248:249|241:182,1,140,8|2,3:1|3:2,0:0:0:0:
313,129,165104,2,0,L|306:59,1,70,8|0,3:1|3:0,0:0:0:0:
225,25,165354,2,0,L|155:31,1,70,8|0,3:1|3:0,0:0:0:0:
72,96,165604,6,0,L|84:236,1,140,4|0,3:1|0:0,0:0:0:0:
96,324,165979,1,8,3:2:0:0:
96,324,166104,2,0,B|128:336|128:336|164:324,1,70,2|0,0:0|3:2,0:0:0:0:
212,256,166354,2,0,B|244:244|244:244|280:256,1,70,2|0,3:2|0:0,0:0:0:0:
356,288,166604,1,10,3:2:0:0:
356,288,166854,5,2,3:2:0:0:
424,340,166979,2,0,B|460:296|460:296|428:216,1,140,0|8,0:0|3:2,0:0:0:0:
476,148,167354,1,0,0:0:0:0:
476,148,167604,2,0,P|480:114|461:85,1,70,2|0,3:2|0:0,0:0:0:0:
384,52,167854,2,0,P|352:65|337:96,1,70,8|0,3:2|0:0,0:0:0:0:
276,152,168104,6,0,B|196:176|240:200|156:220,1,140,2|0,3:2|0:0,0:0:0:0:
80,267,168479,1,8,3:2:0:0:
80,267,168604,1,2,0:0:0:0:
63,129,168854,2,0,P|82:100|77:66,1,70,2|0,3:2|0:0,0:0:0:0:
168,48,169104,2,0,P|182:78|214:92,1,70,10|0,3:2|0:0,0:0:0:0:
276,152,169354,6,0,B|316:148|356:120|356:120|328:140|320:172,1,140,2|0,3:2|0:0,0:0:0:0:
408,188,169729,1,8,3:2:0:0:
408,188,169854,2,0,B|420:220|420:220|408:256,1,70,0|0,0:0|3:2,0:0:0:0:
448,328,170104,1,2,3:2:0:0:
380,380,170229,1,8,3:1:0:0:
380,380,170354,2,0,L|312:364,1,70,8|8,3:2|3:1,0:0:0:0:
224,300,170604,6,0,B|224:268|204:240|204:240|196:192|244:172,1,140,4|2,3:1|0:0,0:0:0:0:
308,132,170979,1,8,3:2:0:0:
308,132,171104,2,0,P|328:100|324:68,1,70,2|0,0:0|3:2,0:0:0:0:
268,4,171354,1,2,3:2:0:0:
196,52,171479,2,0,L|204:88,2,35,8|0|10,3:1|0:0|3:2,0:0:0:0:
116,24,171729,1,8,3:1:0:0:
40,92,171854,6,0,B|64:124|48:156|48:156|44:160|44:160|28:192|44:224,1,140,4|2,3:2|0:0,0:0:0:0:
120,296,172229,2,0,B|172:312|172:312|188:336|188:336|248:352,1,140,12|0,3:2|3:2,0:0:0:0:
325,320,172604,2,0,P|349:292|349:256,1,70,4|0,3:1|3:1,0:0:0:0:
273,228,172854,2,0,P|260:193|229:175,1,70,10|0,3:2|3:1,0:0:0:0:
156,212,173104,1,4,3:1:0:0:
156,212,173354,5,2,0:0:0:0:
88,164,173479,1,8,3:2:0:0:
88,164,173604,2,0,B|72:132|72:132|84:96,1,70,2|0,0:0|3:2,0:0:0:0:
132,32,173854,2,0,B|164:16|164:16|200:28,1,70,2|0,3:2|0:0,0:0:0:0:
256,84,174104,1,10,3:2:0:0:
256,84,174354,5,4,3:1:0:0:
192,152,174479,2,0,B|184:208|184:208|192:232|192:232|184:292,1,140,8|4,3:1|3:1,0:0:0:0:
236,356,174854,2,0,P|261:378|296:381,1,70,8|8,3:1|3:1,0:0:0:0:
368,336,175104,1,2,3:1:0:0:
432,280,175229,2,0,L|468:272,2,35,8|0|10,3:1|0:0|3:1,0:0:0:0:
352,248,175479,1,8,3:1:0:0:
416,188,175604,6,0,P|414:118|393:51,1,140,4|0,3:1|0:0,0:0:0:0:
319,109,175979,2,0,P|252:102|219:43,1,140,8|0,3:2|3:2,0:0:0:0:
145,97,176354,2,0,L|75:103,1,70,2|0,3:2|0:0,0:0:0:0:
23,172,176604,1,10,3:2:0:0:
23,172,176854,5,2,3:2:0:0:
88,222,176979,2,0,P|67:288|65:358,1,140,0|8,0:0|3:2,0:0:0:0:
153,336,177354,2,0,P|187:338|222:346,1,70,0|0,0:0|3:2,0:0:0:0:
293,298,177604,2,0,P|295:263|303:228,1,70,2|0,3:2|0:0,0:0:0:0:
256,159,177854,2,0,P|221:156|186:148,1,70,8|0,3:2|0:0,0:0:0:0:
136,67,178104,6,0,L|275:55,1,140,2|0,3:2|0:0,0:0:0:0:
334,122,178479,2,0,L|473:134,1,140,8|0,3:2|3:2,0:0:0:0:
502,214,178854,2,0,P|494:248|492:282,1,70,2|0,3:2|0:0,0:0:0:0:
436,343,179104,1,10,3:2:0:0:
436,343,179354,5,2,3:2:0:0:
361,297,179479,2,0,P|293:304|261:362,1,140,0|8,0:0|3:2,0:0:0:0:
178,345,179854,2,0,L|172:275,1,70,0|0,0:0|3:2,0:0:0:0:
93,224,180104,2,0,L|99:154,1,70,2|8,3:2|3:1,0:0:0:0:
121,137,180291,1,8,3:1:0:0:
121,137,180354,2,0,L|191:143,1,70,8|8,3:2|3:1,0:0:0:0:
258,71,180604,6,0,B|354:65|292:122|383:113,1,140,4|2,3:1|0:0,0:0:0:0:
451,173,180979,2,0,P|430:239|428:309,1,140,8|0,3:2|3:2,0:0:0:0:
355,359,181354,2,0,P|320:356|285:349,1,70,2|8,3:2|3:1,0:0:0:0:
260,330,181541,1,8,3:1:0:0:
260,330,181604,2,0,P|225:334|190:341,1,70,10|8,3:2|3:1,0:0:0:0:
107,377,181854,6,0,L|95:238,1,140,4|2,3:2|0:0,0:0:0:0:
39,173,182229,2,0,P|71:114|138:107,1,140,12|0,3:2|3:2,0:0:0:0:
219,152,182604,1,4,3:1:0:0:
219,152,182729,1,0,3:1:0:0:
273,78,182854,1,10,3:2:0:0:
273,78,182979,1,0,3:1:0:0:
358,109,183104,6,0,L|346:248,1,140,4|2,3:1|0:0,0:0:0:0:
366,334,183479,2,0,L|227:322,1,140,8|0,3:2|3:2,0:0:0:0:
178,254,183854,2,0,L|108:260,1,70,2|0,3:2|0:0,0:0:0:0:
74,339,184104,1,10,3:2:0:0:
48,195,184354,5,4,3:1:0:0:
48,195,184479,2,0,P|51:160|58:125,1,70,8|8,3:1|3:1,0:0:0:0:
132,72,184729,1,4,3:1:0:0:
132,72,184854,2,0,P|167:75|202:82,1,70,8|8,3:1|3:1,0:0:0:0:
247,157,185104,1,2,3:1:0:0:
247,157,185229,2,0,P|281:163|316:166,1,70,8|10,3:1|3:1,0:0:0:0:
396,136,185479,1,8,3:1:0:0:
396,136,185604,6,0,B|432:156|428:196|428:196|404:260,1,140,4|0,3:1|0:0,0:0:0:0:
512,223,185979,1,10,3:2:0:0:
512,223,186104,1,2,0:0:0:0:
460,336,186354,2,0,P|431:354|397:350,1,70,2|0,3:2|0:0,0:0:0:0:
320,384,186604,2,0,P|289:368|275:336,1,70,10|0,3:2|0:0,0:0:0:0:
204,292,186854,6,0,B|140:276|140:276|132:268|132:268|72:252,1,140,2|0,3:2|0:0,0:0:0:0:
24,180,187229,2,0,B|84:164|84:164|92:156|92:156|156:140,1,140,8|0,3:2|3:2,0:0:0:0:
208,72,187604,2,0,L|284:92,1,70,2|0,3:2|0:0,0:0:0:0:
348,48,187854,1,8,3:2:0:0:
348,48,187979,1,0,0:0:0:0:
412,104,188104,6,0,B|396:188|440:156|428:240,1,140,2|0,3:2|0:0,0:0:0:0:
468,316,188479,2,0,P|424:276|348:292,1,140,10|0,3:2|3:2,0:0:0:0:
280,336,188854,2,0,P|249:319|236:288,1,70,2|0,3:2|0:0,0:0:0:0:
164,244,189104,2,0,P|162:209|183:182,1,70,10|0,3:2|0:0,0:0:0:0:
248,128,189354,6,0,B|288:104|332:100|332:100|304:92|284:72,1,140,2|0,3:2|0:0,0:0:0:0:
220,24,189729,2,0,B|136:40|180:68|92:84,1,140,8|0,3:2|3:2,0:0:0:0:
58,161,190104,1,2,3:2:0:0:
112,237,190229,2,0,L|148:225,2,35,8|8|8,3:1|3:1|3:1,0:0:0:0:
68,332,190479,1,0,3:0:0:0:
68,332,190541,1,0,3:0:0:0:
68,332,190604,6,0,B|134:339|134:339|142:343|142:343|206:351,1,140,4|0,3:1|0:0,0:0:0:0:
292,360,190979,2,0,P|340:316|324:244,1,140,8|0,3:2|3:0,0:0:0:0:
308,220,191291,1,0,3:2:0:0:
308,220,191354,2,0,P|287:194|285:160,1,70,2|8,3:2|3:1,0:0:0:0:
224,104,191604,2,0,P|236:72|264:54,1,70,10|0,3:2|3:0,0:0:0:0:
344,20,191854,6,0,L|360:88,1,70,0|8,3:0|3:1,0:0:0:0:
440,128,192104,1,8,3:1:0:0:
440,128,192229,2,0,P|427:159|399:177,1,70,0|8,3:0|3:1,0:0:0:0:
328,220,192479,1,8,3:1:0:0:
328,220,192604,2,0,P|294:225|264:209,1,70,10|8,3:1|3:1,0:0:0:0:
184,188,192854,2,0,P|162:161|161:127,1,70,10|8,3:1|3:1,0:0:0:0:
192,96,193041,1,8,3:1:0:0:
191,96,193104,6,0,P|204:63|233:45,2,70,8|8|8,3:1|3:1|3:1,0:0:0:0:
320,56,193479,1,8,3:1:0:0:
320,56,193604,2,0,P|341:82|342:117,2,70,8|8|8,3:1|3:1|3:1,0:0:0:0:
292,188,193979,1,8,3:1:0:0:
292,188,194104,2,0,P|258:193|228:177,1,70,8|8,3:1|3:1,0:0:0:0:
191,96,194354,6,0,P|125:75|55:73,1,140,4|0,3:1|0:0,0:0:0:0:
1,147,194729,2,0,L|13:286,1,140,8|0,3:2|3:2,0:0:0:0:
74,355,195104,2,0,P|108:347|142:345,1,70,2|0,3:2|0:0,0:0:0:0:
194,270,195354,2,0,P|228:278|262:280,1,70,10|0,3:2|0:0,0:0:0:0:
336,357,195604,6,0,P|368:298|435:291,1,140,2|0,3:2|0:0,0:0:0:0:
499,221,195979,2,0,L|487:82,1,140,8|0,3:2|3:2,0:0:0:0:
415,22,196354,1,2,3:2:0:0:
415,22,196604,2,0,P|381:30|347:32,1,70,8|0,3:2|0:0,0:0:0:0:
296,116,196854,6,0,B|198:122|252:65|158:75,1,140,2|0,3:2|0:0,0:0:0:0:
93,21,197229,2,0,P|34:53|27:120,1,140,8|0,3:2|3:2,0:0:0:0:
92,185,197604,2,0,P|100:219|102:253,1,70,2|0,3:2|0:0,0:0:0:0:
157,328,197854,1,10,3:2:0:0:
157,328,198104,6,0,L|296:316,1,140,2|0,3:2|0:0,0:0:0:0:
402,359,198479,2,0,P|381:293|379:223,1,140,8|0,3:2|3:2,0:0:0:0:
445,160,198854,1,2,3:2:0:0:
402,81,198979,2,0,L|410:45,2,35,8|8|8,3:1|3:1|3:2,0:0:0:0:
316,98,199229,1,8,3:1:0:0:
294,187,199354,6,0,L|155:175,1,140,4|0,3:1|0:0,0:0:0:0:
81,125,199729,2,0,P|22:157|15:224,1,140,8|0,3:2|3:2,0:0:0:0:
57,303,200104,2,0,L|49:339,2,35,8|8|8,3:1|3:1|3:1,0:0:0:0:
141,276,200354,2,0,P|175:277|209:285,1,70,8|8,3:2|3:1,0:0:0:0:
271,353,200604,6,0,B|369:359|315:302|409:312,1,140,4|0,3:2|0:0,0:0:0:0:
491,348,200979,2,0,L|479:209,1,140,4|0,3:2|3:2,0:0:0:0:
429,138,201354,1,4,3:1:0:0:
429,138,201479,1,0,3:2:0:0:
354,181,201604,1,8,3:2:0:0:
354,181,201729,1,8,3:2:0:0:
285,108,201854,6,0,B|187:102|241:159|147:149,1,140,4|0,3:1|0:0,0:0:0:0:
62,118,202229,2,0,L|50:257,1,140,8|0,3:2|0:0,0:0:0:0:
139,311,202604,2,0,P|171:252|238:245,1,140,2|8,3:2|3:2,0:0:0:0:
391,333,203104,5,4,3:1:0:0:
391,333,203229,2,0,P|426:330|461:323,1,70,8|8,3:1|3:1,0:0:0:0:
405,235,203479,1,4,3:1:0:0:
405,235,203604,2,0,P|402:200|395:165,1,70,8|8,3:1|3:1,0:0:0:0:
395,68,203854,1,8,3:0:0:0:
395,68,203979,2,0,P|360:71|325:78,1,70,8|8,3:0|3:2,0:0:0:0:
257,142,204229,1,8,3:2:0:0:
257,142,204354,6,0,B|204:124|204:124|188:100|188:100|136:80,2,140,4|10|2,3:2|3:2|3:2,0:0:0:0:
312,208,204979,1,8,3:2:0:0:
312,208,205104,2,0,P|332:236|328:276,1,70,10|0,3:2|0:0,0:0:0:0:
260,316,205354,2,0,P|245:347|209:363,1,70,2|0,0:0|0:0,0:0:0:0:
136,328,205604,6,0,P|88:280|104:212,2,140,2|10|2,3:2|3:2|3:2,0:0:0:0:
214,362,206229,1,8,3:2:0:0:
214,362,206354,2,0,L|228:288,1,70,10|0,3:2|0:0,0:0:0:0:
296,244,206604,1,2,0:0:0:0:
296,244,206854,6,0,L|268:96,2,140,2|10|2,3:2|3:2|3:2,0:0:0:0:
320,328,207479,1,8,3:2:0:0:
320,328,207604,2,0,P|352:352|392:344,1,70,10|0,3:2|0:0,0:0:0:0:
440,292,207854,2,0,P|444:252|417:221,1,70,2|0,0:0|0:0,0:0:0:0:
364,176,208104,6,0,B|300:168|300:168|288:172|288:172|220:164,2,140,2|10|2,3:2|3:2|3:2,0:0:0:0:
440,140,208729,1,8,3:2:0:0:
440,140,208854,2,0,B|456:108|456:108|444:76,1,70,10|8,3:2|3:0,0:0:0:0:
388,16,209104,1,2,0:0:0:0:
312,40,209229,1,0,3:0:0:0:
312,40,209291,1,0,3:0:0:0:
312,40,209354,6,0,B|220:32|220:32|180:0,2,140,4|10|2,3:2|3:2|3:2,0:0:0:0:
364,108,209979,1,8,3:2:0:0:
364,108,210104,2,0,L|348:176,1,70,10|0,3:2|0:0,0:0:0:0:
276,224,210354,2,0,L|292:292,1,70,2|0,0:0|0:0,0:0:0:0:
356,344,210604,6,0,B|400:364|400:364|452:344|436:288,2,140,2|10|2,3:2|3:2|3:2,0:0:0:0:
292,292,211229,1,8,3:2:0:0:
292,292,211354,2,0,P|260:316|220:308,1,70,10|0,3:2|0:0,0:0:0:0:
164,364,211604,2,0,P|127:348|114:309,1,70,2|0,0:0|0:0,0:0:0:0:
44,276,211854,6,0,L|20:136,2,140,2|10|2,3:2|3:2|3:2,0:0:0:0:
114,322,212479,1,8,3:2:0:0:
167,262,212604,1,10,3:2:0:0:
167,262,212729,1,8,3:1:0:0:
231,314,212854,1,2,0:0:0:0:
231,314,212979,1,8,3:1:0:0:
287,249,213104,6,0,B|385:243|331:300|425:290,1,140,4|0,3:1|0:0,0:0:0:0:
479,221,213479,2,0,P|472:154|413:121,1,140,12|0,3:2|0:0,0:0:0:0:
357,50,213854,2,0,P|323:58|289:60,1,70,4|0,3:1|0:0,0:0:0:0:
218,115,214104,2,0,P|184:107|150:105,1,70,8|0,3:2|0:0,0:0:0:0:
86,44,214354,6,0,P|107:110|109:180,1,140,12|0,3:2|0:0,0:0:0:0:
34,230,214729,2,0,P|40:296|99:329,1,140,4|0,3:1|0:0,0:0:0:0:
177,284,215104,2,0,P|211:285|245:293,1,70,8|0,3:2|0:0,0:0:0:0:
305,360,215354,2,0,P|339:358|373:350,1,70,8|0,3:2|0:0,0:0:0:0:
467,377,215604,6,0,L|455:238,1,140,4|0,3:1|0:0,0:0:0:0:
363,224,215979,2,0,L|375:85,1,140,0|0,3:0|0:0,0:0:0:0:
289,34,216354,2,0,P|280:68|279:102,1,70,12|0,3:2|0:0,0:0:0:0:
207,161,216604,2,0,P|172:152|138:151,1,70,8|0,3:2|0:0,0:0:0:0:
61,201,216854,5,4,3:1:0:0:
61,201,216979,2,0,L|67:271,1,70
157,306,217229,1,0,3:0:0:0:
157,306,217354,2,0,L|151:376,1,70
250,349,217604,2,0,P|282:289|349:283,1,140,2|0,3:2|3:0,0:0:0:0:
348,282,218104,5,4,3:1:0:0:
419,233,218229,2,0,P|415:187|397:159,1,70
429,80,218479,2,0,L|290:68,1,140,8|0,3:2|0:0,0:0:0:0:
215,125,218854,2,0,L|145:131,1,70,8|0,3:2|0:0,0:0:0:0:
53,105,219104,2,0,L|59:175,1,70,8|0,3:2|0:0,0:0:0:0:
18,269,219354,6,0,P|84:275|116:335,1,140,8|0,3:2|0:0,0:0:0:0:
203,295,219729,2,0,P|269:316|339:318,1,140,8|0,3:2|0:0,0:0:0:0:
434,340,220104,2,0,L|428:270,1,70,8|0,3:2|0:0,0:0:0:0:
360,205,220354,2,0,L|366:135,1,70,8|0,3:2|0:0,0:0:0:0:
309,63,220604,6,0,B|211:57|265:114|171:104,1,140,8|0,3:2|0:0,0:0:0:0:
77,81,220979,2,0,P|98:147|100:217,1,140,8|0,3:2|0:0,0:0:0:0:
58,304,221354,2,0,L|128:310,1,70,8|0,3:2|0:0,0:0:0:0:
205,254,221604,2,0,L|275:248,1,70,8|0,3:2|0:0,0:0:0:0:
314,163,221854,5,8,3:2:0:0:
395,216,221979,2,0,P|386:250|385:284,1,70,2|0,0:0|0:0,0:0:0:0:
487,235,222229,2,0,P|486:200|477:166,1,70,8|2,3:2|0:0,0:0:0:0:
452,78,222479,2,0,L|455:43,2,35,8|8|8,3:1|3:1|3:2,0:0:0:0:
365,76,222729,1,8,3:1:0:0:
365,76,222854,2,0,L|295:70,1,70,8|8,3:2|3:1,0:0:0:0:
228,8,223104,5,4,3:1:0:0:
152,56,223229,2,0,P|136:88|152:128,1,70
220,172,223479,2,0,B|300:200|256:220|336:252,1,140,8|0,3:2|0:0,0:0:0:0:
412,296,223854,2,0,P|428:264|412:220,1,70,8|0,3:2|0:0,0:0:0:0:
364,160,224104,2,0,P|348:128|364:84,1,70,8|0,3:2|0:0,0:0:0:0:
296,32,224354,5,8,3:2:0:0:
296,32,224479,2,0,L|228:48,1,70,2|0,0:0|0:0,0:0:0:0:
156,104,224729,2,0,B|148:168|148:168|152:180|152:180|144:244,1,140,8|0,3:2|0:0,0:0:0:0:
196,320,225104,2,0,B|228:332|228:332|264:320,1,70,8|0,3:2|0:0,0:0:0:0:
312,244,225354,2,0,B|344:232|344:232|380:244,1,70,8|0,3:2|0:0,0:0:0:0:
452,188,225604,5,8,3:2:0:0:
452,188,225729,2,0,L|432:112,1,70,2|0,0:0|0:0,0:0:0:0:
352,84,225979,2,0,B|272:64|312:40|228:16,1,140,8|0,3:2|0:0,0:0:0:0:
144,36,226354,2,0,L|156:104,1,70,8|0,3:2|0:0,0:0:0:0:
76,148,226604,2,0,L|64:216,1,70,8|0,3:2|0:0,0:0:0:0:
40,308,226854,5,8,3:2:0:0:
40,308,226979,2,0,P|68:332|120:324,1,70,2|0,0:0|0:0,0:0:0:0:
156,264,227229,2,0,L|296:236,1,140,8|0,3:2|0:0,0:0:0:0:
376,276,227604,2,0,P|392:240|384:208,1,70,8|8,3:2|3:1,0:0:0:0:
316,152,227854,2,0,P|300:116|308:84,1,70,8|8,3:2|3:1,0:0:0:0:
256,12,228104,1,6,3:1:0:0:
256,192,228166,12,0,235604,0:0:0:0:
