osu file format v14

[General]
AudioFilename: audio.mp3
AudioLeadIn: 0
PreviewTime: 92734
Countdown: 0
SampleSet: Normal
StackLeniency: 0.2
Mode: 1
LetterboxInBreaks: 0
WidescreenStoryboard: 1

[Editor]
Bookmarks: 35175,49944,64727,77352
DistanceSpacing: 0.5
BeatDivisor: 12
GridSize: 32
TimelineZoom: 3.199999

[Metadata]
Title:Asa-san Yoru-san
TitleUnicode:朝さん夜さん
Artist:KikuoHana
ArtistUnicode:きくおはな
Creator:Alchyr
Version:Oni
Source:
Tags:kikuo 花たん hanatan yurica 第一幕 1st act mr. mrs. morning night japanese
BeatmapID:2344054
BeatmapSetID:1109335

[Difficulty]
HPDrainRate:6
CircleSize:2
OverallDifficulty:5
ApproachRate:10
SliderMultiplier:1.4
SliderTickRate:1

[Events]
//Background and Video events
0,0,"bg.jpg",0,0
//Break Periods
2,213493,219051
//Storyboard Layer 0 (Background)
//Storyboard Layer 1 (Fail)
//Storyboard Layer 2 (Pass)
//Storyboard Layer 3 (Foreground)
//Storyboard Layer 4 (Overlay)
//Storyboard Sound Samples

[TimingPoints]
1565,428.571428571429,4,1,0,30,1,0
1565,-150.15015015015,4,1,0,30,0,0
10136,437.956204379562,4,1,0,30,1,0
11011,444.444444444444,4,1,0,30,1,8
11899,461.538461538462,4,1,0,30,1,0
12745,-108.333333334146,4,1,0,30,0,0
12822,500,4,1,0,30,1,8
13384,-105.263157894737,4,1,0,30,0,0
13478,-106.00706713706,4,1,0,30,0,0
13572,-106.761565834779,4,1,0,30,0,0
13665,-107.526881718118,4,1,0,30,0,0
13759,-108.303249094345,4,1,0,30,0,0
13814,545.454545454546,4,1,0,30,1,0
14362,600,4,1,0,30,1,8
14962,666.666666666667,4,1,0,30,1,8
16986,428.571428571429,4,1,0,30,1,8
17843,428.571428571429,4,1,0,30,1,0
17843,-150.01500150015,4,1,0,30,0,0
26414,437.956204379562,4,1,0,30,1,0
27289,444.444444444444,4,1,0,30,1,8
28177,461.538461538462,4,1,0,30,1,0
28984,-108.333333334146,4,1,0,30,0,0
29100,500,4,1,0,30,1,8
29623,-105.263157894737,4,1,0,30,0,0
29717,-106.00706713706,4,1,0,30,0,0
29811,-106.761565834779,4,1,0,30,0,0
29904,-107.526881718118,4,1,0,30,0,0
29998,-108.303249094345,4,1,0,30,0,0
30100,689.655172413793,5,1,0,30,1,0
30100,-78.7401574803149,5,1,0,30,0,0
30143,-79.0909090910313,5,1,0,30,0,0
33329,461.538461538462,4,1,0,80,1,0
33329,-87.719298245614,4,1,0,80,0,0
34252,-66.6666666666667,4,1,0,80,0,0
34482,-72.463768115942,4,1,0,80,0,0
34713,-79.3650793650794,4,1,0,80,0,0
34944,-87.719298245614,4,1,0,80,0,0
35175,461.538461538462,4,1,0,80,1,0
35175,-76.9230769230769,4,1,0,80,0,0
35405,-87.719298245614,4,1,0,80,0,0
47175,-66.6666666666667,4,1,0,80,0,0
48098,-100,4,1,0,80,0,0
48559,-83.3333333333333,4,1,0,80,0,0
49021,-120.481927710843,4,1,0,80,0,0
49251,-133.333333333333,4,1,0,80,0,0
49944,-76.9230769230769,4,1,0,80,0,0
50175,-87.719298245614,4,1,0,80,0,0
61944,-66.6666666666667,4,1,0,80,0,0
62867,465.116279069767,4,1,0,80,1,0
63099,-93.4579439252336,4,1,0,80,0,0
64727,375,4,1,0,80,1,0
76352,333.333333333333,4,1,0,80,1,0
76352,-107.52688172043,4,1,0,80,0,0
76518,-111.111111111111,4,1,0,80,0,0
76685,-114.942528735632,4,1,0,80,0,0
77018,-129.87012987013,4,1,0,80,0,0
77352,333.333333333333,4,1,0,80,1,0
77352,-149.999925000038,4,1,0,80,0,0
77518,-148.070274152113,4,1,0,80,0,0
77685,315.789473684211,4,1,0,80,1,8
77685,-154.311286798572,4,1,0,80,0,0
77842,-152.375966364369,4,1,0,80,0,0
78000,300,4,1,0,80,1,8
78000,-158.409040974241,4,1,0,80,0,0
78150,-156.470941859623,4,1,0,80,0,0
78300,-154.579693947664,4,1,0,80,0,0
78450,-152.73361867028,4,1,0,80,0,0
78600,285.714285714286,4,1,0,80,1,0
78600,-158.47767253351,4,1,0,80,0,0
78885,-154.823138893165,4,1,0,80,0,0
79028,-153.058457835456,4,1,0,80,0,0
79171,279.06976744186,4,1,0,80,1,8
79171,-154.9367310454,4,1,0,80,0,0
79310,-153.210115345126,4,1,0,80,0,0
79450,-151.521558346371,4,1,0,80,0,0
79589,-149.869815410576,4,1,0,80,0,0
79729,260.869565217391,4,1,0,80,1,0
79729,-158.596976672729,4,1,0,80,0,0
79859,-156.904993071621,4,1,0,80,0,0
79989,255.31914893617,4,1,0,80,1,8
79989,-158.623702458114,4,1,0,80,0,0
80116,-156.966787163724,4,1,0,80,0,0
80244,250,4,1,0,80,1,8
80244,-158.649134350829,4,1,0,80,0,0
80369,-157.025867263679,4,1,0,80,0,0
80494,-155.435481645984,4,1,0,80,0,0
80619,-153.876988427296,4,1,0,80,0,0
80742,244.897959183673,4,1,0,80,1,0
80742,-155.523384432604,4,1,0,80,0,0
80986,-152.495707401444,4,1,0,80,0,0
81109,-151.025649086665,4,1,0,80,0,0
81231,240,4,1,0,80,1,8
81231,-152.636390689082,4,1,0,80,0,0
81351,-151.192808447541,4,1,0,80,0,0
81471,235.294117647059,4,1,0,80,1,8
81471,-152.771636957076,4,1,0,80,0,0
81588,-151.353599758404,4,1,0,80,0,0
81706,226.415094339623,4,1,0,80,1,0
81706,-155.842493931552,4,1,0,80,0,0
81819,-154.422317183206,4,1,0,80,0,0
81932,214.285714285714,4,1,0,80,1,8
81932,-161.689740947626,4,1,0,80,0,0
82039,-160.2426531605,4,1,0,80,0,0
82146,202.020202020202,4,1,0,80,1,8
82146,-168.463955860401,4,1,0,80,0,0
82247,-166.982753211635,4,1,0,80,0,0
82348,-165.527370201462,4,1,0,80,0,0
82449,-164.097137549204,4,1,0,80,0,0
82550,200,4,1,0,80,1,0
82550,-164.334594437011,4,1,0,80,0,0
82750,-161.566497054158,4,1,0,80,0,0
82850,-160.217126249493,4,1,0,80,0,0
82950,193.548387096774,4,1,0,80,1,8
82950,-164.186445042507,4,1,0,80,0,0
83046,-162.837721494758,4,1,0,80,0,0
83143,-161.510975817014,4,1,0,80,0,0
83337,179.10447761194,4,1,0,80,1,0
83337,-171.73753787838,4,1,0,80,0,0
83426,-170.371665534076,4,1,0,80,0,0
83516,-169.027194507817,4,1,0,80,0,0
83695,166.666666666667,4,1,0,80,1,8
83695,-178.819220920418,4,1,0,80,0,0
83778,-177.440876699883,4,1,0,80,0,0
83861,-176.083618588795,4,1,0,80,0,0
84028,157.894736842105,4,1,0,80,1,0
84028,-183.065479631556,4,1,0,80,0,0
84185,-180.348060366103,4,1,0,80,0,0
84264,-179.01938082661,4,1,0,80,0,0
84343,-177.710135688236,4,1,0,80,0,0
84422,-176.419754221283,4,1,0,80,0,0
84501,-175.148122306118,4,1,0,80,0,0
84659,150,4,1,0,80,1,0
84659,-181.746391993344,4,1,0,80,0,0
84734,-180.464094096866,4,1,0,80,0,0
84809,-179.199763743031,4,1,0,80,0,0
84959,-176.723515970902,4,1,0,80,0,0
85109,-174.314770814861,4,1,0,80,0,0
85184,-173.134720107814,4,1,0,80,0,0
85259,148.148148148148,4,1,0,80,1,0
85259,-174.120305523096,4,1,0,80,0,0
85407,-171.810022404027,4,1,0,80,0,0
85555,-169.560243624158,4,1,0,80,0,0
85703,-167.368623069496,4,1,0,80,0,0
85777,-166.293921920199,4,1,0,80,0,0
85851,146.341463414634,4,1,0,80,1,0
85851,-167.272847145419,4,1,0,80,0,0
85997,-165.165154277548,4,1,0,80,0,0
86143,-163.110032516184,4,1,0,80,0,0
86290,-161.105425268419,4,1,0,80,0,0
86363,-160.121486124223,4,1,0,80,0,0
86436,-159.149492689643,4,1,0,80,0,0
86582,-157.24048321151,4,1,0,80,0,0
86655,-156.302942856559,4,1,0,80,0,0
86729,-155.376622321421,4,1,0,80,0,0
86802,-154.461216672167,4,1,0,80,0,0
86875,-153.556534122659,4,1,0,80,0,0
87021,600,4,1,0,80,1,0
87021,-37.037037037037,4,1,0,80,0,0
88203,600,4,1,0,65,1,8
88803,600,4,1,0,65,1,0
88803,-100,4,1,0,65,0,0
89103,-95.7447215934986,4,1,0,65,0,0
89403,560.747663551402,4,1,0,65,1,8
89403,-98.265296095378,4,1,0,65,0,0
89683,526.315789473684,4,1,0,65,1,8
89683,-100.588264878901,4,1,0,65,0,0
89946,434.782608695652,4,1,0,65,1,8
89946,-117.169789213247,4,1,0,65,0,0
90163,428.571428571429,4,1,0,65,1,8
90163,-114.545475371905,4,1,0,65,0,0
90377,-110.526286703609,4,1,0,65,0,0
90591,-106.779670066074,4,1,0,65,0,0
90805,-103.278654662736,4,1,0,65,0,0
90913,-101.612886836631,4,1,0,65,0,0
90966,-100.799991936001,4,1,0,65,0,0
91020,428.571428571429,6,1,0,65,1,0
91020,-100,4,1,0,65,0,0
91877,-100,4,1,0,30,0,0
93591,428.571428571429,4,1,0,30,1,0
93591,-150.15015015015,4,1,0,30,0,0
102162,437.956204379562,4,1,0,30,1,0
103037,444.444444444444,4,1,0,30,1,8
103925,461.538461538462,4,1,0,30,1,0
104732,-108.333333334146,4,1,0,30,0,0
104848,500,4,1,0,30,1,8
105371,-105.263157894737,4,1,0,30,0,0
105465,-106.00706713706,4,1,0,30,0,0
105559,-106.761565834779,4,1,0,30,0,0
105652,-107.526881718118,4,1,0,30,0,0
105746,-108.303249094345,4,1,0,30,0,0
105840,545.454545454546,4,1,0,30,1,0
109012,428.571428571429,4,1,0,30,1,8
109869,428.571428571429,4,1,0,30,1,0
109869,-150.001500015,4,1,0,30,0,0
118440,437.956204379562,4,1,0,30,1,0
119315,444.444444444444,4,1,0,30,1,8
120203,500,4,1,0,30,1,0
121010,-120.00000000048,4,1,0,30,0,0
121199,600,4,1,0,30,1,8
121799,600,6,1,0,30,1,0
121799,-107.52688172043,6,1,0,30,0,0
125249,-107.52688172043,6,1,0,80,0,0
125355,461.538461538462,4,1,0,80,1,0
125355,-87.719298245614,4,1,0,80,0,0
126278,-66.6666666666667,4,1,0,80,0,0
126508,-72.463768115942,4,1,0,80,0,0
126739,-79.3650793650794,4,1,0,80,0,0
126970,-87.719298245614,4,1,0,80,0,0
127201,461.538461538462,4,1,0,80,1,0
127201,-76.9230769230769,4,1,0,80,0,0
127431,-87.719298245614,4,1,0,80,0,0
139201,-66.6666666666667,4,1,0,80,0,0
140124,-100,4,1,0,80,0,0
140585,-83.3333333333333,4,1,0,80,0,0
141047,-120.481927710843,4,1,0,80,0,0
141277,-133.333333333333,4,1,0,80,0,0
141970,-76.9230769230769,4,1,0,80,0,0
142201,-87.719298245614,4,1,0,80,0,0
153970,-66.6666666666667,4,1,0,80,0,0
154893,400,4,1,0,80,1,0
154893,-133.333333333333,4,1,0,80,0,0
155093,-129.032258064516,4,1,0,80,0,0
155293,-125,4,1,0,80,0,0
155693,-117.647058823529,4,1,0,80,0,0
156093,-111.111111111111,4,1,0,80,0,0
156493,400,4,1,0,80,1,0
156493,-76.9230769230769,4,1,0,80,0,0
156793,-87.719298245614,4,1,0,80,0,0
166893,-66.6666666666667,4,1,0,80,0,0
167693,-100,4,1,0,80,0,0
168093,-83.3333333333333,4,1,0,80,0,0
168493,-120.481927710843,4,1,0,80,0,0
168693,-133.333333333333,4,1,0,80,0,0
169293,-76.9230769230769,4,1,0,80,0,0
169493,-87.719298245614,4,1,0,80,0,0
179693,-66.6666666666667,4,1,0,80,0,0
180493,-105.263157894737,4,1,0,80,0,0
180793,-100,4,1,0,80,0,0
181293,-33.3333333333333,4,1,0,80,0,0
182093,300,4,1,0,80,1,0
182093,-133.333333333333,4,1,0,80,0,0
183293,300,4,1,0,80,1,0
183293,-76.9230769230769,4,1,0,80,0,0
183443,-87.719298245614,4,1,0,80,0,0
191093,-66.6666666666667,4,1,0,80,0,0
191693,-100,4,1,0,80,0,0
191993,-83.3333333333333,4,1,0,80,0,0
192293,-120.481927710843,4,1,0,80,0,0
192443,-133.333333333333,4,1,0,80,0,0
192893,-76.9230769230769,4,1,0,80,0,0
193043,-87.719298245614,4,1,0,80,0,0
200693,-66.6666666666667,4,1,0,80,0,0
201293,-133.333333333333,4,1,0,80,0,0
201593,-120.481927710843,4,1,0,80,0,0
202193,-120.481927710843,4,1,0,40,0,0
202493,600,4,1,0,30,1,0
202493,-150.00015000015,4,1,0,30,0,0
216893,631.578947368421,4,1,0,30,1,0
216893,-250,4,1,0,30,0,0
218787,714.285714285714,4,1,0,30,1,8
219501,600,4,1,0,30,1,0
219501,-150.00015000015,4,1,0,30,0,0

[HitObjects]
64,64,1565,5,0,0:0:0:0:
64,64,1779,1,0,0:0:0:0:
64,64,1993,1,0,0:0:0:0:
64,64,2207,1,0,0:0:0:0:
64,64,2422,1,0,0:0:0:0:
320,64,3279,1,8,0:0:0:0:
320,64,3493,1,8,0:0:0:0:
320,64,3707,1,8,0:0:0:0:
320,64,3922,1,8,0:0:0:0:
320,64,4136,1,8,0:0:0:0:
64,64,4993,1,0,0:0:0:0:
64,64,5207,1,0,0:0:0:0:
64,64,5422,1,0,0:0:0:0:
64,64,5636,1,0,0:0:0:0:
64,64,5850,1,0,0:0:0:0:
320,64,6707,1,8,0:0:0:0:
320,64,6922,1,8,0:0:0:0:
320,64,7136,1,8,0:0:0:0:
320,64,7350,1,8,0:0:0:0:
320,64,7565,1,8,0:0:0:0:
320,64,8422,1,8,0:0:0:0:
320,64,8636,1,8,0:0:0:0:
320,64,8850,1,8,0:0:0:0:
320,64,9065,1,8,0:0:0:0:
320,64,9279,1,8,0:0:0:0:
64,64,10136,1,0,0:0:0:0:
320,64,10208,1,8,0:0:0:0:
320,64,10281,1,8,0:0:0:0:
64,64,11011,1,0,0:0:0:0:
64,64,11085,1,0,0:0:0:0:
320,64,11159,1,8,0:0:0:0:
64,64,11899,1,0,0:0:0:0:
320,64,11975,1,8,0:0:0:0:
320,64,12052,1,8,0:0:0:0:
64,64,12745,1,0,0:0:0:0:
64,64,12822,1,0,0:0:0:0:
320,64,12905,1,8,0:0:0:0:
64,64,13384,1,0,0:0:0:0:
64,64,13478,1,0,0:0:0:0:
320,64,13572,1,8,0:0:0:0:
320,64,13665,1,8,0:0:0:0:
64,64,13759,1,0,0:0:0:0:
320,64,13848,1,8,0:0:0:0:
64,64,17843,5,0,0:0:0:0:
64,64,18057,1,0,0:0:0:0:
64,64,18271,1,0,0:0:0:0:
64,64,18485,1,0,0:0:0:0:
64,64,18700,1,0,0:0:0:0:
320,64,19557,1,8,0:0:0:0:
320,64,19771,1,8,0:0:0:0:
320,64,19985,1,8,0:0:0:0:
320,64,20200,1,8,0:0:0:0:
320,64,20414,1,8,0:0:0:0:
64,64,21271,1,0,0:0:0:0:
64,64,21485,1,0,0:0:0:0:
64,64,21700,1,0,0:0:0:0:
64,64,21914,1,0,0:0:0:0:
64,64,22128,1,0,0:0:0:0:
320,64,22985,1,8,0:0:0:0:
320,64,23200,1,8,0:0:0:0:
320,64,23414,1,8,0:0:0:0:
320,64,23628,1,8,0:0:0:0:
320,64,23843,1,8,0:0:0:0:
320,64,24700,1,8,0:0:0:0:
320,64,24914,1,8,0:0:0:0:
320,64,25128,1,8,0:0:0:0:
320,64,25343,1,8,0:0:0:0:
320,64,25557,1,8,0:0:0:0:
64,64,26414,1,0,0:0:0:0:
320,64,26486,1,8,0:0:0:0:
320,64,26559,1,8,0:0:0:0:
64,64,27289,1,0,0:0:0:0:
64,64,27363,1,0,0:0:0:0:
320,64,27437,1,8,0:0:0:0:
64,64,28177,1,0,0:0:0:0:
320,64,28253,1,8,0:0:0:0:
320,64,28330,1,8,0:0:0:0:
64,64,29023,1,0,0:0:0:0:
64,64,29100,1,0,0:0:0:0:
320,64,29183,1,8,0:0:0:0:
64,64,29662,1,0,0:0:0:0:
64,64,29756,1,0,0:0:0:0:
320,64,29850,1,8,0:0:0:0:
320,64,29943,1,8,0:0:0:0:
64,64,30037,1,0,0:0:0:0:
320,64,30143,1,8,0:0:0:0:
64,64,33329,1,0,0:0:0:0:
320,64,34252,1,8,0:0:0:0:
64,64,34482,1,0,0:0:0:0:
320,64,34713,1,8,0:0:0:0:
320,64,34944,1,8,0:0:0:0:
64,64,35175,1,4,0:0:0:0:
64,64,35521,1,0,0:0:0:0:
320,64,35636,1,8,0:0:0:0:
320,64,35867,1,8,0:0:0:0:
320,64,35982,1,8,0:0:0:0:
64,64,36098,1,0,0:0:0:0:
64,64,36444,1,0,0:0:0:0:
320,64,36559,1,8,0:0:0:0:
320,64,36790,1,8,0:0:0:0:
64,64,37021,1,0,0:0:0:0:
320,64,37367,1,8,0:0:0:0:
64,64,37482,1,0,0:0:0:0:
64,64,37713,1,0,0:0:0:0:
320,64,37944,1,8,0:0:0:0:
64,64,38175,1,0,0:0:0:0:
320,64,38405,1,8,0:0:0:0:
320,64,38636,1,8,0:0:0:0:
64,64,38867,1,0,0:0:0:0:
64,64,39098,1,0,0:0:0:0:
64,64,39213,1,0,0:0:0:0:
320,64,39328,1,8,0:0:0:0:
320,64,39790,1,8,0:0:0:0:
320,64,40021,1,8,0:0:0:0:
320,64,40136,1,8,0:0:0:0:
64,64,40251,1,0,0:0:0:0:
320,64,40713,1,8,0:0:0:0:
320,64,40944,1,8,0:0:0:0:
64,64,41175,1,0,0:0:0:0:
64,64,41405,1,0,0:0:0:0:
320,64,41636,1,8,0:0:0:0:
64,64,41982,1,0,0:0:0:0:
320,64,42098,1,8,0:0:0:0:
320,64,42328,1,8,0:0:0:0:
64,64,42559,1,0,0:0:0:0:
64,64,42905,1,0,0:0:0:0:
320,64,43021,1,8,0:0:0:0:
64,64,43251,1,0,0:0:0:0:
320,64,43482,1,8,0:0:0:0:
64,64,43828,1,0,0:0:0:0:
320,64,43944,1,8,0:0:0:0:
320,64,44175,1,8,0:0:0:0:
64,64,44405,1,0,0:0:0:0:
64,64,44636,1,0,0:0:0:0:
320,64,44867,1,8,0:0:0:0:
320,64,45328,1,8,0:0:0:0:
64,64,45559,1,0,0:0:0:0:
320,64,45790,1,8,0:0:0:0:
320,64,46021,1,8,0:0:0:0:
64,64,46251,1,0,0:0:0:0:
320,64,46713,1,8,0:0:0:0:
96,224,47175,2,8,L|288:352,1,210.000008010865
64,64,48098,1,0,0:0:0:0:
320,64,48559,1,12,0:0:0:0:
320,64,49021,1,8,0:0:0:0:
256,192,49251,12,0,49713,0:0:0:0:
64,64,49944,5,4,0:0:0:0:
64,64,50175,1,0,0:0:0:0:
64,64,50290,1,0,0:0:0:0:
320,64,50405,1,8,0:0:0:0:
64,64,50867,1,0,0:0:0:0:
64,64,51213,1,0,0:0:0:0:
320,64,51328,1,8,0:0:0:0:
320,64,51559,1,8,0:0:0:0:
64,64,51790,1,0,0:0:0:0:
320,64,52251,1,8,0:0:0:0:
64,64,52482,1,0,0:0:0:0:
320,64,52713,1,8,0:0:0:0:
320,64,53175,1,8,0:0:0:0:
320,64,53405,1,8,0:0:0:0:
64,64,53636,1,0,0:0:0:0:
64,64,53867,1,0,0:0:0:0:
64,64,53982,1,0,0:0:0:0:
320,64,54098,1,8,0:0:0:0:
320,64,54559,1,8,0:0:0:0:
320,64,54790,1,8,0:0:0:0:
320,64,54905,1,8,0:0:0:0:
64,64,55021,1,0,0:0:0:0:
320,64,55482,1,8,0:0:0:0:
64,64,55713,1,0,0:0:0:0:
320,64,55944,1,8,0:0:0:0:
320,64,56175,1,8,0:0:0:0:
64,64,56405,1,0,0:0:0:0:
64,64,56751,1,0,0:0:0:0:
320,64,56867,1,8,0:0:0:0:
64,64,57098,1,0,0:0:0:0:
320,64,57328,1,8,0:0:0:0:
320,64,57790,1,8,0:0:0:0:
64,64,58021,1,0,0:0:0:0:
320,64,58251,1,8,0:0:0:0:
64,64,58482,1,0,0:0:0:0:
64,64,58598,1,0,0:0:0:0:
320,64,58713,1,8,0:0:0:0:
320,64,58944,1,8,0:0:0:0:
64,64,59175,1,0,0:0:0:0:
320,64,59636,1,8,0:0:0:0:
320,64,60098,1,8,0:0:0:0:
320,64,60559,1,8,0:0:0:0:
64,64,60790,1,0,0:0:0:0:
320,64,61021,1,8,0:0:0:0:
320,64,61251,1,8,0:0:0:0:
64,64,61482,1,0,0:0:0:0:
352,288,61944,2,8,L|128:224,1,210.000008010865
64,64,62867,1,0,0:0:0:0:
320,64,63099,1,8,0:0:0:0:
64,64,64727,1,0,0:0:0:0:
64,64,64914,1,0,0:0:0:0:
320,64,65102,1,8,0:0:0:0:
64,64,65289,1,0,0:0:0:0:
320,64,65477,1,8,0:0:0:0:
64,64,66039,1,0,0:0:0:0:
320,64,66227,1,8,0:0:0:0:
64,64,66414,1,0,0:0:0:0:
320,64,66602,1,8,0:0:0:0:
64,64,66789,1,0,0:0:0:0:
320,64,66977,1,8,0:0:0:0:
320,64,67164,1,8,0:0:0:0:
64,64,67352,1,0,0:0:0:0:
64,64,67539,1,0,0:0:0:0:
320,64,67727,1,8,0:0:0:0:
64,64,67914,1,0,0:0:0:0:
320,64,68102,1,8,0:0:0:0:
64,64,68289,1,0,0:0:0:0:
320,64,68477,1,8,0:0:0:0:
64,64,68664,1,0,0:0:0:0:
320,64,68852,1,8,0:0:0:0:
320,64,69039,1,8,0:0:0:0:
320,64,69227,1,8,0:0:0:0:
64,64,69414,1,0,0:0:0:0:
320,64,69602,1,8,0:0:0:0:
320,64,69789,1,8,0:0:0:0:
320,64,69883,1,8,0:0:0:0:
64,64,69977,1,0,0:0:0:0:
320,64,70727,1,8,0:0:0:0:
320,64,70820,1,8,0:0:0:0:
64,64,70914,1,0,0:0:0:0:
64,64,71008,1,0,0:0:0:0:
320,64,71102,1,8,0:0:0:0:
320,64,71477,1,8,0:0:0:0:
64,64,71570,1,0,0:0:0:0:
64,64,71664,1,0,0:0:0:0:
64,64,71758,1,0,0:0:0:0:
320,64,71852,1,8,0:0:0:0:
320,64,72227,1,8,0:0:0:0:
64,64,72320,1,0,0:0:0:0:
64,64,72414,1,0,0:0:0:0:
320,64,72508,1,8,0:0:0:0:
320,64,72602,1,8,0:0:0:0:
64,64,72789,1,0,0:0:0:0:
320,64,72977,1,8,0:0:0:0:
64,64,73070,1,0,0:0:0:0:
64,64,73164,1,0,0:0:0:0:
64,64,73258,1,0,0:0:0:0:
320,64,73352,1,8,0:0:0:0:
320,64,73727,1,8,0:0:0:0:
64,64,74289,1,0,0:0:0:0:
64,64,74477,1,0,0:0:0:0:
320,64,74570,1,8,0:0:0:0:
64,64,74664,1,0,0:0:0:0:
64,64,74852,1,0,0:0:0:0:
320,64,75039,1,8,0:0:0:0:
320,64,75227,1,8,0:0:0:0:
64,64,75414,1,0,0:0:0:0:
64,64,75602,1,0,0:0:0:0:
64,64,75695,1,0,0:0:0:0:
320,64,75789,1,8,0:0:0:0:
320,64,75977,1,8,0:0:0:0:
64,64,76352,1,0,0:0:0:0:
320,64,76518,1,8,0:0:0:0:
64,64,76685,1,0,0:0:0:0:
64,64,77018,1,0,0:0:0:0:
64,64,77352,1,0,0:0:0:0:
64,64,77518,1,0,0:0:0:0:
320,64,77685,1,8,0:0:0:0:
64,64,77842,1,0,0:0:0:0:
320,64,78000,1,8,0:0:0:0:
320,64,78150,1,8,0:0:0:0:
64,64,78300,1,0,0:0:0:0:
64,64,78450,1,0,0:0:0:0:
320,64,78600,1,8,0:0:0:0:
320,64,78885,1,8,0:0:0:0:
320,64,79028,1,8,0:0:0:0:
64,64,79171,1,0,0:0:0:0:
320,64,79310,1,8,0:0:0:0:
64,64,79450,1,0,0:0:0:0:
320,64,79589,1,8,0:0:0:0:
64,64,79729,1,0,0:0:0:0:
64,64,79859,1,0,0:0:0:0:
320,64,79989,1,8,0:0:0:0:
64,64,80116,1,0,0:0:0:0:
320,64,80244,1,8,0:0:0:0:
320,64,80369,1,8,0:0:0:0:
64,64,80494,1,0,0:0:0:0:
320,64,80619,1,8,0:0:0:0:
64,64,80742,1,0,0:0:0:0:
64,64,80986,1,0,0:0:0:0:
64,64,81109,1,0,0:0:0:0:
320,64,81231,1,8,0:0:0:0:
320,64,81351,1,8,0:0:0:0:
320,64,81471,1,8,0:0:0:0:
64,64,81588,1,0,0:0:0:0:
320,64,81706,1,8,0:0:0:0:
320,64,81819,1,8,0:0:0:0:
64,64,81932,1,0,0:0:0:0:
64,64,82039,1,0,0:0:0:0:
320,64,82146,1,8,0:0:0:0:
320,64,82247,1,8,0:0:0:0:
64,64,82348,1,0,0:0:0:0:
64,64,82449,1,0,0:0:0:0:
320,64,82550,1,8,0:0:0:0:
320,64,82750,1,8,0:0:0:0:
64,64,82850,1,0,0:0:0:0:
320,64,82950,1,8,0:0:0:0:
320,64,83046,1,8,0:0:0:0:
64,64,83143,1,0,0:0:0:0:
320,64,83337,1,8,0:0:0:0:
320,64,83426,1,8,0:0:0:0:
320,64,83516,1,8,0:0:0:0:
64,64,83695,1,0,0:0:0:0:
64,64,83778,1,0,0:0:0:0:
64,64,83861,1,0,0:0:0:0:
320,64,84028,1,8,0:0:0:0:
64,64,84185,1,0,0:0:0:0:
64,64,84264,1,0,0:0:0:0:
320,64,84343,1,8,0:0:0:0:
320,64,84422,1,8,0:0:0:0:
64,64,84501,1,0,0:0:0:0:
320,64,84659,1,8,0:0:0:0:
320,64,84734,1,8,0:0:0:0:
64,64,84809,1,0,0:0:0:0:
320,64,84959,1,8,0:0:0:0:
64,64,85109,1,0,0:0:0:0:
64,64,85184,1,0,0:0:0:0:
320,64,85259,1,8,0:0:0:0:
64,64,85407,1,0,0:0:0:0:
320,64,85555,1,8,0:0:0:0:
320,64,85703,1,8,0:0:0:0:
320,64,85777,1,8,0:0:0:0:
64,64,85851,1,0,0:0:0:0:
64,64,85997,1,0,0:0:0:0:
320,64,86143,1,8,0:0:0:0:
320,64,86290,1,8,0:0:0:0:
320,64,86363,1,8,0:0:0:0:
64,64,86436,1,0,0:0:0:0:
64,64,86582,1,0,0:0:0:0:
64,64,86655,1,0,0:0:0:0:
320,64,86729,1,8,0:0:0:0:
320,64,86802,1,8,0:0:0:0:
64,64,86875,1,0,0:0:0:0:
320,64,87021,1,8,0:0:0:0:
64,64,88603,1,0,0:0:0:0:
64,64,88703,1,0,0:0:0:0:
320,64,88803,1,8,0:0:0:0:
320,64,89103,1,8,0:0:0:0:
320,64,89403,1,8,0:0:0:0:
64,64,89683,1,0,0:0:0:0:
64,64,89946,1,0,0:0:0:0:
320,64,90163,1,8,0:0:0:0:
64,64,90377,1,0,0:0:0:0:
320,64,90591,1,8,0:0:0:0:
320,64,90805,1,8,0:0:0:0:
64,64,91020,1,0,0:0:0:0:
64,64,93591,1,0,0:0:0:0:
64,64,93805,1,0,0:0:0:0:
64,64,94019,1,0,0:0:0:0:
64,64,94233,1,0,0:0:0:0:
64,64,94448,1,0,0:0:0:0:
320,64,95305,1,8,0:0:0:0:
320,64,95519,1,8,0:0:0:0:
320,64,95733,1,8,0:0:0:0:
320,64,95948,1,8,0:0:0:0:
320,64,96162,1,8,0:0:0:0:
64,64,97019,1,0,0:0:0:0:
64,64,97233,1,0,0:0:0:0:
64,64,97448,1,0,0:0:0:0:
64,64,97662,1,0,0:0:0:0:
64,64,97876,1,0,0:0:0:0:
320,64,98733,1,8,0:0:0:0:
320,64,98948,1,8,0:0:0:0:
320,64,99162,1,8,0:0:0:0:
320,64,99376,1,8,0:0:0:0:
320,64,99591,1,8,0:0:0:0:
320,64,100448,1,8,0:0:0:0:
320,64,100662,1,8,0:0:0:0:
320,64,100876,1,8,0:0:0:0:
320,64,101091,1,8,0:0:0:0:
320,64,101305,1,8,0:0:0:0:
64,64,102162,1,0,0:0:0:0:
320,64,102234,1,8,0:0:0:0:
320,64,102307,1,8,0:0:0:0:
64,64,103037,1,0,0:0:0:0:
64,64,103111,1,0,0:0:0:0:
320,64,103185,1,8,0:0:0:0:
64,64,103925,1,0,0:0:0:0:
320,64,103982,1,8,0:0:0:0:
320,64,104040,1,8,0:0:0:0:
64,64,104771,1,0,0:0:0:0:
64,64,104848,1,0,0:0:0:0:
320,64,104931,1,8,0:0:0:0:
64,64,105598,1,0,0:0:0:0:
64,64,105681,1,0,0:0:0:0:
320,64,105764,1,8,0:0:0:0:
320,64,105840,1,8,0:0:0:0:
64,64,109869,1,0,0:0:0:0:
64,64,110083,1,0,0:0:0:0:
64,64,110297,1,0,0:0:0:0:
64,64,110511,1,0,0:0:0:0:
64,64,110726,1,0,0:0:0:0:
320,64,111583,1,8,0:0:0:0:
320,64,111797,1,8,0:0:0:0:
320,64,112011,1,8,0:0:0:0:
320,64,112226,1,8,0:0:0:0:
320,64,112440,1,8,0:0:0:0:
64,64,113297,1,0,0:0:0:0:
64,64,113511,1,0,0:0:0:0:
64,64,113726,1,0,0:0:0:0:
64,64,113940,1,0,0:0:0:0:
64,64,114154,1,0,0:0:0:0:
320,64,115011,1,8,0:0:0:0:
320,64,115226,1,8,0:0:0:0:
320,64,115440,1,8,0:0:0:0:
320,64,115654,1,8,0:0:0:0:
320,64,115869,1,8,0:0:0:0:
320,64,116726,1,8,0:0:0:0:
320,64,116940,1,8,0:0:0:0:
320,64,117154,1,8,0:0:0:0:
320,64,117369,1,8,0:0:0:0:
320,64,117583,1,8,0:0:0:0:
64,64,118440,1,0,0:0:0:0:
320,64,118512,1,8,0:0:0:0:
320,64,118585,1,8,0:0:0:0:
64,64,119315,1,0,0:0:0:0:
64,64,119389,1,0,0:0:0:0:
320,64,119463,1,8,0:0:0:0:
64,64,120203,1,0,0:0:0:0:
320,64,120265,1,8,0:0:0:0:
320,64,120328,1,8,0:0:0:0:
64,64,121036,1,0,0:0:0:0:
64,64,121119,1,0,0:0:0:0:
320,64,121199,1,8,0:0:0:0:
64,64,121874,1,0,0:0:0:0:
64,64,121949,1,0,0:0:0:0:
320,64,122024,1,8,0:0:0:0:
320,64,122099,1,8,0:0:0:0:
64,64,125355,1,0,0:0:0:0:
320,64,126278,1,8,0:0:0:0:
64,64,126508,1,0,0:0:0:0:
320,64,126739,1,8,0:0:0:0:
320,64,126970,1,8,0:0:0:0:
64,64,127201,1,4,0:0:0:0:
64,64,127547,1,0,0:0:0:0:
320,64,127662,1,8,0:0:0:0:
320,64,127893,1,8,0:0:0:0:
64,64,128124,1,0,0:0:0:0:
64,64,128470,1,0,0:0:0:0:
320,64,128585,1,8,0:0:0:0:
64,64,128816,1,0,0:0:0:0:
320,64,129047,1,8,0:0:0:0:
320,64,129393,1,8,0:0:0:0:
64,64,129508,1,0,0:0:0:0:
64,64,129739,1,0,0:0:0:0:
320,64,129970,1,8,0:0:0:0:
64,64,130201,1,0,0:0:0:0:
320,64,130431,1,8,0:0:0:0:
320,64,130662,1,8,0:0:0:0:
64,64,130893,1,0,0:0:0:0:
64,64,131124,1,0,0:0:0:0:
64,64,131239,1,0,0:0:0:0:
320,64,131354,1,8,0:0:0:0:
320,64,131816,1,8,0:0:0:0:
320,64,132047,1,8,0:0:0:0:
320,64,132162,1,8,0:0:0:0:
64,64,132277,1,0,0:0:0:0:
320,64,132739,1,8,0:0:0:0:
320,64,132970,1,8,0:0:0:0:
64,64,133201,1,0,0:0:0:0:
64,64,133431,1,0,0:0:0:0:
320,64,133662,1,8,0:0:0:0:
64,64,134008,1,0,0:0:0:0:
320,64,134124,1,8,0:0:0:0:
320,64,134354,1,8,0:0:0:0:
64,64,134585,1,0,0:0:0:0:
64,64,134816,1,0,0:0:0:0:
64,64,134931,1,0,0:0:0:0:
320,64,135047,1,8,0:0:0:0:
64,64,135277,1,0,0:0:0:0:
320,64,135508,1,8,0:0:0:0:
64,64,135854,1,0,0:0:0:0:
320,64,135970,1,8,0:0:0:0:
320,64,136201,1,8,0:0:0:0:
64,64,136431,1,0,0:0:0:0:
64,64,136662,1,0,0:0:0:0:
320,64,136893,1,8,0:0:0:0:
64,64,137124,1,0,0:0:0:0:
320,64,137354,1,8,0:0:0:0:
64,64,137585,1,0,0:0:0:0:
320,64,137816,1,8,0:0:0:0:
320,64,138047,1,8,0:0:0:0:
64,64,138277,1,0,0:0:0:0:
320,64,138739,1,8,0:0:0:0:
160,256,139201,2,8,L|384:352,1,210.000008010865
64,64,140124,1,0,0:0:0:0:
320,64,140585,1,12,0:0:0:0:
320,64,141047,1,8,0:0:0:0:
256,192,141277,12,0,141739,0:0:0:0:
64,64,141970,5,4,0:0:0:0:
64,64,142316,1,0,0:0:0:0:
320,64,142431,1,8,0:0:0:0:
320,64,142662,1,8,0:0:0:0:
64,64,142893,1,0,0:0:0:0:
64,64,143239,1,0,0:0:0:0:
320,64,143354,1,8,0:0:0:0:
320,64,143585,1,8,0:0:0:0:
64,64,143816,1,0,0:0:0:0:
64,64,144277,1,0,0:0:0:0:
64,64,144508,1,0,0:0:0:0:
64,64,144624,1,0,0:0:0:0:
320,64,144739,1,8,0:0:0:0:
64,64,144970,1,0,0:0:0:0:
320,64,145201,1,8,0:0:0:0:
320,64,145431,1,8,0:0:0:0:
64,64,145662,1,0,0:0:0:0:
64,64,145893,1,0,0:0:0:0:
64,64,146008,1,0,0:0:0:0:
320,64,146124,1,8,0:0:0:0:
320,64,146585,1,8,0:0:0:0:
320,64,146816,1,8,0:0:0:0:
320,64,146931,1,8,0:0:0:0:
64,64,147047,1,0,0:0:0:0:
320,64,147508,1,8,0:0:0:0:
64,64,147739,1,0,0:0:0:0:
320,64,147970,1,8,0:0:0:0:
320,64,148201,1,8,0:0:0:0:
64,64,148431,1,0,0:0:0:0:
64,64,148777,1,0,0:0:0:0:
320,64,148893,1,8,0:0:0:0:
320,64,149124,1,8,0:0:0:0:
64,64,149354,1,0,0:0:0:0:
320,64,149816,1,8,0:0:0:0:
64,64,150047,1,0,0:0:0:0:
320,64,150277,1,8,0:0:0:0:
64,64,150624,1,0,0:0:0:0:
320,64,150739,1,8,0:0:0:0:
320,64,150970,1,8,0:0:0:0:
64,64,151201,1,0,0:0:0:0:
64,64,151431,1,0,0:0:0:0:
320,64,151662,1,8,0:0:0:0:
320,64,152124,1,8,0:0:0:0:
64,64,152354,1,0,0:0:0:0:
320,64,152585,1,8,0:0:0:0:
320,64,152816,1,8,0:0:0:0:
64,64,153047,1,0,0:0:0:0:
320,64,153277,1,8,0:0:0:0:
64,64,153508,1,0,0:0:0:0:
320,320,153970,2,8,L|96:256,1,210.000008010865
64,64,154893,1,0,0:0:0:0:
320,64,155093,1,8,0:0:0:0:
64,64,155293,1,0,0:0:0:0:
64,64,155693,1,0,0:0:0:0:
64,64,156093,1,0,0:0:0:0:
64,64,156493,1,4,0:0:0:0:
64,64,156793,1,0,0:0:0:0:
320,64,156893,1,8,0:0:0:0:
64,64,157093,1,0,0:0:0:0:
320,64,157293,1,8,0:0:0:0:
320,64,157593,1,8,0:0:0:0:
64,64,157693,1,0,0:0:0:0:
320,64,157893,1,8,0:0:0:0:
320,64,158093,1,8,0:0:0:0:
64,64,158293,1,0,0:0:0:0:
320,64,158493,1,8,0:0:0:0:
64,64,158693,1,0,0:0:0:0:
320,64,158893,1,8,0:0:0:0:
64,64,159193,1,0,0:0:0:0:
320,64,159293,1,8,0:0:0:0:
320,64,159493,1,8,0:0:0:0:
64,64,159693,1,0,0:0:0:0:
64,64,159893,1,0,0:0:0:0:
64,64,159993,1,0,0:0:0:0:
320,64,160093,1,8,0:0:0:0:
320,64,160493,1,8,0:0:0:0:
320,64,160693,1,8,0:0:0:0:
320,64,160793,1,8,0:0:0:0:
64,64,160893,1,0,0:0:0:0:
320,64,161293,1,8,0:0:0:0:
320,64,161493,1,8,0:0:0:0:
64,64,161693,1,0,0:0:0:0:
64,64,161893,1,0,0:0:0:0:
320,64,162093,1,8,0:0:0:0:
64,64,162393,1,0,0:0:0:0:
320,64,162493,1,8,0:0:0:0:
320,64,162693,1,8,0:0:0:0:
64,64,162893,1,0,0:0:0:0:
320,64,163293,1,8,0:0:0:0:
64,64,163493,1,0,0:0:0:0:
64,64,163593,1,0,0:0:0:0:
320,64,163693,1,8,0:0:0:0:
64,64,163893,1,0,0:0:0:0:
320,64,164093,1,8,0:0:0:0:
320,64,164293,1,8,0:0:0:0:
64,64,164493,1,0,0:0:0:0:
64,64,164693,1,0,0:0:0:0:
320,64,164893,1,8,0:0:0:0:
320,64,165293,1,8,0:0:0:0:
64,64,165493,1,0,0:0:0:0:
64,64,165593,1,0,0:0:0:0:
320,64,165693,1,8,0:0:0:0:
64,64,165893,1,0,0:0:0:0:
320,64,166093,1,8,0:0:0:0:
64,64,166493,1,0,0:0:0:0:
64,64,166593,1,0,0:0:0:0:
320,64,166693,1,8,0:0:0:0:
256,352,166893,2,0,L|256:128,1,210.000008010865
64,64,167693,1,0,0:0:0:0:
320,64,168093,1,12,0:0:0:0:
64,64,168493,1,0,0:0:0:0:
256,192,168693,12,0,169093,0:0:0:0:
64,64,169293,5,4,0:0:0:0:
64,64,169593,1,0,0:0:0:0:
320,64,169693,1,8,0:0:0:0:
320,64,169893,1,8,0:0:0:0:
64,64,170093,1,0,0:0:0:0:
64,64,170393,1,0,0:0:0:0:
320,64,170493,1,8,0:0:0:0:
64,64,170693,1,0,0:0:0:0:
320,64,170893,1,8,0:0:0:0:
320,64,171193,1,8,0:0:0:0:
64,64,171293,1,0,0:0:0:0:
64,64,171493,1,0,0:0:0:0:
320,64,171693,1,8,0:0:0:0:
320,64,172093,1,8,0:0:0:0:
320,64,172293,1,8,0:0:0:0:
64,64,172493,1,0,0:0:0:0:
64,64,172693,1,0,0:0:0:0:
64,64,172793,1,0,0:0:0:0:
320,64,172893,1,8,0:0:0:0:
320,64,173293,1,8,0:0:0:0:
320,64,173493,1,8,0:0:0:0:
320,64,173593,1,8,0:0:0:0:
64,64,173693,1,0,0:0:0:0:
320,64,174093,1,8,0:0:0:0:
320,64,174293,1,8,0:0:0:0:
64,64,174493,1,0,0:0:0:0:
64,64,174693,1,0,0:0:0:0:
320,64,174893,1,8,0:0:0:0:
64,64,175193,1,0,0:0:0:0:
320,64,175293,1,8,0:0:0:0:
320,64,175493,1,8,0:0:0:0:
64,64,175693,1,0,0:0:0:0:
320,64,176093,1,8,0:0:0:0:
64,64,176293,1,0,0:0:0:0:
64,64,176393,1,0,0:0:0:0:
320,64,176493,1,8,0:0:0:0:
64,64,176693,1,0,0:0:0:0:
320,64,176893,1,8,0:0:0:0:
320,64,177093,1,8,0:0:0:0:
64,64,177293,1,0,0:0:0:0:
64,64,177493,1,0,0:0:0:0:
320,64,177693,1,8,0:0:0:0:
320,64,178093,1,8,0:0:0:0:
64,64,178393,1,0,0:0:0:0:
320,64,178493,1,8,0:0:0:0:
320,64,178693,1,8,0:0:0:0:
64,64,178893,1,0,0:0:0:0:
64,64,179093,1,0,0:0:0:0:
64,64,179193,1,0,0:0:0:0:
320,64,179293,1,8,0:0:0:0:
320,64,179493,1,8,0:0:0:0:
384,288,179693,2,8,L|160:224,1,210.000008010865
64,64,180493,1,0,0:0:0:0:
320,64,180793,1,8,0:0:0:0:
256,192,181293,12,0,181693,0:0:0:0:
320,64,182093,5,8,0:0:0:0:
320,64,182393,1,8,0:0:0:0:
320,64,182693,1,8,0:0:0:0:
320,64,182843,1,8,0:0:0:0:
320,64,182993,1,8,0:0:0:0:
320,64,183143,1,8,0:0:0:0:
64,64,183293,1,4,0:0:0:0:
64,64,183443,1,0,0:0:0:0:
64,64,183518,1,0,0:0:0:0:
320,64,183593,1,8,0:0:0:0:
64,64,183743,1,0,0:0:0:0:
320,64,183893,1,8,0:0:0:0:
64,64,184118,1,0,0:0:0:0:
320,64,184193,1,8,0:0:0:0:
320,64,184343,1,8,0:0:0:0:
64,64,184493,1,0,0:0:0:0:
64,64,184718,1,0,0:0:0:0:
320,64,184793,1,8,0:0:0:0:
64,64,184943,1,0,0:0:0:0:
320,64,185093,1,8,0:0:0:0:
64,64,185243,1,0,0:0:0:0:
64,64,185318,1,0,0:0:0:0:
320,64,185393,1,8,0:0:0:0:
320,64,185543,1,8,0:0:0:0:
64,64,185693,1,0,0:0:0:0:
64,64,185843,1,0,0:0:0:0:
320,64,185993,1,8,0:0:0:0:
320,64,186293,1,8,0:0:0:0:
320,64,186443,1,8,0:0:0:0:
64,64,186593,1,0,0:0:0:0:
320,64,186893,1,8,0:0:0:0:
320,64,187043,1,8,0:0:0:0:
64,64,187193,1,0,0:0:0:0:
320,64,187343,1,8,0:0:0:0:
64,64,187493,1,0,0:0:0:0:
64,64,187643,1,0,0:0:0:0:
64,64,187718,1,0,0:0:0:0:
320,64,187793,1,8,0:0:0:0:
320,64,187943,1,8,0:0:0:0:
64,64,188093,1,0,0:0:0:0:
64,64,188318,1,0,0:0:0:0:
320,64,188393,1,8,0:0:0:0:
64,64,188543,1,0,0:0:0:0:
320,64,188693,1,8,0:0:0:0:
64,64,188843,1,0,0:0:0:0:
64,64,188918,1,0,0:0:0:0:
320,64,188993,1,8,0:0:0:0:
320,64,189143,1,8,0:0:0:0:
64,64,189293,1,0,0:0:0:0:
64,64,189443,1,0,0:0:0:0:
320,64,189593,1,8,0:0:0:0:
320,64,189893,1,8,0:0:0:0:
320,64,189968,1,8,0:0:0:0:
64,64,190043,1,0,0:0:0:0:
320,64,190193,1,8,0:0:0:0:
320,64,190343,1,8,0:0:0:0:
64,64,190493,1,0,0:0:0:0:
64,64,190643,1,0,0:0:0:0:
320,64,190793,1,8,0:0:0:0:
64,64,190943,1,0,0:0:0:0:
256,352,191093,2,8,L|256:128,1,210.000008010865
64,64,191693,1,0,0:0:0:0:
320,64,191993,1,12,0:0:0:0:
320,64,192293,1,8,0:0:0:0:
256,192,192443,12,0,192743,0:0:0:0:
64,64,192893,5,4,0:0:0:0:
64,64,193043,1,0,0:0:0:0:
64,64,193118,1,0,0:0:0:0:
320,64,193193,1,8,0:0:0:0:
64,64,193343,1,0,0:0:0:0:
320,64,193493,1,8,0:0:0:0:
64,64,193718,1,0,0:0:0:0:
320,64,193793,1,8,0:0:0:0:
64,64,193943,1,0,0:0:0:0:
320,64,194093,1,8,0:0:0:0:
64,64,194318,1,0,0:0:0:0:
320,64,194393,1,8,0:0:0:0:
320,64,194543,1,8,0:0:0:0:
64,64,194693,1,0,0:0:0:0:
64,64,194843,1,0,0:0:0:0:
64,64,194918,1,0,0:0:0:0:
320,64,194993,1,8,0:0:0:0:
320,64,195143,1,8,0:0:0:0:
64,64,195293,1,0,0:0:0:0:
64,64,195443,1,0,0:0:0:0:
320,64,195593,1,8,0:0:0:0:
320,64,195893,1,8,0:0:0:0:
64,64,196043,1,0,0:0:0:0:
320,64,196193,1,8,0:0:0:0:
320,64,196493,1,8,0:0:0:0:
320,64,196643,1,8,0:0:0:0:
64,64,196793,1,0,0:0:0:0:
64,64,196943,1,0,0:0:0:0:
320,64,197093,1,8,0:0:0:0:
64,64,197243,1,0,0:0:0:0:
64,64,197318,1,0,0:0:0:0:
320,64,197393,1,8,0:0:0:0:
320,64,197543,1,8,0:0:0:0:
64,64,197693,1,0,0:0:0:0:
64,64,197918,1,0,0:0:0:0:
320,64,197993,1,8,0:0:0:0:
64,64,198143,1,0,0:0:0:0:
320,64,198293,1,8,0:0:0:0:
64,64,198443,1,0,0:0:0:0:
64,64,198518,1,0,0:0:0:0:
320,64,198593,1,8,0:0:0:0:
320,64,198743,1,8,0:0:0:0:
64,64,198893,1,0,0:0:0:0:
64,64,199043,1,0,0:0:0:0:
320,64,199193,1,8,0:0:0:0:
320,64,199493,1,8,0:0:0:0:
64,64,199568,1,0,0:0:0:0:
320,64,199643,1,8,0:0:0:0:
64,64,199793,1,0,0:0:0:0:
320,64,199943,1,8,0:0:0:0:
64,64,200093,1,0,0:0:0:0:
64,64,200243,1,0,0:0:0:0:
320,64,200393,1,8,0:0:0:0:
320,64,200543,1,8,0:0:0:0:
256,352,200693,2,8,L|256:128,1,210.000008010865
64,64,201293,1,0,0:0:0:0:
320,64,201593,1,8,0:0:0:0:
64,64,202493,1,0,0:0:0:0:
64,64,202793,1,0,0:0:0:0:
64,64,203093,1,0,0:0:0:0:
64,64,203393,1,0,0:0:0:0:
64,64,203693,1,0,0:0:0:0:
320,64,204893,1,8,0:0:0:0:
320,64,205193,1,8,0:0:0:0:
320,64,205493,1,8,0:0:0:0:
320,64,205793,1,8,0:0:0:0:
320,64,206093,1,8,0:0:0:0:
64,64,207293,1,0,0:0:0:0:
64,64,207593,1,0,0:0:0:0:
64,64,207893,1,0,0:0:0:0:
64,64,208193,1,0,0:0:0:0:
64,64,208493,1,0,0:0:0:0:
320,64,209693,1,8,0:0:0:0:
320,64,209993,1,8,0:0:0:0:
320,64,210293,1,8,0:0:0:0:
320,64,210593,1,8,0:0:0:0:
320,64,210893,1,8,0:0:0:0:
64,64,212093,1,0,0:0:0:0:
320,64,212393,1,0,0:0:0:0:
64,64,212693,1,0,0:0:0:0:
64,64,212993,1,0,0:0:0:0:
64,64,213293,1,0,0:0:0:0:
64,64,219501,5,0,0:0:0:0:
64,64,219801,1,0,0:0:0:0:
64,64,220101,1,0,0:0:0:0:
64,64,220401,1,0,0:0:0:0:
256,288,220701,2,0,L|256:192,7,93.3332383898535
