osu file format v14

[General]
AudioFilename: audio.ogg
AudioLeadIn: 0
PreviewTime: 96789
Countdown: 0
SampleSet: Normal
StackLeniency: 0
Mode: 1
LetterboxInBreaks: 0
WidescreenStoryboard: 0

[Editor]
Bookmarks: 14611,28326,42040,55754,69468,83182,83231,96897,110611,124325,138038,151753,165467,179181,192895,206610,220324,234038,247725,261467
DistanceSpacing: 1
BeatDivisor: 4
GridSize: 32
TimelineZoom: 1

[Metadata]
Title:Strict Secrecy Sweet Love
TitleUnicode:Strict Secrecy Sweet Love
Artist:Kikuo feat. Shiraishi Nagomu
ArtistUnicode:きくお feat. 白石なごむ
Creator:Alchyr
Version:Dreamy Memory
Source:
Tags:pop japanese jpop j-pop きくおがボカロを始める前7年間の楽曲を限界まで詰め込んだ数量限定の特別生産CD 略してきくおミク0 Packed to the Limit with Songs from the 7 Years Before Kikuo Started Vocaloid Limited Number Special Production CD Kikuo Miku 0 for Short featured artist fa mappers' mapper's guild mg
BeatmapID:3876391
BeatmapSetID:1882782

[Difficulty]
HPDrainRate:5.5
CircleSize:2
OverallDifficulty:6
ApproachRate:10
SliderMultiplier:1.4
SliderTickRate:1

[Events]
//Background and Video events
0,0,"bg.jpg",0,0
//Break Periods
//Storyboard Layer 0 (Background)
//Storyboard Layer 1 (Fail)
//Storyboard Layer 2 (Pass)
//Storyboard Layer 3 (Foreground)
//Storyboard Layer 4 (Overlay)
//Storyboard Sound Samples

[TimingPoints]
939,428.571428571429,4,1,0,30,1,0
939,-120.481927710843,4,1,0,30,0,0
13688,-113.220993989705,4,1,0,55,0,0
13902,-111.479229547827,4,1,0,55,0,0
14009,-109.76425998969,4,1,0,55,0,0
14116,-108.075673109271,4,1,0,55,0,0
14223,-106.413063041823,4,1,0,55,0,0
14330,-104.776030166326,4,1,0,55,0,0
14437,-103.164181009433,4,1,0,55,0,0
14545,-101.562411624966,4,1,0,55,0,0
14652,-100,4,1,0,55,0,0
15459,-107.52688172043,4,1,0,40,0,0
16334,-100,4,1,0,55,0,0
17143,-107.52688172043,4,1,0,40,0,0
18005,-100,4,1,0,55,0,0
19580,-99.4711947509638,4,1,0,55,0,0
19795,-97.9865807450974,4,1,0,55,0,0
20223,-93.4579439252337,4,1,0,55,0,0
20652,-89.3221756072858,4,1,0,55,0,0
21080,-91.743119266055,4,1,0,55,0,0
21375,-96.1538461538461,4,1,0,55,0,0
21733,-100,4,1,0,55,0,0
22316,-107.52688172043,4,1,0,42,0,0
23159,-100,4,1,0,55,0,0
24040,-107.52688172043,4,1,0,45,0,0
24215,-100.450339159998,4,1,0,55,0,0
24402,-97.1040497704705,4,1,0,55,0,0
24509,-93.8692348943408,4,1,0,55,0,0
24723,-87.719298245614,4,1,0,55,0,0
24938,-100,4,1,0,55,0,0
25105,-76.9230769230769,4,1,0,55,0,0
26909,-100,4,1,0,55,0,0
27473,-98.5561653771719,4,1,0,55,0,0
27616,-97.1331773385246,4,1,0,56,0,0
27723,-95.730734893858,4,1,0,57,0,0
27830,-94.3485413987727,4,1,0,59,0,0
27937,-92.9863044919239,4,1,0,60,0,0
28045,-91.6312805316635,4,1,0,61,0,0
28152,-90.3082763780066,4,1,0,63,0,0
28259,-89.0043742163816,4,1,0,64,0,0
28339,-87.719298245614,4,1,0,65,0,0
38841,-92.0620137316452,4,1,0,65,0,0
38948,-94.3532042584133,4,1,0,65,0,0
39055,-96.7043875431062,4,1,0,65,0,0
39270,-101.530357303269,4,1,0,65,0,0
39484,-106.302195341402,4,1,0,65,0,0
39698,-110.797890145301,4,1,0,65,0,0
39912,-114.734920640897,4,1,0,65,0,0
40127,-117.833247221729,4,1,0,65,0,0
40341,-119.803542972288,4,1,0,65,0,0
40555,-120.481927710843,4,1,0,65,0,0
40770,-119.862312198035,4,1,0,65,0,0
40984,-118.082099478749,4,1,0,65,0,0
41198,-115.326352596906,4,1,0,65,0,0
41413,-111.84105076106,4,1,0,65,0,0
41484,-110.58293771605,4,1,0,65,0,0
41555,-109.289617486339,4,1,0,65,0,0
41627,-107.95272258175,4,1,0,65,0,0
41841,-103.92622559937,4,1,0,65,0,0
42017,-100,4,1,0,60,0,0
42190,-100.185620370083,4,1,0,55,0,0
42402,-100.278127245575,4,1,0,55,0,0
42509,-100.370719537736,4,1,0,55,0,0
42723,-100.556160687619,4,1,0,55,0,0
42938,-100.742813405229,4,1,0,55,0,0
43045,-100.835834767596,4,1,0,55,0,0
43152,-100.928942021686,4,1,0,55,0,0
43259,-101.022135246807,4,1,0,55,0,0
43366,-101.115414522343,4,1,0,55,0,0
43580,-101.302231542549,4,1,0,55,0,0
43795,-101.49026911964,4,1,0,55,0,0
44009,-101.67777870704,4,1,0,55,0,0
44116,-101.771663374125,4,1,0,55,0,0
44223,-101.86563473007,4,1,0,55,0,0
44438,-102.054718098243,4,1,0,55,0,0
44866,-102.432171344632,4,1,0,55,0,0
44973,-102.526752583795,4,1,0,55,0,0
45080,-102.621421155002,4,1,0,55,0,0
45295,-102.811907416734,4,1,0,55,0,0
45509,-103.001858813126,4,1,0,55,0,0
45723,-103.192161156542,4,1,0,55,0,0
45830,-103.287444135961,4,1,0,55,0,0
45938,-103.383706827977,4,1,0,55,0,0
46152,-103.574714659361,4,1,0,55,0,0
46366,-103.766075389599,4,1,0,55,0,0
46473,-103.861888295492,4,1,0,55,0,0
46580,-103.957789670694,4,1,0,55,0,0
46688,-104.054677116921,4,1,0,55,0,0
46795,-104.15075650461,4,1,0,55,0,0
47009,-104.343181508002,4,1,0,55,0,0
47223,-104.53596202856,4,1,0,55,0,0
47438,-104.730002068147,4,1,0,55,0,0
47545,-104.826705020385,4,1,0,55,0,0
47652,-104.92349726376,4,1,0,55,0,0
47866,-105.117349953788,4,1,0,55,0,0
48295,-105.507040507617,4,1,0,55,0,0
48366,-105.571673936463,4,1,0,55,0,0
48438,-105.637258130163,4,1,0,55,0,0
48509,-105.701971330098,4,1,0,55,0,0
48723,-105.897262299403,4,1,0,55,0,0
48937,-106.092914080926,4,1,0,55,0,0
48938,-106.093829189591,4,1,0,55,0,0
49152,-106.289844140674,4,1,0,55,0,0
49259,-106.387987380609,4,1,0,55,0,0
49366,-106.486221241577,4,1,0,55,0,0
49580,-106.682961161393,4,1,0,55,0,0
49795,-106.880986468717,4,1,0,55,0,0
49902,-106.979675542769,4,1,0,55,0,0
50009,-107.078455741854,4,1,0,55,0,0
50116,-107.177327150112,4,1,0,55,0,0
50223,-107.276289851761,4,1,0,55,0,0
50438,-107.475416497995,4,1,0,55,0,0
50652,-107.6739840176,4,1,0,55,0,0
50866,-107.872918403053,4,1,0,55,0,0
50973,-107.972523382239,4,1,0,55,0,0
51080,-108.072220332162,4,1,0,55,0,0
51295,-108.272824387499,4,1,0,55,0,0
51723,-108.673275535887,4,1,0,55,0,0
51830,-108.773619528689,4,1,0,55,0,0
51938,-108.874995272118,4,1,0,55,0,0
52152,-109.076148600596,4,1,0,55,0,0
52366,-109.277673572366,4,1,0,55,0,0
52580,-109.47957087406,4,1,0,55,0,0
52688,-109.581604555901,4,1,0,55,0,0
52795,-109.682787258682,4,1,0,55,0,0
53009,-109.88543303312,4,1,0,55,0,0
53223,-110.088453208236,4,1,0,55,0,0
53330,-110.190103912164,4,1,0,55,0,0
53438,-110.2927998025,4,1,0,55,0,0
53545,-110.39463919084,4,1,0,55,0,0
53652,-110.49657261307,4,1,0,55,0,0
53866,-110.700721906588,4,1,0,55,0,0
54080,-110.901630253965,4,1,0,55,0,0
54295,-108.547701490171,4,1,0,55,0,0
54402,-107.394898145881,4,1,0,55,0,0
54509,-106.254337857246,4,1,0,55,0,0
54723,-104.009427730757,4,1,0,55,0,0
54937,-101.801788554665,4,1,0,55,0,0
55045,-100.720628468459,4,1,0,55,0,0
55152,-99.6509505688497,4,1,0,55,0,0
55259,-98.5926329121844,4,1,0,55,0,0
55366,-97.5455548498835,4,1,0,55,0,0
55473,-96.1538461538461,4,1,0,55,0,0
55580,-95.4846413070343,4,1,0,55,0,0
55719,-93.4579439252336,4,1,0,60,0,0
66010,-87.719298245614,4,1,0,60,0,0
66909,-84.7457627118644,4,1,0,60,0,0
67720,-81.9672131147541,4,1,0,60,0,0
68652,-85.2895864281298,4,1,0,60,0,0
68759,-87.0009366201791,4,1,0,60,0,0
68866,-88.7466253475934,4,1,0,60,0,0
68973,-90.5273416189792,4,1,0,60,0,0
69080,-92.3437882680188,4,1,0,60,0,0
69187,-94.1966822308732,4,1,0,60,0,0
69295,-96.1045967596814,4,1,0,60,0,0
69439,-90.9090909090909,4,1,0,65,0,0
69553,-100,4,1,0,65,0,0
71000,-95.3462589245592,4,1,0,65,0,0
71107,-93.1012444622223,4,1,0,65,0,0
71214,-90.9090909090909,4,1,0,65,0,0
71276,-100,4,1,0,65,0,0
72714,-95.3568509686586,4,1,0,65,0,0
72821,-93.1167588602454,4,1,0,65,0,0
72929,-90.9090909090909,4,1,0,65,0,0
73023,-100,4,1,0,65,0,0
74321,-97.6508325456873,4,1,0,65,0,0
74429,-95.3356680570025,4,1,0,65,0,0
74536,-93.0960735706558,4,1,0,65,0,0
74643,-90.9090909090909,4,1,0,65,0,0
74704,-100,4,1,0,65,0,0
76102,-95.3356680570025,4,1,0,65,0,0
76209,-93.0960735706558,4,1,0,65,0,0
76316,-90.9090909090909,4,1,0,65,0,0
76377,-100,4,1,0,65,0,0
77708,-97.6508325456873,4,1,0,65,0,0
77816,-95.3356680570025,4,1,0,65,0,0
77923,-93.0960735706558,4,1,0,65,0,0
78030,-90.9090909090909,4,1,0,65,0,0
78091,-100,4,1,0,65,0,0
79530,-95.3356680570025,4,1,0,65,0,0
79637,-93.0960735706558,4,1,0,65,0,0
79744,-90.9090909090909,4,1,0,65,0,0
79805,-100,4,1,0,65,0,0
81137,-97.6508325456873,4,1,0,65,0,0
81245,-95.3356680570025,4,1,0,65,0,0
81352,-93.0960735706558,4,1,0,65,0,0
81459,-90.9090909090909,4,1,0,65,0,0
81520,-100,4,1,0,65,0,0
82864,-97.6508325456873,4,1,0,65,0,0
82972,-95.3356680570025,4,1,0,65,0,0
83079,-93.0960735706558,4,1,0,65,0,0
83186,-90.9090909090909,4,1,0,65,0,0
83243,-100,4,1,0,60,0,0
86022,-109.752328124688,4,1,0,52,0,0
86279,-112.335539885881,4,1,0,49,0,0
86387,-115.004553682437,4,1,0,46,0,0
86494,-117.711385699027,4,1,0,43,0,0
86601,-120.481927710843,4,1,0,40,0,0
90019,-100,4,1,0,60,0,0
95128,-76.9230769230769,4,1,0,65,0,0
96230,-85.4802536703662,4,1,0,55,0,0
96402,-87.7412548811338,4,1,0,55,0,0
96509,-90.0620608568101,4,1,0,55,0,0
96723,-94.8894564241064,4,1,0,55,0,0
96853,-94.8894564241064,4,1,0,65,0,0
96939,-87.719298245614,4,1,0,65,0,1
107437,-89.1652871102746,4,1,0,65,0,1
107545,-89.904064190597,4,1,0,65,0,1
107652,-90.6420369568758,4,1,0,65,0,1
107866,-92.1362050445274,4,1,0,65,0,1
108080,-93.6550034069292,4,1,0,65,0,1
108187,-94.4237655598119,4,1,0,65,0,1
108295,-95.2061116509207,4,1,0,65,0,1
108402,-95.9876059939654,4,1,0,65,0,1
108509,-96.7755151920821,4,1,0,65,0,1
108723,-98.3707892097529,4,1,0,65,0,1
108938,-100,4,1,0,65,0,1
109795,-97.4063298561279,4,1,0,65,0,1
109902,-96.1407069832475,4,1,0,65,0,1
110009,-94.8915286397804,4,1,0,65,0,1
110116,-93.6585811581694,4,1,0,65,0,1
110223,-92.4416536470889,4,1,0,65,0,1
110330,-91.2405379553732,4,1,0,65,0,1
110437,-90.0550286364122,4,1,0,65,0,1
110545,-88.8740593633163,4,1,0,65,0,1
110652,-87.719298245614,4,1,0,65,0,1
121081,-76.9230769230769,4,1,0,65,0,1
122867,-76.9230769230769,4,1,0,55,0,1
123081,-100,4,1,0,55,0,0
123474,-98.5561653771719,4,1,0,55,0,0
123617,-97.1331773385246,4,1,0,56,0,0
123724,-95.730734893858,4,1,0,57,0,0
123831,-94.3485413987727,4,1,0,59,0,0
123938,-92.9863044919239,4,1,0,60,0,0
124046,-91.6312805316635,4,1,0,61,0,0
124153,-90.3082763780066,4,1,0,63,0,0
124260,-89.0043742163816,4,1,0,64,0,0
124340,-87.719298245614,4,1,0,65,0,0
124546,-87.910815508395,4,1,0,63,0,0
124756,-88.1036487875598,4,1,0,61,0,0
124979,-88.2960052016474,4,1,0,59,0,0
125193,-88.4887815868775,4,1,0,57,0,0
125407,-88.6819788601718,4,1,0,55,0,0
125622,-88.8765036940906,4,1,0,55,0,0
125836,-89.0705474798191,4,1,0,55,0,0
126050,-89.2650149207233,4,1,0,55,0,0
126265,-89.4608186502453,4,1,0,55,0,0
126479,-89.6561381689453,4,1,0,55,0,0
126693,-89.8518841281247,4,1,0,55,0,0
126908,-90.048975161297,4,1,0,55,0,0
127015,-90.1472233837412,4,1,0,55,0,0
127122,-90.2455788002229,4,1,0,55,0,0
127336,-90.4426116832438,4,1,0,55,0,0
127443,-90.5412893840747,4,1,0,55,0,0
127550,-90.6400747475268,4,1,0,55,0,0
127657,-90.7389678910658,4,1,0,55,0,0
127765,-90.8388946849399,4,1,0,55,0,0
127979,-91.0372229526307,4,1,0,55,0,0
128193,-91.2359842297928,4,1,0,55,0,0
128407,-91.4351794618145,4,1,0,55,0,0
128622,-91.6357434696068,4,1,0,55,0,0
128836,-91.8358114946958,4,1,0,55,0,0
129050,-92.0363163276629,4,1,0,55,0,0
129265,-92.2381989353612,4,1,0,55,0,0
129479,-92.4395822995382,4,1,0,55,0,0
129693,-92.6414053433689,4,1,0,55,0,0
129908,-92.8446152200546,4,1,0,55,0,0
130122,-93.0473225709628,4,1,0,55,0,0
130336,-93.2504724921807,4,1,0,55,0,0
130550,-93.4540659499706,4,1,0,55,0,0
130622,-93.5226645702091,4,1,0,55,0,0
130693,-93.5903597413198,4,1,0,55,0,0
130765,-93.6590584060661,4,1,0,55,0,0
130979,-93.8635439281726,4,1,0,55,0,0
131193,-94.0684759028643,4,1,0,55,0,0
131407,-94.2738553048796,4,1,0,55,0,0
131622,-94.4806459773677,4,1,0,55,0,0
131836,-94.686925268986,4,1,0,55,0,0
132050,-94.8936549295207,4,1,0,55,0,0
132265,-95.1018051388684,4,1,0,55,0,0
132479,-95.3094406052936,4,1,0,55,0,0
132693,-95.5175294015674,4,1,0,55,0,0
132908,-95.7270480859944,4,1,0,55,0,0
133122,-95.9360486433426,4,1,0,55,0,0
133336,-96.1455055109381,4,1,0,55,0,0
133550,-96.3554196850413,4,1,0,55,0,0
133765,-96.5667762904341,4,1,0,55,0,0
133872,-96.6721357806528,4,1,0,55,0,0
133979,-96.7776102236804,4,1,0,55,0,0
134193,-96.9889044699775,4,1,0,55,0,0
134300,-97.094724524497,4,1,0,55,0,0
134407,-97.2006600343256,4,1,0,55,0,0
134515,-97.3077028026689,4,1,0,55,0,0
134622,-97.4138706831292,4,1,0,55,0,0
134836,-97.6265540748487,4,1,0,55,0,0
135050,-97.8397018175358,4,1,0,55,0,0
135265,-98.0543142110722,4,1,0,55,0,0
135479,-98.268395881094,4,1,0,55,0,0
135693,-98.4829449549401,4,1,0,55,0,0
135908,-98.6989683089227,4,1,0,55,0,0
136122,-98.9144574501707,4,1,0,55,0,0
136229,-99.0223783854297,4,1,0,55,0,0
136336,-99.1304170681704,4,1,0,55,0,0
136550,-99.346848190112,4,1,0,55,0,0
136765,-99.5647665247378,4,1,0,55,0,0
136979,-99.7821459604562,4,1,0,55,0,0
137193,-100,4,1,0,55,0,0
137407,-96.7810628407324,4,1,0,55,0,0
137515,-95.1961052973303,4,1,0,57,0,0
137622,-93.6514216178593,4,1,0,58,0,0
137729,-92.131802489739,4,1,0,60,0,0
137836,-90.6368412072196,4,1,0,62,0,0
137943,-89.1661376638938,4,1,0,63,0,0
138049,-87.719298245614,4,1,0,65,0,0
148555,-92.0620137316452,4,1,0,65,0,0
148662,-94.3532042584133,4,1,0,65,0,0
148769,-96.7043875431062,4,1,0,65,0,0
148984,-101.530357303269,4,1,0,65,0,0
149198,-106.302195341402,4,1,0,65,0,0
149412,-110.797890145301,4,1,0,65,0,0
149626,-114.734920640897,4,1,0,65,0,0
149841,-117.833247221729,4,1,0,65,0,0
150055,-119.803542972288,4,1,0,65,0,0
150269,-120.481927710843,4,1,0,65,0,0
150484,-119.862312198035,4,1,0,65,0,0
150698,-118.082099478749,4,1,0,65,0,0
150912,-115.326352596906,4,1,0,65,0,0
151127,-111.84105076106,4,1,0,65,0,0
151198,-110.58293771605,4,1,0,65,0,0
151269,-109.289617486339,4,1,0,65,0,0
151341,-107.95272258175,4,1,0,65,0,0
151555,-103.92622559937,4,1,0,65,0,0
151731,-100,4,1,0,60,0,0
151904,-100.181586864278,4,1,0,55,0,0
152223,-100.363503466449,4,1,0,55,0,0
152652,-100.729182226013,4,1,0,55,0,0
152866,-100.91209318943,4,1,0,55,0,0
153080,-101.095336295131,4,1,0,55,0,0
153295,-101.279770759343,4,1,0,55,0,0
153509,-101.463681519213,4,1,0,55,0,0
153938,-101.833368825029,4,1,0,55,0,0
154152,-102.018284846267,4,1,0,55,0,0
154580,-102.389124848096,4,1,0,55,0,0
154688,-102.482914097903,4,1,0,55,0,0
154795,-102.575919650652,4,1,0,55,0,0
155223,-102.948786674324,4,1,0,55,0,0
155330,-103.042215016928,4,1,0,55,0,0
155438,-103.136602502506,4,1,0,55,0,0
155652,-103.323885024913,4,1,0,55,0,0
155866,-103.511507627781,4,1,0,55,0,0
156080,-103.699470928649,4,1,0,55,0,0
156295,-103.888656276468,4,1,0,55,0,0
156509,-104.077304429741,4,1,0,55,0,0
156723,-104.266295143281,4,1,0,55,0,0
156938,-104.456514583513,4,1,0,55,0,0
157366,-104.836217634957,4,1,0,55,0,0
157580,-105.026586435188,4,1,0,55,0,0
157795,-105.218192921769,4,1,0,55,0,0
158009,-105.409255338946,4,1,0,55,0,0
158080,-105.472721824149,4,1,0,55,0,0
158152,-105.537121227639,4,1,0,55,0,0
158223,-105.600664700375,4,1,0,55,0,0
158438,-105.793318513382,4,1,0,55,0,0
158652,-105.985425283087,4,1,0,55,0,0
158866,-106.17788089345,4,1,0,55,0,0
158973,-106.274239711787,4,1,0,55,0,0
159080,-106.370685977922,4,1,0,55,0,0
159295,-106.564744588291,4,1,0,55,0,0
159509,-106.758252166415,4,1,0,55,0,0
159723,-106.952111128883,4,1,0,55,0,0
159938,-107.147230469056,4,1,0,55,0,0
160152,-107.341795765025,4,1,0,55,0,0
160366,-107.536714366015,4,1,0,55,0,0
160795,-107.928529029301,4,1,0,55,0,0
161009,-108.124513060827,4,1,0,55,0,0
161438,-108.518469394045,4,1,0,55,0,0
161545,-108.616952349163,4,1,0,55,0,0
161652,-108.71552467978,4,1,0,55,0,0
161866,-108.91293779203,4,1,0,55,0,0
162080,-109.11070938056,4,1,0,55,0,0
162295,-109.309766784808,4,1,0,55,0,0
162402,-109.40896786013,4,1,0,55,0,0
162509,-109.508258962662,4,1,0,55,0,0
162723,-109.707111576238,4,1,0,55,0,0
162938,-109.907257033837,4,1,0,55,0,0
163152,-110.106834175499,4,1,0,55,0,0
163366,-110.306773723034,4,1,0,55,0,0
163580,-110.507076334524,4,1,0,55,0,0
163795,-110.708681217226,4,1,0,55,0,0
164223,-111.111111111111,4,1,0,55,0,0
164437,-107.943126353745,4,1,0,55,0,0
164652,-104.879576351265,4,1,0,55,0,0
164759,-103.380562395207,4,1,0,55,0,0
164866,-101.902973419291,4,1,0,55,0,0
164973,-100.446503202366,4,1,0,55,0,0
165080,-99.0108499000187,4,1,0,55,0,0
165188,-97.5609756097561,4,1,0,55,0,0
165295,-96.1878661303444,4,1,0,55,0,0
165437,-93.4579439252336,4,1,0,60,0,0
175724,-87.719298245614,4,1,0,60,0,0
176623,-84.7457627118644,4,1,0,60,0,0
177434,-81.9672131147541,4,1,0,60,0,0
177705,-81.0918473878849,4,1,0,60,0,0
177919,-80.2258300959161,4,1,0,60,0,0
178027,-79.7922924000462,4,1,0,60,0,0
178134,-79.3650793650794,4,1,0,60,0,0
178348,-85.2895864281298,4,1,0,60,0,0
178455,-87.0009366201791,4,1,0,60,0,0
178562,-88.7466253475934,4,1,0,60,0,0
178669,-90.5273416189792,4,1,0,60,0,0
178776,-92.3437882680188,4,1,0,60,0,0
178991,-96.1045967596814,4,1,0,60,0,0
179153,-90.9090909090909,4,1,0,65,0,0
179267,-100,4,1,0,65,0,0
180616,-97.6454089676311,4,1,0,65,0,0
180714,-95.3462589245592,4,1,0,65,0,0
180821,-93.1012444622223,4,1,0,65,0,0
180928,-90.9090909090909,4,1,0,65,0,0
180990,-100,4,1,0,65,0,0
182428,-95.3568509686586,4,1,0,65,0,0
182535,-93.0960735706558,4,1,0,65,0,0
182643,-90.9090909090909,4,1,0,65,0,0
182737,-100,4,1,0,65,0,0
184035,-97.6508325456873,4,1,0,65,0,0
184143,-95.3356680570025,4,1,0,65,0,0
184250,-93.0960735706558,4,1,0,65,0,0
184357,-90.9090909090909,4,1,0,65,0,0
184418,-100,4,1,0,65,0,0
185816,-95.3356680570025,4,1,0,65,0,0
185923,-93.0960735706558,4,1,0,65,0,0
186030,-90.9090909090909,4,1,0,65,0,0
186091,-100,4,1,0,65,0,0
187422,-97.6508325456873,4,1,0,65,0,0
187530,-95.3356680570025,4,1,0,65,0,0
187637,-93.0960735706558,4,1,0,65,0,0
187744,-90.9090909090909,4,1,0,65,0,0
187805,-100,4,1,0,65,0,0
189244,-95.3356680570025,4,1,0,65,0,0
189351,-93.0960735706558,4,1,0,65,0,0
189458,-90.9090909090909,4,1,0,65,0,0
189519,-100,4,1,0,65,0,0
190851,-97.6508325456873,4,1,0,65,0,0
190959,-95.3356680570025,4,1,0,65,0,0
191066,-93.0960735706558,4,1,0,65,0,0
191173,-90.9090909090909,4,1,0,65,0,0
191234,-100,4,1,0,65,0,0
192581,-97.6508325456873,4,1,0,65,0,0
192689,-95.3356680570025,4,1,0,65,0,0
192796,-93.0960735706558,4,1,0,65,0,0
192903,-90.9090909090909,4,1,0,65,0,0
192964,-100,4,1,0,60,0,0
195737,-109.752328124688,4,1,0,52,0,0
195994,-112.335539885881,4,1,0,49,0,0
196102,-115.004553682437,4,1,0,46,0,0
196209,-117.711385699027,4,1,0,43,0,0
196316,-120.481927710843,4,1,0,40,0,0
199734,-100,4,1,0,60,0,0
204843,-76.9230769230769,4,1,0,65,0,0
205945,-85.4802536703662,4,1,0,55,0,0
206099,-87.7412548811338,4,1,0,55,0,0
206206,-90.0620608568101,4,1,0,55,0,0
206420,-94.8894564241064,4,1,0,55,0,0
206568,-94.8894564241064,4,1,0,65,0,0
206653,-87.719298245614,4,1,0,65,0,1
217117,-89.1652871102746,4,1,0,65,0,1
217225,-89.904064190597,4,1,0,65,0,1
217332,-90.6420369568758,4,1,0,65,0,1
217546,-92.1362050445274,4,1,0,65,0,1
217760,-93.6550034069292,4,1,0,65,0,1
217867,-94.4237655598119,4,1,0,65,0,1
217975,-95.2061116509207,4,1,0,65,0,1
218082,-95.9876059939654,4,1,0,65,0,1
218189,-96.7755151920821,4,1,0,65,0,1
218403,-98.3707892097529,4,1,0,65,0,1
218618,-100,4,1,0,65,0,1
219475,-97.4063298561279,4,1,0,65,0,1
219582,-96.1407069832475,4,1,0,65,0,1
219689,-94.8915286397804,4,1,0,65,0,1
219796,-93.6585811581694,4,1,0,65,0,1
219903,-92.4416536470889,4,1,0,65,0,1
220010,-91.2405379553732,4,1,0,65,0,1
220117,-90.0550286364122,4,1,0,65,0,1
220225,-88.8740593633163,4,1,0,65,0,1
220332,-87.719298245614,4,1,0,65,0,1
230796,-76.9230769230769,4,1,0,65,0,1
232582,-76.9230769230769,4,1,0,55,0,1
232796,-100,4,1,0,45,0,0
233153,-98.5561653771719,4,1,0,55,0,0
233296,-97.1331773385246,4,1,0,56,0,0
233403,-95.730734893858,4,1,0,57,0,0
233510,-94.3485413987727,4,1,0,59,0,0
233617,-92.9863044919239,4,1,0,60,0,0
233725,-91.6312805316635,4,1,0,61,0,0
233832,-90.3082763780066,4,1,0,63,0,0
233939,-89.0043742163816,4,1,0,64,0,0
234019,-87.719298245614,4,1,0,65,0,0
234260,-87.910815508395,4,1,0,63,0,0
234470,-88.1036487875598,4,1,0,61,0,0
234693,-88.2960052016474,4,1,0,59,0,0
234907,-88.4887815868775,4,1,0,57,0,0
235121,-88.6819788601718,4,1,0,55,0,0
235336,-88.8765036940906,4,1,0,55,0,0
235550,-89.0705474798191,4,1,0,55,0,0
235764,-89.2650149207233,4,1,0,55,0,0
235979,-89.4608186502453,4,1,0,55,0,0
236193,-89.6561381689453,4,1,0,55,0,0
236407,-89.8518841281247,4,1,0,55,0,0
236622,-90.048975161297,4,1,0,55,0,0
236729,-90.1472233837412,4,1,0,55,0,0
236836,-90.2455788002229,4,1,0,55,0,0
237050,-90.4426116832438,4,1,0,55,0,0
237157,-90.5412893840747,4,1,0,55,0,0
237264,-90.6400747475268,4,1,0,55,0,0
237371,-90.7389678910658,4,1,0,55,0,0
237479,-90.8388946849399,4,1,0,55,0,0
237693,-91.0372229526307,4,1,0,55,0,0
237907,-91.2359842297928,4,1,0,55,0,0
238121,-91.4351794618145,4,1,0,55,0,0
238336,-91.6357434696068,4,1,0,55,0,0
238550,-91.8358114946958,4,1,0,55,0,0
238764,-92.0363163276629,4,1,0,55,0,0
238979,-92.2381989353612,4,1,0,55,0,0
239193,-92.4395822995382,4,1,0,55,0,0
239407,-92.6414053433689,4,1,0,55,0,0
239622,-92.8446152200546,4,1,0,55,0,0
239836,-93.0473225709628,4,1,0,55,0,0
240050,-93.2504724921807,4,1,0,55,0,0
240264,-93.4540659499706,4,1,0,55,0,0
240336,-93.5226645702091,4,1,0,55,0,0
240407,-93.5903597413198,4,1,0,55,0,0
240479,-93.6590584060661,4,1,0,55,0,0
240693,-93.8635439281726,4,1,0,55,0,0
240907,-94.0684759028643,4,1,0,55,0,0
241121,-94.2738553048796,4,1,0,55,0,0
241336,-94.4806459773677,4,1,0,55,0,0
241550,-94.686925268986,4,1,0,55,0,0
241764,-94.8936549295207,4,1,0,55,0,0
241979,-95.1018051388684,4,1,0,55,0,0
242193,-95.3094406052936,4,1,0,55,0,0
242407,-95.5175294015674,4,1,0,55,0,0
242622,-95.7270480859944,4,1,0,55,0,0
242836,-95.9360486433426,4,1,0,55,0,0
243050,-96.1455055109381,4,1,0,55,0,0
243264,-96.3554196850413,4,1,0,55,0,0
243479,-96.5667762904341,4,1,0,55,0,0
243586,-96.6721357806528,4,1,0,55,0,0
243693,-96.7776102236804,4,1,0,55,0,0
243907,-96.9889044699775,4,1,0,55,0,0
244014,-97.094724524497,4,1,0,55,0,0
244121,-97.2006600343256,4,1,0,55,0,0
244229,-97.3077028026689,4,1,0,55,0,0
244336,-97.4138706831292,4,1,0,55,0,0
244550,-97.6265540748487,4,1,0,55,0,0
244764,-97.8397018175358,4,1,0,55,0,0
244979,-98.0543142110722,4,1,0,55,0,0
245193,-98.268395881094,4,1,0,55,0,0
245407,-98.4829449549401,4,1,0,55,0,0
245622,-98.6989683089227,4,1,0,55,0,0
245836,-98.9144574501707,4,1,0,55,0,0
245943,-99.0223783854297,4,1,0,55,0,0
246050,-99.1304170681704,4,1,0,55,0,0
246264,-99.346848190112,4,1,0,55,0,0
246479,-99.5647665247378,4,1,0,55,0,0
246693,-99.7821459604562,4,1,0,55,0,0
246907,-100,4,1,0,55,0,0
247121,-96.7810628407324,4,1,0,55,0,0
247229,-95.1961052973303,4,1,0,57,0,0
247336,-93.6514216178593,4,1,0,58,0,0
247443,-92.131802489739,4,1,0,60,0,0
247550,-90.6368412072196,4,1,0,62,0,0
247657,-89.1661376638938,4,1,0,63,0,0
247765,-87.719298245614,4,1,0,65,0,0
258270,-90.9090909090909,4,1,0,65,0,0
258377,-93.8086303939962,4,1,0,65,0,0
258484,-96.4320154291225,4,1,0,65,0,0
258699,-101.530357303269,4,1,0,65,0,0
258913,-106.302195341402,4,1,0,65,0,0
259127,-110.797890145301,4,1,0,65,0,0
259341,-114.734920640897,4,1,0,65,0,0
259556,-117.833247221729,4,1,0,65,0,0
259770,-119.803542972288,4,1,0,65,0,0
259984,-120.481927710843,4,1,0,65,0,0
260199,-119.868009393207,4,1,0,65,0,0
260413,-118.092868870381,4,1,0,65,0,0
260627,-115.326352596906,4,1,0,65,0,0
260842,-111.858468439234,4,1,0,65,0,0
260913,-110.600926749563,4,1,0,65,0,0
260984,-109.289617486339,4,1,0,65,0,0
261056,-107.971418437702,4,1,0,65,0,0
261188,-105.940667479732,4,1,0,65,0,0
261270,-103.92622559937,4,1,0,65,0,0
261446,-100,4,1,0,50,0,0

[HitObjects]
450,57,939,5,0,0:0:0:0:
450,57,2653,1,0,0:0:0:0:
467,189,4367,1,8,0:0:0:0:
450,57,5224,1,0,0:0:0:0:
467,189,6081,1,8,0:0:0:0:
450,57,6510,1,0,0:0:0:0:
467,189,6939,1,8,0:0:0:0:
467,189,7367,1,8,0:0:0:0:
450,57,7796,1,0,0:0:0:0:
450,57,9510,1,0,0:0:0:0:
467,189,10367,1,8,0:0:0:0:
467,189,10796,1,8,0:0:0:0:
450,57,11224,1,0,0:0:0:0:
450,57,12081,1,0,0:0:0:0:
467,189,12939,1,8,0:0:0:0:
467,189,13367,1,8,0:0:0:0:
450,57,13796,1,0,0:0:0:0:
450,57,13903,1,0,0:0:0:0:
467,189,14010,1,0,0:0:0:0:
450,57,14117,1,0,0:0:0:0:
467,189,14224,1,8,0:0:0:0:
467,189,14331,1,8,0:0:0:0:
450,57,14439,1,0,0:0:0:0:
450,57,14546,1,0,0:0:0:0:
467,189,14653,1,8,0:0:0:0:
450,57,14867,1,0,0:0:0:0:
450,57,14974,1,0,0:0:0:0:
467,189,15081,1,8,0:0:0:0:
467,189,15296,1,8,0:0:0:0:
450,57,15510,1,0,0:0:0:0:
450,57,15724,1,0,0:0:0:0:
450,57,15939,1,0,0:0:0:0:
450,57,16153,1,0,0:0:0:0:
467,189,16367,1,8,0:0:0:0:
467,189,16581,1,8,0:0:0:0:
467,189,16689,1,8,0:0:0:0:
450,57,16796,1,0,0:0:0:0:
450,57,17010,1,0,0:0:0:0:
467,189,17224,1,8,0:0:0:0:
467,189,17439,1,8,0:0:0:0:
467,189,17653,1,8,0:0:0:0:
467,189,17867,1,8,0:0:0:0:
450,57,18296,1,0,0:0:0:0:
450,57,18403,1,0,0:0:0:0:
450,57,18510,1,0,0:0:0:0:
450,57,18724,1,0,0:0:0:0:
467,189,18939,1,8,0:0:0:0:
467,189,19153,1,8,0:0:0:0:
450,57,19367,1,0,0:0:0:0:
450,57,19581,1,0,0:0:0:0:
467,189,19796,1,8,0:0:0:0:
450,57,20224,1,0,0:0:0:0:
467,189,20653,1,8,0:0:0:0:
467,189,21081,1,8,0:0:0:0:
450,57,21510,1,0,0:0:0:0:
467,189,21939,1,8,0:0:0:0:
467,189,22046,1,8,0:0:0:0:
450,57,22153,1,0,0:0:0:0:
450,57,22367,1,0,0:0:0:0:
450,57,22796,1,0,0:0:0:0:
450,57,23010,1,0,0:0:0:0:
467,189,23224,1,8,0:0:0:0:
450,57,23653,1,0,0:0:0:0:
450,57,23760,1,0,0:0:0:0:
467,189,23867,1,8,0:0:0:0:
450,57,24081,1,0,0:0:0:0:
467,189,24296,1,8,0:0:0:0:
467,189,24403,1,8,0:0:0:0:
450,57,24510,1,0,0:0:0:0:
450,57,24724,1,0,0:0:0:0:
477,121,25153,1,12,0:0:0:0:
477,121,25581,1,12,0:0:0:0:
477,121,25796,1,4,0:0:0:0:
477,121,26224,1,4,0:0:0:0:
477,121,26653,1,12,0:0:0:0:
450,57,27081,1,0,0:0:0:0:
467,189,27189,1,8,0:0:0:0:
450,57,27296,1,0,0:0:0:0:
467,189,27510,1,8,0:0:0:0:
467,189,27617,1,8,0:0:0:0:
450,57,27724,1,0,0:0:0:0:
450,57,27831,1,0,0:0:0:0:
467,189,27939,1,8,0:0:0:0:
467,189,28046,1,8,0:0:0:0:
450,57,28153,1,0,0:0:0:0:
477,121,28367,1,12,0:0:0:0:
450,57,28581,1,0,0:0:0:0:
450,57,28689,1,0,0:0:0:0:
467,189,28796,1,8,0:0:0:0:
450,57,29010,1,0,0:0:0:0:
467,189,29224,1,8,0:0:0:0:
450,57,29331,1,0,0:0:0:0:
467,189,29439,1,8,0:0:0:0:
467,189,29867,1,8,0:0:0:0:
450,57,30081,1,0,0:0:0:0:
450,57,30296,1,0,0:0:0:0:
450,57,30403,1,0,0:0:0:0:
467,189,30510,1,8,0:0:0:0:
467,189,30724,1,8,0:0:0:0:
450,57,30939,1,0,0:0:0:0:
467,189,31153,1,8,0:0:0:0:
450,57,31260,1,0,0:0:0:0:
467,189,31367,1,8,0:0:0:0:
467,189,31474,1,8,0:0:0:0:
450,57,31581,1,0,0:0:0:0:
450,57,31796,1,8,0:0:0:0:
450,57,32010,1,0,0:0:0:0:
450,57,32117,1,0,0:0:0:0:
467,189,32224,1,8,0:0:0:0:
450,57,32439,1,0,0:0:0:0:
467,189,32653,1,8,0:0:0:0:
450,57,32867,1,0,0:0:0:0:
450,57,32974,1,0,0:0:0:0:
450,57,33081,1,0,0:0:0:0:
450,57,33296,1,0,0:0:0:0:
467,189,33510,1,8,0:0:0:0:
450,57,33939,1,0,0:0:0:0:
450,57,34153,1,0,0:0:0:0:
450,57,34260,1,0,0:0:0:0:
467,189,34367,1,8,0:0:0:0:
467,189,34581,1,8,0:0:0:0:
467,189,34689,1,8,0:0:0:0:
450,57,34796,1,0,0:0:0:0:
450,57,35010,1,0,0:0:0:0:
467,189,35224,1,8,0:0:0:0:
450,57,35653,1,0,0:0:0:0:
450,57,35867,1,0,0:0:0:0:
450,57,35974,1,0,0:0:0:0:
467,189,36081,1,8,0:0:0:0:
450,57,36189,1,0,0:0:0:0:
467,189,36296,1,8,0:0:0:0:
467,189,36724,1,8,0:0:0:0:
467,189,36939,1,8,0:0:0:0:
450,57,37153,1,0,0:0:0:0:
450,57,37260,1,0,0:0:0:0:
467,189,37367,1,8,0:0:0:0:
467,189,37581,1,8,0:0:0:0:
450,57,37796,1,0,0:0:0:0:
450,57,38010,1,0,0:0:0:0:
467,189,38117,1,8,0:0:0:0:
450,57,38224,1,0,0:0:0:0:
450,57,38439,1,0,0:0:0:0:
477,121,38653,1,4,0:0:0:0:
467,189,38867,1,8,0:0:0:0:
467,189,38974,1,8,0:0:0:0:
467,189,39081,1,8,0:0:0:0:
450,57,39296,1,0,0:0:0:0:
450,57,39510,1,0,0:0:0:0:
467,189,39724,1,8,0:0:0:0:
467,189,39939,1,8,0:0:0:0:
450,57,40153,1,0,0:0:0:0:
467,189,40367,1,8,0:0:0:0:
467,189,40581,1,8,0:0:0:0:
450,57,40796,1,0,0:0:0:0:
450,57,41010,1,0,0:0:0:0:
467,189,41224,1,8,0:0:0:0:
450,57,41439,1,0,0:0:0:0:
467,189,41510,1,8,0:0:0:0:
467,189,41581,1,8,0:0:0:0:
450,57,41653,1,0,0:0:0:0:
467,189,41867,1,8,0:0:0:0:
477,121,42081,1,12,0:0:0:0:
450,57,42296,1,0,0:0:0:0:
450,57,42403,1,0,0:0:0:0:
467,189,42510,1,8,0:0:0:0:
467,189,42724,1,8,0:0:0:0:
450,57,42939,1,0,0:0:0:0:
450,57,43046,1,0,0:0:0:0:
467,189,43153,1,8,0:0:0:0:
467,189,43260,1,8,0:0:0:0:
450,57,43367,1,0,0:0:0:0:
450,57,43581,1,0,0:0:0:0:
467,189,43796,1,8,0:0:0:0:
467,189,44010,1,8,0:0:0:0:
467,189,44117,1,8,0:0:0:0:
450,57,44224,1,0,0:0:0:0:
467,189,44439,1,8,0:0:0:0:
450,57,44867,1,0,0:0:0:0:
450,57,44974,1,0,0:0:0:0:
450,57,45081,1,0,0:0:0:0:
450,57,45296,1,0,0:0:0:0:
467,189,45510,1,8,0:0:0:0:
467,189,45724,1,8,0:0:0:0:
450,57,45831,1,8,0:0:0:0:
467,189,45939,1,8,0:0:0:0:
467,189,46153,1,8,0:0:0:0:
450,57,46367,1,0,0:0:0:0:
467,189,46474,1,8,0:0:0:0:
450,57,46581,1,0,0:0:0:0:
450,57,46689,1,0,0:0:0:0:
467,189,46796,1,8,0:0:0:0:
450,57,47010,1,0,0:0:0:0:
467,189,47224,1,8,0:0:0:0:
467,189,47439,1,8,0:0:0:0:
467,189,47546,1,8,0:0:0:0:
450,57,47653,1,0,0:0:0:0:
467,189,47867,1,8,0:0:0:0:
467,189,48296,1,8,0:0:0:0:
450,57,48367,1,0,0:0:0:0:
450,57,48439,1,0,0:0:0:0:
467,189,48510,1,8,0:0:0:0:
450,57,48724,1,0,0:0:0:0:
467,189,48939,1,8,0:0:0:0:
450,57,49153,1,0,0:0:0:0:
450,57,49260,1,0,0:0:0:0:
467,189,49367,1,8,0:0:0:0:
467,189,49581,1,8,0:0:0:0:
450,57,49796,1,0,0:0:0:0:
450,57,49903,1,0,0:0:0:0:
467,189,50010,1,8,0:0:0:0:
467,189,50117,1,8,0:0:0:0:
450,57,50224,1,0,0:0:0:0:
450,57,50439,1,0,0:0:0:0:
467,189,50653,1,8,0:0:0:0:
467,189,50867,1,8,0:0:0:0:
467,189,50974,1,8,0:0:0:0:
450,57,51081,1,0,0:0:0:0:
467,189,51296,1,8,0:0:0:0:
450,57,51724,1,0,0:0:0:0:
467,189,51831,1,8,0:0:0:0:
450,57,51939,1,0,0:0:0:0:
450,57,52153,1,0,0:0:0:0:
467,189,52367,1,8,0:0:0:0:
467,189,52581,1,8,0:0:0:0:
467,189,52689,1,8,0:0:0:0:
467,189,52796,1,8,0:0:0:0:
450,57,53010,1,0,0:0:0:0:
467,189,53224,1,8,0:0:0:0:
467,189,53331,1,8,0:0:0:0:
467,189,53439,1,8,0:0:0:0:
467,189,53546,1,8,0:0:0:0:
450,57,53653,1,0,0:0:0:0:
450,57,53867,1,0,0:0:0:0:
467,189,54081,1,8,0:0:0:0:
450,57,54296,1,0,0:0:0:0:
450,57,54403,1,0,0:0:0:0:
467,189,54510,1,8,0:0:0:0:
467,189,54724,1,8,0:0:0:0:
450,57,54939,1,0,0:0:0:0:
450,57,55046,1,0,0:0:0:0:
450,57,55153,1,0,0:0:0:0:
450,57,55260,1,0,0:0:0:0:
467,189,55367,1,8,0:0:0:0:
467,189,55581,1,8,0:0:0:0:
477,121,55796,1,4,0:0:0:0:
450,57,56010,1,0,0:0:0:0:
450,57,56117,1,0,0:0:0:0:
467,189,56224,1,8,0:0:0:0:
467,189,56439,1,8,0:0:0:0:
450,57,56653,1,0,0:0:0:0:
450,57,56760,1,0,0:0:0:0:
467,189,56867,1,8,0:0:0:0:
467,189,56974,1,8,0:0:0:0:
450,57,57081,1,0,0:0:0:0:
450,57,57296,1,0,0:0:0:0:
467,189,57510,1,8,0:0:0:0:
467,189,57724,1,8,0:0:0:0:
467,189,57831,1,8,0:0:0:0:
450,57,57939,1,0,0:0:0:0:
467,189,58153,1,8,0:0:0:0:
450,57,58581,1,0,0:0:0:0:
450,57,58689,1,0,0:0:0:0:
450,57,58796,1,0,0:0:0:0:
450,57,59010,1,0,0:0:0:0:
467,189,59224,1,8,0:0:0:0:
467,189,59439,1,8,0:0:0:0:
467,189,59546,1,8,0:0:0:0:
450,57,59653,1,0,0:0:0:0:
467,189,59867,1,8,0:0:0:0:
450,57,60081,1,0,0:0:0:0:
467,189,60189,1,8,0:0:0:0:
450,57,60296,1,0,0:0:0:0:
450,57,60403,1,0,0:0:0:0:
467,189,60510,1,8,0:0:0:0:
450,57,60724,1,0,0:0:0:0:
467,189,60939,1,8,0:0:0:0:
450,57,61153,1,0,0:0:0:0:
450,57,61260,1,0,0:0:0:0:
467,189,61367,1,8,0:0:0:0:
467,189,61581,1,8,0:0:0:0:
467,189,62010,1,8,0:0:0:0:
450,57,62081,1,0,0:0:0:0:
450,57,62153,1,0,0:0:0:0:
467,189,62224,1,8,0:0:0:0:
450,57,62439,1,0,0:0:0:0:
467,189,62653,1,8,0:0:0:0:
450,57,62867,1,0,0:0:0:0:
450,57,62974,1,0,0:0:0:0:
467,189,63081,1,8,0:0:0:0:
467,189,63296,1,8,0:0:0:0:
450,57,63510,1,0,0:0:0:0:
450,57,63617,1,0,0:0:0:0:
467,189,63724,1,8,0:0:0:0:
467,189,63831,1,8,0:0:0:0:
450,57,63939,1,0,0:0:0:0:
450,57,64153,1,0,0:0:0:0:
467,189,64367,1,8,0:0:0:0:
450,57,64581,1,0,0:0:0:0:
467,189,64689,1,8,0:0:0:0:
467,189,64796,1,8,0:0:0:0:
467,189,65010,1,8,0:0:0:0:
450,57,65224,1,0,0:0:0:0:
467,189,65653,1,8,0:0:0:0:
467,189,65760,1,8,0:0:0:0:
450,57,65867,1,0,0:0:0:0:
477,121,66081,1,12,0:0:0:0:
450,57,66296,1,0,0:0:0:0:
467,189,66403,1,8,0:0:0:0:
450,57,66510,1,0,0:0:0:0:
450,57,66724,1,0,0:0:0:0:
467,189,66939,1,8,0:0:0:0:
450,57,67046,1,0,0:0:0:0:
467,189,67153,1,8,0:0:0:0:
467,189,67260,1,8,0:0:0:0:
450,57,67367,1,0,0:0:0:0:
450,57,67581,1,0,0:0:0:0:
477,121,67796,1,12,0:0:0:0:
450,57,68010,1,0,0:0:0:0:
450,57,68117,1,0,0:0:0:0:
467,189,68224,1,8,0:0:0:0:
467,189,68439,1,8,0:0:0:0:
450,57,68653,1,0,0:0:0:0:
450,57,68760,1,0,0:0:0:0:
450,57,68867,1,0,0:0:0:0:
450,57,68974,1,0,0:0:0:0:
467,189,69081,1,8,0:0:0:0:
467,189,69296,1,8,0:0:0:0:
477,121,69510,1,4,0:0:0:0:
450,57,70153,1,0,0:0:0:0:
467,189,70367,1,8,0:0:0:0:
450,57,70796,1,0,0:0:0:0:
467,189,71010,1,8,0:0:0:0:
467,189,71117,1,8,0:0:0:0:
477,121,71224,1,4,0:0:0:0:
450,57,71867,1,0,0:0:0:0:
450,57,72081,1,0,0:0:0:0:
467,189,72296,1,8,0:0:0:0:
450,57,72403,1,0,0:0:0:0:
467,189,72510,1,8,0:0:0:0:
467,189,72724,1,8,0:0:0:0:
467,189,72831,1,8,0:0:0:0:
477,121,72939,1,4,0:0:0:0:
450,57,73367,1,0,0:0:0:0:
450,57,73581,1,0,0:0:0:0:
467,189,73796,1,8,0:0:0:0:
450,57,74010,1,0,0:0:0:0:
467,189,74224,1,8,0:0:0:0:
450,57,74331,1,0,0:0:0:0:
467,189,74439,1,8,0:0:0:0:
467,189,74546,1,8,0:0:0:0:
477,121,74653,1,4,0:0:0:0:
450,57,75081,1,0,0:0:0:0:
450,57,75296,1,0,0:0:0:0:
450,57,75403,1,0,0:0:0:0:
467,189,75510,1,8,0:0:0:0:
450,57,75724,1,0,0:0:0:0:
467,189,75939,1,8,0:0:0:0:
467,189,76153,1,8,0:0:0:0:
467,189,76260,1,8,0:0:0:0:
477,121,76367,1,4,0:0:0:0:
450,57,77010,1,0,0:0:0:0:
467,189,77224,1,8,0:0:0:0:
450,57,77439,1,0,0:0:0:0:
450,57,77546,1,0,0:0:0:0:
467,189,77653,1,8,0:0:0:0:
450,57,77760,1,0,0:0:0:0:
467,189,77867,1,8,0:0:0:0:
467,189,77974,1,8,0:0:0:0:
477,121,78081,1,4,0:0:0:0:
450,57,78724,1,0,0:0:0:0:
467,189,78939,1,8,0:0:0:0:
450,57,79153,1,0,0:0:0:0:
450,57,79260,1,0,0:0:0:0:
467,189,79367,1,8,0:0:0:0:
467,189,79581,1,8,0:0:0:0:
467,189,79689,1,8,0:0:0:0:
477,121,79796,1,4,0:0:0:0:
450,57,80224,1,0,0:0:0:0:
450,57,80439,1,0,0:0:0:0:
467,189,80653,1,8,0:0:0:0:
450,57,80867,1,0,0:0:0:0:
467,189,81081,1,8,0:0:0:0:
450,57,81189,1,0,0:0:0:0:
467,189,81296,1,8,0:0:0:0:
467,189,81403,1,8,0:0:0:0:
477,121,81510,1,4,0:0:0:0:
450,57,81939,1,0,0:0:0:0:
450,57,82153,1,0,0:0:0:0:
450,57,82260,1,0,0:0:0:0:
467,189,82367,1,8,0:0:0:0:
450,57,82581,1,0,0:0:0:0:
467,189,82689,1,8,0:0:0:0:
450,57,82796,1,0,0:0:0:0:
467,189,83010,1,8,0:0:0:0:
467,189,83117,1,8,0:0:0:0:
477,121,83224,1,4,0:0:0:0:
450,57,83439,1,0,0:0:0:0:
450,57,83546,1,0,0:0:0:0:
467,189,83653,1,8,0:0:0:0:
467,189,83867,1,8,0:0:0:0:
467,189,84081,1,8,0:0:0:0:
450,57,84189,1,0,0:0:0:0:
467,189,84296,1,8,0:0:0:0:
467,189,84403,1,8,0:0:0:0:
450,57,84510,1,0,0:0:0:0:
450,57,84724,1,0,0:0:0:0:
467,189,84939,1,8,0:0:0:0:
467,189,85367,1,8,0:0:0:0:
450,57,85581,1,0,0:0:0:0:
467,189,85796,1,8,0:0:0:0:
467,189,86224,1,8,0:0:0:0:
450,57,86331,1,0,0:0:0:0:
450,57,86439,1,0,0:0:0:0:
450,57,86546,1,0,0:0:0:0:
467,189,86653,1,8,0:0:0:0:
450,57,86867,1,0,0:0:0:0:
450,57,86974,1,0,0:0:0:0:
467,189,87081,1,8,0:0:0:0:
467,189,87296,1,8,0:0:0:0:
467,189,87510,1,8,0:0:0:0:
450,57,87617,1,0,0:0:0:0:
467,189,87724,1,8,0:0:0:0:
467,189,87831,1,8,0:0:0:0:
450,57,87939,1,0,0:0:0:0:
450,57,88153,1,0,0:0:0:0:
467,189,88367,1,8,0:0:0:0:
467,189,88581,1,8,0:0:0:0:
467,189,88689,1,8,0:0:0:0:
450,57,88796,1,0,0:0:0:0:
450,57,89010,1,0,0:0:0:0:
450,57,89224,1,0,0:0:0:0:
467,189,89439,1,8,0:0:0:0:
450,57,89653,1,0,0:0:0:0:
450,57,89760,1,0,0:0:0:0:
467,189,89867,1,8,0:0:0:0:
450,57,90081,1,0,0:0:0:0:
450,57,90296,1,0,0:0:0:0:
450,57,90403,1,0,0:0:0:0:
467,189,90510,1,8,0:0:0:0:
450,57,90724,1,0,0:0:0:0:
450,57,90939,1,0,0:0:0:0:
467,189,91046,1,8,0:0:0:0:
450,57,91153,1,0,0:0:0:0:
450,57,91260,1,0,0:0:0:0:
467,189,91367,1,8,0:0:0:0:
467,189,91581,1,8,0:0:0:0:
467,189,91689,1,8,0:0:0:0:
450,57,91796,1,0,0:0:0:0:
467,189,92224,1,8,0:0:0:0:
450,57,92439,1,0,0:0:0:0:
467,189,92653,1,8,0:0:0:0:
467,189,93081,1,8,0:0:0:0:
467,189,93189,1,8,0:0:0:0:
467,189,93296,1,8,0:0:0:0:
450,57,93510,1,0,0:0:0:0:
467,189,93724,1,8,0:0:0:0:
450,57,93831,1,0,0:0:0:0:
450,57,93939,1,0,0:0:0:0:
467,189,94153,1,8,0:0:0:0:
467,189,94367,1,8,0:0:0:0:
467,189,94581,1,8,0:0:0:0:
467,189,94689,1,8,0:0:0:0:
450,57,94796,1,0,0:0:0:0:
467,189,95010,1,8,0:0:0:0:
477,121,95224,1,12,0:0:0:0:
477,121,95653,1,12,0:0:0:0:
477,121,96081,1,12,0:0:0:0:
450,57,96296,1,0,0:0:0:0:
467,189,96403,1,8,0:0:0:0:
450,57,96510,1,0,0:0:0:0:
450,57,96724,1,0,0:0:0:0:
477,121,96939,1,12,0:0:0:0:
467,189,97153,1,8,0:0:0:0:
450,57,97260,1,0,0:0:0:0:
467,189,97367,1,8,0:0:0:0:
467,189,97474,1,8,0:0:0:0:
450,57,97581,1,0,0:0:0:0:
467,189,97796,1,8,0:0:0:0:
467,189,98010,1,8,0:0:0:0:
467,189,98117,1,8,0:0:0:0:
467,189,98224,1,8,0:0:0:0:
467,189,98439,1,8,0:0:0:0:
450,57,98653,1,0,0:0:0:0:
450,57,98867,1,0,0:0:0:0:
450,57,98974,1,0,0:0:0:0:
467,189,99081,1,8,0:0:0:0:
467,189,99189,1,8,0:0:0:0:
450,57,99296,1,0,0:0:0:0:
467,189,99510,1,8,0:0:0:0:
450,57,99724,1,0,0:0:0:0:
450,57,99831,1,0,0:0:0:0:
467,189,99939,1,8,0:0:0:0:
450,57,100153,1,0,0:0:0:0:
450,57,100581,1,0,0:0:0:0:
450,57,100689,1,0,0:0:0:0:
450,57,100796,1,0,0:0:0:0:
450,57,101010,1,0,0:0:0:0:
467,189,101224,1,8,0:0:0:0:
450,57,101331,1,0,0:0:0:0:
467,189,101439,1,8,0:0:0:0:
467,189,101546,1,8,0:0:0:0:
450,57,101653,1,0,0:0:0:0:
450,57,101867,1,0,0:0:0:0:
467,189,102081,1,8,0:0:0:0:
467,189,102296,1,8,0:0:0:0:
467,189,102403,1,8,0:0:0:0:
450,57,102510,1,0,0:0:0:0:
450,57,102724,1,0,0:0:0:0:
467,189,102939,1,8,0:0:0:0:
467,189,103046,1,8,0:0:0:0:
467,189,103153,1,8,0:0:0:0:
467,189,103260,1,8,0:0:0:0:
450,57,103367,1,0,0:0:0:0:
450,57,103581,1,0,0:0:0:0:
467,189,103796,1,8,0:0:0:0:
467,189,103903,1,8,0:0:0:0:
450,57,104010,1,0,0:0:0:0:
450,57,104117,1,0,0:0:0:0:
467,189,104224,1,8,0:0:0:0:
467,189,104439,1,8,0:0:0:0:
450,57,104653,1,0,0:0:0:0:
450,57,104867,1,0,0:0:0:0:
450,57,104974,1,0,0:0:0:0:
467,189,105081,1,8,0:0:0:0:
450,57,105296,1,0,0:0:0:0:
450,57,105510,1,0,0:0:0:0:
450,57,105617,1,0,0:0:0:0:
467,189,105724,1,8,0:0:0:0:
450,57,105831,1,0,0:0:0:0:
467,189,105939,1,8,0:0:0:0:
450,57,106153,1,0,0:0:0:0:
467,189,106367,1,8,0:0:0:0:
467,189,106581,1,8,0:0:0:0:
467,189,106689,1,8,0:0:0:0:
450,57,106796,1,0,0:0:0:0:
467,189,107010,1,8,0:0:0:0:
477,121,107224,1,4,0:0:0:0:
467,189,107439,1,8,0:0:0:0:
450,57,107546,1,0,0:0:0:0:
467,189,107653,1,8,0:0:0:0:
450,57,107867,1,0,0:0:0:0:
467,189,108081,1,8,0:0:0:0:
467,189,108189,1,8,0:0:0:0:
450,57,108296,1,0,0:0:0:0:
450,57,108403,1,0,0:0:0:0:
467,189,108510,1,8,0:0:0:0:
450,57,108724,1,0,0:0:0:0:
467,189,108939,1,8,0:0:0:0:
450,57,109367,1,0,0:0:0:0:
450,57,109581,1,0,0:0:0:0:
467,189,109796,1,8,0:0:0:0:
467,189,109903,1,8,0:0:0:0:
450,57,110010,1,0,0:0:0:0:
450,57,110117,1,0,0:0:0:0:
467,189,110224,1,8,0:0:0:0:
467,189,110331,1,8,0:0:0:0:
450,57,110439,1,0,0:0:0:0:
477,121,110653,1,12,0:0:0:0:
450,57,110867,1,0,0:0:0:0:
450,57,110974,1,0,0:0:0:0:
467,189,111081,1,8,0:0:0:0:
450,57,111189,1,0,0:0:0:0:
467,189,111296,1,8,0:0:0:0:
450,57,111510,1,0,0:0:0:0:
450,57,111724,1,0,0:0:0:0:
450,57,111831,1,0,0:0:0:0:
467,189,111939,1,8,0:0:0:0:
450,57,112153,1,0,0:0:0:0:
467,189,112367,1,8,0:0:0:0:
467,189,112581,1,8,0:0:0:0:
467,189,112689,1,8,0:0:0:0:
450,57,112796,1,0,0:0:0:0:
467,189,112903,1,8,0:0:0:0:
450,57,113010,1,0,0:0:0:0:
467,189,113224,1,8,0:0:0:0:
450,57,113439,1,0,0:0:0:0:
450,57,113546,1,0,0:0:0:0:
467,189,113653,1,8,0:0:0:0:
467,189,113867,1,8,0:0:0:0:
450,57,114296,1,0,0:0:0:0:
450,57,114403,1,0,0:0:0:0:
450,57,114510,1,0,0:0:0:0:
450,57,114724,1,0,0:0:0:0:
467,189,114939,1,8,0:0:0:0:
450,57,115046,1,0,0:0:0:0:
467,189,115153,1,8,0:0:0:0:
467,189,115260,1,8,0:0:0:0:
450,57,115367,1,0,0:0:0:0:
450,57,115581,1,0,0:0:0:0:
467,189,115796,1,8,0:0:0:0:
467,189,116010,1,8,0:0:0:0:
467,189,116117,1,8,0:0:0:0:
450,57,116224,1,0,0:0:0:0:
450,57,116439,1,0,0:0:0:0:
467,189,116653,1,8,0:0:0:0:
467,189,116760,1,8,0:0:0:0:
467,189,116867,1,8,0:0:0:0:
467,189,116974,1,8,0:0:0:0:
450,57,117081,1,0,0:0:0:0:
450,57,117296,1,0,0:0:0:0:
467,189,117510,1,8,0:0:0:0:
450,57,117617,1,0,0:0:0:0:
467,189,117724,1,8,0:0:0:0:
467,189,117831,1,8,0:0:0:0:
450,57,117939,1,0,0:0:0:0:
450,57,118153,1,0,0:0:0:0:
467,189,118367,1,8,0:0:0:0:
450,57,118581,1,0,0:0:0:0:
450,57,118689,1,0,0:0:0:0:
467,189,118796,1,8,0:0:0:0:
450,57,119010,1,0,0:0:0:0:
450,57,119224,1,0,0:0:0:0:
467,189,119331,1,8,0:0:0:0:
450,57,119439,1,0,0:0:0:0:
450,57,119546,1,0,0:0:0:0:
467,189,119653,1,8,0:0:0:0:
467,189,119867,1,8,0:0:0:0:
450,57,120081,1,0,0:0:0:0:
450,57,120296,1,0,0:0:0:0:
450,57,120403,1,0,0:0:0:0:
467,189,120510,1,8,0:0:0:0:
450,57,120724,1,0,0:0:0:0:
467,189,120939,1,8,0:0:0:0:
477,121,121153,1,4,0:0:0:0:
477,121,121581,1,4,0:0:0:0:
477,121,121796,1,12,0:0:0:0:
467,189,122010,1,8,0:0:0:0:
477,121,122224,1,4,0:0:0:0:
450,57,122439,1,0,0:0:0:0:
477,121,122653,1,12,0:0:0:0:
450,57,123081,1,0,0:0:0:0:
467,189,123189,1,8,0:0:0:0:
450,57,123296,1,0,0:0:0:0:
467,189,123510,1,8,0:0:0:0:
467,189,123617,1,8,0:0:0:0:
450,57,123724,1,0,0:0:0:0:
450,57,123831,1,0,0:0:0:0:
467,189,123939,1,8,0:0:0:0:
467,189,124046,1,8,0:0:0:0:
450,57,124153,1,0,0:0:0:0:
477,121,124367,1,12,0:0:0:0:
450,57,124581,1,0,0:0:0:0:
467,189,124796,1,8,0:0:0:0:
467,189,125010,1,8,0:0:0:0:
450,57,125224,1,0,0:0:0:0:
467,189,125439,1,8,0:0:0:0:
467,189,125653,1,8,0:0:0:0:
467,189,125867,1,8,0:0:0:0:
450,57,126081,1,0,0:0:0:0:
450,57,126296,1,0,0:0:0:0:
467,189,126510,1,8,0:0:0:0:
450,57,126724,1,0,0:0:0:0:
467,189,126939,1,8,0:0:0:0:
467,189,127046,1,8,0:0:0:0:
450,57,127153,1,0,0:0:0:0:
467,189,127367,1,8,0:0:0:0:
467,189,127474,1,8,0:0:0:0:
450,57,127581,1,0,0:0:0:0:
467,189,127689,1,8,0:0:0:0:
450,57,127796,1,0,0:0:0:0:
467,189,128224,1,8,0:0:0:0:
467,189,128439,1,8,0:0:0:0:
450,57,128653,1,0,0:0:0:0:
450,57,128867,1,0,0:0:0:0:
467,189,129081,1,8,0:0:0:0:
450,57,129296,1,0,0:0:0:0:
467,189,129510,1,8,0:0:0:0:
467,189,129724,1,8,0:0:0:0:
450,57,129939,1,0,0:0:0:0:
467,189,130153,1,8,0:0:0:0:
450,57,130367,1,0,0:0:0:0:
450,57,130581,1,0,0:0:0:0:
467,189,130653,1,8,0:0:0:0:
467,189,130724,1,8,0:0:0:0:
450,57,130796,1,0,0:0:0:0:
450,57,131010,1,0,0:0:0:0:
467,189,131224,1,8,0:0:0:0:
450,57,131439,1,0,0:0:0:0:
467,189,131653,1,8,0:0:0:0:
467,189,131867,1,8,0:0:0:0:
450,57,132081,1,0,0:0:0:0:
467,189,132296,1,8,0:0:0:0:
467,189,132510,1,8,0:0:0:0:
467,189,132724,1,8,0:0:0:0:
450,57,132939,1,0,0:0:0:0:
450,57,133153,1,0,0:0:0:0:
467,189,133367,1,8,0:0:0:0:
450,57,133581,1,0,0:0:0:0:
467,189,133796,1,8,0:0:0:0:
467,189,133903,1,8,0:0:0:0:
450,57,134010,1,0,0:0:0:0:
467,189,134224,1,8,0:0:0:0:
467,189,134331,1,8,0:0:0:0:
450,57,134439,1,0,0:0:0:0:
467,189,134546,1,8,0:0:0:0:
450,57,134653,1,0,0:0:0:0:
467,189,135081,1,8,0:0:0:0:
467,189,135296,1,8,0:0:0:0:
450,57,135510,1,0,0:0:0:0:
450,57,135724,1,0,0:0:0:0:
467,189,135939,1,8,0:0:0:0:
450,57,136153,1,0,0:0:0:0:
450,57,136260,1,0,0:0:0:0:
467,189,136367,1,8,0:0:0:0:
467,189,136581,1,8,0:0:0:0:
450,57,136796,1,0,0:0:0:0:
467,189,137010,1,8,0:0:0:0:
467,189,137224,1,8,0:0:0:0:
450,57,137439,1,0,0:0:0:0:
467,189,137546,1,0,0:0:0:0:
467,189,137653,1,8,0:0:0:0:
450,57,137760,1,0,0:0:0:0:
450,57,137867,1,0,0:0:0:0:
450,57,137974,1,0,0:0:0:0:
477,121,138081,1,12,0:0:0:0:
450,57,138296,1,0,0:0:0:0:
450,57,138403,1,0,0:0:0:0:
467,189,138510,1,8,0:0:0:0:
450,57,138724,1,0,0:0:0:0:
467,189,138939,1,8,0:0:0:0:
450,57,139046,1,0,0:0:0:0:
467,189,139153,1,8,0:0:0:0:
467,189,139581,1,8,0:0:0:0:
450,57,139796,1,0,0:0:0:0:
450,57,140010,1,0,0:0:0:0:
450,57,140117,1,0,0:0:0:0:
467,189,140224,1,8,0:0:0:0:
467,189,140439,1,8,0:0:0:0:
450,57,140653,1,0,0:0:0:0:
467,189,140867,1,8,0:0:0:0:
450,57,140974,1,0,0:0:0:0:
467,189,141081,1,8,0:0:0:0:
467,189,141189,1,8,0:0:0:0:
467,189,141296,1,0,0:0:0:0:
450,57,141510,1,8,0:0:0:0:
450,57,141724,1,0,0:0:0:0:
450,57,141831,1,0,0:0:0:0:
467,189,141939,1,8,0:0:0:0:
450,57,142153,1,0,0:0:0:0:
467,189,142367,1,8,0:0:0:0:
450,57,142581,1,0,0:0:0:0:
450,57,142689,1,0,0:0:0:0:
450,57,142796,1,0,0:0:0:0:
450,57,143010,1,0,0:0:0:0:
467,189,143224,1,8,0:0:0:0:
450,57,143439,1,0,0:0:0:0:
467,189,143546,1,8,0:0:0:0:
450,57,143653,1,0,0:0:0:0:
450,57,143867,1,0,0:0:0:0:
450,57,143974,1,0,0:0:0:0:
467,189,144081,1,8,0:0:0:0:
467,189,144296,1,8,0:0:0:0:
467,189,144403,1,8,0:0:0:0:
450,57,144510,1,0,0:0:0:0:
450,57,144724,1,0,0:0:0:0:
467,189,144939,1,8,0:0:0:0:
450,57,145367,1,0,0:0:0:0:
450,57,145581,1,0,0:0:0:0:
450,57,145689,1,0,0:0:0:0:
467,189,145796,1,8,0:0:0:0:
450,57,145903,1,0,0:0:0:0:
467,189,146010,1,8,0:0:0:0:
467,189,146439,1,8,0:0:0:0:
467,189,146653,1,8,0:0:0:0:
450,57,146867,1,0,0:0:0:0:
450,57,146974,1,0,0:0:0:0:
467,189,147081,1,8,0:0:0:0:
467,189,147296,1,8,0:0:0:0:
450,57,147510,1,0,0:0:0:0:
450,57,147724,1,0,0:0:0:0:
467,189,147831,1,8,0:0:0:0:
450,57,147939,1,0,0:0:0:0:
450,57,148153,1,0,0:0:0:0:
477,121,148367,1,4,0:0:0:0:
467,189,148581,1,8,0:0:0:0:
467,189,148689,1,8,0:0:0:0:
467,189,148796,1,8,0:0:0:0:
450,57,149010,1,0,0:0:0:0:
450,57,149224,1,0,0:0:0:0:
467,189,149439,1,8,0:0:0:0:
467,189,149653,1,8,0:0:0:0:
450,57,149867,1,0,0:0:0:0:
477,121,150081,1,12,0:0:0:0:
467,189,150296,1,8,0:0:0:0:
450,57,150510,1,0,0:0:0:0:
450,57,150724,1,0,0:0:0:0:
467,189,150939,1,8,0:0:0:0:
450,57,151153,1,0,0:0:0:0:
467,189,151224,1,8,0:0:0:0:
467,189,151296,1,8,0:0:0:0:
450,57,151367,1,0,0:0:0:0:
467,189,151581,1,8,0:0:0:0:
477,121,151796,1,4,0:0:0:0:
450,57,152010,1,0,0:0:0:0:
467,189,152224,1,8,0:0:0:0:
450,57,152653,1,0,0:0:0:0:
450,57,152867,1,0,0:0:0:0:
467,189,153081,1,8,0:0:0:0:
467,189,153296,1,8,0:0:0:0:
450,57,153510,1,0,0:0:0:0:
467,189,153939,1,8,0:0:0:0:
450,57,154153,1,0,0:0:0:0:
450,57,154581,1,0,0:0:0:0:
467,189,154689,1,8,0:0:0:0:
450,57,154796,1,0,0:0:0:0:
467,189,155224,1,8,0:0:0:0:
467,189,155331,1,8,0:0:0:0:
450,57,155439,1,0,0:0:0:0:
467,189,155653,1,8,0:0:0:0:
467,189,155867,1,8,0:0:0:0:
450,57,156081,1,0,0:0:0:0:
467,189,156296,1,8,0:0:0:0:
450,57,156510,1,0,0:0:0:0:
450,57,156724,1,0,0:0:0:0:
450,57,156939,1,0,0:0:0:0:
467,189,157367,1,8,0:0:0:0:
450,57,157581,1,0,0:0:0:0:
467,189,157796,1,8,0:0:0:0:
467,189,158010,1,8,0:0:0:0:
467,189,158081,1,8,0:0:0:0:
467,189,158153,1,8,0:0:0:0:
450,57,158224,1,0,0:0:0:0:
450,57,158439,1,0,0:0:0:0:
467,189,158653,1,8,0:0:0:0:
450,57,158867,1,0,0:0:0:0:
450,57,158974,1,0,0:0:0:0:
467,189,159081,1,8,0:0:0:0:
450,57,159296,1,0,0:0:0:0:
467,189,159510,1,8,0:0:0:0:
467,189,159724,1,8,0:0:0:0:
450,57,159939,1,0,0:0:0:0:
450,57,160153,1,0,0:0:0:0:
467,189,160367,1,8,0:0:0:0:
467,189,160796,1,8,0:0:0:0:
450,57,161010,1,0,0:0:0:0:
450,57,161439,1,0,0:0:0:0:
467,189,161546,1,8,0:0:0:0:
450,57,161653,1,0,0:0:0:0:
450,57,161867,1,0,0:0:0:0:
467,189,162081,1,8,0:0:0:0:
450,57,162296,1,0,0:0:0:0:
450,57,162403,1,0,0:0:0:0:
467,189,162510,1,8,0:0:0:0:
467,189,162724,1,8,0:0:0:0:
450,57,162939,1,0,0:0:0:0:
467,189,163153,1,8,0:0:0:0:
450,57,163367,1,0,0:0:0:0:
450,57,163581,1,0,0:0:0:0:
467,189,163796,1,8,0:0:0:0:
450,57,164224,1,0,0:0:0:0:
467,189,164439,1,8,0:0:0:0:
450,57,164653,1,0,0:0:0:0:
450,57,164760,1,0,0:0:0:0:
450,57,164867,1,0,0:0:0:0:
450,57,164974,1,0,0:0:0:0:
467,189,165081,1,8,0:0:0:0:
467,189,165296,1,8,0:0:0:0:
477,121,165510,1,4,0:0:0:0:
450,57,165724,1,0,0:0:0:0:
450,57,165831,1,0,0:0:0:0:
467,189,165939,1,8,0:0:0:0:
467,189,166153,1,8,0:0:0:0:
450,57,166367,1,0,0:0:0:0:
450,57,166474,1,0,0:0:0:0:
467,189,166581,1,8,0:0:0:0:
467,189,166689,1,8,0:0:0:0:
450,57,166796,1,0,0:0:0:0:
450,57,167010,1,0,0:0:0:0:
467,189,167224,1,8,0:0:0:0:
467,189,167439,1,8,0:0:0:0:
467,189,167546,1,8,0:0:0:0:
450,57,167653,1,0,0:0:0:0:
467,189,167867,1,8,0:0:0:0:
450,57,168296,1,0,0:0:0:0:
450,57,168403,1,0,0:0:0:0:
450,57,168510,1,0,0:0:0:0:
450,57,168724,1,0,0:0:0:0:
467,189,168939,1,8,0:0:0:0:
467,189,169153,1,8,0:0:0:0:
450,57,169260,1,0,0:0:0:0:
467,189,169367,1,8,0:0:0:0:
467,189,169581,1,8,0:0:0:0:
450,57,169796,1,0,0:0:0:0:
467,189,169903,1,8,0:0:0:0:
450,57,170010,1,0,0:0:0:0:
450,57,170117,1,0,0:0:0:0:
467,189,170224,1,8,0:0:0:0:
450,57,170439,1,0,0:0:0:0:
467,189,170653,1,8,0:0:0:0:
450,57,170867,1,0,0:0:0:0:
450,57,170974,1,0,0:0:0:0:
467,189,171081,1,8,0:0:0:0:
467,189,171296,1,8,0:0:0:0:
467,189,171724,1,8,0:0:0:0:
450,57,171796,1,0,0:0:0:0:
450,57,171867,1,0,0:0:0:0:
467,189,171939,1,8,0:0:0:0:
450,57,172153,1,0,0:0:0:0:
467,189,172367,1,8,0:0:0:0:
450,57,172581,1,0,0:0:0:0:
450,57,172689,1,0,0:0:0:0:
467,189,172796,1,8,0:0:0:0:
467,189,173010,1,8,0:0:0:0:
450,57,173224,1,0,0:0:0:0:
450,57,173331,1,0,0:0:0:0:
467,189,173439,1,8,0:0:0:0:
467,189,173546,1,8,0:0:0:0:
450,57,173653,1,0,0:0:0:0:
450,57,173867,1,0,0:0:0:0:
467,189,174081,1,8,0:0:0:0:
450,57,174296,1,0,0:0:0:0:
467,189,174403,1,8,0:0:0:0:
467,189,174510,1,8,0:0:0:0:
467,189,174724,1,8,0:0:0:0:
450,57,174939,1,0,0:0:0:0:
450,57,175153,1,0,0:0:0:0:
450,57,175260,1,0,0:0:0:0:
467,189,175367,1,8,0:0:0:0:
467,189,175474,1,8,0:0:0:0:
450,57,175581,1,0,0:0:0:0:
477,121,175796,1,12,0:0:0:0:
450,57,176224,1,0,0:0:0:0:
467,189,176439,1,8,0:0:0:0:
477,121,176653,1,4,0:0:0:0:
467,189,177081,1,8,0:0:0:0:
450,57,177296,1,0,0:0:0:0:
477,121,177510,1,12,0:0:0:0:
467,189,177724,1,8,0:0:0:0:
450,57,177939,1,0,0:0:0:0:
467,189,178046,1,8,0:0:0:0:
450,57,178153,1,0,0:0:0:0:
467,189,178367,1,8,0:0:0:0:
467,189,178474,1,8,0:0:0:0:
450,57,178581,1,0,0:0:0:0:
450,57,178689,1,0,0:0:0:0:
467,189,178796,1,8,0:0:0:0:
450,57,179010,1,0,0:0:0:0:
477,121,179224,1,12,0:0:0:0:
450,57,179867,1,0,0:0:0:0:
467,189,180081,1,8,0:0:0:0:
450,57,180296,1,0,0:0:0:0:
450,57,180510,1,0,0:0:0:0:
450,57,180617,1,0,0:0:0:0:
467,189,180724,1,8,0:0:0:0:
467,189,180831,1,8,0:0:0:0:
477,121,180939,1,4,0:0:0:0:
450,57,181581,1,0,0:0:0:0:
450,57,181796,1,0,0:0:0:0:
467,189,182010,1,8,0:0:0:0:
450,57,182117,1,0,0:0:0:0:
467,189,182224,1,8,0:0:0:0:
467,189,182439,1,8,0:0:0:0:
467,189,182546,1,8,0:0:0:0:
477,121,182653,1,4,0:0:0:0:
450,57,183081,1,0,0:0:0:0:
450,57,183296,1,0,0:0:0:0:
467,189,183510,1,8,0:0:0:0:
450,57,183724,1,0,0:0:0:0:
467,189,183939,1,8,0:0:0:0:
450,57,184046,1,0,0:0:0:0:
467,189,184153,1,8,0:0:0:0:
467,189,184260,1,8,0:0:0:0:
477,121,184367,1,4,0:0:0:0:
450,57,184796,1,0,0:0:0:0:
450,57,185010,1,0,0:0:0:0:
450,57,185117,1,0,0:0:0:0:
467,189,185224,1,8,0:0:0:0:
450,57,185439,1,0,0:0:0:0:
467,189,185653,1,8,0:0:0:0:
467,189,185867,1,8,0:0:0:0:
467,189,185974,1,8,0:0:0:0:
477,121,186081,1,4,0:0:0:0:
450,57,186724,1,0,0:0:0:0:
467,189,186939,1,8,0:0:0:0:
450,57,187153,1,0,0:0:0:0:
450,57,187260,1,0,0:0:0:0:
467,189,187367,1,8,0:0:0:0:
450,57,187474,1,0,0:0:0:0:
467,189,187581,1,8,0:0:0:0:
467,189,187689,1,8,0:0:0:0:
477,121,187796,1,4,0:0:0:0:
450,57,188439,1,0,0:0:0:0:
467,189,188653,1,8,0:0:0:0:
450,57,188867,1,0,0:0:0:0:
450,57,188974,1,0,0:0:0:0:
467,189,189081,1,8,0:0:0:0:
467,189,189296,1,8,0:0:0:0:
467,189,189403,1,8,0:0:0:0:
477,121,189510,1,4,0:0:0:0:
450,57,189939,1,0,0:0:0:0:
450,57,190153,1,0,0:0:0:0:
467,189,190367,1,8,0:0:0:0:
450,57,190581,1,0,0:0:0:0:
467,189,190796,1,8,0:0:0:0:
450,57,190903,1,0,0:0:0:0:
467,189,191010,1,8,0:0:0:0:
467,189,191117,1,8,0:0:0:0:
477,121,191224,1,4,0:0:0:0:
450,57,191653,1,0,0:0:0:0:
450,57,191867,1,0,0:0:0:0:
450,57,191974,1,0,0:0:0:0:
467,189,192081,1,8,0:0:0:0:
450,57,192296,1,0,0:0:0:0:
467,189,192403,1,8,0:0:0:0:
450,57,192510,1,0,0:0:0:0:
467,189,192724,1,8,0:0:0:0:
467,189,192831,1,8,0:0:0:0:
477,121,192939,1,4,0:0:0:0:
450,57,193153,1,0,0:0:0:0:
450,57,193260,1,0,0:0:0:0:
467,189,193367,1,8,0:0:0:0:
467,189,193581,1,8,0:0:0:0:
467,189,193796,1,8,0:0:0:0:
450,57,193903,1,0,0:0:0:0:
467,189,194010,1,8,0:0:0:0:
467,189,194117,1,8,0:0:0:0:
450,57,194224,1,0,0:0:0:0:
450,57,194439,1,0,0:0:0:0:
467,189,194653,1,8,0:0:0:0:
467,189,195081,1,8,0:0:0:0:
450,57,195296,1,0,0:0:0:0:
467,189,195510,1,8,0:0:0:0:
467,189,195939,1,8,0:0:0:0:
450,57,196046,1,0,0:0:0:0:
450,57,196153,1,0,0:0:0:0:
450,57,196260,1,0,0:0:0:0:
467,189,196367,1,8,0:0:0:0:
450,57,196581,1,0,0:0:0:0:
450,57,196689,1,0,0:0:0:0:
467,189,196796,1,8,0:0:0:0:
467,189,197010,1,8,0:0:0:0:
467,189,197224,1,8,0:0:0:0:
450,57,197331,1,0,0:0:0:0:
467,189,197439,1,8,0:0:0:0:
467,189,197546,1,8,0:0:0:0:
450,57,197653,1,0,0:0:0:0:
450,57,197867,1,0,0:0:0:0:
467,189,198081,1,8,0:0:0:0:
467,189,198296,1,8,0:0:0:0:
467,189,198403,1,8,0:0:0:0:
450,57,198510,1,0,0:0:0:0:
450,57,198724,1,0,0:0:0:0:
450,57,198939,1,0,0:0:0:0:
467,189,199153,1,8,0:0:0:0:
450,57,199367,1,0,0:0:0:0:
450,57,199474,1,0,0:0:0:0:
467,189,199581,1,8,0:0:0:0:
450,57,199796,1,0,0:0:0:0:
450,57,200010,1,0,0:0:0:0:
450,57,200117,1,0,0:0:0:0:
467,189,200224,1,8,0:0:0:0:
450,57,200439,1,0,0:0:0:0:
450,57,200653,1,0,0:0:0:0:
467,189,200760,1,8,0:0:0:0:
450,57,200867,1,0,0:0:0:0:
450,57,200974,1,0,0:0:0:0:
467,189,201081,1,8,0:0:0:0:
467,189,201296,1,8,0:0:0:0:
467,189,201403,1,8,0:0:0:0:
450,57,201510,1,0,0:0:0:0:
467,189,201939,1,8,0:0:0:0:
450,57,202153,1,0,0:0:0:0:
467,189,202367,1,8,0:0:0:0:
467,189,202796,1,8,0:0:0:0:
467,189,202903,1,8,0:0:0:0:
467,189,203010,1,8,0:0:0:0:
450,57,203224,1,0,0:0:0:0:
467,189,203439,1,8,0:0:0:0:
450,57,203546,1,0,0:0:0:0:
450,57,203653,1,0,0:0:0:0:
467,189,203867,1,8,0:0:0:0:
467,189,204081,1,8,0:0:0:0:
467,189,204296,1,8,0:0:0:0:
467,189,204403,1,8,0:0:0:0:
450,57,204510,1,0,0:0:0:0:
467,189,204724,1,8,0:0:0:0:
477,121,204939,1,12,0:0:0:0:
477,121,205367,1,12,0:0:0:0:
477,121,205796,1,12,0:0:0:0:
450,57,206010,1,0,0:0:0:0:
467,189,206117,1,8,0:0:0:0:
450,57,206224,1,0,0:0:0:0:
450,57,206439,1,0,0:0:0:0:
477,121,206653,1,12,0:0:0:0:
467,189,206867,1,8,0:0:0:0:
450,57,206974,1,0,0:0:0:0:
467,189,207081,1,8,0:0:0:0:
467,189,207189,1,8,0:0:0:0:
450,57,207296,1,0,0:0:0:0:
467,189,207510,1,8,0:0:0:0:
467,189,207724,1,8,0:0:0:0:
467,189,207831,1,8,0:0:0:0:
467,189,207939,1,8,0:0:0:0:
467,189,208153,1,8,0:0:0:0:
450,57,208367,1,0,0:0:0:0:
450,57,208581,1,0,0:0:0:0:
450,57,208689,1,0,0:0:0:0:
467,189,208796,1,8,0:0:0:0:
467,189,208903,1,8,0:0:0:0:
450,57,209010,1,0,0:0:0:0:
467,189,209224,1,8,0:0:0:0:
450,57,209439,1,0,0:0:0:0:
450,57,209546,1,0,0:0:0:0:
467,189,209653,1,8,0:0:0:0:
450,57,209760,1,0,0:0:0:0:
467,189,209867,1,8,0:0:0:0:
450,57,210296,1,0,0:0:0:0:
450,57,210403,1,0,0:0:0:0:
450,57,210510,1,0,0:0:0:0:
450,57,210724,1,0,0:0:0:0:
467,189,210939,1,8,0:0:0:0:
450,57,211046,1,0,0:0:0:0:
467,189,211153,1,8,0:0:0:0:
467,189,211260,1,8,0:0:0:0:
450,57,211367,1,0,0:0:0:0:
450,57,211581,1,0,0:0:0:0:
467,189,211796,1,8,0:0:0:0:
467,189,212010,1,8,0:0:0:0:
467,189,212117,1,8,0:0:0:0:
450,57,212224,1,0,0:0:0:0:
467,189,212331,1,8,0:0:0:0:
450,57,212439,1,0,0:0:0:0:
467,189,212653,1,8,0:0:0:0:
467,189,212760,1,8,0:0:0:0:
467,189,212867,1,8,0:0:0:0:
467,189,212974,1,8,0:0:0:0:
450,57,213081,1,0,0:0:0:0:
450,57,213296,1,0,0:0:0:0:
467,189,213510,1,8,0:0:0:0:
450,57,213617,1,0,0:0:0:0:
450,57,213724,1,0,0:0:0:0:
450,57,213831,1,0,0:0:0:0:
467,189,213939,1,8,0:0:0:0:
450,57,214153,1,0,0:0:0:0:
467,189,214367,1,8,0:0:0:0:
450,57,214581,1,0,0:0:0:0:
450,57,214689,1,0,0:0:0:0:
467,189,214796,1,8,0:0:0:0:
450,57,215010,1,0,0:0:0:0:
467,189,215224,1,8,0:0:0:0:
467,189,215331,1,8,0:0:0:0:
450,57,215439,1,0,0:0:0:0:
450,57,215546,1,0,0:0:0:0:
467,189,215653,1,8,0:0:0:0:
467,189,215867,1,8,0:0:0:0:
450,57,216081,1,0,0:0:0:0:
450,57,216296,1,0,0:0:0:0:
450,57,216403,1,0,0:0:0:0:
467,189,216510,1,8,0:0:0:0:
467,189,216724,1,8,0:0:0:0:
477,121,216939,1,4,0:0:0:0:
467,189,217153,1,8,0:0:0:0:
450,57,217260,1,0,0:0:0:0:
467,189,217367,1,8,0:0:0:0:
450,57,217581,1,0,0:0:0:0:
467,189,217796,1,8,0:0:0:0:
467,189,217903,1,8,0:0:0:0:
450,57,218010,1,0,0:0:0:0:
450,57,218117,1,0,0:0:0:0:
467,189,218224,1,8,0:0:0:0:
450,57,218439,1,0,0:0:0:0:
467,189,218653,1,8,0:0:0:0:
450,57,219081,1,0,0:0:0:0:
450,57,219296,1,0,0:0:0:0:
467,189,219510,1,8,0:0:0:0:
467,189,219617,1,8,0:0:0:0:
450,57,219724,1,0,0:0:0:0:
450,57,219831,1,0,0:0:0:0:
450,57,219939,1,8,0:0:0:0:
450,57,220046,1,8,0:0:0:0:
450,57,220153,1,0,0:0:0:0:
477,121,220367,1,12,0:0:0:0:
450,57,220581,1,0,0:0:0:0:
450,57,220689,1,0,0:0:0:0:
467,189,220796,1,8,0:0:0:0:
450,57,220903,1,0,0:0:0:0:
467,189,221010,1,8,0:0:0:0:
450,57,221224,1,0,0:0:0:0:
450,57,221439,1,0,0:0:0:0:
450,57,221546,1,0,0:0:0:0:
467,189,221653,1,8,0:0:0:0:
450,57,221867,1,0,0:0:0:0:
467,189,222081,1,8,0:0:0:0:
467,189,222296,1,8,0:0:0:0:
467,189,222403,1,8,0:0:0:0:
450,57,222510,1,0,0:0:0:0:
467,189,222617,1,8,0:0:0:0:
450,57,222724,1,0,0:0:0:0:
467,189,222939,1,8,0:0:0:0:
450,57,223153,1,0,0:0:0:0:
450,57,223260,1,0,0:0:0:0:
467,189,223367,1,8,0:0:0:0:
450,57,223581,1,0,0:0:0:0:
450,57,224010,1,0,0:0:0:0:
450,57,224117,1,0,0:0:0:0:
450,57,224224,1,0,0:0:0:0:
450,57,224439,1,0,0:0:0:0:
467,189,224653,1,8,0:0:0:0:
450,57,224760,1,0,0:0:0:0:
467,189,224867,1,8,0:0:0:0:
467,189,224974,1,8,0:0:0:0:
450,57,225081,1,0,0:0:0:0:
450,57,225296,1,0,0:0:0:0:
467,189,225510,1,8,0:0:0:0:
467,189,225724,1,8,0:0:0:0:
467,189,225831,1,8,0:0:0:0:
450,57,225939,1,0,0:0:0:0:
467,189,226046,1,8,0:0:0:0:
450,57,226153,1,0,0:0:0:0:
467,189,226367,1,8,0:0:0:0:
467,189,226474,1,8,0:0:0:0:
467,189,226581,1,8,0:0:0:0:
467,189,226689,1,8,0:0:0:0:
450,57,226796,1,0,0:0:0:0:
450,57,227010,1,0,0:0:0:0:
467,189,227224,1,8,0:0:0:0:
450,57,227331,1,0,0:0:0:0:
467,189,227439,1,8,0:0:0:0:
467,189,227546,1,8,0:0:0:0:
450,57,227653,1,0,0:0:0:0:
450,57,227867,1,0,0:0:0:0:
467,189,228081,1,8,0:0:0:0:
450,57,228296,1,0,0:0:0:0:
467,189,228403,1,8,0:0:0:0:
450,57,228510,1,0,0:0:0:0:
467,189,228724,1,0,0:0:0:0:
450,57,228939,1,8,0:0:0:0:
467,189,229046,1,8,0:0:0:0:
450,57,229153,1,0,0:0:0:0:
450,57,229260,1,0,0:0:0:0:
467,189,229367,1,8,0:0:0:0:
467,189,229581,1,8,0:0:0:0:
450,57,229796,1,0,0:0:0:0:
450,57,230010,1,0,0:0:0:0:
450,57,230117,1,0,0:0:0:0:
467,189,230224,1,8,0:0:0:0:
450,57,230439,1,0,0:0:0:0:
467,189,230653,1,8,0:0:0:0:
477,121,230867,1,4,0:0:0:0:
477,121,231296,1,4,0:0:0:0:
477,121,231510,1,12,0:0:0:0:
467,189,231724,1,8,0:0:0:0:
477,121,231939,1,4,0:0:0:0:
450,57,232153,1,0,0:0:0:0:
477,121,232367,1,12,0:0:0:0:
450,57,232796,1,0,0:0:0:0:
467,189,232903,1,8,0:0:0:0:
450,57,233010,1,0,0:0:0:0:
467,189,233224,1,8,0:0:0:0:
467,189,233331,1,8,0:0:0:0:
450,57,233439,1,0,0:0:0:0:
450,57,233546,1,0,0:0:0:0:
467,189,233653,1,8,0:0:0:0:
467,189,233760,1,8,0:0:0:0:
450,57,233867,1,0,0:0:0:0:
477,121,234081,1,12,0:0:0:0:
450,57,234296,1,0,0:0:0:0:
467,189,234510,1,8,0:0:0:0:
467,189,234724,1,8,0:0:0:0:
450,57,234939,1,0,0:0:0:0:
467,189,235153,1,8,0:0:0:0:
467,189,235367,1,8,0:0:0:0:
467,189,235581,1,8,0:0:0:0:
450,57,235796,1,0,0:0:0:0:
450,57,236010,1,0,0:0:0:0:
467,189,236224,1,8,0:0:0:0:
450,57,236439,1,0,0:0:0:0:
467,189,236653,1,8,0:0:0:0:
467,189,236760,1,8,0:0:0:0:
450,57,236867,1,0,0:0:0:0:
467,189,237081,1,8,0:0:0:0:
467,189,237189,1,8,0:0:0:0:
450,57,237296,1,0,0:0:0:0:
467,189,237403,1,8,0:0:0:0:
450,57,237510,1,0,0:0:0:0:
467,189,237939,1,8,0:0:0:0:
467,189,238153,1,8,0:0:0:0:
450,57,238367,1,0,0:0:0:0:
450,57,238581,1,0,0:0:0:0:
467,189,238796,1,8,0:0:0:0:
450,57,239010,1,0,0:0:0:0:
467,189,239224,1,8,0:0:0:0:
467,189,239439,1,8,0:0:0:0:
450,57,239653,1,0,0:0:0:0:
467,189,239867,1,8,0:0:0:0:
450,57,240081,1,0,0:0:0:0:
450,57,240296,1,0,0:0:0:0:
467,189,240367,1,8,0:0:0:0:
467,189,240439,1,8,0:0:0:0:
450,57,240510,1,0,0:0:0:0:
450,57,240724,1,0,0:0:0:0:
467,189,240939,1,8,0:0:0:0:
450,57,241153,1,0,0:0:0:0:
467,189,241367,1,8,0:0:0:0:
467,189,241581,1,8,0:0:0:0:
450,57,241796,1,0,0:0:0:0:
467,189,242010,1,8,0:0:0:0:
467,189,242224,1,8,0:0:0:0:
467,189,242439,1,8,0:0:0:0:
450,57,242653,1,0,0:0:0:0:
450,57,242867,1,0,0:0:0:0:
467,189,243081,1,8,0:0:0:0:
450,57,243296,1,0,0:0:0:0:
467,189,243510,1,8,0:0:0:0:
467,189,243617,1,8,0:0:0:0:
450,57,243724,1,0,0:0:0:0:
467,189,243939,1,8,0:0:0:0:
467,189,244046,1,8,0:0:0:0:
450,57,244153,1,0,0:0:0:0:
467,189,244260,1,8,0:0:0:0:
450,57,244367,1,0,0:0:0:0:
467,189,244796,1,8,0:0:0:0:
467,189,245010,1,8,0:0:0:0:
450,57,245224,1,0,0:0:0:0:
450,57,245439,1,0,0:0:0:0:
467,189,245653,1,8,0:0:0:0:
450,57,245867,1,0,0:0:0:0:
450,57,245974,1,0,0:0:0:0:
467,189,246081,1,8,0:0:0:0:
467,189,246296,1,8,0:0:0:0:
450,57,246510,1,0,0:0:0:0:
467,189,246724,1,8,0:0:0:0:
467,189,246939,1,8,0:0:0:0:
450,57,247153,1,0,0:0:0:0:
450,57,247260,1,0,0:0:0:0:
467,189,247367,1,8,0:0:0:0:
450,57,247474,1,0,0:0:0:0:
450,57,247581,1,0,0:0:0:0:
450,57,247689,1,0,0:0:0:0:
477,121,247796,1,12,0:0:0:0:
450,57,248010,1,0,0:0:0:0:
450,57,248117,1,0,0:0:0:0:
467,189,248224,1,8,0:0:0:0:
450,57,248439,1,0,0:0:0:0:
467,189,248653,1,8,0:0:0:0:
450,57,248760,1,0,0:0:0:0:
467,189,248867,1,8,0:0:0:0:
467,189,249296,1,8,0:0:0:0:
450,57,249510,1,0,0:0:0:0:
450,57,249724,1,0,0:0:0:0:
450,57,249831,1,0,0:0:0:0:
467,189,249939,1,8,0:0:0:0:
467,189,250153,1,8,0:0:0:0:
450,57,250367,1,0,0:0:0:0:
467,189,250581,1,8,0:0:0:0:
450,57,250689,1,0,0:0:0:0:
467,189,250796,1,8,0:0:0:0:
467,189,250903,1,8,0:0:0:0:
450,57,251010,1,0,0:0:0:0:
450,57,251224,1,8,0:0:0:0:
450,57,251439,1,0,0:0:0:0:
450,57,251546,1,0,0:0:0:0:
467,189,251653,1,8,0:0:0:0:
450,57,251867,1,0,0:0:0:0:
467,189,252081,1,8,0:0:0:0:
450,57,252296,1,0,0:0:0:0:
450,57,252403,1,0,0:0:0:0:
450,57,252510,1,0,0:0:0:0:
450,57,252724,1,0,0:0:0:0:
467,189,252939,1,8,0:0:0:0:
450,57,253153,1,0,0:0:0:0:
467,189,253260,1,8,0:0:0:0:
450,57,253367,1,0,0:0:0:0:
450,57,253581,1,0,0:0:0:0:
450,57,253689,1,0,0:0:0:0:
467,189,253796,1,8,0:0:0:0:
467,189,254010,1,8,0:0:0:0:
467,189,254117,1,8,0:0:0:0:
450,57,254224,1,0,0:0:0:0:
450,57,254439,1,0,0:0:0:0:
467,189,254653,1,8,0:0:0:0:
450,57,255081,1,0,0:0:0:0:
450,57,255296,1,0,0:0:0:0:
450,57,255403,1,0,0:0:0:0:
467,189,255510,1,8,0:0:0:0:
450,57,255617,1,0,0:0:0:0:
467,189,255724,1,8,0:0:0:0:
467,189,256153,1,8,0:0:0:0:
467,189,256367,1,8,0:0:0:0:
450,57,256581,1,0,0:0:0:0:
450,57,256689,1,0,0:0:0:0:
467,189,256796,1,8,0:0:0:0:
467,189,257010,1,8,0:0:0:0:
450,57,257224,1,0,0:0:0:0:
450,57,257439,1,0,0:0:0:0:
467,189,257546,1,8,0:0:0:0:
450,57,257653,1,0,0:0:0:0:
450,57,257867,1,0,0:0:0:0:
477,121,258081,1,4,0:0:0:0:
467,189,258296,1,8,0:0:0:0:
467,189,258403,1,8,0:0:0:0:
467,189,258510,1,8,0:0:0:0:
450,57,258724,1,0,0:0:0:0:
450,57,258939,1,0,0:0:0:0:
467,189,259153,1,8,0:0:0:0:
467,189,259367,1,8,0:0:0:0:
450,57,259581,1,0,0:0:0:0:
477,121,259796,1,12,0:0:0:0:
467,189,260010,1,8,0:0:0:0:
450,57,260224,1,0,0:0:0:0:
450,57,260439,1,0,0:0:0:0:
467,189,260653,1,8,0:0:0:0:
450,57,260867,1,0,0:0:0:0:
467,189,260939,1,8,0:0:0:0:
467,189,261010,1,8,0:0:0:0:
450,57,261081,1,0,0:0:0:0:
467,189,261296,1,8,0:0:0:0:
450,57,261510,1,0,0:0:0:0:
