osu file format v14

[General]
AudioFilename: audio.mp3
AudioLeadIn: 0
PreviewTime: 91685
Countdown: 0
SampleSet: Soft
StackLeniency: 0.3
Mode: 0
LetterboxInBreaks: 0
WidescreenStoryboard: 1

[Editor]
DistanceSpacing: 1.3
BeatDivisor: 2
GridSize: 32
TimelineZoom: 2.1

[Metadata]
Title:Yousei no Kiri
TitleUnicode:妖精の霧
Artist:Kikuo
ArtistUnicode:きくお
Creator:Vararaup
Version:Hard
Source:
Tags:fairy of the mist featured artist fa kikuoworld 黄菊しーく si_ku.k folk electronic Instrumental damnjelly
BeatmapID:3934701
BeatmapSetID:1880072

[Difficulty]
HPDrainRate:5
CircleSize:5
OverallDifficulty:6
ApproachRate:6
SliderMultiplier:1.1
SliderTickRate:1

[Events]
//Background and Video events
0,0,"C9NRMdRUQAARN5R.jpg",0,0
//Break Periods
//Storyboard Layer 0 (Background)
//Storyboard Layer 1 (Fail)
//Storyboard Layer 2 (Pass)
//Storyboard Layer 3 (Foreground)
//Storyboard Layer 4 (Overlay)
//Storyboard Sound Samples

[TimingPoints]
1779,375,4,2,1,40,1,0
1779,-100,4,2,1,40,0,0
13779,-100,4,2,1,40,0,0
25779,-166.666666666667,4,2,1,40,0,0
35154,-100,4,2,1,5,0,0
36279,-90.9090909090909,4,2,1,60,0,1
48279,-100,4,2,1,40,0,0
60279,-100,4,2,1,40,0,0
62029,-83.3333333333333,4,2,1,40,0,0
67779,-100,4,2,1,40,0,0
79779,-100,4,2,1,30,0,0
91779,-90.9090909090909,4,2,1,60,0,1
115779,-100,4,2,1,40,0,0

[Colours]
Combo1 : 213,210,255
Combo2 : 255,210,232

[HitObjects]
53,230,1779,5,2,0:0:0:0:
52,306,1966,2,0,P|27:322|13:347,2,55,2|2|2,0:0|0:0|0:0,0:0:0:0:
125,276,2529,1,4,0:2:0:0:
125,276,2716,1,2,0:0:0:0:
203,295,2904,1,2,0:0:0:0:
203,295,3091,1,2,0:0:0:0:
262,351,3279,6,0,P|286:350|313:337,1,55,2|2,0:0|0:0,0:0:0:0:
343,265,3654,2,0,P|335:242|314:220,1,55,2|2,0:0|0:0,0:0:0:0:
237,210,4029,1,6,0:2:0:0:
203,140,4216,1,2,0:0:0:0:
252,80,4404,1,2,0:0:0:0:
325,102,4591,2,0,P|349:113|377:114,1,55,2|2,0:0|0:0,0:0:0:0:
446,79,4966,6,0,P|447:51|446:24,2,55,2|2|2,0:0|0:0|0:0,0:0:0:0:
453,159,5529,1,6,0:2:0:0:
453,159,5716,1,2,0:0:0:0:
386,195,5904,1,2,0:0:0:0:
386,195,6091,1,2,0:0:0:0:
388,272,6279,6,0,P|360:268|336:255,2,55,2|2|2,0:0|0:0|0:0,0:0:0:0:
458,240,6841,1,2,0:0:0:0:
501,304,7029,2,0,B|439:313|461:345|406:352,1,110,6|2,0:2|0:0,0:0:0:0:
263,322,7779,5,2,0:0:0:0:
195,358,7966,1,2,0:0:0:0:
125,325,8154,1,2,0:0:0:0:
117,248,8341,1,2,0:0:0:0:
174,196,8529,2,0,P|203:108|111:118,1,220,4|0,0:2|0:0,0:0:0:0:
111,119,9654,5,0,0:0:0:0:
38,241,10029,2,0,P|14:255|0:278,2,55,6|2|2,0:0|0:0|0:0,0:0:0:0:
165,306,10779,5,2,0:0:0:0:
233,339,10966,1,2,0:0:0:0:
302,306,11154,1,2,0:0:0:0:
311,229,11341,1,2,0:0:0:0:
254,176,11529,2,0,P|224:89|317:98,1,220,6|0,0:2|0:0,0:0:0:0:
317,98,12654,5,0,0:0:0:0:
385,221,13029,2,0,P|408:237|435:243,2,55,6|2|2,0:0|0:0|0:0,0:0:0:0:
423,81,13779,6,0,P|424:53|413:28,1,55,2|0,0:0|0:0,0:0:0:0:
498,122,14154,2,0,P|496:94|507:69,1,55,2|0,0:0|0:0,0:0:0:0:
429,162,14529,2,0,P|406:147|379:142,1,55,2|0,0:0|0:0,0:0:0:0:
310,174,14904,1,2,0:0:0:0:
310,174,15091,1,2,0:0:0:0:
261,113,15279,6,0,P|261:85|261:58,1,55,2|2,0:0|0:0,0:0:0:0:
204,20,15654,1,2,0:0:0:0:
204,20,15747,1,2,0:0:0:0:
204,20,15841,1,2,0:0:0:0:
145,70,16029,2,0,B|86:65|107:29|49:25,1,110,2|2,0:0|0:0,0:0:0:0:
93,160,16779,6,0,P|103:185|102:212,1,55,2|0,0:0|0:0,0:0:0:0:
26,227,17154,2,0,P|15:201|16:174,1,55,2|0,0:0|0:0,0:0:0:0:
41,101,17529,1,2,0:0:0:0:
145,70,17810,1,2,0:0:0:0:
145,70,17904,2,0,P|172:68|199:69,1,55,2|2,0:0|0:0,0:0:0:0:
277,69,18279,5,2,0:0:0:0:
317,134,18466,1,2,0:0:0:0:
286,208,18654,1,2,0:0:0:0:
286,208,18747,1,2,0:0:0:0:
286,208,18841,1,2,0:0:0:0:
208,205,19029,2,0,P|171:245|172:298,1,110,2|2,0:0|0:0,0:0:0:0:
309,315,19779,6,0,B|269:300|223:323|244:352|207:375|165:370,1,165,2|0,0:0|0:0,0:0:0:0:
108,325,20529,1,2,0:0:0:0:
24,214,20904,1,2,0:0:0:0:
24,214,21091,1,2,0:0:0:0:
79,159,21279,2,0,B|88:105|88:105|57:59,1,110,2|2,0:0|0:0,0:0:0:0:
197,33,22029,2,0,B|188:87|188:87|219:133,1,110,2|2,0:0|0:0,0:0:0:0:
269,201,22591,5,2,0:0:0:0:
269,201,22685,1,2,0:0:0:0:
269,201,22779,2,0,P|275:230|270:256,1,55,2|0,0:2|0:0,0:0:0:0:
201,290,23154,2,0,P|216:312|239:328,1,55
316,323,23529,2,0,P|340:309|367:305,1,55
444,329,23904,1,0,0:0:0:0:
444,329,24091,1,0,0:0:0:0:
423,252,24279,6,0,P|421:234|417:217,2,36.6666666666667,4|0|0,0:2|0:0|0:0,0:0:0:0:
481,195,24654,2,0,P|483:176|487:159,2,36.6666666666667
423,137,25029,2,0,P|420:117|416:101,2,36.6666666666667,4|0|0,0:2|0:0|0:0,0:0:0:0:
480,79,25404,2,0,P|482:60|486:43,2,36.6666666666667
416,32,25779,6,0,B|372:25|338:74|345:107|345:107|367:217,1,230.99999295044,2|0,3:2|0:0,0:0:0:0:
411,274,27279,2,0,P|381:287|348:287,1,65.9999979858399,0|0,3:0|3:0,0:0:0:0:
252,184,28029,2,0,P|278:203|294:232,1,65.9999979858399,0|0,3:0|0:0,0:0:0:0:
228,329,28779,6,0,B|181:330|141:289|150:239|150:239|123:256|91:253,1,197.99999395752,0|0,3:0|0:0,0:0:0:0:
12,320,30279,2,0,P|14:287|12:254,1,65.9999979858399,0|0,3:0|3:0,0:0:0:0:
105,180,31029,2,0,P|104:146|105:114,1,65.9999979858399,0|0,3:0|0:0,0:0:0:0:
33,18,31779,5,0,3:0:0:0:
213,31,32341,1,0,3:0:0:0:
213,31,32529,1,0,3:0:0:0:
393,47,33091,1,0,0:0:0:0:
393,47,33279,1,0,3:0:0:0:
381,227,33841,1,0,3:0:0:0:
381,227,34029,1,0,3:0:0:0:
154,311,36279,5,2,3:2:0:0:
70,296,36466,2,0,P|70:326|80:354,2,60.5000018463135,0|2|0,0:0|0:2|0:0,0:0:0:0:
83,214,37029,1,2,0:2:0:0:
83,214,37216,1,0,3:2:0:0:
30,153,37404,1,2,3:2:0:0:
30,153,37591,1,0,3:2:0:0:
74,79,37779,6,0,P|75:49|74:19,1,60.5000018463135,2|0,3:2|0:0,0:0:0:0:
149,68,38154,2,0,P|147:98|149:128,1,60.5000018463135,2|0,0:2|0:0,0:0:0:0:
195,199,38529,1,2,0:2:0:0:
269,158,38716,1,0,3:2:0:0:
333,212,38904,1,2,3:2:0:0:
398,159,39091,2,0,P|403:129|396:100,1,60.5000018463135,0|2,3:2|3:2,0:0:0:0:
336,42,39466,6,0,P|305:43|275:42,2,60.5000018463135,0|2|0,0:0|0:2|0:0,0:0:0:0:
422,25,40029,1,2,0:2:0:0:
422,25,40216,1,0,3:2:0:0:
488,77,40404,1,2,3:2:0:0:
491,80,40591,1,0,3:2:0:0:
483,164,40779,6,0,P|481:194|482:224,2,60.5000018463135,2|0|2,3:2|0:0|0:2,0:0:0:0:
412,116,41341,1,0,0:0:0:0:
347,171,41529,2,0,P|316:169|286:170,2,60.5000018463135,2|0|2,3:2|0:0|0:2,0:0:0:0:
412,116,42091,1,0,0:0:0:0:
356,36,42279,5,2,3:2:0:0:
272,51,42466,1,0,0:0:0:0:
188,64,42654,1,2,0:2:0:0:
105,79,42841,1,0,0:0:0:0:
21,94,43029,2,0,P|22:63|20:33,2,60.5000018463135,2|0|2,0:2|3:2|3:2,0:0:0:0:
72,161,43591,1,0,3:2:0:0:
23,230,43779,6,0,P|24:290|23:350,1,121.000003692627,2|2,3:2|0:2,0:0:0:0:
108,371,44341,1,0,0:0:0:0:
108,371,44529,2,0,P|142:324|200:318,1,121.000003692627,2|2,0:2|3:2,0:0:0:0:
343,373,45279,5,2,3:2:0:0:
360,290,45466,1,0,0:0:0:0:
374,206,45654,1,2,0:2:0:0:
391,123,45841,1,0,0:0:0:0:
408,39,46029,2,0,P|438:38|468:38,2,60.5000018463135,2|0|2,0:2|3:2|3:2,0:0:0:0:
326,67,46591,1,0,3:2:0:0:
256,17,46779,6,0,P|258:78|256:138,1,121.000003692627,2|0,3:2|0:0,0:0:0:0:
259,226,47341,1,0,0:0:0:0:
259,226,47529,1,2,0:2:0:0:
178,251,47716,2,0,P|161:226|136:209,2,60.5000018463135,0|2|0,0:0|0:2|0:0,0:0:0:0:
236,354,48279,6,0,P|237:328|236:299,1,55,4|0,3:1|0:0,0:0:0:0:
311,354,48654,2,0,P|312:328|311:299,1,55,2|0,0:0|3:2,0:0:0:0:
386,354,49029,2,0,P|387:328|386:299,1,55,10|0,0:2|0:0,0:0:0:0:
464,358,49404,1,2,0:0:0:0:
464,358,49591,1,2,0:2:0:0:
500,290,49779,6,0,P|478:273|466:248,1,55,2|2,0:0|0:0,0:0:0:0:
474,178,50154,1,2,3:2:0:0:
474,178,50247,1,2,0:0:0:0:
474,178,50341,1,2,0:0:0:0:
479,101,50529,1,10,0:2:0:0:
358,24,50904,1,2,0:0:0:0:
256,124,51279,6,0,P|257:150|270:174,1,55,4|0,3:2|0:0,0:0:0:0:
345,155,51654,2,0,P|343:126|330:102,1,55,2|0,0:0|3:2,0:0:0:0:
276,48,52029,1,10,0:2:0:0:
174,27,52310,1,2,0:0:0:0:
174,27,52404,2,0,P|146:28|119:27,1,55,2|2,0:0|0:0,0:0:0:0:
41,31,52779,5,2,0:0:0:0:
35,107,52966,1,2,0:0:0:0:
37,190,53154,1,2,3:2:0:0:
37,190,53247,1,2,0:0:0:0:
37,190,53341,1,2,0:0:0:0:
85,249,53529,2,0,P|111:255|138:252,1,55,10|0,0:2|3:2,0:0:0:0:
197,201,53904,1,2,0:0:0:0:
264,237,54091,1,8,0:2:0:0:
319,183,54279,6,0,B|317:126|280:142|278:84,1,110,6|0,3:2|3:2,0:0:0:0:
406,21,55029,1,10,0:1:0:0:
489,136,55404,1,2,0:0:0:0:
489,136,55591,1,2,0:0:0:0:
416,162,55779,2,0,P|401:213|424:263,2,110,2|2|10,0:0|3:2|0:2,0:0:0:0:
416,162,56904,1,2,0:0:0:0:
484,214,57091,5,10,0:2:0:0:
484,214,57185,1,2,0:0:0:0:
484,214,57279,2,0,P|497:237|501:264,1,55,2|0,3:2|3:0,0:0:0:0:
472,336,57654,2,0,P|444:334|417:335,1,55,0|0,3:0|3:0,0:0:0:0:
361,281,58029,2,0,P|333:283|306:282,1,55,0|0,3:0|3:0,0:0:0:0:
245,329,58404,1,0,3:0:0:0:
103,348,58779,6,0,L|140:343,2,36.6666666666667,4|0|0,0:2|0:0|0:0,0:0:0:0:
95,278,59154,2,0,L|132:273,2,36.6666666666667
123,204,59529,2,0,L|85:208,2,36.6666666666667,4|0|0,0:2|0:0|0:0,0:0:0:0:
116,135,59904,2,0,L|78:139,2,36.6666666666667
112,61,60279,6,0,B|335:41|335:41|398:35|404:99|404:99|414:211,1,440,6|4,0:1|0:2,0:0:0:0:
394,333,62029,6,0,L|349:325,1,43.9999986572266,2|0,0:2|0:2,0:0:0:0:
280,312,62279,1,2,0:2:0:0:
273,300,62404,2,0,L|226:310,2,43.9999986572266,2|4|0,0:2|0:2|0:2,0:0:0:0:
326,253,62779,2,0,L|322:208,1,43.9999986572266,2|2,0:2|0:2,0:0:0:0:
233,38,63279,6,0,P|252:49|266:66,1,43.9999986572266,2|2,0:2|0:2,0:0:0:0:
308,122,63529,1,2,0:2:0:0:
309,135,63654,2,0,L|353:131,2,43.9999986572266,4|0|0,0:2|0:2|0:2,0:0:0:0:
238,133,64029,6,0,P|219:144|205:161,1,43.9999986572266,2|2,0:2|0:2,0:0:0:0:
166,219,64279,1,2,0:2:0:0:
165,232,64404,2,0,L|121:228,2,43.9999986572266,4|0|0,0:2|0:2|0:2,0:0:0:0:
235,236,64779,6,0,L|278:239,2,43.9999986572266,2|2|2,0:2|0:2|0:2,0:0:0:0:
230,306,65154,2,0,L|273:309,2,43.9999986572266,4|0|0,0:2|0:2|0:2,0:0:0:0:
174,350,65529,6,0,P|132:359|91:344,1,87.9999973144532,2|2,0:2|0:2,0:0:0:0:
21,347,65904,2,0,P|33:305|66:277,1,87.9999973144532,2|2,0:2|0:2,0:0:0:0:
136,261,66279,1,2,0:2:0:0:
9,101,67779,6,0,P|31:86|45:62,1,55,2|0,3:2|0:0,0:0:0:0:
122,53,68154,2,0,P|139:74|163:85,1,55,2|0,0:2|0:0,0:0:0:0:
240,76,68529,1,2,0:2:0:0:
282,13,68716,1,0,0:0:0:0:
282,13,68904,2,0,P|301:32|313:57,1,55,2|0,3:2|3:2,0:0:0:0:
296,131,69279,6,0,P|255:166|247:220,1,110,2|2,3:2|0:2,0:0:0:0:
298,277,69841,1,0,3:2:0:0:
376,264,70029,1,2,3:2:0:0:
376,264,70216,2,0,P|374:291|375:318,2,55,0|2|0,3:2|3:2|3:2,0:0:0:0:
437,217,70779,2,0,P|435:162|436:107,2,110,2|2|10,3:2|3:2|0:1,0:0:0:0:
499,261,71716,1,0,0:0:0:0:
487,337,71904,2,0,P|462:349|435:351,1,55,2|0,3:2|3:2,0:0:0:0:
381,296,72279,6,0,P|326:297|271:296,1,110,2|2,3:2|0:2,0:0:0:0:
210,344,72841,1,0,3:2:0:0:
150,301,73029,1,2,3:2:0:0:
150,301,73216,2,0,P|138:326|118:344,2,55,0|2|0,3:2|3:2|3:2,0:0:0:0:
157,225,73779,6,0,P|158:195|157:170,1,55,2|0,3:2|0:0,0:0:0:0:
81,226,74154,2,0,P|79:253|81:280,1,55,2|0,0:2|0:0,0:0:0:0:
5,226,74529,1,2,0:2:0:0:
38,158,74716,1,0,0:0:0:0:
38,158,74904,2,0,P|63:148|83:129,1,55,2|0,3:2|3:2,0:0:0:0:
91,52,75279,6,0,B|149:57|132:92|187:98,1,110,2|2,3:2|0:2,0:0:0:0:
256,63,75841,1,0,0:0:0:0:
315,119,76029,1,2,0:2:0:0:
315,119,76216,2,0,P|330:96|337:70,2,55,0|2|0,3:2|3:2|3:2,0:0:0:0:
242,145,76779,6,0,P|242:172|242:200,1,55,2|0,3:2|0:0,0:0:0:0:
316,250,77154,2,0,P|315:222|316:195,1,55,2|0,0:2|0:0,0:0:0:0:
384,158,77529,1,2,0:2:0:0:
452,201,77716,1,0,0:0:0:0:
452,201,77904,2,0,P|462:175|463:148,1,55,2|0,3:2|3:2,0:0:0:0:
490,76,78279,6,0,P|436:76|395:40,1,110,2|2,0:2|0:2,0:0:0:0:
335,90,78841,2,0,P|313:104|286:109,1,55,0|2,3:2|3:2,0:0:0:0:
226,74,79216,1,0,3:2:0:0:
226,74,79404,1,2,3:2:0:0:
226,74,79591,1,0,3:2:0:0:
151,92,79779,6,0,P|123:47|71:31,2,110,4|2|2,0:2|0:0|0:0,0:0:0:0:
151,92,80904,1,2,0:0:0:0:
76,109,81091,1,2,0:0:0:0:
90,183,81279,6,0,P|86:210|72:234,1,55,2|2,0:0|0:0,0:0:0:0:
11,278,81654,1,2,0:0:0:0:
11,278,81747,1,2,0:0:0:0:
11,278,81841,1,2,0:0:0:0:
35,351,82029,2,0,P|77:316|131:315,1,110,2|2,0:0|0:0,0:0:0:0:
247,231,82779,6,0,B|252:176|286:190|291:132,2,110,2|2|2,0:0|0:0|0:0,0:0:0:0:
324,308,83810,1,2,0:0:0:0:
324,308,83904,2,0,P|351:304|374:288,1,55,2|2,0:0|0:0,0:0:0:0:
386,210,84279,6,0,P|385:182|385:155,1,55,2|2,0:0|0:0,0:0:0:0:
385,82,84654,1,2,0:0:0:0:
324,44,84841,1,2,0:0:0:0:
260,77,85029,2,0,P|246:129|273:175,1,110,2|2,0:0|0:0,0:0:0:0:
273,175,85779,1,2,0:0:0:0:
486,49,86529,5,2,0:0:0:0:
444,187,86904,1,2,0:0:0:0:
444,187,87091,1,2,0:0:0:0:
482,254,87279,2,0,B|466:261|449:263|449:263|462:338,1,110,2|2,0:0|0:0,0:0:0:0:
339,277,88029,2,0,B|356:278|373:274|373:274|385:349,1,110,2|2,0:0|0:0,0:0:0:0:
314,348,88591,5,2,0:0:0:0:
314,348,88685,1,2,0:0:0:0:
314,348,88779,2,0,B|286:336|270:306|270:306|236:351|168:354|132:317|132:317|114:299|108:271|108:271|81:288|52:286,1,330,2|0,0:2|0:0,0:0:0:0:
43,151,90279,6,0,L|6:147,5,36.6666666666667,4|0|0|0|0|0,0:2|0:0|0:0|0:0|0:0|0:0,0:0:0:0:
49,83,91029,2,0,L|12:79,5,36.6666666666667,4|0|0|0|0|0,0:2|0:0|0:0|0:0|0:0|0:0,0:0:0:0:
56,14,91779,5,6,3:1:0:0:
128,55,91966,2,0,P|145:29|170:14,2,60.5000018463135,0|2|0,0:0|0:2|3:2,0:0:0:0:
125,142,92529,1,10,0:2:0:0:
125,142,92716,1,0,0:0:0:0:
213,149,92904,1,2,0:2:0:0:
213,149,93091,1,0,0:0:0:0:
263,80,93279,6,0,P|264:50|263:19,1,60.5000018463135,2|0,0:2|0:0,0:0:0:0:
341,75,93654,2,0,P|340:105|341:135,1,60.5000018463135,2|0,3:2|0:0,0:0:0:0:
342,220,94029,1,10,0:2:0:0:
420,251,94216,1,0,3:2:0:0:
422,335,94404,1,2,0:2:0:0:
343,366,94591,2,0,P|315:354|294:333,1,60.5000018463135,8|2,0:2|3:2,0:0:0:0:
261,254,94966,6,0,P|230:252|200:253,2,60.5000018463135,0|2|0,0:0|0:2|3:2,0:0:0:0:
342,220,95529,1,10,0:2:0:0:
342,220,95716,1,0,0:0:0:0:
341,135,95904,1,2,0:2:0:0:
341,135,96091,1,0,0:0:0:0:
417,98,96279,6,0,P|442:113|472:114,2,60.5000018463135,2|0|2,0:2|0:0|3:2,0:0:0:0:
350,44,96841,1,0,0:0:0:0:
272,79,97029,2,0,B|206:73|232:35|167:25,1,121.000003692627,10|2,0:2|0:2,0:0:0:0:
72,100,97779,5,2,3:2:0:0:
156,105,97966,1,0,0:0:0:0:
192,181,98154,1,2,0:2:0:0:
147,253,98341,1,0,3:2:0:0:
62,248,98529,2,0,P|3:328|101:331,1,242.000007385254,10|2,0:2|0:2,0:0:0:0:
101,332,99654,1,2,3:2:0:0:
246,272,100029,2,0,P|244:241|246:211,2,60.5000018463135,10|0|2,0:2|3:2|0:2,0:0:0:0:
380,346,100779,5,2,3:2:0:0:
464,341,100966,1,0,0:0:0:0:
500,265,101154,1,2,0:2:0:0:
455,193,101341,1,0,3:2:0:0:
370,197,101529,2,0,P|311:116|409:113,1,242.000007385254,10|2,0:2|0:2,0:0:0:0:
408,112,102654,1,2,3:2:0:0:
282,19,103029,2,0,P|251:20|223:9,2,60.5000018463135,10|0|2,0:2|3:2|0:2,0:0:0:0:
479,67,103779,5,2,3:2:0:0:
408,112,103966,2,0,P|409:81|407:51,2,60.5000018463135,0|2|0,0:0|0:2|3:2,0:0:0:0:
366,188,104529,1,10,0:2:0:0:
366,188,104716,1,0,0:0:0:0:
284,198,104904,1,2,0:2:0:0:
284,198,105091,1,0,0:0:0:0:
232,265,105279,6,0,P|202:270|172:263,1,60.5000018463135,2|0,0:2|0:0,0:0:0:0:
127,193,105654,2,0,P|134:164|152:139,1,60.5000018463135,2|0,3:2|0:0,0:0:0:0:
234,120,106029,1,10,0:2:0:0:
217,37,106216,1,0,3:2:0:0:
133,53,106404,1,2,0:2:0:0:
53,23,106591,6,0,P|54:54|53:84,1,60.5000018463135,8|2,0:2|3:2,0:0:0:0:
45,168,106966,2,0,P|19:184|4:210,2,60.5000018463135,0|2|0,0:0|0:2|3:2,0:0:0:0:
127,193,107529,1,10,0:2:0:0:
127,193,107716,1,0,0:0:0:0:
110,278,107904,1,2,0:2:0:0:
110,278,108091,1,0,0:0:0:0:
184,317,108279,6,0,P|186:347|185:377,2,60.5000018463135,2|0|2,0:2|0:0|3:2,0:0:0:0:
255,269,108841,1,0,0:0:0:0:
320,324,109029,2,0,P|351:322|381:323,2,60.5000018463135,10|0|2,0:2|3:2|0:2,0:0:0:0:
255,269,109591,1,8,0:2:0:0:
337,212,109779,5,2,3:2:0:0:
416,240,109966,1,0,0:0:0:0:
469,173,110154,1,2,0:2:0:0:
421,103,110341,1,0,3:2:0:0:
340,126,110529,2,0,P|318:104|291:92,2,60.5000018463135,10|0|2,0:2|0:0|0:2,0:0:0:0:
337,212,111091,1,0,0:0:0:0:
416,240,111279,6,0,P|413:300|415:360,1,121.000003692627,2|2,0:2|3:2,0:0:0:0:
340,316,111841,1,0,0:0:0:0:
340,316,112029,2,0,B|277:322|297:361|233:366,1,121.000003692627,10|2,0:2|0:2,0:0:0:0:
184,170,112779,5,2,3:2:0:0:
105,142,112966,1,0,0:0:0:0:
52,209,113154,1,2,0:2:0:0:
100,279,113341,1,0,3:2:0:0:
181,256,113529,2,0,P|203:278|230:290,2,60.5000018463135,10|0|2,0:0|0:2|0:0,0:0:0:0:
184,170,114091,1,0,0:2:0:0:
105,142,114279,6,0,P|75:85|106:22,1,121.000003692627,2|0,0:2|3:0,0:0:0:0:
179,26,114841,1,0,0:0:0:0:
179,26,115029,1,10,0:2:0:0:
241,88,115216,5,8,0:2:0:0:
325,79,115404,1,10,0:2:0:0:
408,68,115591,1,0,3:2:0:0:
469,131,115779,6,0,P|470:103|483:79,1,55,2|0,3:2|0:0,0:0:0:0:
410,179,116154,2,0,P|398:153|377:136,1,55,2|0,0:0|0:0,0:0:0:0:
482,210,116529,2,0,P|460:226|446:249,1,55,2|0,0:0|0:0,0:0:0:0:
437,329,116904,1,2,0:0:0:0:
437,329,117091,1,2,0:0:0:0:
363,353,117279,6,0,P|335:352|308:352,1,55,2|2,0:0|0:0,0:0:0:0:
252,313,117654,1,2,0:0:0:0:
252,313,117747,1,2,0:0:0:0:
252,313,117841,1,2,0:0:0:0:
304,256,118029,2,0,P|312:203|282:158,1,110,2|2,0:0|0:0,0:0:0:0:
160,83,118779,6,0,P|188:86|218:90,1,55,2|0,0:0|0:0,0:0:0:0:
165,11,119154,2,0,P|138:15|111:18,1,55,2|0,0:0|0:0,0:0:0:0:
35,36,119529,1,2,0:0:0:0:
83,136,119810,1,2,0:0:0:0:
83,136,119904,2,0,P|83:163|83:190,1,55,2|2,0:0|0:0,0:0:0:0:
33,249,120279,5,2,0:0:0:0:
61,320,120466,1,2,0:0:0:0:
144,327,120654,1,2,0:0:0:0:
144,327,120747,1,2,0:0:0:0:
144,327,120841,1,2,0:0:0:0:
178,258,121029,2,0,P|195:235|219:222,1,55,2|2,0:0|0:0,0:0:0:0:
295,216,121404,1,2,0:0:0:0:
276,290,121591,1,2,0:0:0:0:
258,365,121779,6,0,B|315:374|345:324|345:324|404:344,1,165,2|0,0:2|0:0,0:0:0:0:
477,365,122529,1,2,0:0:0:0:
476,225,122904,1,2,0:0:0:0:
476,225,123091,1,2,0:0:0:0:
402,201,123279,2,0,P|380:151|397:100,1,110,2|2,0:0|0:0,0:0:0:0:
281,17,124029,2,0,P|302:66|285:117,1,110,2|2,0:0|0:0,0:0:0:0:
216,142,124591,5,2,0:0:0:0:
216,142,124685,1,2,0:0:0:0:
216,142,124779,2,0,P|203:166|200:193,1,55,2|0,0:0|0:0,0:0:0:0:
127,216,125154,2,0,P|112:192|90:176,1,55
100,100,125529,2,0,P|127:98|152:87,1,55
206,33,125904,1,0,0:0:0:0:
206,33,126091,1,0,0:0:0:0:
276,64,126279,6,0,P|278:45|284:28,2,36.6666666666667,4|0|0,0:2|0:0|0:0,0:0:0:0:
346,59,126654,2,0,P|360:48|376:40,2,36.6666666666667
400,104,127029,2,0,P|418:106|435:112,2,36.6666666666667,4|0|0,0:2|0:0|0:0,0:0:0:0:
400,174,127404,2,0,P|411:189|419:205,2,36.6666666666667
349,223,127779,1,0,3:0:0:0:
