osu file format v14

[General]
AudioFilename: audio.mp3
AudioLeadIn: 0
PreviewTime: 91685
Countdown: 0
SampleSet: Soft
StackLeniency: 0.4
Mode: 0
LetterboxInBreaks: 0
WidescreenStoryboard: 0

[Editor]
DistanceSpacing: 1.5
BeatDivisor: 3
GridSize: 32
TimelineZoom: 2

[Metadata]
Title:Yousei no Kiri
TitleUnicode:妖精の霧
Artist:Kikuo
ArtistUnicode:きくお
Creator:Vararaup
Version:Damnjelly's Magical
Source:
Tags:fairy of the mist featured artist fa kikuoworld 黄菊しーく si_ku.k folk electronic Instrumental damnjelly
BeatmapID:3870421
BeatmapSetID:1880072

[Difficulty]
HPDrainRate:7
CircleSize:5
OverallDifficulty:8
ApproachRate:8
SliderMultiplier:1.8
SliderTickRate:1

[Events]
//Background and Video events
0,0,"C9NRMdRUQAARN5R.jpg",0,0
//Break Periods
//Storyboard Layer 0 (Background)
//Storyboard Layer 1 (Fail)
//Storyboard Layer 2 (Pass)
//Storyboard Layer 3 (Foreground)
//Storyboard Layer 4 (Overlay)
//Storyboard Sound Samples

[TimingPoints]
1779,375,4,2,1,40,1,0
1779,-1200,4,2,1,40,0,0
7310,-1200,4,2,1,5,0,0
7404,-1200,4,2,1,40,0,0
7685,-1200,4,2,1,5,0,0
7779,-1200,4,2,1,40,0,0
9185,-1200,4,2,1,5,0,0
9279,-1200,4,2,1,40,0,0
12185,-1200,4,2,1,5,0,0
12279,-1200,4,2,1,40,0,0
13779,-142.857142857143,4,2,1,40,0,0
25779,-200,4,2,1,40,0,0
35154,-200,4,2,1,5,0,0
36279,-1200,4,2,1,60,0,1
48279,-142.857142857143,4,2,1,40,0,0
60279,-76.9230769230769,4,2,1,40,0,0
63279,-66.6666666666667,4,2,1,40,0,0
67779,-200,4,2,1,40,0,0
79779,-142.857142857143,4,2,1,30,0,0
91779,-1200,4,2,1,60,0,1
97310,-1200,4,2,1,5,0,1
97404,-1200,4,2,1,60,0,1
97685,-1200,4,2,1,5,0,1
97779,-1200,4,2,1,60,0,1
99185,-1200,4,2,1,5,0,1
99279,-1200,4,2,1,60,0,1
102185,-1200,4,2,1,5,0,1
102279,-1200,4,2,1,60,0,1
115779,-142.857142857143,4,2,1,40,0,0

[Colours]
Combo1 : 213,210,255
Combo2 : 255,210,232

[HitObjects]
152,96,1779,5,2,0:0:0:0:
304,228,1966,5,2,0:0:0:0:
224,156,2154,1,2,0:0:0:0:
228,232,2341,1,2,0:0:0:0:
300,152,2529,5,4,0:2:0:0:
308,160,2717,1,2,0:0:0:0:
308,152,2904,1,2,0:0:0:0:
301,160,3092,1,2,0:0:0:0:
487,253,3279,5,2,0:0:0:0:
407,325,3467,1,2,0:0:0:0:
411,249,3654,1,2,0:0:0:0:
483,329,3842,1,2,0:0:0:0:
327,317,4029,5,6,0:2:0:0:
411,249,4216,1,2,0:0:0:0:
483,329,4404,1,2,0:0:0:0:
327,317,4591,2,0,L|316:316,1,9,2|2,0:0|0:0,0:0:0:0:
336,148,4966,5,2,0:0:0:0:
440,164,5154,1,2,0:0:0:0:
440,32,5341,1,2,0:0:0:0:
336,48,5529,5,6,0:2:0:0:
335,55,5717,1,2,0:0:0:0:
345,55,5904,1,2,0:0:0:0:
344,48,6092,1,2,0:0:0:0:
220,252,6279,5,2,0:0:0:0:
204,148,6467,1,2,0:0:0:0:
336,148,6654,1,2,0:0:0:0:
320,252,6841,1,2,0:0:0:0:
204,148,7029,6,0,L|220:148,1,13.5,6|0,0:2|0:0,0:0:0:0:
336,148,7404,2,0,L|319:148,1,13.5,2|0,0:0|0:0,0:0:0:0:
125,80,7779,5,2,0:0:0:0:
256,37,7966,1,2,0:0:0:0:
336,148,8154,1,2,0:0:0:0:
256,260,8341,1,2,0:0:0:0:
125,217,8529,2,0,L|152:196,1,31.5,4|0,0:2|0:0,0:0:0:0:
216,152,9279,5,0,0:0:0:0:
125,217,9654,1,0,0:0:0:0:
336,148,10029,5,6,0:0:0:0:
256,260,10216,1,2,0:0:0:0:
125,217,10404,1,2,0:0:0:0:
387,80,10779,5,2,0:0:0:0:
256,37,10966,1,2,0:0:0:0:
176,148,11154,1,2,0:0:0:0:
256,260,11341,1,2,0:0:0:0:
387,217,11529,2,0,L|360:196,1,31.5,6|0,0:2|0:0,0:0:0:0:
296,152,12279,5,0,0:0:0:0:
387,217,12654,1,0,0:0:0:0:
176,148,13029,5,6,0:0:0:0:
256,260,13216,1,2,0:0:0:0:
387,217,13404,1,2,0:0:0:0:
85,198,13779,6,0,L|150:219,1,62.9999980773926,2|0,0:0|0:0,0:0:0:0:
273,170,14154,2,0,L|207:191,1,62.9999980773926,2|0,0:0|0:0,0:0:0:0:
85,126,14529,2,0,L|150:147,1,62.9999980773926,2|0,0:0|0:0,0:0:0:0:
212,117,14904,1,2,0:0:0:0:
273,98,15091,1,2,0:0:0:0:
380,7,15279,5,2,0:0:0:0:
376,75,15466,1,2,0:0:0:0:
376,147,15654,1,2,0:0:0:0:
376,147,15747,1,2,0:0:0:0:
376,147,15841,1,2,0:0:0:0:
376,219,16029,2,0,L|483:254,1,94.499997116089,2|0,0:0|0:0,0:0:0:0:
512,147,16404,2,0,L|434:172,1,62.9999980773926,2|0,0:0|0:0,0:0:0:0:
256,244,16779,6,0,L|277:179,1,62.9999980773926,2|0,0:0|0:0,0:0:0:0:
228,56,17154,2,0,L|249:122,1,62.9999980773926,2|0,0:0|0:0,0:0:0:0:
184,244,17529,2,0,L|205:179,1,62.9999980773926,2|0,0:0|0:0,0:0:0:0:
116,152,17810,5,2,0:0:0:0:
124,180,17903,1,2,0:0:0:0:
203,184,18091,1,2,0:0:0:0:
282,188,18279,1,2,0:0:0:0:
286,109,18466,1,2,0:0:0:0:
290,30,18654,1,2,0:0:0:0:
290,30,18747,1,2,0:0:0:0:
290,30,18841,1,2,0:0:0:0:
125,110,19029,6,0,L|154:199,1,94.499997116089,2|0,0:0|0:0,0:0:0:0:
208,124,19404,2,0,L|227:64,1,62.9999980773926,2|0,0:0|0:0,0:0:0:0:
21,32,19779,5,2,0:0:0:0:
27,51,19966,1,0,0:0:0:0:
33,70,20154,1,0,0:0:0:0:
39,89,20341,1,0,0:0:0:0:
278,290,20529,5,2,0:0:0:0:
270,33,20904,5,2,0:0:0:0:
230,102,21091,1,2,0:0:0:0:
190,33,21279,1,2,0:0:0:0:
190,291,21654,5,2,0:0:0:0:
71,33,22029,1,2,0:0:0:0:
70,291,22404,1,2,0:0:0:0:
285,177,22591,1,2,0:0:0:0:
261,170,22685,1,2,0:0:0:0:
237,164,22779,1,2,0:2:0:0:
200,220,22966,5,0,0:0:0:0:
134,231,23154,1,0,0:0:0:0:
79,194,23341,1,0,0:0:0:0:
68,128,23529,1,0,0:0:0:0:
105,74,23716,1,0,0:0:0:0:
170,62,23904,1,0,0:0:0:0:
225,99,24091,1,0,0:0:0:0:
237,164,24279,5,4,0:2:0:0:
274,220,24404,1,0,0:0:0:0:
340,231,24529,1,0,0:0:0:0:
395,194,24654,1,0,0:0:0:0:
406,128,24779,1,0,0:0:0:0:
369,74,24904,1,0,0:0:0:0:
304,62,25029,5,4,0:2:0:0:
369,74,25154,1,0,0:0:0:0:
406,128,25279,1,0,0:0:0:0:
395,194,25404,1,0,0:0:0:0:
340,231,25529,1,0,0:0:0:0:
274,220,25654,1,0,0:0:0:0:
236,152,25779,6,0,B|224:84|128:68|76:128|88:208|156:232|156:232|192:212|192:212,1,315,2|0,3:2|0:0,0:0:0:0:
272,244,27279,2,0,B|190:286|190:286,1,90,0|0,3:0|3:0,0:0:0:0:
192,285,28029,2,0,B|272:328|272:328|324:300|324:300,1,135,0|0,3:0|0:0,0:0:0:0:
380,348,28779,6,0,B|404:296|372:252|372:252|392:236|392:236|360:192|376:108|440:100|480:108,1,315,0|0,3:0|0:0,0:0:0:0:
465,269,30279,2,0,P|471:225|456:184,1,90,0|0,3:0|3:0,0:0:0:0:
168,236,31029,2,0,P|202:263|320:204,1,180,0|0,3:0|3:0,0:0:0:0:
315,218,32341,5,0,3:0:0:0:
315,218,32529,2,0,P|383:166|462:200,1,180,0|0,3:0|3:0,0:0:0:0:
392,252,33466,1,0,3:0:0:0:
402,85,33841,1,0,3:0:0:0:
402,85,34029,2,0,B|266:96|266:96|230:160|230:160|334:152,1,315,0|0,3:0|0:0,0:0:0:0:
335,152,36279,1,2,3:2:0:0:
60,232,36466,5,0,0:0:0:0:
192,96,36654,1,2,0:2:0:0:
342,223,36841,1,0,0:0:0:0:
475,88,37029,5,2,0:2:0:0:
480,82,37217,1,0,3:2:0:0:
487,87,37404,1,2,3:2:0:0:
493,81,37592,1,0,3:2:0:0:
60,232,37779,5,2,3:2:0:0:
199,360,37967,1,0,0:0:0:0:
342,223,38154,1,2,0:2:0:0:
482,353,38342,1,0,0:0:0:0:
266,288,38529,5,2,0:2:0:0:
445,104,38716,1,0,3:2:0:0:
379,320,38904,1,2,3:2:0:0:
196,144,39091,2,0,L|205:147,1,9,0|2,3:2|3:2,0:0:0:0:
412,211,39466,5,0,0:0:0:0:
196,144,39654,1,2,0:2:0:0:
228,36,39841,1,0,0:0:0:0:
170,255,40029,5,2,0:2:0:0:
161,252,40217,1,0,3:2:0:0:
163,248,40404,1,2,3:2:0:0:
160,256,40592,1,0,3:2:0:0:
60,288,40779,5,2,3:2:0:0:
276,220,40967,1,0,0:0:0:0:
244,111,41154,1,2,0:2:0:0:
312,332,41341,1,0,0:0:0:0:
60,288,41529,5,2,3:2:0:0:
276,220,41717,1,0,0:0:0:0:
244,111,41904,1,2,0:2:0:0:
312,332,42091,1,0,0:0:0:0:
212,2,42279,5,2,3:2:0:0:
244,111,42466,1,0,0:0:0:0:
276,220,42654,1,2,0:2:0:0:
312,332,42841,1,0,0:0:0:0:
212,2,43029,5,2,0:2:0:0:
244,111,43216,1,0,3:2:0:0:
276,220,43404,1,2,3:2:0:0:
312,332,43591,1,0,3:2:0:0:
354,220,43779,6,0,L|359:203,1,18,2|2,3:2|0:2,0:0:0:0:
160,172,44341,1,0,0:0:0:0:
196,284,44529,2,0,L|201:301,1,18,2|2,0:2|3:2,0:0:0:0:
296,160,45279,5,2,3:2:0:0:
72,102,45466,1,0,0:0:0:0:
287,81,45654,1,2,0:2:0:0:
79,180,45841,1,0,0:0:0:0:
132,19,46029,5,2,0:2:0:0:
231,226,46216,1,0,3:2:0:0:
211,11,46404,1,2,3:2:0:0:
153,235,46591,1,0,3:2:0:0:
375,173,46779,6,0,L|367:145,1,27,2|0,3:2|0:0,0:0:0:0:
153,235,47529,1,2,0:2:0:0:
375,173,47716,5,0,0:0:0:0:
264,204,47904,1,2,0:2:0:0:
153,235,48091,1,0,0:0:0:0:
42,266,48279,6,0,P|100:296|136:288,1,62.9999980773926,4|0,3:1|0:0,0:0:0:0:
140,160,48654,2,0,P|110:169|86:189,1,62.9999980773926,2|0,0:0|3:2,0:0:0:0:
46,270,49029,2,0,P|107:295|142:283,1,62.9999980773926,10|0,0:2|0:0,0:0:0:0:
140,160,49404,2,0,P|111:172|89:195,1,62.9999980773926,2|2,0:0|0:2,0:0:0:0:
153,235,49779,5,2,0:0:0:0:
140,160,49966,1,2,0:0:0:0:
130,92,50154,1,2,3:2:0:0:
130,92,50247,1,2,0:0:0:0:
130,92,50341,1,2,0:0:0:0:
177,36,50529,5,10,0:2:0:0:
144,308,50904,1,2,0:0:0:0:
105,36,51279,6,0,P|113:72|149:104,1,62.9999980773926,4|0,3:2|0:0,0:0:0:0:
225,91,51654,2,0,P|243:66|249:36,1,62.9999980773926,2|0,0:0|3:2,0:0:0:0:
102,41,52029,2,0,P|113:76|152:105,1,62.9999980773926,10|0,0:2|0:0,0:0:0:0:
180,44,52310,1,2,0:0:0:0:
180,44,52404,1,2,0:0:0:0:
80,236,52591,1,2,0:0:0:0:
410,218,52778,5,2,0:0:0:0:
300,224,52966,1,2,0:0:0:0:
189,230,53154,1,2,3:2:0:0:
189,230,53247,1,2,0:0:0:0:
189,230,53341,1,2,0:0:0:0:
360,276,53529,1,10,0:2:0:0:
184,308,53716,5,0,3:2:0:0:
189,230,53904,1,2,0:0:0:0:
194,151,54092,1,8,0:2:0:0:
311,327,54279,5,6,3:2:0:0:
279,322,54466,1,0,0:0:0:0:
247,317,54654,1,0,3:2:0:0:
216,312,54841,1,0,0:0:0:0:
71,108,55029,5,10,0:1:0:0:
440,108,55404,5,2,0:0:0:0:
364,151,55591,1,2,0:0:0:0:
440,195,55779,1,2,0:0:0:0:
71,195,56154,5,2,3:2:0:0:
453,284,56529,1,10,0:2:0:0:
71,284,56904,1,2,0:0:0:0:
281,327,57091,1,10,0:2:0:0:
284,341,57185,1,2,0:0:0:0:
287,356,57279,1,2,3:2:0:0:
356,384,57466,5,0,3:0:0:0:
349,320,57654,1,0,3:0:0:0:
342,256,57841,1,0,3:0:0:0:
335,192,58029,1,0,3:0:0:0:
328,128,58216,1,0,3:0:0:0:
321,64,58404,1,0,3:0:0:0:
102,72,58779,5,4,0:2:0:0:
150,80,58904,1,0,0:0:0:0:
198,89,59029,1,0,0:0:0:0:
246,97,59154,1,0,0:0:0:0:
294,106,59279,1,0,0:0:0:0:
343,114,59404,1,0,0:0:0:0:
391,123,59529,5,4,0:2:0:0:
343,132,59654,1,0,0:0:0:0:
294,140,59779,1,0,0:0:0:0:
246,149,59904,1,0,0:0:0:0:
198,157,60029,1,0,0:0:0:0:
150,166,60154,1,0,0:0:0:0:
102,175,60279,6,0,L|178:188,1,77.9999964294435,6|0,0:1|0:2,0:2:0:0:
256,192,60529,1,2,0:2:0:0:
273,38,60654,2,0,L|259:114,1,77.9999964294435,2|0,0:1|0:2,0:2:0:0:
256,192,60904,1,2,0:2:0:0:
410,209,61029,2,0,L|333:195,1,77.9999964294435,2|0,0:1|0:2,0:2:0:0:
256,192,61279,1,2,0:2:0:0:
239,346,61404,2,0,L|252:269,1,77.9999964294435,2|0,0:1|0:2,0:2:0:0:
256,192,61654,1,2,0:2:0:0:
410,209,61779,6,0,P|402:170|402:131,1,77.9999964294435,4|0,0:2|0:2,0:2:0:0:
317,50,62029,2,0,P|278:43|241:31,1,77.9999964294435,2|0,0:2|0:2,0:2:0:0:
141,93,62279,2,0,P|123:128|100:159,1,77.9999964294435,2|0,0:2|0:2,0:2:0:0:
122,274,62529,2,0,P|150:300|172:332,1,77.9999964294435,4|0,0:2|0:2,0:2:0:0:
288,343,62779,2,0,P|322:324|359:312,1,77.9999964294435,2|2,0:2|0:2,0:2:0:0:
359,312,63279,5,2,0:2:0:0:
482,359,63404,1,2,0:2:0:0:
462,228,63529,1,2,0:2:0:0:
434,299,63654,2,0,B|440:286|440:286|443:301|440:311|440:311|428:309|419:301|419:301|425:292|440:286|440:286,2,90.0000034332277,4|0|0,0:2|0:2|0:2,0:2:0:0:
256,289,64029,5,2,0:2:0:0:
379,242,64154,1,2,0:2:0:0:
276,158,64279,1,2,0:2:0:0:
304,229,64404,2,0,B|297:216|297:216|294:231|297:241|297:241|309:239|318:231|318:231|312:222|297:216|297:216,2,90.0000034332277,4|0|0,0:2|0:2|0:2,0:2:0:0:
339,50,64779,5,2,0:2:0:0:
359,181,64904,1,2,0:2:0:0:
462,97,65029,1,2,0:2:0:0:
387,110,65154,2,0,B|380:122|380:122|377:107|380:97|380:97|392:99|401:107|401:107|395:116|380:122|380:122,2,90.0000034332277,4|0|0,0:2|0:2|0:2,0:2:0:0:
128,129,65529,5,2,0:2:0:0:
231,213,65654,1,2,0:2:0:0:
251,82,65779,1,2,0:2:0:0:
160,134,65904,5,2,0:2:0:0:
218,181,66029,1,2,0:2:0:0:
230,107,66154,1,2,0:2:0:0:
202,141,66279,5,2,0:2:0:0:
104,88,67779,6,0,L|96:152,1,45,2|0,3:2|0:0,0:0:0:0:
104,88,68154,2,0,L|96:152,1,45,2|0,0:2|0:0,0:0:0:0:
104,88,68529,2,0,L|91:191,1,90,2|2,0:2|3:2,0:0:0:0:
180,212,69091,1,0,3:2:0:0:
174,167,69278,1,2,3:2:0:0:
192,302,69654,5,2,0:2:0:0:
280,216,69841,1,0,3:2:0:0:
274,261,70028,1,2,3:2:0:0:
352,200,70216,1,0,3:2:0:0:
346,245,70403,1,2,3:2:0:0:
420,184,70591,1,0,3:2:0:0:
408,296,70779,6,0,L|416:232,1,45,2|0,3:2|0:0,0:0:0:0:
408,296,71154,2,0,L|416:232,1,45,2|0,3:2|0:0,0:0:0:0:
408,296,71529,2,0,L|420:192,1,90,10|2,0:1|3:2,0:0:0:0:
332,172,72091,1,0,3:2:0:0:
338,217,72278,1,2,3:2:0:0:
320,82,72654,5,2,0:2:0:0:
232,168,72841,1,0,3:2:0:0:
238,123,73028,1,2,3:2:0:0:
160,184,73216,1,0,3:2:0:0:
166,139,73403,1,2,3:2:0:0:
92,200,73591,1,0,3:2:0:0:
104,88,73779,6,0,L|96:152,1,45,2|0,3:2|0:0,0:0:0:0:
104,88,74154,2,0,L|96:152,1,45,2|0,0:2|0:0,0:0:0:0:
104,88,74529,2,0,L|91:191,1,90,2|2,0:2|3:2,0:0:0:0:
180,212,75091,1,0,3:2:0:0:
174,167,75278,1,2,3:2:0:0:
192,302,75654,5,2,0:2:0:0:
280,216,75841,1,0,0:0:0:0:
274,261,76028,1,2,0:2:0:0:
352,200,76216,1,0,3:2:0:0:
346,245,76403,1,2,3:2:0:0:
420,184,76591,1,0,3:2:0:0:
408,296,76779,6,0,L|416:232,1,45,2|0,3:2|0:0,0:0:0:0:
408,296,77154,2,0,L|416:232,1,45,2|0,0:2|0:0,0:0:0:0:
408,296,77529,2,0,L|420:192,1,90,2|2,0:2|3:2,0:0:0:0:
332,172,78091,1,0,3:2:0:0:
338,217,78278,1,2,0:2:0:0:
320,82,78654,5,2,0:2:0:0:
232,168,78841,1,0,3:2:0:0:
238,123,79028,1,2,3:2:0:0:
160,184,79216,1,0,3:2:0:0:
166,139,79403,1,2,3:2:0:0:
92,200,79591,1,0,3:2:0:0:
104,88,79779,6,0,L|96:152,1,62.9999980773926,4|0,0:2|0:0,0:0:0:0:
173,201,80154,2,0,L|165:137,1,62.9999980773926,2|0,0:0|0:0,0:0:0:0:
244,80,80529,2,0,L|236:144,1,62.9999980773926,2|0,0:0|0:0,0:0:0:0:
313,193,80904,5,2,0:0:0:0:
305,130,81091,1,2,0:0:0:0:
416,88,81279,1,2,0:0:0:0:
408,150,81466,1,2,0:0:0:0:
400,221,81654,1,2,0:0:0:0:
400,221,81747,1,2,0:0:0:0:
400,221,81841,1,2,0:0:0:0:
384,336,82029,2,0,L|281:348,1,94.499997116089,2|0,0:0|0:0,0:0:0:0:
208,271,82404,2,0,L|272:279,1,62.9999980773926,2|0,0:0|0:0,0:0:0:0:
470,180,82779,6,0,L|406:188,1,62.9999980773926,2|0,0:0|0:0,0:0:0:0:
358,106,83154,2,0,L|422:114,1,62.9999980773926,2|0,0:0|0:0,0:0:0:0:
470,33,83529,2,0,L|406:41,1,62.9999980773926,2|0,0:0|0:0,0:0:0:0:
244,62,83810,1,2,0:0:0:0:
244,62,83904,1,2,0:0:0:0:
251,124,84091,1,2,0:0:0:0:
124,224,84279,5,2,0:0:0:0:
131,161,84466,1,2,0:0:0:0:
138,98,84654,1,2,0:0:0:0:
251,124,84841,1,2,0:0:0:0:
258,186,85029,2,0,L|271:78,1,94.499997116089,2|0,0:0|0:0,0:0:0:0:
336,160,85404,2,0,L|346:244,1,62.9999980773926,2|0,0:0|0:0,0:0:0:0:
364,356,85779,5,2,0:0:0:0:
364,356,86529,1,2,0:0:0:0:
364,12,86904,5,2,0:0:0:0:
316,88,87091,1,2,0:0:0:0:
260,16,87279,1,2,0:0:0:0:
260,360,87654,5,2,0:0:0:0:
156,20,88029,1,2,0:0:0:0:
156,364,88404,1,2,0:0:0:0:
156,170,88591,5,2,0:0:0:0:
156,192,88685,1,2,0:0:0:0:
157,214,88779,1,2,0:2:0:0:
121,226,88966,1,0,0:0:0:0:
129,188,89154,1,0,0:0:0:0:
156,219,89341,1,0,0:0:0:0:
225,58,89529,5,2,0:2:0:0:
261,69,89716,1,0,0:0:0:0:
232,95,89904,1,0,0:0:0:0:
221,61,90091,1,0,0:0:0:0:
318,198,90279,5,4,0:2:0:0:
330,234,90404,1,0,0:0:0:0:
292,226,90529,1,0,0:0:0:0:
323,199,90654,1,0,0:0:0:0:
325,237,90779,1,0,0:0:0:0:
291,220,90904,1,0,0:0:0:0:
130,170,91029,5,4,0:2:0:0:
118,206,91154,1,0,0:0:0:0:
156,198,91279,1,0,0:0:0:0:
124,171,91404,1,0,0:0:0:0:
122,209,91529,1,0,0:0:0:0:
156,192,91654,1,0,0:0:0:0:
95,87,91779,5,6,3:1:0:0:
224,328,91966,5,0,0:0:0:0:
224,193,92154,1,2,0:2:0:0:
329,109,92341,1,0,3:2:0:0:
449,135,92528,5,10,0:2:0:0:
439,125,92716,1,0,0:0:0:0:
421,129,92903,1,2,0:2:0:0:
416,141,93091,1,0,0:0:0:0:
319,353,93279,5,2,0:2:0:0:
382,232,93467,1,0,0:0:0:0:
329,109,93654,1,2,3:2:0:0:
199,75,93841,1,0,0:0:0:0:
432,64,94029,5,10,0:2:0:0:
199,75,94216,1,0,3:2:0:0:
432,64,94404,1,2,0:2:0:0:
199,75,94591,2,0,L|211:74,1,9,8|2,0:2|3:2,0:0:0:0:
3,163,94966,5,0,0:0:0:0:
187,147,95153,1,2,0:2:0:0:
203,331,95341,1,0,3:2:0:0:
19,347,95528,5,10,0:2:0:0:
19,329,95715,1,0,0:0:0:0:
37,329,95904,1,2,0:2:0:0:
37,347,96091,1,0,0:0:0:0:
356,196,96279,5,2,0:2:0:0:
172,180,96466,1,0,0:0:0:0:
156,364,96654,1,2,3:2:0:0:
340,380,96841,1,0,0:0:0:0:
172,180,97029,6,0,L|188:181,1,13.5,10|0,0:2|0:0,0:0:0:0:
356,196,97404,2,0,L|341:194,1,13.5,2|0,0:2|0:0,0:0:0:0:
80,235,97779,5,2,3:2:0:0:
160,38,97966,1,0,0:0:0:0:
372,53,98154,1,2,0:2:0:0:
423,259,98341,1,0,3:2:0:0:
243,372,98529,2,0,L|245:338,1,31.5,10|0,0:2|0:0,0:0:0:0:
256,192,99279,5,2,0:2:0:0:
243,372,99654,1,2,3:2:0:0:
200,153,100029,5,10,0:2:0:0:
251,255,100216,1,0,3:2:0:0:
314,162,100404,1,2,0:2:0:0:
243,371,100779,5,2,3:2:0:0:
424,259,100966,1,0,0:0:0:0:
372,53,101154,1,2,0:2:0:0:
160,37,101341,1,0,3:2:0:0:
80,235,101529,2,0,L|113:227,1,31.5,10|0,0:2|0:0,0:0:0:0:
256,192,102279,5,2,0:2:0:0:
80,235,102654,1,2,3:2:0:0:
275,126,103029,5,10,0:2:0:0:
194,206,103216,1,0,3:2:0:0:
302,237,103404,1,2,0:2:0:0:
60,64,103779,5,2,3:2:0:0:
424,68,103966,5,0,0:0:0:0:
268,116,104154,1,2,0:2:0:0:
388,220,104341,1,0,3:2:0:0:
345,55,104529,5,10,0:2:0:0:
324,60,104717,1,0,0:0:0:0:
339,72,104904,1,2,0:2:0:0:
332,52,105092,1,0,0:0:0:0:
108,184,105279,5,2,0:2:0:0:
264,232,105467,1,0,0:0:0:0:
144,336,105654,1,2,3:2:0:0:
195,169,105842,1,0,0:0:0:0:
314,296,106029,5,10,0:2:0:0:
144,336,106216,1,0,3:2:0:0:
373,335,106404,1,2,0:2:0:0:
84,296,106591,2,0,L|82:285,1,9,8|2,0:2|3:2,0:0:0:0:
80,19,106966,5,0,0:0:0:0:
36,155,107153,1,2,0:2:0:0:
151,240,107341,1,0,3:2:0:0:
182,94,107529,5,10,0:2:0:0:
176,111,107716,1,0,0:0:0:0:
190,121,107904,1,2,0:2:0:0:
196,104,108091,1,0,0:0:0:0:
451,110,108279,5,2,0:2:0:0:
495,246,108466,1,0,0:0:0:0:
380,331,108654,1,2,3:2:0:0:
349,185,108842,1,0,0:0:0:0:
451,110,109029,5,10,0:2:0:0:
495,246,109216,1,0,3:2:0:0:
380,331,109404,1,2,0:2:0:0:
349,185,109592,1,8,0:2:0:0:
495,246,109779,5,2,3:2:0:0:
259,259,109966,1,0,0:0:0:0:
407,251,110154,1,2,0:2:0:0:
171,264,110341,1,0,3:2:0:0:
495,246,110529,5,10,0:2:0:0:
259,259,110716,1,0,0:0:0:0:
407,251,110904,1,2,0:2:0:0:
171,264,111091,1,0,0:0:0:0:
407,251,111279,6,0,L|405:230,1,18,2|2,0:2|3:2,0:0:0:0:
175,160,111841,1,0,0:0:0:0:
171,264,112029,2,0,L|170:281,1,18,10|2,0:2|0:2,0:0:0:0:
256,28,112779,5,2,3:2:0:0:
121,82,112966,1,0,0:0:0:0:
65,217,113154,1,2,0:2:0:0:
121,351,113341,1,0,3:2:0:0:
256,28,113529,5,10,0:2:0:0:
391,82,113716,1,0,0:0:0:0:
447,217,113904,1,2,0:2:0:0:
391,351,114091,1,0,0:0:0:0:
256,280,114279,6,0,L|256:252,1,27,2|0,0:2|0:0,0:0:0:0:
256,112,115029,1,10,0:2:0:0:
461,159,115216,5,8,0:2:0:0:
325,181,115403,1,10,0:2:0:0:
188,202,115591,1,0,3:2:0:0:
52,224,115779,6,0,P|36:176|44:140,1,62.9999980773926,2|0,3:2|0:0,0:0:0:0:
136,112,116154,2,0,P|133:143|120:171,1,62.9999980773926,2|0,0:0|0:0,0:0:0:0:
47,220,116529,2,0,P|35:170|46:135,1,62.9999980773926,2|0,0:0|0:0,0:0:0:0:
140,115,116904,2,0,P|135:146|119:173,1,62.9999980773926,2|2,0:0|0:0,0:0:0:0:
222,316,117279,5,2,0:0:0:0:
244,250,117466,1,2,0:0:0:0:
303,212,117654,1,2,0:0:0:0:
298,184,117747,1,2,0:0:0:0:
293,156,117841,1,2,0:0:0:0:
372,218,118029,2,0,P|422:252|474:248,1,94.499997116089,2|0,0:0|0:0,0:0:0:0:
426,116,118404,2,0,P|425:147|436:176,1,62.9999980773926,2|0,0:0|0:0,0:0:0:0:
436,55,118779,6,0,P|436:86|425:115,1,62.9999980773926,2|0,0:0|0:0,0:0:0:0:
314,24,119154,2,0,P|340:7|371:2,1,62.9999980773926,2|0,0:0|0:0,0:0:0:0:
434,60,119529,2,0,P|432:91|418:119,1,62.9999980773926,2|0,0:0|0:0,0:0:0:0:
366,72,119810,1,2,0:0:0:0:
366,72,119904,1,2,0:0:0:0:
494,232,120091,1,2,0:0:0:0:
443,183,120279,5,2,0:0:0:0:
374,175,120466,1,2,0:0:0:0:
314,211,120654,1,2,0:0:0:0:
314,211,120748,1,2,0:0:0:0:
314,211,120841,1,2,0:0:0:0:
289,276,121029,1,2,0:0:0:0:
494,232,121216,5,2,0:0:0:0:
289,276,121404,1,2,0:0:0:0:
352,76,121591,1,2,0:0:0:0:
413,217,121779,5,2,0:2:0:0:
392,221,121966,1,0,0:0:0:0:
372,224,122154,1,0,0:0:0:0:
351,227,122341,1,0,0:0:0:0:
43,108,122529,5,2,0:0:0:0:
487,102,122904,5,2,0:0:0:0:
412,146,123091,1,2,0:0:0:0:
487,189,123279,1,2,0:0:0:0:
43,195,123654,5,2,0:0:0:0:
484,284,124029,1,2,0:0:0:0:
43,284,124404,1,2,0:0:0:0:
264,268,124591,1,2,0:0:0:0:
261,283,124685,1,2,0:0:0:0:
258,299,124779,1,2,0:0:0:0:
484,284,124966,5,0,0:0:0:0:
421,284,125153,1,0,0:0:0:0:
358,284,125341,1,0,0:0:0:0:
295,284,125528,1,0,0:0:0:0:
232,284,125716,1,0,0:0:0:0:
169,284,125903,1,0,0:0:0:0:
251,5,126279,5,4,0:2:0:0:
273,61,126404,1,0,0:0:0:0:
296,117,126529,1,0,0:0:0:0:
317,172,126654,1,0,0:0:0:0:
339,229,126779,1,0,0:0:0:0:
360,285,126904,1,0,0:0:0:0:
384,342,127029,5,4,0:2:0:0:
323,333,127154,1,0,0:0:0:0:
265,324,127279,1,0,0:0:0:0:
204,315,127404,1,0,0:0:0:0:
145,305,127529,1,0,0:0:0:0:
85,297,127654,1,0,0:0:0:0:
27,289,127779,1,0,3:0:0:0:
