osu file format v14

[General]
AudioFilename: audio.mp3
AudioLeadIn: 0
PreviewTime: 36185
Countdown: 0
SampleSet: Normal
StackLeniency: 0
Mode: 1
LetterboxInBreaks: 0
WidescreenStoryboard: 0

[Editor]
Bookmarks: 13779,13889,22778,36278,48278,60278,67854,79778,91778,115778
DistanceSpacing: 1
BeatDivisor: 12
GridSize: 32
TimelineZoom: 4.399998

[Metadata]
Title:Yousei no Kiri
TitleUnicode:妖精の霧
Artist:Kikuo
ArtistUnicode:きくお
Creator:Alchyr
Version:Unseen
Source:
Tags:Fairy of the Mist featured artist fa KIKUOWORLD 黄菊しーく si_ku.k other folk electronica pop mapper's mappers' guild mg mpg
BeatmapID:3850768
BeatmapSetID:1871513

[Difficulty]
HPDrainRate:6
CircleSize:2
OverallDifficulty:6
ApproachRate:10
SliderMultiplier:1.4
SliderTickRate:1

[Events]
//Background and Video events
0,0,"bg.jpg",0,0
//Break Periods
//Storyboard Layer 0 (Background)
//Storyboard Layer 1 (Fail)
//Storyboard Layer 2 (Pass)
//Storyboard Layer 3 (Foreground)
//Storyboard Layer 4 (Overlay)
//Storyboard Sound Samples

[TimingPoints]
1779,375,4,1,0,30,1,0
1779,-120.481927710843,4,1,0,30,0,0
1897,-115.332212495751,4,1,0,44,0,0
2084,-110.428265414347,4,1,0,44,0,0
2272,-105.708270230129,4,1,0,44,0,0
2459,-101.213534960098,4,1,0,44,0,0
2647,-96.8874016481526,4,1,0,44,0,0
2834,-92.7677313474139,4,1,0,44,0,0
3022,-88.8025939474219,4,1,0,44,0,0
3209,-85.0266911706883,4,1,0,44,0,0
3397,-81.3924262354397,4,1,0,44,0,0
3584,-77.9316051651741,4,1,0,44,0,0
3772,-74.6006029104719,4,1,0,44,0,0
3959,-71.4285714285714,4,1,0,44,0,0
4123,-120.481927710843,4,1,0,30,0,0
4897,-116.048580503813,4,1,0,44,0,0
5084,-111.800659213734,4,1,0,44,0,0
5272,-107.686754749499,4,1,0,44,0,0
5459,-103.744915425192,4,1,0,44,0,0
5647,-99.9274364075281,4,1,0,44,0,0
5834,-96.2696244572596,4,1,0,44,0,0
6022,-92.7272120903713,4,1,0,44,0,0
6209,-89.3329620556162,4,1,0,44,0,0
6397,-86.0457965416687,4,1,0,44,0,0
6584,-82.8961175928673,4,1,0,44,0,0
6772,-79.8458072402142,4,1,0,44,0,0
6959,-76.9230769230769,4,1,0,44,0,0
7234,-90.9090909090909,4,1,0,40,0,0
7713,-100,4,1,0,44,0,0
7901,-104.451005515013,4,1,0,44,0,0
8088,-109.289617486339,4,1,0,44,0,0
8276,-114.628070121811,4,1,0,44,0,0
8463,-120.481927710843,4,1,0,44,0,0
8625,-120.481927710843,4,1,0,40,0,0
9186,-100,4,1,0,30,0,0
9982,-100,4,1,0,38,0,0
10135,-100,4,1,0,34,0,0
10322,-100,4,1,0,30,0,0
10703,-87.719298245614,4,1,0,44,0,0
10891,-94.982527689256,4,1,0,44,0,0
11078,-102.803648525108,4,1,0,44,0,0
11266,-111.315874475556,4,1,0,44,0,0
11453,-120.481927710843,4,1,0,44,0,0
11597,-120.481927710843,4,1,0,30,0,0
12217,-100,4,1,0,30,0,0
12981,-100,4,1,0,38,0,0
13122,-100,4,1,0,34,0,0
13338,-100,4,1,0,30,0,0
13747,-76.9230769230769,4,1,0,40,0,0
19684,-76.9230769230769,4,1,0,40,0,0
19731,-78.0551988356066,4,1,0,40,0,0
19778,-79.203982848459,4,1,0,40,0,0
19896,-83.9706988770841,4,1,0,30,0,0
20137,-88.9966195135855,4,1,0,30,0,0
20325,-94.352683659255,4,1,0,30,0,0
20435,-98.5495880743139,4,1,0,36,0,0
20512,-97.3709834469328,4,1,0,36,0,0
20708,-100,4,1,0,36,0,0
21278,-100,4,1,0,36,0,0
21320,-97.0873786407767,4,1,0,36,0,0
21404,-94.3396226415094,4,1,0,36,0,0
21636,-100,4,1,0,36,0,0
22028,-100,4,1,0,36,0,0
22091,-97.0873786407767,4,1,0,36,0,0
22154,-94.3396226415094,4,1,0,36,0,0
22354,-100,4,1,0,36,0,0
22591,-109.791533148433,4,1,0,36,0,0
22684,-114.984018588773,4,1,0,36,0,0
22778,-120.481927710843,4,1,0,36,0,0
22896,-117.141384139648,4,1,0,30,0,0
23083,-113.910497894339,4,1,0,30,0,0
23271,-110.752157148448,4,1,0,30,0,0
23342,-110.752157148448,4,1,0,30,0,0
23458,-107.69749270345,4,1,0,32,0,0
23646,-104.711416918309,4,1,0,34,0,0
23833,-101.823362631321,4,1,0,37,0,0
24021,-99.0001559820062,4,1,0,39,0,0
24232,-96.2696244572596,4,1,0,41,0,0
24357,-94.486528243989,4,1,0,42,0,0
24482,-92.7364583578044,4,1,0,43,0,0
24607,-91.0188030884277,4,1,0,43,0,0
24732,-89.3329620556162,4,1,0,44,0,0
24857,-87.6783459993093,4,1,0,44,0,0
24982,-86.0543765736613,4,1,0,45,0,0
25107,-84.4604861448897,4,1,0,45,0,0
25232,-82.8961175928673,4,1,0,45,0,0
25357,-81.3607241163891,4,1,0,45,0,0
25482,-79.8537690420468,4,1,0,45,0,0
25607,-78.3747256366425,4,1,0,45,0,0
25732,-76.9230769230769,4,1,0,45,0,0
26046,-120.481927710843,4,1,0,26,0,0
27091,-142.124581652627,4,1,0,26,0,0
27278,-150.375939849624,4,1,0,26,0,0
27653,-167.601109274421,4,1,0,26,0,0
28028,-183.752049610748,4,1,0,26,0,0
28403,-195.601134946845,4,1,0,26,0,0
28684,-199.716272160662,4,1,0,26,0,0
28778,-200,4,1,0,26,0,0
32455,-166.666666666667,4,1,0,26,0,0
32792,-200,4,1,0,26,0,0
33201,-166.666666666667,4,1,0,26,0,0
33579,-200,4,1,0,26,0,0
33955,-181.818181818182,4,1,0,26,0,0
34195,-200,4,1,0,26,0,0
34778,-133.333333333333,4,1,0,26,0,0
34841,-132.20300381701,4,1,0,26,0,0
34903,-131.099971851981,4,1,0,26,0,0
34966,-129.988575593681,4,1,0,26,0,0
35028,-128.904019646927,4,1,0,26,0,0
35091,-127.81123951058,4,1,0,26,0,0
35153,-126.744850104896,4,1,0,26,0,0
35200,-125.942391028292,4,1,0,26,0,0
35247,-125.145012557086,4,1,0,26,0,0
35294,-124.352682524466,4,1,0,26,0,0
35341,-123.565368967274,4,1,0,26,0,0
35434,-122.022152989069,4,1,0,26,0,0
35528,-120.481927710843,4,1,0,26,0,0
36214,-100,4,1,0,50,0,0
47470,-100,4,1,0,50,0,0
47658,-106.419663253929,4,1,0,50,0,0
47845,-113.213971954939,4,1,0,50,0,0
48033,-120.481927710843,4,1,0,50,0,0
48209,-76.9230769230769,4,1,0,46,0,0
54177,-76.9230769230769,4,1,0,44,0,0
54224,-78.0551988356066,4,1,0,44,0,0
54271,-79.203982848459,4,1,0,44,0,0
54373,-83.9706988770841,4,1,0,30,0,0
54646,-88.9966195135855,4,1,0,30,0,0
54834,-94.352683659255,4,1,0,30,0,0
54935,-98.5495880743139,4,1,0,37,0,0
55021,-97.3709834469328,4,1,0,37,0,0
55201,-100,4,1,0,37,0,0
55771,-100,4,1,0,37,0,0
55841,-97.0873786407767,4,1,0,37,0,0
55935,-94.3396226415094,4,1,0,37,0,0
56129,-100,4,1,0,37,0,0
56521,-100,4,1,0,37,0,0
56591,-97.0873786407767,4,1,0,37,0,0
56654,-94.3396226415094,4,1,0,37,0,0
56847,-100,4,1,0,37,0,0
57084,-109.791533148433,4,1,0,37,0,0
57177,-114.984018588773,4,1,0,37,0,0
57271,-120.481927710843,4,1,0,37,0,0
57377,-117.141384139648,4,1,0,26,0,0
57584,-113.910497894339,4,1,0,30,0,0
57834,-110.752157148448,4,1,0,34,0,0
58021,-107.69749270345,4,1,0,38,0,0
58209,-104.711416918309,4,1,0,40,0,0
58372,-101.823362631321,4,1,0,42,0,0
58419,-100,4,1,0,43,0,0
58764,-120.481927710843,4,1,0,43,0,0
58841,-118.630831698531,4,1,0,43,0,0
58903,-116.836887277182,4,1,0,44,0,0
59028,-113.302123297553,4,1,0,45,0,0
59153,-109.874299486247,4,1,0,46,0,0
59278,-106.550180492991,4,1,0,47,0,0
59403,-103.326628849271,4,1,0,48,0,0
59528,-100.200602007025,4,1,0,49,0,0
59653,-97.1691494669445,4,1,0,50,0,0
59778,-94.2294099936388,4,1,0,51,0,0
59903,-91.3786089150634,4,1,0,52,0,0
60028,-88.6140555036459,4,1,0,53,0,0
60153,-85.9331404366431,4,1,0,54,0,0
60278,-76.9230769230769,4,1,0,55,0,0
60359,-79.8537690420468,4,1,0,38,0,0
60528,-82.8961175928673,4,1,0,38,0,0
60653,-86.0543765736613,4,1,0,38,0,0
60778,-89.3329620556162,4,1,0,38,0,0
60903,-92.7364583578044,4,1,0,38,0,0
61028,-96.2696244572596,4,1,0,38,0,0
61153,-99.9374006432697,4,1,0,38,0,0
61278,-103.744915425192,4,1,0,38,0,0
61403,-107.69749270345,4,1,0,38,0,0
61528,-111.800659213734,4,1,0,38,0,0
61653,-116.060152254828,4,1,0,38,0,0
61778,-120.481927710843,4,1,0,38,0,0
61903,-116.417560658531,4,1,0,38,0,0
62028,-112.490301966367,4,1,0,38,0,0
62153,-108.695526387128,4,1,0,38,0,0
62278,-105.028764702821,4,1,0,38,0,0
62403,-101.485698461155,4,1,0,38,0,0
62528,-98.0621548895715,4,1,0,38,0,0
62653,-94.7541019808527,4,1,0,38,0,0
62778,-91.5576437445048,4,1,0,38,0,0
62903,-88.469015618338,4,1,0,38,0,0
62934,-87.719298245614,4,1,0,38,0,0
63278,-103.092783505155,4,1,0,38,0,0
63403,-100.4050933205,4,1,0,38,0,0
63528,-97.787472817573,4,1,0,38,0,0
63653,-95.2380952380952,4,1,0,38,0,0
63778,-99.1698107463391,4,1,0,38,0,0
63903,-103.26383931638,4,1,0,38,0,0
64028,-107.52688172043,4,1,0,38,0,0
64153,-104.956990071883,4,1,0,38,0,0
64278,-102.448518814028,4,1,0,38,0,0
64403,-100,4,1,0,38,0,0
64528,-103.574416865129,4,1,0,38,0,0
64653,-107.276598289514,4,1,0,38,0,0
64778,-111.111111111111,4,1,0,38,0,0
64903,-108.746323365802,4,1,0,38,0,0
65028,-106.431865610216,4,1,0,38,0,0
65153,-104.166666666667,4,1,0,38,0,0
65278,-108.057030245537,4,1,0,38,0,0
65403,-112.092689140654,4,1,0,38,0,0
65528,-116.279069767442,4,1,0,38,0,0
65653,-114.274881900139,4,1,0,38,0,0
65778,-108.387613656313,4,1,0,38,0,0
65903,-102.803648525108,4,1,0,38,0,0
66028,-97.5073607911141,4,1,0,38,0,0
66153,-92.4839297520301,4,1,0,38,0,0
66261,-83.3333333333333,4,1,0,38,0,0
66292,-81.9672131147541,4,1,0,38,0,0
66425,-90.9090909090909,4,1,0,30,0,0
66841,-100,4,1,0,30,0,0
67028,-107.436386191506,4,1,0,30,0,0
67216,-115.470053837925,4,1,0,30,0,0
67403,-124.056852976853,4,1,0,30,0,0
67591,-133.333333333333,4,1,0,30,0,0
67730,-100,4,1,0,44,0,0
70734,-133.333333333333,4,1,0,30,0,0
71667,-100,4,1,0,44,0,0
73704,-133.333333333333,4,1,0,30,0,0
74605,-100,4,1,0,44,0,0
78590,-100,4,1,0,42,0,0
78654,-100,4,1,0,42,0,0
78778,-95.7103269487193,4,1,0,41,0,0
78965,-91.6260327074179,4,1,0,40,0,0
79153,-87.6955754744102,4,1,0,39,0,0
79340,-83.9532986970081,4,1,0,38,0,0
79528,-80.3519766671414,4,1,0,37,0,0
79715,-76.9230769230769,4,1,0,50,0,0
84954,-76.9230769230769,4,1,0,48,0,0
85346,-87.7058019307029,4,1,0,44,0,0
85659,-99.304865938431,4,1,0,38,0,0
85761,-100,4,1,0,36,0,0
86119,-100,4,1,0,33,0,0
87341,-97.10595056707,4,1,0,33,0,0
87403,-94.3396226415094,4,1,0,33,0,0
87517,-100,4,1,0,33,0,0
88091,-97.0647616089455,4,1,0,33,0,0
88153,-94.3396226415094,4,1,0,33,0,0
88270,-100,4,1,0,33,0,0
88591,-102.604852223083,4,1,0,33,0,0
88684,-103.918398489459,4,1,0,33,0,0
88778,-105.263157894737,4,1,0,32,0,0
88873,-108.42848962496,4,1,0,24,0,0
88967,-108.42848962496,4,1,0,24,0,0
89153,-111.671404977573,4,1,0,25,0,0
89341,-115.029436872147,4,1,0,25,0,0
89528,-118.469775551819,4,1,0,26,0,0
89716,-122.02562538133,4,1,0,26,0,0
89903,-125.068981705591,4,1,0,27,0,0
89966,-126.111283447177,4,1,0,27,0,0
90091,-128.205128205128,4,1,0,27,0,0
90278,-120.481927710843,4,1,0,28,0,0
90362,-116.307527454797,4,1,0,30,0,0
90396,-116.307527454797,4,1,0,35,0,0
90466,-114.258764801361,4,1,0,36,0,0
90528,-112.277759823981,4,1,0,36,0,0
90653,-108.387613656313,4,1,0,37,0,0
90778,-104.632251414059,4,1,0,38,0,0
90841,-102.789149305941,4,1,0,39,0,0
90903,-101.007003168183,4,1,0,39,0,0
91028,-97.5073607911141,4,1,0,40,0,0
91153,-94.1289723507353,4,1,0,41,0,0
91216,-92.4708860051768,4,1,0,42,0,0
91278,-90.867636698592,4,1,0,42,0,0
91403,-93.4579439252336,4,1,0,43,0,0
91571,-100,4,1,0,45,0,0
91758,-87.719298245614,4,1,0,60,0,0
91779,-87.719298245614,4,1,0,60,0,1
91882,-87.719298245614,4,1,0,60,0,1
98560,-87.719298245614,4,1,0,45,0,1
99122,-87.719298245614,4,1,0,60,0,1
101575,-87.719298245614,4,1,0,45,0,1
102122,-87.719298245614,4,1,0,60,0,1
103679,-76.9230769230769,4,1,0,60,0,1
115123,-71.4285714285714,4,1,0,57,0,1
115334,-76.4821531312906,4,1,0,55,0,1
115498,-81.9232187363404,4,1,0,53,0,1
115701,-87.719298245614,4,1,0,45,0,1
115779,-87.719298245614,4,1,0,45,0,0
115899,-87.719298245614,4,1,0,40,0,0
116061,-87.719298245614,4,1,0,35,0,0
121138,-83.3333333333333,4,1,0,45,0,0
121325,-88.5453050885978,4,1,0,42,0,0
121513,-94.1137796633606,4,1,0,39,0,0
121662,-96.996521916404,4,1,0,30,0,0
121709,-98.4868122727119,4,1,0,29,0,0
121756,-100,4,1,0,26,0,0
122441,-100,4,1,0,40,0,0
123341,-98.0392156862745,4,1,0,40,0,0
123404,-96.1538461538461,4,1,0,40,0,0
123625,-100,4,1,0,40,0,0
124091,-98.0392156862745,4,1,0,40,0,0
124154,-96.1538461538461,4,1,0,40,0,0
124373,-100,4,1,0,40,0,0
124584,-109.791533148433,4,1,0,40,0,0
124677,-114.984018588773,4,1,0,40,0,0
124771,-120.481927710843,4,1,0,40,0,0
124881,-117.141384139648,4,1,0,30,0,0
124967,-117.141384139648,4,1,0,30,0,0
125146,-113.910497894339,4,1,0,30,0,0
125334,-110.752157148448,4,1,0,31,0,0
125521,-107.69749270345,4,1,0,32,0,0
125709,-104.711416918309,4,1,0,33,0,0
125896,-101.823362631321,4,1,0,35,0,0
126084,-99.0001559820062,4,1,0,37,0,0
126271,-96.2696244572596,4,1,0,39,0,0
126396,-94.486528243989,4,1,0,40,0,0
126521,-92.7364583578044,4,1,0,42,0,0
126646,-91.0188030884277,4,1,0,43,0,0
126771,-89.3329620556162,4,1,0,44,0,0
126896,-87.6783459993093,4,1,0,46,0,0
127021,-86.0543765736613,4,1,0,47,0,0
127146,-84.4604861448897,4,1,0,48,0,0
127271,-82.8961175928673,4,1,0,48,0,0
127396,-81.3607241163891,4,1,0,47,0,0
127521,-79.8537690420468,4,1,0,45,0,0
127646,-78.3747256366425,4,1,0,42,0,0
127736,-76.9230769230769,4,1,0,40,0,0

[HitObjects]
256,192,1779,5,0,0:0:0:0:
256,192,1967,1,8,0:0:0:0:
256,192,2154,1,0,0:0:0:0:
256,192,2342,1,0,0:0:0:0:
256,192,2529,1,8,0:0:0:0:
256,192,2717,1,8,0:0:0:0:
256,192,2904,1,0,0:0:0:0:
256,192,3092,1,0,0:0:0:0:
256,192,3279,1,8,0:0:0:0:
256,192,3467,1,0,0:0:0:0:
256,192,3654,1,8,0:0:0:0:
256,192,3842,1,8,0:0:0:0:
256,192,4029,1,0,0:0:0:0:
256,192,4779,1,0,0:0:0:0:
256,192,4967,1,8,0:0:0:0:
256,192,5154,1,0,0:0:0:0:
256,192,5342,1,0,0:0:0:0:
256,192,5529,1,8,0:0:0:0:
256,192,5717,1,8,0:0:0:0:
256,192,5904,1,0,0:0:0:0:
256,192,6092,1,0,0:0:0:0:
256,192,6279,1,8,0:0:0:0:
256,192,6467,1,0,0:0:0:0:
256,192,6654,1,8,0:0:0:0:
256,192,6842,1,8,0:0:0:0:
256,192,7029,1,0,0:0:0:0:
256,192,7404,1,0,0:0:0:0:
256,192,7779,1,8,0:0:0:0:
256,192,7967,1,0,0:0:0:0:
256,192,8154,1,8,0:0:0:0:
256,192,8342,1,8,0:0:0:0:
256,192,8529,1,0,0:0:0:0:
256,192,9279,1,0,0:0:0:0:
256,192,9654,1,0,0:0:0:0:
256,192,10029,1,8,0:0:0:0:
256,192,10217,1,8,0:0:0:0:
256,192,10404,1,0,0:0:0:0:
256,192,10779,1,8,0:0:0:0:
256,192,10967,1,0,0:0:0:0:
256,192,11154,1,8,0:0:0:0:
256,192,11342,1,8,0:0:0:0:
256,192,11529,1,0,0:0:0:0:
256,192,12279,1,0,0:0:0:0:
119,277,12654,1,0,0:0:0:0:
256,192,13029,1,8,0:0:0:0:
256,192,13217,1,8,0:0:0:0:
256,192,13404,1,0,0:0:0:0:
256,192,13779,1,0,0:0:0:0:
256,192,14154,1,8,0:0:0:0:
256,192,14185,1,8,0:0:0:0:
256,192,14529,1,0,0:0:0:0:
256,192,14904,1,0,0:0:0:0:
256,192,14935,1,8,0:0:0:0:
256,192,15092,1,8,0:0:0:0:
256,192,15279,1,0,0:0:0:0:
256,192,15467,1,8,0:0:0:0:
256,192,15654,1,0,0:0:0:0:
256,192,15717,1,8,0:0:0:0:
256,192,15779,1,8,0:0:0:0:
256,192,15842,1,0,0:0:0:0:
256,192,16029,1,8,0:0:0:0:
256,192,16404,1,8,0:0:0:0:
256,192,16685,1,8,0:0:0:0:
256,192,16732,1,8,0:0:0:0:
256,192,16779,1,0,0:0:0:0:
256,192,17154,1,8,0:0:0:0:
256,192,17529,1,0,0:0:0:0:
256,192,17810,1,0,0:0:0:0:
256,192,17857,1,8,0:0:0:0:
256,192,17904,1,8,0:0:0:0:
256,192,18092,1,8,0:0:0:0:
256,192,18279,1,0,0:0:0:0:
256,192,18467,1,8,0:0:0:0:
256,192,18654,1,0,0:0:0:0:
256,192,18717,1,8,0:0:0:0:
256,192,18779,1,8,0:0:0:0:
256,192,18842,1,0,0:0:0:0:
256,192,19029,1,8,0:0:0:0:
256,192,19404,1,8,0:0:0:0:
256,192,19747,1,8,0:0:0:0:
256,192,19779,1,0,0:0:0:0:
256,192,19967,1,0,0:0:0:0:
256,192,20154,1,8,0:0:0:0:
256,192,20342,1,0,0:0:0:0:
256,192,20482,1,0,0:0:0:0:
256,192,20529,1,8,0:0:0:0:
256,192,20904,1,0,0:0:0:0:
256,192,20967,1,0,0:0:0:0:
256,192,21029,1,8,0:0:0:0:
256,192,21092,1,0,0:0:0:0:
256,192,21279,1,8,0:0:0:0:
256,192,21362,1,0,0:0:0:0:
409,197,21445,1,0,0:0:0:0:
256,192,21654,1,8,0:0:0:0:
256,192,22029,1,0,0:0:0:0:
256,192,22112,1,0,0:0:0:0:
256,192,22195,1,0,0:0:0:0:
256,192,22404,1,8,0:0:0:0:
256,192,22592,1,8,0:0:0:0:
256,192,22685,1,8,0:0:0:0:
256,192,22779,1,0,0:0:0:0:
256,192,22967,1,0,0:0:0:0:
256,192,23154,1,0,0:0:0:0:
256,192,23342,1,0,0:0:0:0:
256,192,23529,1,8,0:0:0:0:
256,192,23717,1,0,0:0:0:0:
256,192,23904,1,8,0:0:0:0:
256,192,24092,1,8,0:0:0:0:
256,192,24279,1,0,0:0:0:0:
256,192,24404,1,8,0:0:0:0:
256,192,24529,1,8,0:0:0:0:
256,192,24654,1,0,0:0:0:0:
256,192,24779,1,0,0:0:0:0:
256,192,24904,1,8,0:0:0:0:
256,192,25029,1,0,0:0:0:0:
256,192,25154,1,0,0:0:0:0:
256,192,25279,1,0,0:0:0:0:
256,192,25404,1,8,0:0:0:0:
256,192,25529,1,8,0:0:0:0:
256,192,25654,1,8,0:0:0:0:
256,192,25779,1,0,0:0:0:0:
256,192,26529,1,8,0:0:0:0:
256,192,27092,1,0,0:0:0:0:
256,192,27279,1,0,0:0:0:0:
256,192,27654,1,0,0:0:0:0:
256,192,28029,1,8,0:0:0:0:
256,192,28404,1,8,0:0:0:0:
256,192,28685,1,0,0:0:0:0:
256,192,28779,1,8,0:0:0:0:
256,192,29154,1,0,0:0:0:0:
256,192,29529,1,8,0:0:0:0:
256,192,29612,1,0,0:0:0:0:
256,192,29685,1,8,0:0:0:0:
256,192,29748,1,0,0:0:0:0:
256,192,29810,1,8,0:0:0:0:
256,192,29857,1,0,0:0:0:0:
256,192,29904,1,8,0:0:0:0:
256,192,30092,1,8,0:0:0:0:
256,192,30279,1,0,0:0:0:0:
256,192,30654,1,0,0:0:0:0:
256,192,30935,1,8,0:0:0:0:
256,192,31029,1,0,0:0:0:0:
256,192,31217,1,0,0:0:0:0:
256,192,31685,1,8,0:0:0:0:
256,192,31779,1,8,0:0:0:0:
256,192,32154,1,0,0:0:0:0:
256,192,32342,1,0,0:0:0:0:
256,192,32529,1,8,0:0:0:0:
256,192,32904,1,0,0:0:0:0:
256,192,33092,1,0,0:0:0:0:
256,192,33279,1,0,0:0:0:0:
256,192,33654,1,0,0:0:0:0:
256,192,33842,1,0,0:0:0:0:
256,192,34029,1,0,0:0:0:0:
256,192,34404,1,0,0:0:0:0:
256,192,34592,1,0,0:0:0:0:
256,192,34779,1,0,0:0:0:0:
256,192,34842,1,0,0:0:0:0:
256,192,34904,1,8,0:0:0:0:
256,192,34967,1,8,0:0:0:0:
256,192,35029,1,0,0:0:0:0:
256,192,35092,1,0,0:0:0:0:
256,192,35154,1,8,0:0:0:0:
256,192,35201,1,8,0:0:0:0:
256,192,35248,1,0,0:0:0:0:
256,192,35295,1,0,0:0:0:0:
256,192,35342,1,8,0:0:0:0:
256,192,35435,1,8,0:0:0:0:
256,192,35529,1,0,0:0:0:0:
256,192,36279,1,0,0:0:0:0:
256,192,36467,1,8,0:0:0:0:
256,192,36560,1,8,0:0:0:0:
256,192,36654,1,0,0:0:0:0:
256,192,36842,1,0,0:0:0:0:
256,192,37029,1,8,0:0:0:0:
256,192,37217,1,8,0:0:0:0:
256,192,37404,1,0,0:0:0:0:
256,192,37592,1,0,0:0:0:0:
256,192,37685,1,0,0:0:0:0:
256,192,37779,1,8,0:0:0:0:
256,192,37967,1,0,0:0:0:0:
256,192,38154,1,8,0:0:0:0:
256,192,38342,1,8,0:0:0:0:
256,192,38529,1,0,0:0:0:0:
256,192,38623,1,8,0:0:0:0:
256,192,38717,1,0,0:0:0:0:
256,192,38810,1,8,0:0:0:0:
256,192,38904,1,0,0:0:0:0:
256,192,38998,1,0,0:0:0:0:
256,192,39092,1,8,0:0:0:0:
256,192,39279,1,0,0:0:0:0:
256,192,39467,1,8,0:0:0:0:
256,192,39560,1,8,0:0:0:0:
256,192,39654,1,0,0:0:0:0:
256,192,39842,1,8,0:0:0:0:
256,192,40029,1,8,0:0:0:0:
256,192,40217,1,0,0:0:0:0:
256,192,40404,1,0,0:0:0:0:
256,192,40592,1,8,0:0:0:0:
256,192,40685,1,8,0:0:0:0:
256,192,40779,1,8,0:0:0:0:
256,192,40967,1,0,0:0:0:0:
256,192,41154,1,8,0:0:0:0:
256,192,41342,1,8,0:0:0:0:
256,192,41529,1,0,0:0:0:0:
256,192,41717,1,0,0:0:0:0:
256,192,41810,1,0,0:0:0:0:
256,192,41904,1,8,0:0:0:0:
256,192,42092,1,0,0:0:0:0:
256,192,42279,1,8,0:0:0:0:
256,192,42467,1,8,0:0:0:0:
256,192,42654,1,8,0:0:0:0:
256,192,42842,1,8,0:0:0:0:
256,192,43029,1,0,0:0:0:0:
256,192,43123,1,8,0:0:0:0:
256,192,43217,1,0,0:0:0:0:
256,192,43310,1,8,0:0:0:0:
256,192,43404,1,0,0:0:0:0:
256,192,43498,1,0,0:0:0:0:
256,192,43592,1,8,0:0:0:0:
256,192,43779,1,0,0:0:0:0:
256,192,44154,1,0,0:0:0:0:
256,192,44342,1,0,0:0:0:0:
256,192,44529,1,8,0:0:0:0:
256,192,44717,1,0,0:0:0:0:
256,192,44904,1,0,0:0:0:0:
256,192,45279,1,8,0:0:0:0:
256,192,45467,1,8,0:0:0:0:
256,192,45654,1,0,0:0:0:0:
256,192,45842,1,8,0:0:0:0:
256,192,46029,1,0,0:0:0:0:
256,192,46123,1,8,0:0:0:0:
256,192,46217,1,0,0:0:0:0:
256,192,46310,1,8,0:0:0:0:
256,192,46404,1,0,0:0:0:0:
256,192,46498,1,0,0:0:0:0:
256,192,46592,1,8,0:0:0:0:
256,192,46779,1,0,0:0:0:0:
256,192,47154,1,0,0:0:0:0:
256,192,47342,1,8,0:0:0:0:
256,192,47529,1,0,0:0:0:0:
256,192,47717,1,8,0:0:0:0:
256,192,47904,1,8,0:0:0:0:
256,192,48092,1,8,0:0:0:0:
256,192,48279,1,0,0:0:0:0:
256,192,48467,1,0,0:0:0:0:
256,192,48654,1,8,0:0:0:0:
256,192,48685,1,8,0:0:0:0:
256,192,48842,1,0,0:0:0:0:
256,192,49029,1,8,0:0:0:0:
256,192,49404,1,0,0:0:0:0:
256,192,49435,1,8,0:0:0:0:
256,192,49592,1,8,0:0:0:0:
256,192,49779,1,0,0:0:0:0:
256,192,49967,1,8,0:0:0:0:
256,192,50154,1,0,0:0:0:0:
256,192,50217,1,8,0:0:0:0:
256,192,50279,1,8,0:0:0:0:
256,192,50342,1,0,0:0:0:0:
256,192,50529,1,8,0:0:0:0:
256,192,50717,1,0,0:0:0:0:
256,192,50810,1,0,0:0:0:0:
256,192,50904,1,8,0:0:0:0:
256,192,50998,1,0,0:0:0:0:
256,192,51092,1,0,0:0:0:0:
256,192,51185,1,8,0:0:0:0:
256,192,51232,1,8,0:0:0:0:
256,192,51279,1,0,0:0:0:0:
256,192,51467,1,0,0:0:0:0:
256,192,51654,1,8,0:0:0:0:
256,192,51842,1,8,0:0:0:0:
256,192,52029,1,0,0:0:0:0:
256,192,52310,1,0,0:0:0:0:
256,192,52357,1,8,0:0:0:0:
256,192,52404,1,8,0:0:0:0:
256,192,52592,1,8,0:0:0:0:
256,192,52779,1,0,0:0:0:0:
256,192,52967,1,8,0:0:0:0:
256,192,53154,1,0,0:0:0:0:
256,192,53217,1,8,0:0:0:0:
256,192,53279,1,8,0:0:0:0:
256,192,53342,1,0,0:0:0:0:
256,192,53529,1,8,0:0:0:0:
256,192,53717,1,0,0:0:0:0:
256,192,53904,1,8,0:0:0:0:
256,192,54092,1,8,0:0:0:0:
256,192,54247,1,8,0:0:0:0:
256,192,54279,1,0,0:0:0:0:
256,192,54467,1,0,0:0:0:0:
256,192,54654,1,8,0:0:0:0:
256,192,54842,1,0,0:0:0:0:
256,192,54982,1,0,0:0:0:0:
256,192,55029,1,8,0:0:0:0:
256,192,55404,1,0,0:0:0:0:
256,192,55467,1,0,0:0:0:0:
256,192,55529,1,8,0:0:0:0:
256,192,55592,1,0,0:0:0:0:
256,192,55779,1,8,0:0:0:0:
256,192,55862,1,0,0:0:0:0:
256,192,55945,1,0,0:0:0:0:
256,192,56154,1,8,0:0:0:0:
256,192,56529,1,0,0:0:0:0:
256,192,56612,1,0,0:0:0:0:
256,192,56695,1,0,0:0:0:0:
256,192,56904,1,8,0:0:0:0:
256,192,57092,1,8,0:0:0:0:
256,192,57185,1,8,0:0:0:0:
256,192,57279,1,0,0:0:0:0:
256,192,57467,1,8,0:0:0:0:
256,192,57654,1,0,0:0:0:0:
256,192,57842,1,0,0:0:0:0:
256,192,58029,1,0,0:0:0:0:
256,192,58217,1,8,0:0:0:0:
256,192,58404,1,0,0:0:0:0:
256,192,58451,1,8,0:0:0:0:
256,192,58779,1,0,0:0:0:0:
256,192,58904,1,8,0:0:0:0:
256,192,59029,1,8,0:0:0:0:
256,192,59154,1,0,0:0:0:0:
256,192,59279,1,0,0:0:0:0:
256,192,59404,1,8,0:0:0:0:
256,192,59529,1,0,0:0:0:0:
256,192,59654,1,8,0:0:0:0:
256,192,59779,1,8,0:0:0:0:
256,192,59904,1,0,0:0:0:0:
256,192,60029,1,0,0:0:0:0:
256,192,60154,1,0,0:0:0:0:
256,192,60279,1,12,0:0:0:0:
256,192,60404,1,0,0:0:0:0:
256,192,60529,1,0,0:0:0:0:
256,192,60654,1,8,0:0:0:0:
256,192,60779,1,8,0:0:0:0:
256,192,60904,1,0,0:0:0:0:
256,192,61029,1,8,0:0:0:0:
256,192,61154,1,0,0:0:0:0:
256,192,61279,1,0,0:0:0:0:
256,192,61404,1,8,0:0:0:0:
256,192,61529,1,8,0:0:0:0:
256,192,61654,1,0,0:0:0:0:
256,192,61779,1,8,0:0:0:0:
256,192,61904,1,0,0:0:0:0:
256,192,62029,1,8,0:0:0:0:
256,192,62154,1,8,0:0:0:0:
256,192,62279,1,0,0:0:0:0:
256,192,62404,1,8,0:0:0:0:
256,192,62529,1,0,0:0:0:0:
256,192,62654,1,0,0:0:0:0:
256,192,62779,1,8,0:0:0:0:
256,192,62904,1,0,0:0:0:0:
256,192,62935,1,8,0:0:0:0:
256,192,63279,1,0,0:0:0:0:
256,192,63404,1,0,0:0:0:0:
256,192,63529,1,0,0:0:0:0:
256,192,63654,1,8,0:0:0:0:
256,192,63779,1,8,0:0:0:0:
256,192,63904,1,8,0:0:0:0:
256,192,64029,1,0,0:0:0:0:
256,192,64154,1,0,0:0:0:0:
256,192,64279,1,0,0:0:0:0:
256,192,64404,1,8,0:0:0:0:
256,192,64529,1,0,0:0:0:0:
256,192,64654,1,8,0:0:0:0:
256,192,64779,1,0,0:0:0:0:
256,192,64904,1,0,0:0:0:0:
256,192,65029,1,0,0:0:0:0:
256,192,65154,1,8,0:0:0:0:
256,192,65279,1,8,0:0:0:0:
256,192,65404,1,8,0:0:0:0:
256,192,65529,1,0,0:0:0:0:
256,192,65654,1,8,0:0:0:0:
256,192,65779,1,8,0:0:0:0:
256,192,65904,1,0,0:0:0:0:
256,192,66029,1,8,0:0:0:0:
256,192,66154,1,8,0:0:0:0:
256,192,66279,1,4,0:0:0:0:
256,192,66467,1,8,0:0:0:0:
256,192,66842,1,8,0:0:0:0:
256,192,67029,1,0,0:0:0:0:
256,192,67217,1,8,0:0:0:0:
256,192,67404,1,8,0:0:0:0:
256,192,67592,1,0,0:0:0:0:
256,192,67779,1,12,0:0:0:0:
256,192,67967,1,8,0:0:0:0:
256,192,68154,1,0,0:0:0:0:
256,192,68342,1,8,0:0:0:0:
256,192,68529,1,0,0:0:0:0:
256,192,68717,1,0,0:0:0:0:
256,192,68810,1,0,0:0:0:0:
256,192,68904,1,8,0:0:0:0:
256,192,69092,1,8,0:0:0:0:
256,192,69279,1,0,0:0:0:0:
256,192,69654,1,8,0:0:0:0:
119,277,69842,1,0,0:0:0:0:
119,277,69935,1,0,0:0:0:0:
411,132,70029,1,8,0:0:0:0:
256,192,70217,1,0,0:0:0:0:
256,192,70404,1,8,0:0:0:0:
256,192,70592,1,8,0:0:0:0:
256,192,70779,1,0,0:0:0:0:
256,192,71154,1,0,0:0:0:0:
256,192,71529,1,8,0:0:0:0:
256,192,71717,1,0,0:0:0:0:
256,192,71904,1,8,0:0:0:0:
256,192,71998,1,0,0:0:0:0:
256,192,72092,1,8,0:0:0:0:
256,192,72279,1,0,0:0:0:0:
256,192,72654,1,0,0:0:0:0:
256,192,72842,1,8,0:0:0:0:
119,277,72935,1,0,0:0:0:0:
256,192,73029,1,8,0:0:0:0:
256,192,73217,1,0,0:0:0:0:
256,192,73404,1,8,0:0:0:0:
256,192,73592,1,8,0:0:0:0:
256,192,73779,1,0,0:0:0:0:
256,192,73967,1,8,0:0:0:0:
256,192,74154,1,0,0:0:0:0:
256,192,74342,1,8,0:0:0:0:
256,192,74529,1,0,0:0:0:0:
256,192,74717,1,8,0:0:0:0:
256,192,74810,1,0,0:0:0:0:
256,192,74904,1,8,0:0:0:0:
256,192,75092,1,0,0:0:0:0:
256,192,75279,1,0,0:0:0:0:
256,192,75654,1,0,0:0:0:0:
256,192,75842,1,8,0:0:0:0:
256,192,76029,1,0,0:0:0:0:
256,192,76123,1,0,0:0:0:0:
256,192,76217,1,8,0:0:0:0:
256,192,76404,1,0,0:0:0:0:
256,192,76779,1,8,0:0:0:0:
256,192,76967,1,8,0:0:0:0:
256,192,77154,1,0,0:0:0:0:
256,192,77342,1,8,0:0:0:0:
256,192,77529,1,0,0:0:0:0:
256,192,77717,1,8,0:0:0:0:
256,192,77810,1,0,0:0:0:0:
256,192,77904,1,8,0:0:0:0:
256,192,78092,1,0,0:0:0:0:
256,192,78279,1,0,0:0:0:0:
256,192,78654,1,0,0:0:0:0:
256,192,78842,1,0,0:0:0:0:
256,192,79029,1,8,0:0:0:0:
256,192,79217,1,8,0:0:0:0:
256,192,79404,1,0,0:0:0:0:
256,192,79592,1,8,0:0:0:0:
256,192,79779,1,0,0:0:0:0:
256,192,80154,1,8,0:0:0:0:
256,192,80529,1,0,0:0:0:0:
256,192,80904,1,8,0:0:0:0:
256,192,80935,1,8,0:0:0:0:
256,192,81092,1,8,0:0:0:0:
256,192,81279,1,0,0:0:0:0:
256,192,81467,1,8,0:0:0:0:
256,192,81654,1,8,0:0:0:0:
256,192,81717,1,8,0:0:0:0:
256,192,81779,1,8,0:0:0:0:
256,192,81842,1,0,0:0:0:0:
256,192,82029,1,8,0:0:0:0:
256,192,82404,1,8,0:0:0:0:
256,192,82748,1,0,0:0:0:0:
256,192,82779,1,0,0:0:0:0:
256,192,83154,1,8,0:0:0:0:
256,192,83529,1,0,0:0:0:0:
256,192,83810,1,8,0:0:0:0:
256,192,83857,1,0,0:0:0:0:
256,192,83904,1,8,0:0:0:0:
256,192,84092,1,8,0:0:0:0:
256,192,84279,1,0,0:0:0:0:
256,192,84467,1,8,0:0:0:0:
256,192,84654,1,0,0:0:0:0:
256,192,84717,1,8,0:0:0:0:
256,192,84842,1,0,0:0:0:0:
256,192,85029,1,8,0:0:0:0:
256,192,85404,1,8,0:0:0:0:
256,192,85748,1,8,0:0:0:0:
256,192,85779,1,0,0:0:0:0:
256,192,86482,1,0,0:0:0:0:
256,192,86529,1,8,0:0:0:0:
256,192,86904,1,0,0:0:0:0:
256,192,86967,1,0,0:0:0:0:
256,192,87029,1,8,0:0:0:0:
256,192,87092,1,0,0:0:0:0:
256,192,87279,1,8,0:0:0:0:
256,192,87342,1,0,0:0:0:0:
256,192,87404,1,8,0:0:0:0:
256,192,87654,1,8,0:0:0:0:
256,192,88029,1,0,0:0:0:0:
256,192,88092,1,0,0:0:0:0:
256,192,88154,1,8,0:0:0:0:
256,192,88404,1,8,0:0:0:0:
256,192,88592,1,8,0:0:0:0:
256,192,88685,1,8,0:0:0:0:
256,192,88779,1,0,0:0:0:0:
256,192,88967,1,0,0:0:0:0:
256,192,89154,1,0,0:0:0:0:
256,192,89342,1,0,0:0:0:0:
256,192,89529,1,0,0:0:0:0:
256,192,89717,1,8,0:0:0:0:
256,192,89904,1,0,0:0:0:0:
256,192,89967,1,8,0:0:0:0:
256,192,90092,1,0,0:0:0:0:
256,192,90279,1,0,0:0:0:0:
256,192,90404,1,0,0:0:0:0:
256,192,90467,1,8,0:0:0:0:
256,192,90529,1,8,0:0:0:0:
256,192,90654,1,0,0:0:0:0:
256,192,90779,1,0,0:0:0:0:
256,192,90842,1,8,0:0:0:0:
256,192,90904,1,8,0:0:0:0:
256,192,91029,1,0,0:0:0:0:
256,192,91154,1,0,0:0:0:0:
256,192,91217,1,8,0:0:0:0:
256,192,91279,1,8,0:0:0:0:
256,192,91404,1,0,0:0:0:0:
256,192,91592,1,8,0:0:0:0:
256,192,91779,1,4,0:0:0:0:
256,192,91967,1,8,0:0:0:0:
256,192,92060,1,8,0:0:0:0:
256,192,92154,1,0,0:0:0:0:
256,192,92342,1,0,0:0:0:0:
256,192,92529,1,8,0:0:0:0:
256,192,92717,1,8,0:0:0:0:
256,192,92904,1,0,0:0:0:0:
256,192,93092,1,0,0:0:0:0:
256,192,93185,1,0,0:0:0:0:
256,192,93279,1,8,0:0:0:0:
256,192,93467,1,8,0:0:0:0:
256,192,93654,1,0,0:0:0:0:
256,192,93842,1,0,0:0:0:0:
256,192,94029,1,8,0:0:0:0:
256,192,94123,1,8,0:0:0:0:
256,192,94217,1,0,0:0:0:0:
256,192,94310,1,8,0:0:0:0:
256,192,94404,1,0,0:0:0:0:
256,192,94498,1,0,0:0:0:0:
256,192,94592,1,8,0:0:0:0:
256,192,94779,1,0,0:0:0:0:
256,192,94967,1,8,0:0:0:0:
256,192,95060,1,8,0:0:0:0:
256,192,95154,1,0,0:0:0:0:
256,192,95342,1,8,0:0:0:0:
256,192,95529,1,8,0:0:0:0:
256,192,95717,1,0,0:0:0:0:
256,192,95904,1,8,0:0:0:0:
256,192,96092,1,0,0:0:0:0:
256,192,96185,1,0,0:0:0:0:
256,192,96279,1,8,0:0:0:0:
256,192,96467,1,8,0:0:0:0:
256,192,96654,1,0,0:0:0:0:
256,192,96842,1,0,0:0:0:0:
256,192,97029,1,8,0:0:0:0:
256,192,97216,1,0,0:0:0:0:
256,192,97404,1,8,0:0:0:0:
256,192,97779,1,0,0:0:0:0:
256,192,97967,1,0,0:0:0:0:
256,192,98060,1,0,0:0:0:0:
256,192,98154,1,8,0:0:0:0:
256,192,98342,1,8,0:0:0:0:
256,192,98529,1,0,0:0:0:0:
256,192,98622,1,8,0:0:0:0:
256,192,98716,1,0,0:0:0:0:
256,192,98810,1,8,0:0:0:0:
256,192,98904,1,0,0:0:0:0:
256,192,98997,1,0,0:0:0:0:
256,192,99091,1,8,0:0:0:0:
256,192,99279,1,0,0:0:0:0:
256,192,99654,1,0,0:0:0:0:
256,192,100029,1,8,0:0:0:0:
256,192,100217,1,8,0:0:0:0:
256,192,100404,1,0,0:0:0:0:
256,192,100591,1,8,0:0:0:0:
256,192,100779,1,0,0:0:0:0:
256,192,100966,1,0,0:0:0:0:
256,192,101060,1,0,0:0:0:0:
256,192,101154,1,8,0:0:0:0:
256,192,101342,1,8,0:0:0:0:
256,192,101529,1,0,0:0:0:0:
256,192,101622,1,8,0:0:0:0:
256,192,101716,1,0,0:0:0:0:
256,192,101810,1,8,0:0:0:0:
256,192,101904,1,0,0:0:0:0:
256,192,101997,1,0,0:0:0:0:
256,192,102091,1,8,0:0:0:0:
256,192,102279,1,0,0:0:0:0:
256,192,102654,1,0,0:0:0:0:
256,192,103029,1,8,0:0:0:0:
256,192,103217,1,8,0:0:0:0:
256,192,103404,1,0,0:0:0:0:
256,192,103592,1,8,0:0:0:0:
256,192,103779,1,4,0:0:0:0:
256,192,103967,1,8,0:0:0:0:
256,192,104060,1,8,0:0:0:0:
256,192,104154,1,0,0:0:0:0:
256,192,104342,1,0,0:0:0:0:
256,192,104529,1,8,0:0:0:0:
256,192,104623,1,0,0:0:0:0:
256,192,104717,1,8,0:0:0:0:
256,192,104904,1,0,0:0:0:0:
256,192,105092,1,0,0:0:0:0:
256,192,105185,1,0,0:0:0:0:
256,192,105279,1,8,0:0:0:0:
256,192,105467,1,8,0:0:0:0:
256,192,105654,1,0,0:0:0:0:
256,192,105842,1,8,0:0:0:0:
256,192,106029,1,0,0:0:0:0:
256,192,106123,1,8,0:0:0:0:
256,192,106217,1,0,0:0:0:0:
256,192,106310,1,8,0:0:0:0:
256,192,106404,1,0,0:0:0:0:
256,192,106498,1,0,0:0:0:0:
256,192,106592,1,8,0:0:0:0:
256,192,106779,1,0,0:0:0:0:
256,192,106967,1,8,0:0:0:0:
256,192,107060,1,8,0:0:0:0:
256,192,107154,1,0,0:0:0:0:
256,192,107342,1,8,0:0:0:0:
256,192,107529,1,8,0:0:0:0:
256,192,107717,1,0,0:0:0:0:
256,192,107904,1,8,0:0:0:0:
256,192,108092,1,0,0:0:0:0:
256,192,108185,1,0,0:0:0:0:
256,192,108279,1,8,0:0:0:0:
256,192,108467,1,8,0:0:0:0:
256,192,108654,1,0,0:0:0:0:
256,192,108842,1,8,0:0:0:0:
256,192,108935,1,8,0:0:0:0:
256,192,109029,1,0,0:0:0:0:
256,192,109217,1,0,0:0:0:0:
256,192,109404,1,8,0:0:0:0:
256,192,109592,1,8,0:0:0:0:
256,192,109779,1,0,0:0:0:0:
256,192,109873,1,0,0:0:0:0:
256,192,109967,1,8,0:0:0:0:
256,192,110154,1,8,0:0:0:0:
256,192,110342,1,8,0:0:0:0:
256,192,110529,1,0,0:0:0:0:
256,192,110623,1,8,0:0:0:0:
256,192,110717,1,0,0:0:0:0:
256,192,110810,1,8,0:0:0:0:
256,192,110904,1,0,0:0:0:0:
256,192,110998,1,0,0:0:0:0:
256,192,111092,1,8,0:0:0:0:
256,192,111279,1,0,0:0:0:0:
256,192,111654,1,0,0:0:0:0:
256,192,111842,1,0,0:0:0:0:
256,192,112029,1,8,0:0:0:0:
256,192,112123,1,8,0:0:0:0:
256,192,112217,1,0,0:0:0:0:
256,192,112404,1,0,0:0:0:0:
256,192,112592,1,8,0:0:0:0:
256,192,112779,1,0,0:0:0:0:
256,192,112873,1,0,0:0:0:0:
256,192,112967,1,8,0:0:0:0:
256,192,113154,1,8,0:0:0:0:
256,192,113342,1,8,0:0:0:0:
256,192,113529,1,0,0:0:0:0:
256,192,113623,1,8,0:0:0:0:
256,192,113717,1,0,0:0:0:0:
256,192,113810,1,8,0:0:0:0:
256,192,113904,1,0,0:0:0:0:
256,192,113998,1,0,0:0:0:0:
256,192,114092,1,8,0:0:0:0:
256,192,114279,1,0,0:0:0:0:
256,192,114654,1,0,0:0:0:0:
256,192,114842,1,8,0:0:0:0:
256,192,115029,1,0,0:0:0:0:
256,192,115217,1,8,0:0:0:0:
256,192,115404,1,8,0:0:0:0:
256,192,115592,1,8,0:0:0:0:
256,192,115779,1,0,0:0:0:0:
256,192,115967,1,0,0:0:0:0:
256,192,116154,1,8,0:0:0:0:
256,192,116185,1,8,0:0:0:0:
256,192,116342,1,8,0:0:0:0:
256,192,116529,1,0,0:0:0:0:
256,192,116717,1,0,0:0:0:0:
256,192,116904,1,0,0:0:0:0:
256,192,116935,1,8,0:0:0:0:
256,192,117092,1,8,0:0:0:0:
256,192,117279,1,0,0:0:0:0:
256,192,117467,1,8,0:0:0:0:
256,192,117654,1,0,0:0:0:0:
256,192,117717,1,8,0:0:0:0:
256,192,117779,1,8,0:0:0:0:
256,192,117842,1,0,0:0:0:0:
256,192,118029,1,8,0:0:0:0:
256,192,118123,1,0,0:0:0:0:
256,192,118217,1,0,0:0:0:0:
256,192,118310,1,0,0:0:0:0:
256,192,118404,1,8,0:0:0:0:
256,192,118498,1,0,0:0:0:0:
256,192,118592,1,0,0:0:0:0:
256,192,118685,1,8,0:0:0:0:
256,192,118732,1,8,0:0:0:0:
256,192,118779,1,0,0:0:0:0:
256,192,118967,1,0,0:0:0:0:
256,192,119154,1,8,0:0:0:0:
256,192,119342,1,8,0:0:0:0:
256,192,119529,1,0,0:0:0:0:
256,192,119717,1,0,0:0:0:0:
256,192,119810,1,0,0:0:0:0:
256,192,119857,1,8,0:0:0:0:
256,192,119904,1,8,0:0:0:0:
256,192,120092,1,8,0:0:0:0:
256,192,120279,1,0,0:0:0:0:
256,192,120467,1,8,0:0:0:0:
256,192,120654,1,0,0:0:0:0:
256,192,120717,1,0,0:0:0:0:
256,192,120779,1,0,0:0:0:0:
256,192,120842,1,8,0:0:0:0:
256,192,121029,1,0,0:0:0:0:
256,192,121217,1,8,0:0:0:0:
256,192,121404,1,8,0:0:0:0:
256,192,121592,1,8,0:0:0:0:
256,192,121747,1,8,0:0:0:0:
256,192,121779,1,0,0:0:0:0:
256,192,121967,1,0,0:0:0:0:
256,192,122154,1,8,0:0:0:0:
256,192,122342,1,0,0:0:0:0:
256,192,122482,1,0,0:0:0:0:
256,192,122529,1,8,0:0:0:0:
256,192,122904,1,0,0:0:0:0:
256,192,122967,1,0,0:0:0:0:
256,192,123029,1,8,0:0:0:0:
256,192,123092,1,0,0:0:0:0:
256,192,123279,1,8,0:0:0:0:
256,192,123362,1,0,0:0:0:0:
256,192,123445,1,0,0:0:0:0:
256,192,123654,1,8,0:0:0:0:
256,192,124029,1,0,0:0:0:0:
256,192,124112,1,0,0:0:0:0:
256,192,124195,1,0,0:0:0:0:
256,192,124404,1,8,0:0:0:0:
256,192,124592,1,8,0:0:0:0:
256,192,124685,1,8,0:0:0:0:
256,192,124779,1,0,0:0:0:0:
256,192,124967,1,0,0:0:0:0:
256,192,125154,1,0,0:0:0:0:
256,192,125342,1,0,0:0:0:0:
256,192,125529,1,8,0:0:0:0:
256,192,125717,1,0,0:0:0:0:
256,192,125904,1,8,0:0:0:0:
256,192,126092,1,8,0:0:0:0:
256,192,126279,1,0,0:0:0:0:
256,192,126404,1,8,0:0:0:0:
256,192,126529,1,8,0:0:0:0:
256,192,126654,1,0,0:0:0:0:
256,192,126779,1,0,0:0:0:0:
256,192,126904,1,8,0:0:0:0:
256,192,127029,1,0,0:0:0:0:
256,192,127154,1,0,0:0:0:0:
256,192,127279,1,0,0:0:0:0:
256,192,127404,1,8,0:0:0:0:
256,192,127529,1,8,0:0:0:0:
256,192,127654,1,8,0:0:0:0:
256,192,127779,1,0,0:0:0:0:
