osu file format v14

[General]
AudioFilename: audio.mp3
AudioLeadIn: 0
PreviewTime: 36185
Countdown: 0
SampleSet: Normal
StackLeniency: 0
Mode: 1
LetterboxInBreaks: 0
WidescreenStoryboard: 0

[Editor]
Bookmarks: 13779,13889,22778,36278,48278,60278,67854,79778,91778,115778
DistanceSpacing: 1
BeatDivisor: 3
GridSize: 32
TimelineZoom: 4.399998

[Metadata]
Title:Yousei no Kiri
TitleUnicode:妖精の霧
Artist:Kikuo
ArtistUnicode:きくお
Creator:Alchyr
Version:Oni
Source:
Tags:Fairy of the Mist featured artist fa KIKUOWORLD 黄菊しーく si_ku.k other folk electronica pop mapper's mappers' guild mg mpg
BeatmapID:3865981
BeatmapSetID:1871513

[Difficulty]
HPDrainRate:6
CircleSize:2
OverallDifficulty:5.5
ApproachRate:10
SliderMultiplier:1.4
SliderTickRate:1

[Events]
//Background and Video events
0,0,"bg.jpg",0,0
//Break Periods
//Storyboard Layer 0 (Background)
//Storyboard Layer 1 (Fail)
//Storyboard Layer 2 (Pass)
//Storyboard Layer 3 (Foreground)
//Storyboard Layer 4 (Overlay)
//Storyboard Sound Samples

[TimingPoints]
1779,375,4,1,0,30,1,0
1779,-120.481927710843,4,1,0,30,0,0
1897,-117.32909375397,4,1,0,44,0,0
2084,-114.274881900139,4,1,0,44,0,0
2272,-111.284477157137,4,1,0,44,0,0
2459,-108.387613656313,4,1,0,44,0,0
2647,-105.55127002094,4,1,0,44,0,0
2834,-102.803648525108,4,1,0,44,0,0
3022,-100.113429003236,4,1,0,44,0,0
3209,-97.5073607911141,4,1,0,44,0,0
3397,-94.9557372904911,4,1,0,44,0,0
3584,-92.4839297520301,4,1,0,44,0,0
3772,-90.0637620162753,4,1,0,44,0,0
3959,-87.719298245614,4,1,0,44,0,0
4123,-120.481927710843,4,1,0,30,0,0
4897,-117.32909375397,4,1,0,44,0,0
5084,-114.274881900139,4,1,0,44,0,0
5272,-111.284477157137,4,1,0,44,0,0
5459,-108.387613656313,4,1,0,44,0,0
5647,-105.55127002094,4,1,0,44,0,0
5834,-102.803648525108,4,1,0,44,0,0
6022,-100.113429003236,4,1,0,44,0,0
6209,-97.5073607911141,4,1,0,44,0,0
6397,-94.9557372904911,4,1,0,44,0,0
6584,-92.4839297520301,4,1,0,44,0,0
6772,-90.0637620162753,4,1,0,44,0,0
6959,-87.719298245614,4,1,0,44,0,0
7234,-94.962434181687,4,1,0,40,0,0
7713,-102.803648525108,4,1,0,44,0,0
7901,-106.975128113268,4,1,0,44,0,0
8088,-111.292325656413,4,1,0,44,0,0
8276,-115.808251612885,4,1,0,44,0,0
8463,-120.481927710843,4,1,0,44,0,0
8625,-120.481927710843,4,1,0,40,0,0
9186,-100,4,1,0,30,0,0
9982,-100,4,1,0,38,0,0
10135,-100,4,1,0,34,0,0
10322,-100,4,1,0,30,0,0
10703,-106.407923741059,4,1,0,44,0,0
10891,-109.773350289756,4,1,0,44,0,0
11078,-113.226462348831,4,1,0,44,0,0
11266,-116.80754286433,4,1,0,44,0,0
11453,-120.481927710843,4,1,0,44,0,0
11597,-120.481927710843,4,1,0,30,0,0
12217,-100,4,1,0,30,0,0
12981,-100,4,1,0,38,0,0
13122,-100,4,1,0,34,0,0
13338,-100,4,1,0,30,0,0
13747,-87.719298245614,4,1,0,40,0,0
19731,-88.3616914546322,4,1,0,40,0,0
19778,-89.0087890906493,4,1,0,40,0,0
19896,-91.6449167372819,4,1,0,30,0,0
20137,-94.3444694142955,4,1,0,30,0,0
20325,-97.138621167968,4,1,0,30,0,0
20435,-98.5495880743139,4,1,0,36,0,0
20512,-100,4,1,0,36,0,0
20708,-100,4,1,0,36,0,0
22591,-104.268798517758,4,1,0,36,0,0
22684,-106.447382811341,4,1,0,36,0,0
22778,-108.695652173913,4,1,0,36,0,0
22896,-106.900774512214,4,1,0,30,0,0
23083,-105.144847467295,4,1,0,30,0,0
23271,-110.752157148448,4,1,0,30,0,0
23342,-103.408603798046,4,1,0,30,0,0
23458,-101.71003833007,4,1,0,32,0,0
23646,-100.030513232993,4,1,0,34,0,0
23833,-98.387435488193,4,1,0,37,0,0
24021,-96.7627761148163,4,1,0,39,0,0
24232,-95.1733734533601,4,1,0,41,0,0
24357,-94.1255234025034,4,1,0,42,0,0
24482,-93.08921008392,4,1,0,43,0,0
24607,-92.0643064792532,4,1,0,43,0,0
24732,-91.0506869686066,4,1,0,44,0,0
24857,-90.0482273151475,4,1,0,44,0,0
24982,-89.0568046498788,4,1,0,45,0,0
25107,-88.0762974565802,4,1,0,45,0,0
25232,-87.1065855569135,4,1,0,45,0,0
25357,-86.1475500956928,4,1,0,45,0,0
25482,-85.1990735263171,4,1,0,45,0,0
25607,-84.2610395963624,4,1,0,45,0,0
25732,-83.3333333333333,4,1,0,45,0,0
26046,-100,4,1,0,26,0,0
27091,-120.481927710843,4,1,0,26,0,0
32432,-100,4,1,0,26,0,0
32610,-120.481927710843,4,1,0,26,0,0
33199,-105.263157894737,4,1,0,26,0,0
33408,-120.481927710843,4,1,0,26,0,0
33937,-111.111111111111,4,1,0,26,0,0
34195,-120.481927710843,4,1,0,26,0,0
34778,-100,4,1,0,26,0,0
34841,-100,4,1,0,26,0,0
34903,-100,4,1,0,26,0,0
34966,-100,4,1,0,26,0,0
35028,-100,4,1,0,26,0,0
35091,-100,4,1,0,26,0,0
35153,-100,4,1,0,26,0,0
35200,-100,4,1,0,26,0,0
35247,-100,4,1,0,26,0,0
35294,-100,4,1,0,26,0,0
35341,-100,4,1,0,26,0,0
35434,-100,4,1,0,26,0,0
35528,-100,4,1,0,26,0,0
36214,-100,4,1,0,50,0,0
48209,-87.719298245614,4,1,0,46,0,0
53903,-87.719298245614,4,1,0,46,0,0
54091,-89.6612071340673,4,1,0,46,0,0
54177,-90.6376665097542,4,1,0,44,0,0
54271,-91.6354321773964,4,1,0,44,0,0
54373,-93.6640355041613,4,1,0,30,0,0
54646,-95.7263977058556,4,1,0,30,0,0
54834,-97.8455658510922,4,1,0,30,0,0
54935,-98.5495880743139,4,1,0,37,0,0
55021,-100,4,1,0,37,0,0
56903,-100,4,1,0,37,0,0
57084,-104.268798517758,4,1,0,37,0,0
57177,-106.447382811341,4,1,0,37,0,0
57271,-108.695652173913,4,1,0,37,0,0
57377,-106.900774512214,4,1,0,26,0,0
57584,-105.144847467295,4,1,0,30,0,0
57834,-103.408603798046,4,1,0,34,0,0
58021,-101.71003833007,4,1,0,38,0,0
58209,-100.030513232993,4,1,0,40,0,0
58372,-98.3864620228257,4,1,0,42,0,0
58419,-98.103842058894,4,1,0,43,0,0
58748,-96.1539887213464,4,1,0,43,0,0
58893,-95.4211453126102,4,1,0,44,0,0
59028,-94.6938873139945,4,1,0,45,0,0
59153,-93.9721721559601,4,1,0,46,0,0
59278,-93.2559575934141,4,1,0,47,0,0
59403,-92.545201703237,4,1,0,48,0,0
59528,-91.8398628818292,4,1,0,49,0,0
59653,-91.1398998426751,4,1,0,50,0,0
59778,-90.445271613927,4,1,0,51,0,0
59903,-89.7559375360064,4,1,0,52,0,0
60028,-89.0718572592243,4,1,0,53,0,0
60153,-88.3929907414194,4,1,0,54,0,0
60278,-87.719298245614,4,1,0,55,0,0
60528,-91.2442569784093,4,1,0,38,0,0
60653,-93.0595041479774,4,1,0,38,0,0
60778,-94.9108645195788,4,1,0,38,0,0
60903,-96.79905654268,4,1,0,38,0,0
61028,-98.7248129598487,4,1,0,38,0,0
61153,-100.688881091106,4,1,0,38,0,0
61278,-102.692023123934,4,1,0,38,0,0
61403,-104.735016409057,4,1,0,38,0,0
61778,-111.111111111111,4,1,0,38,0,0
61903,-108.230724012845,4,1,0,38,0,0
62028,-105.425006583103,4,1,0,38,0,0
62153,-102.692023123934,4,1,0,38,0,0
62278,-100.029888117425,4,1,0,38,0,0
62403,-97.4367649248554,4,1,0,38,0,0
62528,-94.9108645195788,4,1,0,38,0,0
62653,-92.4504442527518,4,1,0,38,0,0
62778,-90.0538066510609,4,1,0,38,0,0
62903,-87.719298245614,4,1,0,38,0,0
63278,-89.2857142857143,4,1,0,38,0,0
63403,-90.7901030349698,4,1,0,38,0,0
63528,-92.3198394619248,4,1,0,38,0,0
63653,-93.8753506535042,4,1,0,38,0,0
63778,-95.4570708926863,4,1,0,38,0,0
63903,-97.0654417797502,4,1,0,38,0,0
64028,-98.7009123555658,4,1,0,38,0,0
64153,-100.363939226962,4,1,0,38,0,0
64278,-102.054986694207,4,1,0,38,0,0
64403,-103.774526880635,4,1,0,38,0,0
64528,-105.523039864458,4,1,0,38,0,0
64653,-107.301013812803,4,1,0,38,0,0
64778,-109.108945117996,4,1,0,38,0,0
64903,-110.497237569061,4,1,0,38,0,0
65028,-112.816707328118,4,1,0,38,0,0
65153,-114.717573402721,4,1,0,38,0,0
65278,-116.650467462534,4,1,0,38,0,0
65403,-118.615929152009,4,1,0,38,0,0
65528,-120.614507208155,4,1,0,38,0,0
65653,-122.646759613734,4,1,0,38,0,0
65778,-124.713253753044,4,1,0,38,0,0
65903,-126.81456657033,4,1,0,38,0,0
66028,-128.951284730859,4,1,0,38,0,0
66153,-131.124004784712,4,1,0,38,0,0
66261,-87.719298245614,4,1,0,38,0,0
66425,-90.9090909090909,4,1,0,30,0,0
66841,-100,4,1,0,30,0,0
67730,-100,4,1,0,44,0,0
70734,-111.111111111111,4,1,0,30,0,0
71667,-100,4,1,0,44,0,0
73704,-111.111111111111,4,1,0,30,0,0
74605,-100,4,1,0,44,0,0
78590,-100,4,1,0,42,0,0
78654,-100,4,1,0,42,0,0
78778,-100,4,1,0,41,0,0
78965,-100,4,1,0,40,0,0
79153,-100,4,1,0,39,0,0
79340,-100,4,1,0,38,0,0
79528,-100,4,1,0,37,0,0
79715,-87.719298245614,4,1,0,50,0,0
84954,-87.719298245614,4,1,0,48,0,0
85346,-93.6585811581694,4,1,0,44,0,0
85659,-99.4598804347667,4,1,0,38,0,0
85761,-100,4,1,0,36,0,0
86119,-100,4,1,0,33,0,0
88403,-100,4,1,0,33,0,0
88591,-101.693968649601,4,1,0,33,0,0
88684,-102.542520932855,4,1,0,33,0,0
88778,-103.407392728238,4,1,0,32,0,0
88873,-104.166666666667,4,1,0,24,0,0
88967,-105.159081542424,4,1,0,24,0,0
89153,-106.93088870852,4,1,0,25,0,0
89341,-108.742264439982,4,1,0,25,0,0
89528,-110.574444034614,4,1,0,26,0,0
89716,-112.447540451031,4,1,0,26,0,0
89903,-114.342149599939,4,1,0,27,0,0
89966,-114.987602600444,4,1,0,27,0,0
90091,-116.279069767442,4,1,0,27,0,0
90278,-112.702379617791,4,1,0,28,0,0
90338,-111.111111111111,4,1,0,30,0,0
90396,-110.373104384287,4,1,0,35,0,0
90466,-108.695652173913,4,1,0,36,0,0
90528,-108.091969421926,4,1,0,36,0,0
90653,-105.857979792168,4,1,0,37,0,0
90778,-103.670161119351,4,1,0,38,0,0
90841,-102.789149305941,4,1,0,39,0,0
90903,-101.527559165713,4,1,0,39,0,0
91028,-99.4292394151912,4,1,0,40,0,0
91153,-97.3742866658224,4,1,0,41,0,0
91278,-95.3618046305712,4,1,0,42,0,0
91403,-93.3909155464048,4,1,0,43,0,0
91528,-91.4607597914486,4,1,0,43,0,0
91571,-89.5704955100537,4,1,0,45,0,0
91758,-87.719298245614,4,1,0,60,0,0
91779,-87.719298245614,4,1,0,60,0,1
91882,-87.719298245614,4,1,0,60,0,1
115123,-90.6482236542698,4,1,0,57,0,1
115334,-93.6585811581694,4,1,0,55,0,1
115498,-96.7858177364274,4,1,0,53,0,1
115701,-100,4,1,0,45,0,1
115779,-100,4,1,0,45,0,0
115899,-100,4,1,0,40,0,0
116061,-100,4,1,0,35,0,0
121138,-100,4,1,0,45,0,0
121325,-100,4,1,0,42,0,0
121513,-100,4,1,0,39,0,0
121662,-100,4,1,0,30,0,0
121709,-100,4,1,0,29,0,0
121756,-100,4,1,0,26,0,0
122441,-100,4,1,0,40,0,0
124403,-100,4,1,0,40,0,0
124584,-104.268798517758,4,1,0,40,0,0
124677,-106.447382811341,4,1,0,40,0,0
124771,-108.695652173913,4,1,0,40,0,0
124881,-108.695652173913,4,1,0,30,0,0
124967,-106.365901777241,4,1,0,30,0,0
125146,-104.098083029725,4,1,0,30,0,0
125334,-101.866875567597,4,1,0,31,0,0
125521,-99.6949801922648,4,1,0,32,0,0
125709,-97.5581475314925,4,1,0,33,0,0
125896,-95.478118196451,4,1,0,35,0,0
126084,-93.4316685060273,4,1,0,37,0,0
126271,-91.4396194949319,4,1,0,39,0,0
126396,-90.1317762632157,4,1,0,40,0,0
126521,-88.8426388608566,4,1,0,42,0,0
126646,-87.5719397419871,4,1,0,43,0,0
126771,-86.3194151873966,4,1,0,44,0,0
126896,-85.0848052497996,4,1,0,46,0,0
127021,-83.8678536998863,4,1,0,47,0,0
127146,-82.6683079731454,4,1,0,48,0,0
127271,-81.4859191174471,4,1,0,48,0,0
127396,-80.3204417413756,4,1,0,47,0,0
127521,-79.1716339633015,4,1,0,45,0,0
127646,-78.0392573611816,4,1,0,42,0,0
127736,-76.9230769230769,4,1,0,40,0,0

[HitObjects]
256,192,1967,5,8,0:0:0:0:
256,192,2154,1,0,0:0:0:0:
256,192,2342,1,0,0:0:0:0:
256,192,2529,1,8,0:0:0:0:
256,192,2717,1,8,0:0:0:0:
256,192,2904,1,0,0:0:0:0:
256,192,3092,1,0,0:0:0:0:
256,192,3279,1,8,0:0:0:0:
256,192,3467,1,0,0:0:0:0:
256,192,3654,1,8,0:0:0:0:
256,192,3842,1,8,0:0:0:0:
256,192,4029,1,0,0:0:0:0:
256,192,4967,1,8,0:0:0:0:
256,192,5154,1,0,0:0:0:0:
256,192,5342,1,0,0:0:0:0:
256,192,5529,1,8,0:0:0:0:
256,192,5717,1,8,0:0:0:0:
256,192,5904,1,0,0:0:0:0:
256,192,6092,1,0,0:0:0:0:
256,192,6279,1,8,0:0:0:0:
256,192,6467,1,0,0:0:0:0:
256,192,6654,1,8,0:0:0:0:
256,192,6842,1,8,0:0:0:0:
256,192,7029,1,0,0:0:0:0:
256,192,7404,1,0,0:0:0:0:
256,192,7779,1,8,0:0:0:0:
256,192,7967,1,0,0:0:0:0:
256,192,8154,1,8,0:0:0:0:
256,192,8342,1,8,0:0:0:0:
256,192,8529,1,0,0:0:0:0:
256,192,9279,1,0,0:0:0:0:
256,192,9654,1,0,0:0:0:0:
256,192,10029,1,8,0:0:0:0:
256,192,10217,1,8,0:0:0:0:
256,192,10404,1,0,0:0:0:0:
256,192,10779,1,8,0:0:0:0:
256,192,10967,1,0,0:0:0:0:
256,192,11154,1,8,0:0:0:0:
256,192,11342,1,8,0:0:0:0:
256,192,11529,1,0,0:0:0:0:
256,192,12279,1,0,0:0:0:0:
119,277,12654,1,0,0:0:0:0:
256,192,13029,1,8,0:0:0:0:
256,192,13217,1,8,0:0:0:0:
256,192,13404,1,0,0:0:0:0:
256,192,13779,1,0,0:0:0:0:
256,192,14154,1,8,0:0:0:0:
256,192,14529,1,0,0:0:0:0:
256,192,14904,1,8,0:0:0:0:
256,192,15092,1,8,0:0:0:0:
256,192,15279,1,0,0:0:0:0:
256,192,15467,1,8,0:0:0:0:
256,192,15654,1,0,0:0:0:0:
256,192,15716,1,0,0:0:0:0:
256,192,15779,1,8,0:0:0:0:
269,195,15841,1,8,0:0:0:0:
256,192,16029,1,0,0:0:0:0:
256,192,16404,1,8,0:0:0:0:
256,192,16779,1,0,0:0:0:0:
256,192,17154,1,8,0:0:0:0:
256,192,17529,1,0,0:0:0:0:
256,192,17904,1,8,0:0:0:0:
256,192,18092,1,8,0:0:0:0:
256,192,18279,1,0,0:0:0:0:
256,192,18467,1,8,0:0:0:0:
256,192,18654,1,0,0:0:0:0:
256,192,18716,1,0,0:0:0:0:
256,192,18779,1,8,0:0:0:0:
256,192,18841,1,8,0:0:0:0:
256,192,19029,1,0,0:0:0:0:
256,192,19404,1,8,0:0:0:0:
256,192,19779,1,0,0:0:0:0:
256,192,19967,1,0,0:0:0:0:
256,192,20154,1,8,0:0:0:0:
256,192,20342,1,0,0:0:0:0:
256,192,20529,1,8,0:0:0:0:
256,192,20904,1,0,0:0:0:0:
256,192,20997,1,8,0:0:0:0:
256,192,21092,1,0,0:0:0:0:
256,192,21279,1,8,0:0:0:0:
256,192,21654,1,8,0:0:0:0:
256,192,22029,1,0,0:0:0:0:
256,192,22404,1,8,0:0:0:0:
256,192,22592,1,8,0:0:0:0:
256,192,22685,1,8,0:0:0:0:
256,192,22779,1,0,0:0:0:0:
256,192,22967,1,0,0:0:0:0:
256,192,23154,1,0,0:0:0:0:
256,192,23342,1,0,0:0:0:0:
256,192,23529,1,8,0:0:0:0:
256,192,23717,1,0,0:0:0:0:
256,192,23904,1,8,0:0:0:0:
256,192,24279,1,0,0:0:0:0:
119,277,24404,1,0,0:0:0:0:
119,277,24529,1,0,0:0:0:0:
411,132,24654,1,8,0:0:0:0:
411,132,24779,1,8,0:0:0:0:
411,132,24904,1,8,0:0:0:0:
119,277,25029,1,0,0:0:0:0:
119,277,25154,1,0,0:0:0:0:
256,192,25279,1,0,0:0:0:0:
256,192,25404,1,8,0:0:0:0:
256,192,25529,1,8,0:0:0:0:
256,192,25654,1,8,0:0:0:0:
256,192,25779,1,0,0:0:0:0:
256,192,26529,1,8,0:0:0:0:
256,192,27092,1,0,0:0:0:0:
256,192,27279,1,0,0:0:0:0:
256,192,27654,1,0,0:0:0:0:
256,192,28029,1,8,0:0:0:0:
256,192,28404,1,8,0:0:0:0:
256,192,28685,1,0,0:0:0:0:
256,192,28779,1,8,0:0:0:0:
256,192,29154,1,0,0:0:0:0:
256,192,29529,1,8,0:0:0:0:
256,192,29623,1,0,0:0:0:0:
256,192,29717,1,8,0:0:0:0:
256,192,29810,1,0,0:0:0:0:
256,192,29904,1,8,0:0:0:0:
256,192,30092,1,8,0:0:0:0:
256,192,30279,1,0,0:0:0:0:
256,192,30654,1,0,0:0:0:0:
256,192,30935,1,8,0:0:0:0:
256,192,31029,1,0,0:0:0:0:
119,277,31217,1,0,0:0:0:0:
119,277,31685,1,0,0:0:0:0:
256,192,31779,1,8,0:0:0:0:
256,192,32154,1,0,0:0:0:0:
256,192,32342,1,0,0:0:0:0:
256,192,32529,1,8,0:0:0:0:
256,192,32904,1,0,0:0:0:0:
256,192,33092,1,0,0:0:0:0:
256,192,33279,1,0,0:0:0:0:
256,192,33654,1,0,0:0:0:0:
256,192,33842,1,0,0:0:0:0:
256,192,34029,1,0,0:0:0:0:
256,192,34404,1,0,0:0:0:0:
256,192,34592,1,0,0:0:0:0:
256,192,34779,12,0,35529,0:0:0:0:
256,192,36279,5,0,0:0:0:0:
256,192,36467,1,8,0:0:0:0:
256,192,36560,1,8,0:0:0:0:
256,192,36654,1,0,0:0:0:0:
256,192,36842,1,0,0:0:0:0:
256,192,37029,1,8,0:0:0:0:
256,192,37217,1,8,0:0:0:0:
256,192,37404,1,0,0:0:0:0:
256,192,37592,1,0,0:0:0:0:
256,192,37779,1,8,0:0:0:0:
256,192,37967,1,0,0:0:0:0:
256,192,38154,1,8,0:0:0:0:
256,192,38342,1,8,0:0:0:0:
256,192,38529,1,0,0:0:0:0:
256,192,38717,1,0,0:0:0:0:
119,277,38810,1,0,0:0:0:0:
411,132,38904,1,8,0:0:0:0:
256,192,39092,1,8,0:0:0:0:
256,192,39279,1,0,0:0:0:0:
256,192,39467,1,8,0:0:0:0:
256,192,39560,1,8,0:0:0:0:
256,192,39654,1,0,0:0:0:0:
256,192,39842,1,8,0:0:0:0:
256,192,40029,1,8,0:0:0:0:
256,192,40217,1,0,0:0:0:0:
256,192,40404,1,0,0:0:0:0:
256,192,40592,1,8,0:0:0:0:
256,192,40685,1,8,0:0:0:0:
256,192,40779,1,8,0:0:0:0:
256,192,40967,1,0,0:0:0:0:
256,192,41154,1,8,0:0:0:0:
256,192,41342,1,8,0:0:0:0:
256,192,41529,1,0,0:0:0:0:
256,192,41717,1,0,0:0:0:0:
256,192,41810,1,0,0:0:0:0:
256,192,41904,1,8,0:0:0:0:
256,192,42092,1,0,0:0:0:0:
256,192,42279,1,8,0:0:0:0:
256,192,42467,1,8,0:0:0:0:
256,192,42654,1,8,0:0:0:0:
256,192,42842,1,8,0:0:0:0:
256,192,43029,1,0,0:0:0:0:
256,192,43123,1,8,0:0:0:0:
256,192,43217,1,0,0:0:0:0:
411,132,43404,1,8,0:0:0:0:
256,192,43592,1,8,0:0:0:0:
256,192,43779,1,0,0:0:0:0:
256,192,44154,1,0,0:0:0:0:
411,132,44342,1,8,0:0:0:0:
119,277,44529,1,0,0:0:0:0:
256,192,44717,1,0,0:0:0:0:
256,192,44904,1,0,0:0:0:0:
256,192,45279,1,8,0:0:0:0:
256,192,45467,1,8,0:0:0:0:
256,192,45654,1,0,0:0:0:0:
256,192,45842,1,8,0:0:0:0:
256,192,46029,1,0,0:0:0:0:
256,192,46123,1,8,0:0:0:0:
256,192,46217,1,0,0:0:0:0:
411,132,46404,1,8,0:0:0:0:
256,192,46592,1,8,0:0:0:0:
256,192,46779,1,0,0:0:0:0:
256,192,47154,1,0,0:0:0:0:
411,132,47342,1,8,0:0:0:0:
119,277,47529,1,0,0:0:0:0:
256,192,47717,1,8,0:0:0:0:
256,192,47904,1,8,0:0:0:0:
256,192,48092,1,8,0:0:0:0:
256,192,48279,1,0,0:0:0:0:
256,192,48654,1,8,0:0:0:0:
256,192,48842,1,0,0:0:0:0:
256,192,49029,1,8,0:0:0:0:
256,192,49404,1,8,0:0:0:0:
256,192,49592,1,8,0:0:0:0:
256,192,49779,1,0,0:0:0:0:
256,192,49967,1,8,0:0:0:0:
256,192,50154,1,0,0:0:0:0:
256,192,50216,1,0,0:0:0:0:
256,192,50279,1,8,0:0:0:0:
256,192,50341,1,8,0:0:0:0:
256,192,50529,1,0,0:0:0:0:
256,192,50717,1,0,0:0:0:0:
256,192,50810,1,0,0:0:0:0:
256,192,50904,1,8,0:0:0:0:
411,132,50998,1,8,0:0:0:0:
119,277,51092,1,0,0:0:0:0:
411,132,51279,1,8,0:0:0:0:
256,192,51467,1,0,0:0:0:0:
256,192,51654,1,8,0:0:0:0:
256,192,51842,1,8,0:0:0:0:
256,192,52029,1,0,0:0:0:0:
411,132,52404,1,8,0:0:0:0:
256,192,52592,1,8,0:0:0:0:
256,192,52779,1,0,0:0:0:0:
256,192,52967,1,8,0:0:0:0:
256,192,53154,1,0,0:0:0:0:
256,192,53216,1,0,0:0:0:0:
411,132,53279,1,8,0:0:0:0:
258,185,53341,1,8,0:0:0:0:
256,192,53529,1,0,0:0:0:0:
256,192,53717,1,8,0:0:0:0:
256,192,53904,1,8,0:0:0:0:
256,192,54092,1,8,0:0:0:0:
256,192,54185,1,8,0:0:0:0:
256,192,54279,1,0,0:0:0:0:
256,192,54467,1,0,0:0:0:0:
256,192,54654,1,8,0:0:0:0:
256,192,54842,1,0,0:0:0:0:
256,192,55029,1,8,0:0:0:0:
256,192,55404,1,0,0:0:0:0:
411,132,55497,1,8,0:0:0:0:
256,192,55592,1,0,0:0:0:0:
256,192,55779,1,8,0:0:0:0:
256,192,56154,1,8,0:0:0:0:
256,192,56529,1,0,0:0:0:0:
256,192,56904,1,8,0:0:0:0:
256,192,57092,1,8,0:0:0:0:
256,192,57185,1,8,0:0:0:0:
256,192,57279,1,0,0:0:0:0:
256,192,57467,1,8,0:0:0:0:
256,192,57654,1,0,0:0:0:0:
256,192,57842,1,0,0:0:0:0:
256,192,58029,1,0,0:0:0:0:
256,192,58217,1,8,0:0:0:0:
256,192,58404,1,8,0:0:0:0:
256,192,58779,1,0,0:0:0:0:
411,132,58904,1,8,0:0:0:0:
411,132,59029,1,8,0:0:0:0:
119,277,59154,1,0,0:0:0:0:
411,132,59279,1,8,0:0:0:0:
411,132,59404,1,8,0:0:0:0:
119,277,59529,1,0,0:0:0:0:
119,277,59654,1,0,0:0:0:0:
119,277,59779,1,0,0:0:0:0:
411,132,59904,1,8,0:0:0:0:
411,132,60029,1,8,0:0:0:0:
411,132,60154,1,8,0:0:0:0:
119,277,60279,1,4,0:0:0:0:
119,277,60529,1,0,0:0:0:0:
256,192,60654,1,8,0:0:0:0:
256,192,60779,1,0,0:0:0:0:
256,192,60904,1,0,0:0:0:0:
256,192,61029,1,8,0:0:0:0:
119,277,61154,1,0,0:0:0:0:
119,277,61279,1,0,0:0:0:0:
411,132,61404,1,8,0:0:0:0:
256,192,61779,1,8,0:0:0:0:
256,192,61904,1,0,0:0:0:0:
411,132,62029,1,8,0:0:0:0:
119,277,62154,1,0,0:0:0:0:
411,132,62279,1,8,0:0:0:0:
256,192,62404,1,0,0:0:0:0:
256,192,62529,1,8,0:0:0:0:
256,192,62654,1,8,0:0:0:0:
256,192,62779,1,8,0:0:0:0:
256,192,62904,1,0,0:0:0:0:
256,192,63279,1,0,0:0:0:0:
119,277,63404,1,0,0:0:0:0:
256,192,63529,1,0,0:0:0:0:
256,192,63654,1,8,0:0:0:0:
256,192,63779,1,8,0:0:0:0:
256,192,63904,1,8,0:0:0:0:
256,192,64029,1,0,0:0:0:0:
256,192,64154,1,0,0:0:0:0:
256,192,64279,1,0,0:0:0:0:
411,132,64404,1,8,0:0:0:0:
256,192,64779,1,0,0:0:0:0:
256,192,64904,1,0,0:0:0:0:
119,277,65029,1,0,0:0:0:0:
411,132,65154,1,8,0:0:0:0:
256,192,65279,1,8,0:0:0:0:
256,192,65404,1,8,0:0:0:0:
256,192,65529,1,0,0:0:0:0:
256,192,65654,1,8,0:0:0:0:
256,192,65779,1,8,0:0:0:0:
256,192,65904,1,0,0:0:0:0:
256,192,66029,1,8,0:0:0:0:
256,192,66154,1,8,0:0:0:0:
256,192,66279,1,4,0:0:0:0:
256,192,66467,1,8,0:0:0:0:
256,192,66842,1,8,0:0:0:0:
256,192,67029,1,0,0:0:0:0:
256,192,67217,1,8,0:0:0:0:
256,192,67404,1,8,0:0:0:0:
256,192,67592,1,0,0:0:0:0:
256,192,67779,1,12,0:0:0:0:
256,192,67967,1,8,0:0:0:0:
256,192,68154,1,0,0:0:0:0:
256,192,68342,1,8,0:0:0:0:
256,192,68529,1,0,0:0:0:0:
256,192,68717,1,0,0:0:0:0:
256,192,68810,1,0,0:0:0:0:
256,192,68904,1,8,0:0:0:0:
256,192,69092,1,8,0:0:0:0:
256,192,69279,1,0,0:0:0:0:
411,132,69842,1,8,0:0:0:0:
119,277,69935,1,0,0:0:0:0:
411,132,70029,1,8,0:0:0:0:
256,192,70217,1,0,0:0:0:0:
256,192,70404,1,8,0:0:0:0:
256,192,70592,1,8,0:0:0:0:
256,192,70779,1,0,0:0:0:0:
256,192,71154,1,0,0:0:0:0:
256,192,71529,1,8,0:0:0:0:
256,192,71717,1,0,0:0:0:0:
256,192,71904,1,8,0:0:0:0:
256,192,72092,1,8,0:0:0:0:
256,192,72279,1,0,0:0:0:0:
256,192,72654,1,0,0:0:0:0:
256,192,72842,1,8,0:0:0:0:
119,277,72935,1,0,0:0:0:0:
256,192,73029,1,8,0:0:0:0:
256,192,73217,1,0,0:0:0:0:
256,192,73404,1,8,0:0:0:0:
256,192,73592,1,8,0:0:0:0:
256,192,73779,1,0,0:0:0:0:
256,192,73967,1,8,0:0:0:0:
256,192,74154,1,0,0:0:0:0:
256,192,74342,1,8,0:0:0:0:
256,192,74529,1,0,0:0:0:0:
256,192,74717,1,8,0:0:0:0:
256,192,74810,1,0,0:0:0:0:
256,192,74904,1,8,0:0:0:0:
256,192,75092,1,0,0:0:0:0:
256,192,75279,1,0,0:0:0:0:
256,192,75654,1,0,0:0:0:0:
256,192,75842,1,8,0:0:0:0:
256,192,76029,1,0,0:0:0:0:
256,192,76123,1,0,0:0:0:0:
256,192,76217,1,8,0:0:0:0:
256,192,76404,1,0,0:0:0:0:
256,192,76779,1,8,0:0:0:0:
256,192,76967,1,8,0:0:0:0:
256,192,77154,1,0,0:0:0:0:
256,192,77342,1,8,0:0:0:0:
256,192,77529,1,0,0:0:0:0:
256,192,77717,1,8,0:0:0:0:
256,192,77810,1,0,0:0:0:0:
256,192,77904,1,8,0:0:0:0:
256,192,78092,1,0,0:0:0:0:
256,192,78279,1,0,0:0:0:0:
256,192,78654,1,0,0:0:0:0:
256,192,78842,1,0,0:0:0:0:
256,192,79029,1,8,0:0:0:0:
256,192,79217,1,8,0:0:0:0:
256,192,79404,1,0,0:0:0:0:
256,192,79592,1,8,0:0:0:0:
256,192,79779,1,0,0:0:0:0:
256,192,80154,1,8,0:0:0:0:
256,192,80529,1,0,0:0:0:0:
256,192,80904,1,8,0:0:0:0:
256,192,81092,1,8,0:0:0:0:
256,192,81279,1,0,0:0:0:0:
256,192,81467,1,8,0:0:0:0:
119,277,81654,1,0,0:0:0:0:
256,192,81716,1,0,0:0:0:0:
256,192,81779,1,8,0:0:0:0:
256,192,81841,1,8,0:0:0:0:
256,192,82029,1,0,0:0:0:0:
256,192,82404,1,8,0:0:0:0:
256,192,82779,1,0,0:0:0:0:
256,192,83154,1,8,0:0:0:0:
256,192,83529,1,0,0:0:0:0:
256,192,83810,1,8,0:0:0:0:
256,192,83904,1,8,0:0:0:0:
256,192,84092,1,8,0:0:0:0:
256,192,84279,1,0,0:0:0:0:
256,192,84467,1,8,0:0:0:0:
256,192,84654,1,0,0:0:0:0:
168,289,84747,1,0,0:0:0:0:
119,277,84842,1,0,0:0:0:0:
411,132,85029,1,8,0:0:0:0:
256,192,85404,1,8,0:0:0:0:
119,277,85779,1,0,0:0:0:0:
256,192,86529,1,8,0:0:0:0:
256,192,86904,1,0,0:0:0:0:
256,192,86998,1,8,0:0:0:0:
256,192,87092,1,0,0:0:0:0:
256,192,87279,1,8,0:0:0:0:
256,192,87654,1,8,0:0:0:0:
256,192,88029,1,0,0:0:0:0:
256,192,88404,1,8,0:0:0:0:
256,192,88592,1,8,0:0:0:0:
256,192,88685,1,8,0:0:0:0:
256,192,88779,1,0,0:0:0:0:
256,192,88967,1,0,0:0:0:0:
256,192,89154,1,0,0:0:0:0:
256,192,89342,1,0,0:0:0:0:
256,192,89529,1,0,0:0:0:0:
256,192,89717,1,8,0:0:0:0:
256,192,89904,1,0,0:0:0:0:
256,192,89997,1,8,0:0:0:0:
256,192,90092,1,0,0:0:0:0:
256,192,90279,1,0,0:0:0:0:
256,192,90404,1,0,0:0:0:0:
256,192,90529,1,8,0:0:0:0:
256,192,90654,1,0,0:0:0:0:
256,192,90779,1,0,0:0:0:0:
256,192,90904,1,8,0:0:0:0:
256,192,91029,1,0,0:0:0:0:
256,192,91154,1,0,0:0:0:0:
256,192,91279,1,8,0:0:0:0:
256,192,91404,1,0,0:0:0:0:
256,192,91529,1,0,0:0:0:0:
411,132,91654,1,8,0:0:0:0:
256,192,91779,1,4,0:0:0:0:
256,192,91967,1,8,0:0:0:0:
256,192,92060,1,8,0:0:0:0:
256,192,92154,1,0,0:0:0:0:
256,192,92342,1,0,0:0:0:0:
256,192,92529,1,8,0:0:0:0:
256,192,92717,1,8,0:0:0:0:
256,192,92904,1,0,0:0:0:0:
256,192,93092,1,0,0:0:0:0:
256,192,93279,1,8,0:0:0:0:
119,277,93467,1,0,0:0:0:0:
411,132,93654,1,8,0:0:0:0:
411,132,93842,1,8,0:0:0:0:
119,277,94029,1,0,0:0:0:0:
411,132,94217,1,8,0:0:0:0:
119,277,94310,1,0,0:0:0:0:
411,132,94404,1,8,0:0:0:0:
256,192,94779,1,0,0:0:0:0:
256,192,94967,1,8,0:0:0:0:
256,192,95060,1,8,0:0:0:0:
256,192,95154,1,0,0:0:0:0:
256,192,95342,1,8,0:0:0:0:
256,192,95529,1,8,0:0:0:0:
256,192,95717,1,0,0:0:0:0:
256,192,95904,1,8,0:0:0:0:
256,192,96092,1,0,0:0:0:0:
256,192,96279,1,8,0:0:0:0:
119,277,96467,1,0,0:0:0:0:
411,132,96654,1,8,0:0:0:0:
411,132,96842,1,8,0:0:0:0:
119,277,97029,1,0,0:0:0:0:
119,277,97217,1,0,0:0:0:0:
256,192,97310,1,0,0:0:0:0:
256,192,97404,1,8,0:0:0:0:
256,192,97592,1,8,0:0:0:0:
256,192,97779,1,0,0:0:0:0:
256,192,97967,1,0,0:0:0:0:
256,192,98154,1,8,0:0:0:0:
256,192,98342,1,8,0:0:0:0:
256,192,98529,1,0,0:0:0:0:
256,192,99279,1,0,0:0:0:0:
256,192,99654,1,0,0:0:0:0:
256,192,100029,1,8,0:0:0:0:
256,192,100217,1,8,0:0:0:0:
256,192,100404,1,0,0:0:0:0:
256,192,100779,1,8,0:0:0:0:
256,192,100967,1,8,0:0:0:0:
256,192,101154,1,0,0:0:0:0:
256,192,101342,1,8,0:0:0:0:
256,192,101529,1,0,0:0:0:0:
256,192,102279,1,0,0:0:0:0:
256,192,102654,1,0,0:0:0:0:
256,192,103029,1,8,0:0:0:0:
256,192,103217,1,8,0:0:0:0:
256,192,103404,1,0,0:0:0:0:
256,192,103592,1,8,0:0:0:0:
256,192,103779,1,4,0:0:0:0:
256,192,103967,1,8,0:0:0:0:
256,192,104060,1,8,0:0:0:0:
256,192,104154,1,0,0:0:0:0:
256,192,104342,1,0,0:0:0:0:
256,192,104529,1,8,0:0:0:0:
256,192,104717,1,8,0:0:0:0:
256,192,104904,1,0,0:0:0:0:
256,192,105092,1,0,0:0:0:0:
256,192,105185,1,0,0:0:0:0:
256,192,105279,1,8,0:0:0:0:
256,192,105467,1,8,0:0:0:0:
256,192,105654,1,0,0:0:0:0:
256,192,105842,1,8,0:0:0:0:
256,192,106029,1,0,0:0:0:0:
256,192,106217,1,0,0:0:0:0:
411,132,106404,1,8,0:0:0:0:
256,192,106592,1,8,0:0:0:0:
256,192,106779,1,0,0:0:0:0:
256,192,106967,1,8,0:0:0:0:
256,192,107060,1,8,0:0:0:0:
256,192,107154,1,0,0:0:0:0:
119,277,107342,1,0,0:0:0:0:
256,192,107529,1,8,0:0:0:0:
411,132,107717,1,8,0:0:0:0:
119,277,107904,1,0,0:0:0:0:
256,192,108092,1,0,0:0:0:0:
256,192,108279,1,8,0:0:0:0:
256,192,108467,1,8,0:0:0:0:
256,192,108654,1,0,0:0:0:0:
411,132,108842,1,8,0:0:0:0:
119,277,109029,1,0,0:0:0:0:
119,277,109217,1,0,0:0:0:0:
256,192,109310,1,0,0:0:0:0:
256,192,109404,1,8,0:0:0:0:
256,192,109592,1,8,0:0:0:0:
256,192,109779,1,0,0:0:0:0:
256,192,109967,1,8,0:0:0:0:
256,192,110154,1,0,0:0:0:0:
256,192,110342,1,8,0:0:0:0:
256,192,110529,1,0,0:0:0:0:
119,277,110717,1,0,0:0:0:0:
411,132,110904,1,8,0:0:0:0:
411,132,111092,1,8,0:0:0:0:
256,192,111279,1,0,0:0:0:0:
256,192,111654,1,0,0:0:0:0:
256,192,112029,1,8,0:0:0:0:
256,192,112217,1,8,0:0:0:0:
256,192,112404,1,0,0:0:0:0:
256,192,112779,1,8,0:0:0:0:
256,192,112967,1,8,0:0:0:0:
256,192,113154,1,0,0:0:0:0:
256,192,113342,1,8,0:0:0:0:
256,192,113529,1,0,0:0:0:0:
256,192,113717,1,0,0:0:0:0:
119,277,113810,1,0,0:0:0:0:
411,132,113904,1,8,0:0:0:0:
256,192,114092,1,8,0:0:0:0:
256,192,114279,1,0,0:0:0:0:
256,192,114654,1,0,0:0:0:0:
256,192,114842,1,8,0:0:0:0:
256,192,115029,1,0,0:0:0:0:
256,192,115217,1,8,0:0:0:0:
256,192,115404,1,8,0:0:0:0:
256,192,115592,1,8,0:0:0:0:
256,192,115779,1,0,0:0:0:0:
256,192,116154,1,8,0:0:0:0:
256,192,116529,1,0,0:0:0:0:
256,192,116904,1,8,0:0:0:0:
256,192,117092,1,8,0:0:0:0:
256,192,117279,1,0,0:0:0:0:
256,192,117467,1,8,0:0:0:0:
256,192,117654,1,0,0:0:0:0:
256,192,117748,1,8,0:0:0:0:
256,192,117842,1,0,0:0:0:0:
256,192,118029,1,8,0:0:0:0:
256,192,118404,1,8,0:0:0:0:
256,192,118779,1,0,0:0:0:0:
256,192,119154,1,8,0:0:0:0:
256,192,119529,1,0,0:0:0:0:
256,192,119904,1,8,0:0:0:0:
256,192,120092,1,8,0:0:0:0:
256,192,120279,1,0,0:0:0:0:
256,192,120467,1,8,0:0:0:0:
256,192,120654,1,0,0:0:0:0:
119,277,120748,1,0,0:0:0:0:
411,132,120842,1,8,0:0:0:0:
119,277,121029,1,0,0:0:0:0:
256,192,121217,1,8,0:0:0:0:
256,192,121404,1,8,0:0:0:0:
256,192,121592,1,8,0:0:0:0:
119,277,121779,1,0,0:0:0:0:
256,192,122529,1,8,0:0:0:0:
256,192,122904,1,0,0:0:0:0:
411,132,122998,1,8,0:0:0:0:
256,192,123092,1,0,0:0:0:0:
256,192,123279,1,8,0:0:0:0:
256,192,123654,1,8,0:0:0:0:
256,192,124029,1,0,0:0:0:0:
256,192,124404,1,8,0:0:0:0:
256,192,124592,1,8,0:0:0:0:
256,192,124685,1,8,0:0:0:0:
256,192,124779,1,0,0:0:0:0:
256,192,124967,1,0,0:0:0:0:
256,192,125154,1,0,0:0:0:0:
256,192,125342,1,0,0:0:0:0:
256,192,125529,1,8,0:0:0:0:
256,192,125717,1,0,0:0:0:0:
256,192,125904,1,8,0:0:0:0:
256,192,126092,1,8,0:0:0:0:
256,192,126279,1,0,0:0:0:0:
119,277,126404,1,0,0:0:0:0:
256,192,126529,1,0,0:0:0:0:
256,192,126654,1,8,0:0:0:0:
256,192,126779,1,8,0:0:0:0:
256,192,126904,1,8,0:0:0:0:
256,192,127029,1,0,0:0:0:0:
256,192,127154,1,0,0:0:0:0:
256,192,127279,1,0,0:0:0:0:
256,192,127404,1,8,0:0:0:0:
256,192,127529,1,8,0:0:0:0:
256,192,127654,1,8,0:0:0:0:
256,192,127779,1,0,0:0:0:0:
